osu file format v14

[General]
AudioFilename: audio.mp3
AudioLeadIn: 0
PreviewTime: -1
Countdown: 1
SampleSet: Normal
StackLeniency: 0.7
Mode: 0
LetterboxInBreaks: 0
WidescreenStoryboard: 1

[Editor]
DistanceSpacing: 1
BeatDivisor: 4
GridSize: 4
TimelineZoom: 1

[Metadata]
Title:mrbeast
TitleUnicode:mrbeast
Artist:cute
ArtistUnicode:cute
Creator:Vovy
Version:Hard
Source:mrbeast
Tags:kawaii cute mrbeast
BeatmapID:1057271
BeatmapSetID:496413

[Difficulty]
HPDrainRate:5
CircleSize:5
OverallDifficulty:5
ApproachRate:5
SliderMultiplier:1.4
SliderTickRate:2

[Events]
//Background and Video events
Video,-770,"My new entro 4 mrbe(a)st.mp4"
0,0,"maxresdefault.jpg",0,0
//Break Periods
//Storyboard Layer 0 (Background)
//Storyboard Layer 1 (Fail)
//Storyboard Layer 2 (Pass)
//Storyboard Layer 3 (Foreground)
//Storyboard Sound Samples

[TimingPoints]
7878,500.003278688527,4,1,0,100,1,0

[HitObjects]
256,192,2252,12,0,6877,0:0:0:0:
260,192,8378,6,0,L|264:116,1,70
336,124,8878,1,0,0:0:0:0:
340,192,9128,1,0,0:0:0:0:
304,256,9378,1,0,0:0:0:0:
284,260,9503,1,0,0:0:0:0:
260,264,9628,1,0,0:0:0:0:
188,228,9878,1,0,0:0:0:0:
256,192,10128,1,0,0:0:0:0:
340,184,10378,2,0,L|344:112,2,70
280,148,11128,1,0,0:0:0:0:
200,180,11378,1,0,0:0:0:0:
184,192,11503,1,0,0:0:0:0:
172,212,11628,1,0,0:0:0:0:
240,264,11878,1,0,0:0:0:0:
264,260,12003,1,0,0:0:0:0:
296,240,12128,2,0,L|352:160,2,70
276,172,12878,1,0,0:0:0:0:
208,168,13128,2,0,L|172:232,2,70
140,160,13878,1,0,0:0:0:0:
192,112,14128,1,0,0:0:0:0:
212,108,14253,1,0,0:0:0:0:
236,116,14378,1,0,0:0:0:0:
304,96,14628,1,0,0:0:0:0:
312,108,14753,1,0,0:0:0:0:
304,128,14878,1,0,0:0:0:0:
300,184,15128,2,0,L|284:256,1,70
204,252,15628,2,0,L|140:216,1,70
172,160,16128,1,0,0:0:0:0:
172,160,16253,1,0,0:0:0:0:
172,160,16378,2,0,L|252:136,1,70
244,140,16878,2,0,L|280:216,1,70
272,208,17378,2,0,L|208:284,1,70
220,256,17878,2,0,L|140:192,1,70
212,180,18378,1,0,0:0:0:0:
252,144,18628,2,0,L|324:108,1,70
348,148,19128,1,0,0:0:0:0:
348,160,19253,1,0,0:0:0:0:
348,160,19378,1,0,0:0:0:0:
344,160,19628,2,0,L|296:220,2,70
256,192,20378,12,0,20878,0:0:0:0:
256,192,21378,12,0,21878,0:0:0:0:
152,192,22378,5,0,0:0:0:0:
152,192,22503,1,0,0:0:0:0:
156,196,22628,2,0,L|248:196,1,70
224,144,23128,1,0,0:0:0:0:
180,120,23378,1,0,0:0:0:0:
148,128,23628,1,0,0:0:0:0:
108,172,23878,2,0,L|72:212,2,35
160,128,24378,2,0,L|248:80,1,70
272,144,24878,1,0,0:0:0:0:
256,172,25003,1,0,0:0:0:0:
224,184,25128,1,0,0:0:0:0:
176,224,25378,2,0,L|120:280,2,70
228,192,26128,1,0,0:0:0:0:
280,208,26378,2,0,L|360:232,1,70
320,288,26878,2,0,L|236:252,1,70
224,244,27378,1,0,0:0:0:0:
220,228,27503,1,0,0:0:0:0:
224,204,27628,1,0,0:0:0:0:
208,148,27878,1,0,0:0:0:0:
256,128,28128,1,0,0:0:0:0:
204,112,28378,2,0,L|148:104,2,35
184,168,28878,1,0,0:0:0:0:
208,216,29128,1,0,0:0:0:0:
176,260,29378,1,0,0:0:0:0:
228,264,29628,2,0,L|288:264,2,35
256,192,30378,12,0,30878,0:0:0:0:
256,192,31378,12,0,31878,0:0:0:0:
96,192,32378,5,0,0:0:0:0:
192,188,32628,1,0,0:0:0:0:
252,192,32878,1,0,0:0:0:0:
264,208,33003,1,0,0:0:0:0:
248,228,33128,1,0,0:0:0:0:
220,252,33378,2,0,L|176:308,2,70
264,212,34128,1,0,0:0:0:0:
304,176,34378,1,0,0:0:0:0:
344,140,34628,1,0,0:0:0:0:
348,84,34878,2,0,L|440:84,2,70
288,88,35628,1,0,0:0:0:0:
236,100,35878,1,0,0:0:0:0:
192,132,36128,1,0,0:0:0:0:
176,184,36378,1,0,0:0:0:0:
188,208,36503,1,0,0:0:0:0:
212,212,36628,1,0,0:0:0:0:
236,196,36753,1,0,0:0:0:0:
244,180,36878,1,0,0:0:0:0:
264,168,37003,1,0,0:0:0:0:
280,168,37128,1,0,0:0:0:0:
296,168,37253,1,0,0:0:0:0:
328,172,37378,1,0,0:0:0:0:
336,192,37503,1,0,0:0:0:0:
328,220,37628,1,0,0:0:0:0:
296,232,37753,1,0,0:0:0:0:
276,232,37878,1,0,0:0:0:0:
256,228,38003,1,0,0:0:0:0:
236,216,38128,1,0,0:0:0:0:
216,200,38253,1,0,0:0:0:0:
200,176,38378,1,0,0:0:0:0:
256,192,38628,12,0,40074,0:0:0:0:
