osu file format v14

[General]
AudioFilename: audio.mp3
AudioLeadIn: 0
PreviewTime: 29
Countdown: 0
SampleSet: Normal
StackLeniency: 0.7
Mode: 1
LetterboxInBreaks: 0
WidescreenStoryboard: 0

[Editor]
Bookmarks: 29,10134,15186,20239
DistanceSpacing: 1.6
BeatDivisor: 4
GridSize: 4
TimelineZoom: 2.3

[Metadata]
Title:Hiyashi Yaju
TitleUnicode:冷やし野獣
Artist:curry
ArtistUnicode:カレー
Creator:Mrriichi
Version:eye power senpai
Source:niconico
Tags:iceOC kuso mapper
BeatmapID:1409256
BeatmapSetID:665885

[Difficulty]
HPDrainRate:5
CircleSize:5
OverallDifficulty:5
ApproachRate:5
SliderMultiplier:1.4
SliderTickRate:1

[Events]
//Background and Video events
Video,-80,"冷やし野獣.mp4"
0,0,"無題.png",0,0
//Break Periods
//Storyboard Layer 0 (Background)
//Storyboard Layer 1 (Fail)
//Storyboard Layer 2 (Pass)
//Storyboard Layer 3 (Foreground)
//Storyboard Sound Samples

[TimingPoints]
29,315.789473684211,4,1,0,75,1,0
29,-200,4,1,0,75,0,0
9502,-100,4,1,0,75,0,0
9818,-133.333333333333,4,1,0,75,0,0
10134,-133.333333333333,4,1,0,75,0,1
14871,-25,4,1,0,75,0,0
15186,-66.6666666666667,4,1,0,75,0,1
20239,-100,4,1,0,75,0,1
21502,-50,4,1,0,75,0,1
22765,-100,4,1,0,75,0,1
24029,-50,4,1,0,75,0,1
25292,-100,4,1,0,75,0,1
30186,-33.3333333333333,4,1,0,75,0,0

[HitObjects]
168,148,29,5,0,0:0:0:0:
112,116,186,1,0,0:0:0:0:
164,176,265,1,0,0:0:0:0:
164,176,344,1,0,0:0:0:0:
164,176,502,1,0,0:0:0:0:
164,176,660,1,2,0:0:0:0:
300,160,818,1,0,0:0:0:0:
300,160,976,1,2,0:0:0:0:
284,228,1134,1,0,0:0:0:0:
284,228,1292,1,2,0:0:0:0:
284,228,1450,1,2,0:0:0:0:
284,228,1529,1,2,0:0:0:0:
284,228,1607,1,2,0:0:0:0:
284,228,1765,1,2,0:0:0:0:
284,228,1923,1,0,0:0:0:0:
284,228,2081,1,2,0:0:0:0:
284,228,2239,1,0,0:0:0:0:
284,228,2397,1,2,0:0:0:0:
244,192,2555,1,0,0:0:0:0:
244,192,2713,1,0,0:0:0:0:
244,192,2792,1,0,0:0:0:0:
244,192,2871,1,2,0:0:0:0:
244,192,3029,1,0,0:0:0:0:
244,192,3186,1,2,0:0:0:0:
244,192,3344,1,0,0:0:0:0:
244,192,3423,1,2,0:0:0:0:
244,192,3502,1,2,0:0:0:0:
244,192,3660,1,0,0:0:0:0:
244,192,3818,1,2,0:0:0:0:
244,192,3976,1,2,0:0:0:0:
244,192,4055,1,2,0:0:0:0:
244,192,4134,1,0,0:0:0:0:
368,184,4292,1,2,0:0:0:0:
368,184,4450,1,0,0:0:0:0:
368,184,4607,1,2,0:0:0:0:
368,184,4686,1,0,0:0:0:0:
368,184,4765,1,0,0:0:0:0:
368,184,4923,1,2,0:0:0:0:
368,184,5081,1,0,0:0:0:0:
368,184,5239,1,2,0:0:0:0:
368,184,5318,1,2,0:0:0:0:
368,184,5397,1,0,0:0:0:0:
368,184,5555,1,2,0:0:0:0:
368,184,5634,1,0,0:0:0:0:
368,184,5713,1,0,0:0:0:0:
368,184,5871,1,2,0:0:0:0:
368,184,5950,1,2,0:0:0:0:
368,184,6029,1,0,0:0:0:0:
328,184,6107,1,0,0:0:0:0:
368,184,6186,1,2,0:0:0:0:
368,184,6344,1,0,0:0:0:0:
368,184,6502,1,0,0:0:0:0:
296,236,6581,1,0,0:0:0:0:
368,184,6660,1,2,0:0:0:0:
248,216,6818,1,0,0:0:0:0:
296,236,6897,1,2,0:0:0:0:
248,216,6976,1,2,0:0:0:0:
248,216,7134,1,0,0:0:0:0:
296,236,7213,1,0,0:0:0:0:
248,216,7292,1,2,0:0:0:0:
296,236,7371,1,2,0:0:0:0:
248,216,7450,1,0,0:0:0:0:
248,216,7607,1,2,0:0:0:0:
172,192,7686,1,2,0:0:0:0:
172,192,7765,1,0,0:0:0:0:
172,192,7844,1,0,0:0:0:0:
172,192,7923,1,2,0:0:0:0:
172,192,8002,1,2,0:0:0:0:
172,192,8081,1,0,0:0:0:0:
172,192,8160,1,0,0:0:0:0:
172,192,8239,1,2,0:0:0:0:
172,192,8318,1,0,0:0:0:0:
172,192,8397,1,2,0:0:0:0:
172,192,8476,1,0,0:0:0:0:
172,192,8555,1,2,0:0:0:0:
172,192,8634,1,2,0:0:0:0:
172,192,8713,1,2,0:0:0:0:
172,192,8792,1,2,0:0:0:0:
172,192,8871,1,0,0:0:0:0:
172,192,9029,1,2,0:0:0:0:
172,192,9107,1,2,0:0:0:0:
172,192,9186,1,2,0:0:0:0:
172,192,9344,1,2,0:0:0:0:
172,192,9502,1,4,0:0:0:0:
172,192,9818,1,0,0:0:0:0:
172,192,9897,1,0,0:0:0:0:
172,192,9976,1,2,0:0:0:0:
172,192,10055,1,0,0:0:0:0:
172,192,10134,1,2,0:0:0:0:
172,192,10292,1,0,0:0:0:0:
172,192,10371,1,2,0:0:0:0:
172,192,10450,1,2,0:0:0:0:
172,192,10607,1,0,0:0:0:0:
172,192,10686,1,0,0:0:0:0:
172,192,10765,1,2,0:0:0:0:
172,192,10844,1,2,0:0:0:0:
172,192,10923,1,0,0:0:0:0:
172,192,11002,1,2,0:0:0:0:
172,192,11160,1,2,0:0:0:0:
172,192,11239,1,0,0:0:0:0:
172,192,11318,1,0,0:0:0:0:
172,192,11397,1,2,0:0:0:0:
172,192,11555,1,0,0:0:0:0:
172,192,11634,1,2,0:0:0:0:
172,192,11713,1,0,0:0:0:0:
172,192,11871,1,2,0:0:0:0:
172,192,12029,1,0,0:0:0:0:
172,192,12107,1,2,0:0:0:0:
172,192,12186,1,2,0:0:0:0:
172,192,12265,1,0,0:0:0:0:
172,192,12423,1,2,0:0:0:0:
172,192,12502,1,0,0:0:0:0:
172,192,12581,1,2,0:0:0:0:
172,192,12660,1,2,0:0:0:0:
172,192,12818,1,0,0:0:0:0:
172,192,12897,1,2,0:0:0:0:
172,192,12976,1,2,0:0:0:0:
172,192,13133,1,0,0:0:0:0:
172,192,13212,1,0,0:0:0:0:
172,192,13291,1,2,0:0:0:0:
172,192,13370,1,2,0:0:0:0:
172,192,13449,1,0,0:0:0:0:
172,192,13528,1,2,0:0:0:0:
172,192,13686,1,2,0:0:0:0:
172,192,13765,1,0,0:0:0:0:
172,192,13844,1,0,0:0:0:0:
172,192,13923,1,2,0:0:0:0:
172,192,14081,1,0,0:0:0:0:
172,192,14160,1,2,0:0:0:0:
172,192,14239,1,0,0:0:0:0:
172,192,14397,1,2,0:0:0:0:
172,192,14555,1,0,0:0:0:0:
172,192,14633,1,2,0:0:0:0:
172,192,14712,1,2,0:0:0:0:
144,216,14871,1,6,0:0:0:0:
172,192,15186,1,2,0:0:0:0:
172,192,15344,1,0,0:0:0:0:
172,192,15423,1,2,0:0:0:0:
172,192,15502,1,2,0:0:0:0:
172,192,15659,1,0,0:0:0:0:
172,192,15738,1,0,0:0:0:0:
172,192,15817,1,2,0:0:0:0:
172,192,15896,1,2,0:0:0:0:
172,192,15975,1,0,0:0:0:0:
172,192,16054,1,2,0:0:0:0:
172,192,16212,1,2,0:0:0:0:
172,192,16291,1,0,0:0:0:0:
172,192,16370,1,0,0:0:0:0:
172,192,16449,1,2,0:0:0:0:
172,192,16607,1,0,0:0:0:0:
172,192,16686,1,2,0:0:0:0:
172,192,16765,1,0,0:0:0:0:
172,192,16923,1,2,0:0:0:0:
172,192,17081,1,0,0:0:0:0:
172,192,17159,1,2,0:0:0:0:
172,192,17238,1,2,0:0:0:0:
172,192,17317,1,0,0:0:0:0:
172,192,17475,1,2,0:0:0:0:
172,192,17554,1,0,0:0:0:0:
172,192,17633,1,2,0:0:0:0:
172,192,17712,1,2,0:0:0:0:
172,192,17870,1,0,0:0:0:0:
172,192,17949,1,2,0:0:0:0:
172,192,18028,1,2,0:0:0:0:
172,192,18185,1,0,0:0:0:0:
172,192,18264,1,0,0:0:0:0:
172,192,18343,1,2,0:0:0:0:
172,192,18422,1,2,0:0:0:0:
172,192,18501,1,0,0:0:0:0:
172,192,18580,1,2,0:0:0:0:
172,192,18738,1,2,0:0:0:0:
172,192,18817,1,0,0:0:0:0:
172,192,18896,1,0,0:0:0:0:
172,192,18975,1,2,0:0:0:0:
172,192,19133,1,0,0:0:0:0:
172,192,19212,1,2,0:0:0:0:
172,192,19291,1,0,0:0:0:0:
172,192,19449,1,2,0:0:0:0:
172,192,19607,1,0,0:0:0:0:
172,192,19685,1,2,0:0:0:0:
172,192,19764,1,2,0:0:0:0:
208,192,20239,1,0,0:0:0:0:
208,192,20397,1,0,0:0:0:0:
208,192,20476,1,0,0:0:0:0:
208,192,20555,1,2,0:0:0:0:
208,192,20713,1,0,0:0:0:0:
208,192,20792,1,2,0:0:0:0:
208,192,20950,1,2,0:0:0:0:
208,192,21107,1,2,0:0:0:0:
208,192,21186,1,0,0:0:0:0:
208,192,21265,1,0,0:0:0:0:
208,192,21344,1,2,0:0:0:0:
312,188,21502,1,4,0:0:0:0:
312,188,21581,1,4,0:0:0:0:
312,188,21660,1,4,0:0:0:0:
312,188,21739,1,4,0:0:0:0:
312,188,21818,1,4,0:0:0:0:
312,188,21897,1,4,0:0:0:0:
312,188,21976,1,4,0:0:0:0:
312,188,22055,1,4,0:0:0:0:
312,188,22134,1,4,0:0:0:0:
312,188,22213,1,4,0:0:0:0:
312,188,22292,1,4,0:0:0:0:
312,188,22371,1,4,0:0:0:0:
312,188,22450,1,4,0:0:0:0:
312,188,22529,1,4,0:0:0:0:
312,188,22607,1,4,0:0:0:0:
208,192,22765,1,0,0:0:0:0:
208,192,22923,1,0,0:0:0:0:
208,192,23002,1,0,0:0:0:0:
208,192,23081,1,2,0:0:0:0:
208,192,23239,1,0,0:0:0:0:
208,192,23318,1,2,0:0:0:0:
208,192,23476,1,2,0:0:0:0:
208,192,23633,1,2,0:0:0:0:
208,192,23712,1,0,0:0:0:0:
208,192,23791,1,0,0:0:0:0:
208,192,23870,1,2,0:0:0:0:
200,228,24029,1,0,0:0:0:0:
200,228,24107,1,0,0:0:0:0:
312,236,24186,1,6,0:0:0:0:
200,228,24265,1,0,0:0:0:0:
200,228,24344,1,0,0:0:0:0:
312,236,24423,1,6,0:0:0:0:
200,228,24502,1,0,0:0:0:0:
200,228,24581,1,0,0:0:0:0:
312,236,24660,1,6,0:0:0:0:
200,228,24739,1,0,0:0:0:0:
200,228,24818,1,0,0:0:0:0:
312,236,24897,1,6,0:0:0:0:
312,236,24976,1,0,0:0:0:0:
312,236,25055,1,0,0:0:0:0:
312,236,25134,1,6,0:0:0:0:
208,192,25292,1,0,0:0:0:0:
208,192,25450,1,0,0:0:0:0:
208,192,25529,1,0,0:0:0:0:
208,192,25608,1,2,0:0:0:0:
208,192,25766,1,0,0:0:0:0:
208,192,25845,1,2,0:0:0:0:
208,192,26003,1,2,0:0:0:0:
208,192,26160,1,2,0:0:0:0:
208,192,26239,1,0,0:0:0:0:
208,192,26318,1,0,0:0:0:0:
208,192,26397,1,2,0:0:0:0:
132,172,26555,1,0,0:0:0:0:
132,172,26634,1,2,0:0:0:0:
132,172,26792,1,2,0:0:0:0:
132,172,26871,1,0,0:0:0:0:
132,172,27029,1,0,0:0:0:0:
132,172,27107,1,2,0:0:0:0:
132,172,27265,1,2,0:0:0:0:
132,172,27344,1,0,0:0:0:0:
132,172,27502,1,0,0:0:0:0:
132,172,27581,1,0,0:0:0:0:
132,172,27660,1,2,0:0:0:0:
132,172,27739,1,2,0:0:0:0:
132,172,27818,1,0,0:0:0:0:
288,184,27897,1,2,0:0:0:0:
288,184,27976,1,0,0:0:0:0:
288,184,28055,1,2,0:0:0:0:
288,184,28134,1,0,0:0:0:0:
288,184,28213,1,0,0:0:0:0:
288,184,28292,1,2,0:0:0:0:
288,184,28371,1,2,0:0:0:0:
288,184,28450,1,0,0:0:0:0:
288,184,28529,1,2,0:0:0:0:
288,184,28607,1,0,0:0:0:0:
288,184,28686,1,2,0:0:0:0:
288,184,28765,1,0,0:0:0:0:
288,184,28844,1,2,0:0:0:0:
288,184,28923,1,0,0:0:0:0:
288,184,29002,1,2,0:0:0:0:
288,184,29081,1,0,0:0:0:0:
288,184,29160,1,0,0:0:0:0:
232,192,29239,1,0,0:0:0:0:
232,192,29318,1,0,0:0:0:0:
232,192,29397,1,0,0:0:0:0:
288,184,29713,1,6,0:0:0:0:
288,184,29950,1,4,0:0:0:0:
288,184,30186,1,6,0:0:0:0:
288,184,30265,1,6,0:0:0:0:
288,184,30344,1,6,0:0:0:0:
288,184,30423,1,6,0:0:0:0:
288,184,30502,1,6,0:0:0:0:
288,184,30581,1,6,0:0:0:0:
288,184,30660,1,6,0:0:0:0:
288,184,30739,1,6,0:0:0:0:
288,184,30818,1,6,0:0:0:0:
288,184,30897,1,6,0:0:0:0:
288,184,30976,1,6,0:0:0:0:
288,184,31055,1,6,0:0:0:0:
288,184,31134,1,6,0:0:0:0:
288,184,31213,1,6,0:0:0:0:
288,184,31292,1,6,0:0:0:0:
288,184,31371,1,6,0:0:0:0:
288,184,31450,1,6,0:0:0:0:
288,184,31529,1,6,0:0:0:0:
288,184,31607,1,6,0:0:0:0:
288,184,31686,1,4,0:0:0:0:
288,184,31765,1,6,0:0:0:0:
288,184,31844,1,4,0:0:0:0:
288,184,31923,1,6,0:0:0:0:
288,184,32002,1,4,0:0:0:0:
288,184,32081,1,4,0:0:0:0:
288,184,32160,1,4,0:0:0:0:
288,184,32239,1,4,0:0:0:0:
288,184,32318,1,4,0:0:0:0:
288,184,32476,1,4,0:0:0:0:
288,184,32634,1,4,0:0:0:0:
