osu file format v14

[General]
AudioFilename: audio.mp3
AudioLeadIn: 0
PreviewTime: 163463
Countdown: 0
SampleSet: Soft
StackLeniency: 0.5
Mode: 0
LetterboxInBreaks: 0
WidescreenStoryboard: 1

[Editor]
DistanceSpacing: 1.4
BeatDivisor: 4
GridSize: 32
TimelineZoom: 1.5

[Metadata]
Title:Hitori Nokorazu Niramitsukete
TitleUnicode:ひとり残らず睨みつけて
Artist:culenasm
ArtistUnicode:クレナズム
Creator:Sarawatlism
Version:Kuse's Hard
Source:
Tags:ツツミヒデアキ tsutsumi hideaki rock jrock j-rock japanese female vocal [_lost_] conner c_o_n_n_e_r nagaraia PotatoDew HeTo Kuse kubsnia_zhoyl_
BeatmapID:2671203
BeatmapSetID:1260377

[Difficulty]
HPDrainRate:5
CircleSize:3.5
OverallDifficulty:6
ApproachRate:8
SliderMultiplier:1.3
SliderTickRate:1

[Events]
//Background and Video events
Video,-250,"VD.mp4"
0,0,"BG.jpg",0,0
//Break Periods
2,73733,81840
2,164299,167312
//Storyboard Layer 0 (Background)
//Storyboard Layer 1 (Fail)
//Storyboard Layer 2 (Pass)
//Storyboard Layer 3 (Foreground)
//Storyboard Layer 4 (Overlay)
//Storyboard Sound Samples

[TimingPoints]
1081,283.018867924528,4,2,1,60,1,0
1081,-125,4,2,1,60,0,0
9147,-125,4,2,1,55,0,0
9571,-125,4,2,1,60,0,0
9854,-125,4,2,1,65,0,0
10137,-111.111111111111,4,2,1,70,0,0
25986,-111.111111111111,4,2,1,75,0,0
27684,-111.111111111111,4,2,1,70,0,0
27967,-111.111111111111,4,2,1,75,0,0
28250,-125,4,2,1,55,0,0
35043,-166.666666666667,4,2,1,55,0,0
35892,-166.666666666667,4,2,1,35,0,0
36175,-166.666666666667,4,2,1,55,0,0
37307,-125,4,2,1,60,0,0
41835,-125,4,2,1,65,0,0
46364,-125,4,2,1,60,0,0
50892,-125,4,2,1,65,0,0
54288,-125,4,2,1,70,0,0
55137,-125,4,2,1,60,0,0
55420,-100,4,2,1,75,0,1
64406,-100,4,2,1,75,0,0
64477,-100,4,2,1,75,0,1
73533,-100,4,2,1,70,0,0
82590,-125,4,2,1,55,0,0
91647,-125,4,2,1,60,0,0
100703,-125,4,2,1,65,0,0
105231,-125,4,2,1,70,0,0
108628,-125,4,2,1,60,0,0
109760,-100,4,2,1,75,0,1
118746,-100,4,2,1,75,0,0
118816,-100,4,2,1,75,0,1
127873,-125,4,2,1,50,0,0
132401,-125,4,2,1,55,0,0
136930,-125,4,2,1,50,0,0
141458,-125,4,2,1,55,0,0
145986,-125,4,2,1,60,0,0
155043,-125,4,2,1,65,0,0
161835,-125,4,2,1,55,0,0
164099,-125,4,2,1,60,0,0
168062,-125,4,2,1,70,0,0
168628,-100,4,2,1,75,0,1
173156,-100,4,2,1,75,0,0
173580,-100,4,2,1,75,0,1
182213,-111.111111111111,4,2,1,70,0,0
198062,-100,4,2,1,75,0,0
199618,-100,4,2,1,70,0,0
200326,-100,4,2,1,75,0,0
201458,-100,4,2,1,65,0,0
202590,-100,4,2,1,55,0,0
203722,-100,4,2,1,45,0,0
204288,-100,4,2,1,35,0,0
204571,-100,4,2,1,25,0,0
204854,-100,4,2,1,10,0,0
205703,-100,4,2,1,5,0,0

[Colours]
Combo1 : 255,128,128
Combo2 : 128,64,64
Combo3 : 128,191,255
Combo4 : 251,137,68

[HitObjects]
166,106,1081,6,0,B|126:103|126:103|98:88|98:88|43:98,2,104,4|8|8,3:2|2:0|2:0,0:0:0:0:
228,160,1788,2,0,P|267:173|333:162,1,104,0|8,3:2|2:0,0:0:0:0:
401,124,2213,2,0,L|406:62,2,52,2|0|8,2:3|3:2|2:0,0:0:0:0:
447,283,2779,2,0,P|454:313|458:343,2,52,2|0|8,3:0|3:2|2:0,0:0:0:0:
479,209,3203,1,0,2:0:0:0:
479,209,3345,6,0,P|436:230|376:229,2,104,0|8|8,3:2|2:0|2:0,0:0:0:0:
508,131,4052,2,0,P|481:117|446:111,1,52,0|2,3:2|2:3,0:0:0:0:
382,143,4335,2,0,P|355:115|285:101,1,104,8|0,2:0|3:2,0:0:0:0:
218,137,4760,1,8,2:0:0:0:
83,234,5043,2,0,P|63:228|33:225,2,52,2|0|8,3:0|3:2|2:0,0:0:0:0:
160,276,5467,1,0,2:0:0:0:
160,276,5609,6,0,B|200:268|204:326|259:317,2,104,4|8|8,3:2|2:0|2:0,0:0:0:0:
83,234,6316,2,0,L|75:164,1,52,0|2,3:2|2:3,0:0:0:0:
28,114,6599,2,0,P|37:81|105:73,1,104,8|0,2:0|3:2,0:0:0:0:
169,112,7024,1,8,2:0:0:0:
321,45,7307,2,0,B|352:46|352:46|377:57,2,52,2|0|8,3:0|3:2|2:0,0:0:0:0:
243,192,7873,6,0,L|249:258,1,52,0|0,3:2|3:2,0:0:0:0:
225,327,8156,1,8,2:0:0:0:
225,327,8297,2,0,L|186:335,2,26,8|8|8,2:0|2:0|2:0,0:0:0:0:
306,308,8580,1,8,2:3:0:0:
379,340,8722,1,2,3:0:0:0:
415,125,9147,5,2,2:0:0:0:
415,125,9217,1,2,2:0:0:0:
415,125,9288,2,0,L|474:124,1,52,2|2,2:0|2:0,0:0:0:0:
485,206,9571,2,0,L|477:263,3,52,2|2|2|2,2:3|2:3|2:3|2:3,0:0:0:0:
407,303,10137,6,0,B|373:308|391:233|302:242,1,116.999996429443,6|10,3:2|1:2,0:0:0:0:
235,248,10562,2,0,B|231:198|231:198|247:125,1,116.999996429443,2|2,2:0|3:2,0:0:0:0:
321,105,10986,1,8,1:2:0:0:
321,105,11128,6,0,L|390:93,2,58.4999982147217,2|2|2,3:2|2:3|3:2,0:0:0:0:
257,53,11552,2,0,L|179:68,1,58.4999982147217,8|0,1:2|3:2,0:0:0:0:
168,88,11764,1,8,2:0:0:0:
168,88,11835,2,0,L|94:80,1,58.4999982147217,10|0,1:2|3:2,0:0:0:0:
30,60,12118,2,0,L|36:127,1,58.4999982147217,10|0,1:2|2:0,0:0:0:0:
10,196,12401,6,0,B|45:201|45:201|80:225|80:225|138:209,1,116.999996429443,2|10,3:2|1:2,0:0:0:0:
188,256,12826,2,0,P|205:213|292:187,1,116.999996429443,2|2,2:0|3:2,0:0:0:0:
348,165,13250,1,8,1:2:0:0:
348,165,13392,6,0,L|343:240,2,58.4999982147217,2|2|2,3:2|2:3|3:2,0:0:0:0:
349,83,13816,2,0,L|416:89,1,58.4999982147217,8|2,1:2|3:2,0:0:0:0:
443,118,14029,1,8,2:0:0:0:
443,118,14099,2,0,L|451:190,1,58.4999982147217,10|2,1:2|3:2,0:0:0:0:
460,257,14382,1,10,1:2:0:0:
328,354,14665,6,0,B|294:386|294:386|219:341,1,116.999996429443,2|10,3:2|1:2,0:0:0:0:
164,304,15090,2,0,B|147:265|147:265|164:235|164:235|170:173,1,116.999996429443,2|2,2:0|3:2,0:0:0:0:
178,117,15514,1,8,1:2:0:0:
178,117,15656,6,0,P|136:106|108:102,2,58.4999982147217,2|2|2,3:2|2:3|3:2,0:0:0:0:
247,74,16080,2,0,L|315:90,1,58.4999982147217,8|0,1:2|3:2,0:0:0:0:
343,70,16293,1,8,2:0:0:0:
343,70,16364,2,0,L|401:56,1,58.4999982147217,10|0,1:2|3:2,0:0:0:0:
447,122,16647,2,0,P|432:157|427:194,1,58.4999982147217,10|0,1:2|2:0,0:0:0:0:
358,264,16930,6,0,B|387:287|397:309|397:309|440:305|467:287,1,116.999996429443,2|10,3:2|1:2,0:0:0:0:
509,237,17354,2,0,P|487:189|413:185,1,116.999996429443,2|2,2:0|3:2,0:0:0:0:
347,183,17779,2,0,B|312:164|312:164|272:177|272:177|217:164,1,116.999996429443,10|2,1:2|2:0,0:0:0:0:
170,123,18203,6,0,P|139:161|144:252,1,116.999996429443,2|2,3:2|3:2,0:0:0:0:
146,270,18557,1,8,2:0:0:0:
146,270,18628,2,0,L|133:341,1,58.4999982147217,10|0,1:2|3:2,0:0:0:0:
196,382,18911,1,10,1:2:0:0:
296,262,19194,6,0,B|298:229|223:230|239:151,1,116.999996429443,6|10,3:2|1:2,0:0:0:0:
285,102,19618,2,0,B|362:121|362:121|369:174,1,116.999996429443,2|2,2:0|3:2,0:0:0:0:
376,244,20043,1,8,1:2:0:0:
376,244,20184,6,0,L|443:233,2,58.4999982147217,2|2|2,3:2|2:3|3:2,0:0:0:0:
296,262,20609,2,0,L|230:247,1,58.4999982147217,8|0,1:2|3:2,0:0:0:0:
205,271,20821,1,8,2:0:0:0:
205,271,20892,2,0,L|139:280,1,58.4999982147217,10|0,1:2|3:2,0:0:0:0:
75,319,21175,2,0,L|66:262,1,58.4999982147217,10|0,1:2|2:0,0:0:0:0:
13,198,21458,6,0,P|10:156|74:96,1,116.999996429443,2|10,3:2|1:2,0:0:0:0:
85,25,21882,2,0,P|93:72|171:111,1,116.999996429443,2|2,2:0|3:2,0:0:0:0:
220,71,22307,1,8,1:2:0:0:
220,71,22448,6,0,L|203:10,2,58.4999982147217,2|2|2,3:2|2:3|3:2,0:0:0:0:
220,153,22873,2,0,L|236:225,1,58.4999982147217,8|2,1:2|3:2,0:0:0:0:
270,236,23085,1,8,2:0:0:0:
270,236,23156,2,0,L|341:217,1,58.4999982147217,10|2,1:2|3:2,0:0:0:0:
401,255,23439,1,10,1:2:0:0:
259,350,23722,6,0,P|235:308|152:290,1,116.999996429443,2|10,3:2|1:2,0:0:0:0:
91,300,24147,2,0,B|24:307|24:307|1:277|17:237,1,116.999996429443,2|2,2:0|3:2,0:0:0:0:
30,181,24571,1,8,1:2:0:0:
30,181,24713,6,0,L|22:104,2,58.4999982147217,2|2|2,3:2|2:3|3:2,0:0:0:0:
108,201,25137,2,0,L|172:179,1,58.4999982147217,8|0,1:2|3:2,0:0:0:0:
184,147,25349,1,8,2:0:0:0:
184,147,25420,2,0,L|248:160,1,58.4999982147217,10|0,1:2|3:2,0:0:0:0:
305,106,25703,1,10,1:2:0:0:
424,217,25986,5,10,3:2:0:0:
424,217,26128,1,8,3:2:0:0:
332,354,26411,1,8,3:2:0:0:
332,354,26552,1,8,3:2:0:0:
213,249,26835,1,8,3:2:0:0:
213,249,26977,1,8,3:2:0:0:
305,106,27260,1,0,3:2:0:0:
305,106,27401,1,12,2:0:0:0:
136,148,27684,6,0,L|93:150,3,29.2499991073609,8|8|4|4,3:2|2:3|2:3|2:3,0:0:0:0:
177,172,27967,2,0,L|250:163,1,58.4999982147217,4|2,3:2|2:0,0:0:0:0:
301,215,28250,6,0,B|352:203|352:203|416:229,2,104,2|10|2,3:2|2:0|3:2,0:0:0:0:
257,286,28958,2,0,L|191:273,1,52,0|2,3:2|2:0,0:0:0:0:
145,226,29241,1,8,2:0:0:0:
145,226,29382,6,0,L|19:241,1,104,2|10,2:0|2:0,0:0:0:0:
0,165,29807,2,0,B|-17:96|-17:96|21:55,1,104,2|0,2:0|3:2,0:0:0:0:
84,97,30231,1,8,2:0:0:0:
237,33,30514,6,0,L|224:150,2,104,2|10|2,3:2|2:0|3:2,0:0:0:0:
319,17,31222,2,0,L|327:83,1,52,0|2,3:2|2:0,0:0:0:0:
395,123,31505,1,10,2:0:0:0:
395,123,31647,6,0,L|385:233,1,104,2|10,2:0|2:0,0:0:0:0:
404,307,32071,2,0,P|456:327|495:301,1,104,2|0,2:0|3:2,0:0:0:0:
505,220,32496,1,8,2:0:0:0:
377,326,32779,6,0,P|345:347|279:333,1,104,6|8,3:2|2:0,0:0:0:0:
214,291,33203,1,2,2:0:0:0:
276,235,33345,2,0,B|284:204|284:204|266:126,1,104,2|2,2:0|2:3,0:0:0:0:
195,105,33769,1,10,2:0:0:0:
195,105,33911,6,0,L|198:37,1,52,2|0,2:0|3:2,0:0:0:0:
116,31,34194,2,0,L|114:153,1,104,8|10,2:0|2:0,0:0:0:0:
126,216,34618,2,0,P|97:223|46:292,1,104,8|2,2:3|2:0,0:0:0:0:
102,344,35043,6,0,B|179:384|268:363|279:290|244:250,1,233.999992858887,2|2,3:0|2:0,0:0:0:0:
129,216,36175,2,0,P|103:164|120:105,2,116.999996429443,2|2|2,2:0|2:0|2:0,0:0:0:0:
288,263,37307,6,0,B|327:268|327:268|355:280|355:280|405:273,2,104,4|8|2,3:2|2:0|2:0,0:0:0:0:
251,188,38014,2,0,L|257:127,1,52,0|2,3:2|2:0,0:0:0:0:
338,112,38297,1,8,2:0:0:0:
338,112,38439,6,0,L|445:127,1,104,2|10,2:0|2:0,0:0:0:0:
477,51,38864,2,0,P|443:22|381:11,1,104,2|0,2:0|3:2,0:0:0:0:
306,34,39288,1,8,2:0:0:0:
141,6,39571,6,0,L|153:115,2,104,2|8|2,3:2|2:0|3:2,0:0:0:0:
58,19,40279,2,0,L|53:84,1,52,0|2,3:2|2:0,0:0:0:0:
17,147,40562,1,10,2:0:0:0:
17,147,40703,6,0,L|26:266,1,104,2|10,2:0|2:0,0:0:0:0:
101,284,41128,2,0,P|51:294|18:346,1,104,2|0,2:0|3:2,0:0:0:0:
97,366,41552,1,8,2:0:0:0:
193,230,41835,6,0,L|179:121,2,104,6|10|2,3:2|2:0|2:0,0:0:0:0:
246,294,42543,2,0,L|306:303,1,52,0|8,3:2|2:0,0:0:0:0:
371,260,42826,1,10,2:0:0:0:
371,260,42967,6,0,L|362:142,1,104,2|8,2:0|2:0,0:0:0:0:
415,91,43392,1,2,0:0:0:0:
472,150,43533,2,0,L|464:253,1,104,2|10,2:0|2:0,0:0:0:0:
482,335,43958,1,2,0:0:0:0:
400,334,44099,6,0,B|367:340|367:340|350:355|350:355|285:363,2,104,2|10|2,3:2|2:0|3:0,0:0:0:0:
371,260,44807,2,0,L|359:195,1,52,0|2,3:2|2:0,0:0:0:0:
306,154,45090,1,8,2:0:0:0:
306,154,45231,6,0,L|313:93,1,52,2|0,2:3|3:2,0:0:0:0:
381,55,45514,1,8,2:0:0:0:
306,25,45656,1,8,2:0:0:0:
306,25,45727,1,8,2:0:0:0:
306,25,45797,2,0,L|232:38,1,52,8|0,2:0|3:2,0:0:0:0:
195,92,46080,2,0,L|124:106,1,52,8|4,2:3|2:3,0:0:0:0:
97,196,46364,6,0,B|137:204|137:204|156:222|156:222|206:222,2,104,6|2|2,3:2|3:2|3:2,0:0:0:0:
28,159,47071,1,0,2:0:0:0:
28,159,47213,2,0,L|44:91,1,52,0|8,3:2|2:3,0:0:0:0:
106,56,47496,5,4,2:3:0:0:
106,56,47637,1,0,3:2:0:0:
249,149,47920,1,2,2:0:0:0:
249,149,48062,2,0,L|242:75,1,52,14|0,2:0|2:0,0:0:0:0:
299,35,48345,2,0,L|361:42,1,52,2|0,3:2|2:0,0:0:0:0:
389,137,48628,6,0,B|389:190|389:190|395:209|395:209|395:262,2,104,6|2|8,3:2|3:2|2:3,0:0:0:0:
458,91,49335,2,0,L|467:32,2,52,0|2|0,2:0|3:2|2:0,0:0:0:0:
475,172,49760,6,0,L|491:236,1,52,2|0,2:0|3:0,0:0:0:0:
455,299,50043,1,2,2:0:0:0:
312,213,50326,1,12,2:0:0:0:
269,284,50467,1,8,2:0:0:0:
195,244,50609,2,0,L|132:252,1,52,0|0,3:2|3:2,0:0:0:0:
48,332,50892,6,0,B|35:307|35:307|47:209,2,104,4|2|2,3:2|2:0|2:0,0:0:0:0:
130,332,51599,1,0,3:2:0:0:
143,250,51741,2,0,L|149:189,1,52,14|0,2:0|2:0,0:0:0:0:
225,167,52024,2,0,L|232:234,1,52,2|8,3:2|2:0,0:0:0:0:
301,272,52307,1,2,2:0:0:0:
301,272,52448,1,0,3:2:0:0:
371,227,52590,2,0,L|431:236,2,52,12|8|0,2:0|2:0|3:2,0:0:0:0:
352,61,53156,6,0,B|341:110|341:110|318:130|284:130,1,104,6|2,3:2|2:0,0:0:0:0:
227,77,53580,2,0,P|173:72|113:103,1,104,8|0,2:0|2:0,0:0:0:0:
67,148,54005,2,0,P|76:186|75:219,1,52,4|0,3:2|2:0,0:0:0:0:
29,314,54288,5,8,3:2:0:0:
194,328,54571,1,8,3:2:0:0:
76,198,54854,1,10,3:2:0:0:
241,218,55137,1,10,3:2:0:0:
216,37,55420,6,0,B|211:75|291:64|286:164,1,130,6|10,3:2|1:2,0:0:0:0:
241,218,55845,2,0,P|247:262|319:297,1,130,2|0,2:0|3:2,0:0:0:0:
403,267,56269,1,10,1:2:0:0:
481,314,56411,1,2,3:2:0:0:
466,200,56552,6,0,P|408:227|355:185,1,130,2|8,2:0|1:2,0:0:0:0:
423,129,56977,1,2,2:3:0:0:
423,129,57118,2,0,L|437:65,1,65,2|0,3:2|3:2,0:0:0:0:
352,30,57401,2,0,L|339:106,1,65,10|0,1:2|2:0,0:0:0:0:
228,21,57684,6,0,B|251:41|260:67|260:67|254:145,1,130,2|10,3:2|1:2,0:0:0:0:
168,172,58109,2,0,P|137:205|162:280,1,130,2|0,2:0|3:2,0:0:0:0:
223,344,58533,1,10,1:2:0:0:
293,285,58675,1,2,3:2:0:0:
339,363,58816,6,0,B|373:364|373:364|411:335|420:295|393:254,1,130,2|8,2:0|1:2,0:0:0:0:
371,101,59382,2,0,L|362:167,1,65,2|0,3:2|3:2,0:0:0:0:
285,116,59665,2,0,L|274:50,1,65,10|0,1:2|2:0,0:0:0:0:
215,165,59948,6,0,P|176:188|102:141,2,130,6|8|2,3:2|1:2|3:2,0:0:0:0:
285,116,60656,1,0,3:2:0:0:
359,64,60797,2,0,L|432:78,1,65,10|0,1:2|3:2,0:0:0:0:
465,182,61080,6,0,B|419:194|419:194|371:148|371:148|332:154,2,130,2|10|2,2:0|1:2|3:2,0:0:0:0:
459,273,61788,1,0,3:2:0:0:
441,362,61930,2,0,P|401:382|352:380,1,65,10|2,1:2|2:3,0:0:0:0:
340,269,62213,6,0,B|304:254|318:338|214:321,1,130,6|8,3:2|1:2,0:0:0:0:
52,292,62779,2,0,P|95:272|132:270,1,65,2|0,3:2|3:2,0:0:0:0:
179,207,63062,2,0,P|190:174|192:125,1,65,10|0,1:2|2:0,0:0:0:0:
237,28,63345,6,0,P|295:41|313:123,1,130,2|8,3:2|1:2,0:0:0:0:
273,181,63769,1,4,3:2:0:0:
273,181,63911,2,0,L|291:271,1,65,8|0,2:0|3:2,0:0:0:0:
371,212,64194,2,0,L|424:219,3,32.5,8|8|8|8,1:2|2:0|2:0|2:0,0:0:0:0:
379,174,64477,6,0,P|373:109|309:108,1,130,6|10,3:2|1:2,0:0:0:0:
273,181,64901,2,0,B|228:169|228:169|183:180|183:180|135:169,1,130,2|2,3:2|3:2,0:0:0:0:
63,134,65326,1,10,1:2:0:0:
15,211,65467,1,2,3:2:0:0:
97,250,65609,6,0,P|144:262|168:356,1,130,2|8,2:0|1:2,0:0:0:0:
267,356,66033,1,0,2:0:0:0:
267,356,66175,2,0,P|275:316|279:284,1,65,2|0,3:2|3:2,0:0:0:0:
222,219,66458,2,0,P|214:179|210:147,1,65,10|0,1:2|2:0,0:0:0:0:
319,92,66741,6,0,P|349:147|283:173,1,130,2|10,3:2|1:2,0:0:0:0:
210,155,67165,2,0,P|148:165|107:231,1,130,2|0,2:0|3:2,0:0:0:0:
80,302,67590,1,10,1:2:0:0:
163,336,67731,1,0,3:2:0:0:
198,251,67873,6,0,B|254:284|254:284|330:272,1,130,2|8,2:0|1:2,0:0:0:0:
474,367,68439,2,0,P|467:335|456:304,1,65,2|0,3:2|3:2,0:0:0:0:
415,223,68722,2,0,P|420:184|440:141,1,65,10|0,1:2|2:0,0:0:0:0:
359,76,69005,6,0,B|347:139|347:139|278:114,2,130,6|8|0,3:2|1:2|3:2,0:0:0:0:
289,38,69713,1,0,3:2:0:0:
289,38,69854,2,0,L|212:30,1,65,10|2,1:2|3:2,0:0:0:0:
148,85,70137,6,0,B|156:139|201:155|201:155|196:221,2,130,2|8|0,2:0|1:2|3:2,0:0:0:0:
64,62,70845,1,0,3:2:0:0:
64,62,70986,2,0,P|85:21|107:8,1,65,10|2,1:2|2:0,0:0:0:0:
148,85,71269,6,0,P|180:90|201:181,1,130,6|8,3:2|1:2,0:0:0:0:
144,343,71835,2,0,P|182:299|260:313,1,130,2|8,3:2|1:2,0:0:0:0:
337,327,72260,1,0,2:0:0:0:
308,208,72401,6,0,L|315:138,1,65,6|0,3:2|2:0,0:0:0:0:
381,80,72684,1,10,1:2:0:0:
323,23,72826,1,8,2:0:0:0:
323,23,72897,1,8,2:0:0:0:
323,23,72967,2,0,P|281:45|252:66,1,65,8|0,2:0|3:2,0:0:0:0:
175,50,73250,2,0,P|163:101|159:135,1,65,8|8,2:0|2:3,0:0:0:0:
256,192,73533,5,6,3:2:0:0:
78,148,82590,6,0,B|65:111|65:111|69:96|69:96|63:33,2,104,6|10|2,3:2|2:0|3:2,0:0:0:0:
140,203,83297,2,0,L|203:196,1,52,0|10,3:2|2:0,0:0:0:0:
252,254,83580,6,0,L|367:271,1,104,2|2,3:2|3:2,0:0:0:0:
428,229,84005,1,10,2:0:0:0:
496,276,84147,2,0,B|518:251|518:251|501:182,1,104,2|0,2:0|3:2,0:0:0:0:
440,126,84571,1,8,2:0:0:0:
354,269,84854,6,0,L|373:394,2,104,2|10|2,3:2|2:0|3:2,0:0:0:0:
287,217,85562,2,0,L|291:153,1,52,0|10,3:2|2:0,0:0:0:0:
362,121,85845,1,2,3:2:0:0:
362,121,85986,6,0,L|347:4,1,104,2|10,2:0|2:0,0:0:0:0:
273,54,86411,2,0,P|235:20|186:30,1,104,2|0,2:0|3:2,0:0:0:0:
135,96,86835,1,8,2:0:0:0:
63,246,87118,6,0,P|106:270|176:256,1,104,2|8,3:2|2:0,0:0:0:0:
224,213,87543,1,2,2:0:0:0:
276,277,87684,2,0,B|321:299|321:299|388:279,1,104,2|8,3:2|2:0,0:0:0:0:
437,230,88109,1,2,3:2:0:0:
437,230,88250,6,0,L|424:115,1,104,2|8,2:0|2:0,0:0:0:0:
370,63,88675,1,2,2:0:0:0:
316,126,88816,2,0,P|266:158|207:142,1,104,2|8,3:2|2:0,0:0:0:0:
163,94,89241,1,2,2:0:0:0:
105,154,89382,6,0,B|115:73|115:73|108:50|108:50|117:-19,2,156,2|2|10,3:2|2:0|2:0,0:0:0:0:
200,290,90514,2,0,P|176:321|113:335,1,104,2|8,2:3|2:0,0:0:0:0:
2,213,91080,2,0,L|65:220,1,52,8|0,2:0|3:2,0:0:0:0:
105,154,91364,2,0,L|166:145,1,52,8|0,2:0|2:0,0:0:0:0:
261,99,91647,6,0,B|288:145|288:145|282:214,2,104,6|10|10,3:2|2:0|2:0,0:0:0:0:
329,52,92354,2,0,L|394:65,1,52,0|2,3:2|2:0,0:0:0:0:
443,116,92637,1,8,2:0:0:0:
443,116,92779,6,0,L|436:220,1,104,2|10,2:0|2:0,0:0:0:0:
353,215,93203,2,0,P|347:274|362:333,1,104,2|0,2:0|3:2,0:0:0:0:
407,383,93628,1,8,2:0:0:0:
262,301,93911,6,0,L|145:279,2,104,2|10|10,3:2|2:0|2:0,0:0:0:0:
274,219,94618,2,0,L|275:166,1,52,0|2,3:2|2:0,0:0:0:0:
224,100,94901,1,8,2:0:0:0:
224,100,95043,6,0,L|110:111,1,104,2|10,2:0|2:0,0:0:0:0:
76,180,95467,2,0,P|30:199|16:256,1,104,2|0,2:0|3:2,0:0:0:0:
69,310,95892,2,0,L|70:363,1,52,8|2,2:0|2:0,0:0:0:0:
150,341,96175,6,0,L|148:277,2,52,2|0|10,3:2|2:0|2:0,0:0:0:0:
225,374,96599,1,0,2:0:0:0:
294,328,96741,2,0,B|317:306|317:306|332:228,1,104,10|2,2:0|2:0,0:0:0:0:
265,193,97165,1,8,2:0:0:0:
265,193,97307,6,0,L|200:205,1,52,2|0,2:0|3:2,0:0:0:0:
173,129,97590,2,0,L|280:109,1,104,10|2,2:0|3:2,0:0:0:0:
355,88,98014,2,0,B|367:63|367:63|366:34,2,52,0|10|2,3:2|2:0|2:0,0:0:0:0:
335,169,98439,6,0,L|344:223,1,52,2|0,3:2|3:2,0:0:0:0:
400,280,98722,2,0,L|389:345,1,52,10|0,2:0|2:0,0:0:0:0:
313,353,99005,1,8,2:0:0:0:
313,353,99147,2,0,L|302:293,1,52,0|2,3:2|2:3,0:0:0:0:
242,245,99430,1,8,2:0:0:0:
180,300,99571,6,0,P|151:320|81:303,1,104,2|10,2:0|2:0,0:0:0:0:
21,256,99996,1,0,2:0:0:0:
57,181,100137,2,0,P|61:156|62:125,2,52,10|8|8,2:0|2:0|2:3,0:0:0:0:
138,35,100703,6,0,P|180:43|240:59,1,104,14|2,2:0|3:2,0:0:0:0:
299,115,101128,2,0,P|274:166|286:221,1,104,10|2,2:0|3:2,0:0:0:0:
357,241,101552,2,0,P|378:235|419:234,1,52,10|2,2:0|2:0,0:0:0:0:
420,315,101835,6,0,P|394:322|358:323,1,52,10|2,2:0|2:0,0:0:0:0:
293,294,102118,1,2,3:2:0:0:
293,294,102260,2,0,P|242:295|185:305,1,104,8|10,2:0|2:0,0:0:0:0:
122,255,102684,1,2,2:0:0:0:
163,182,102826,1,2,2:0:0:0:
97,130,102967,6,0,P|117:80|177:76,1,104,14|2,2:0|3:2,0:0:0:0:
232,115,103392,2,0,P|273:140|326:98,1,104,10|2,2:0|3:2,0:0:0:0:
398,92,103816,2,0,L|394:154,1,52,10|2,2:0|3:2,0:0:0:0:
343,210,104099,6,0,L|348:275,1,52,10|2,2:0|3:2,0:0:0:0:
406,320,104382,2,0,L|470:313,1,52,10|0,2:0|3:2,0:0:0:0:
512,249,104665,1,10,2:0:0:0:
440,206,104807,1,8,2:0:0:0:
495,143,104948,2,0,P|491:112|476:81,1,52,2|8,3:2|2:3,0:0:0:0:
392,42,105231,6,0,P|343:55|322:116,1,104,14|2,2:0|3:2,0:0:0:0:
247,136,105656,2,0,P|176:124|144:89,1,104,10|2,2:0|3:2,0:0:0:0:
85,57,106080,2,0,P|70:88|72:129,1,52,14|2,2:0|2:0,0:0:0:0:
29,180,106364,6,0,L|33:239,1,52,14|0,2:0|3:2,0:0:0:0:
112,256,106647,2,0,L|123:191,1,52,10|0,2:0|3:2,0:0:0:0:
185,151,106930,1,8,2:0:0:0:
255,195,107071,1,8,2:0:0:0:
328,155,107213,2,0,L|388:164,1,52,0|8,3:2|2:3,0:0:0:0:
455,129,107496,6,0,L|515:119,2,52,6|2|10,3:2|3:2|2:0,0:0:0:0:
383,166,107920,1,2,3:2:0:0:
383,166,108062,2,0,L|379:228,1,52,10|0,2:0|3:2,0:0:0:0:
430,283,108345,2,0,L|423:349,1,52,2|0,3:2|2:0,0:0:0:0:
356,382,108628,1,2,2:3:0:0:
356,382,109760,6,0,P|316:347|342:265,1,130,6|10,3:2|1:2,0:0:0:0:
408,235,110184,2,0,B|450:250|450:250|496:219|469:163,1,130,2|0,2:0|3:2,0:0:0:0:
415,105,110609,1,10,1:2:0:0:
339,155,110750,1,2,3:2:0:0:
266,100,110892,6,0,P|208:73|155:115,1,130,2|8,2:0|1:2,0:0:0:0:
120,190,111316,1,2,2:3:0:0:
66,116,111458,2,0,L|53:45,1,65,2|0,3:2|3:2,0:0:0:0:
146,43,111741,2,0,L|160:118,1,65,10|0,1:2|2:0,0:0:0:0:
189,242,112024,6,0,B|223:242|223:242|262:279|327:262,1,130,2|10,3:2|1:2,0:0:0:0:
387,213,112448,2,0,P|356:246|381:321,1,130,2|0,2:0|3:2,0:0:0:0:
461,357,112873,1,10,1:2:0:0:
503,276,113014,1,2,3:2:0:0:
474,189,113156,6,0,B|485:158|485:158|452:120|471:49,1,130,2|8,2:0|1:2,0:0:0:0:
285,48,113722,2,0,L|273:141,1,65,2|0,3:2|3:2,0:0:0:0:
200,148,114005,2,0,L|195:83,1,65,10|0,1:2|2:0,0:0:0:0:
144,12,114288,6,0,P|94:48|100:119,2,130,6|8|2,3:2|1:2|3:2,0:0:0:0:
231,39,114996,1,0,3:2:0:0:
320,59,115137,2,0,L|308:146,1,65,10|0,1:2|3:2,0:0:0:0:
224,218,115420,6,0,B|256:209|256:209|313:237|313:237|348:221,2,130,2|10|2,2:0|1:2|3:2,0:0:0:0:
135,239,116128,1,0,3:2:0:0:
46,259,116269,2,0,P|34:223|52:172,1,65,10|2,1:2|2:3,0:0:0:0:
66,41,116552,6,0,B|45:82|131:77|113:154,1,130,6|8,3:2|1:2,0:0:0:0:
276,73,117118,2,0,P|320:86|345:99,1,65,2|0,3:2|3:2,0:0:0:0:
418,135,117401,2,0,P|459:122|499:93,1,65,10|0,1:2|2:0,0:0:0:0:
425,5,117684,6,0,L|417:142,1,130,2|8,3:2|1:2,0:0:0:0:
447,220,118109,1,4,3:2:0:0:
380,282,118250,2,0,P|337:278|307:263,1,65,8|0,2:0|3:2,0:0:0:0:
243,216,118533,2,0,L|181:228,3,32.5,8|8|8|8,2:0|2:0|2:0|2:0,0:0:0:0:
241,179,118816,6,0,P|258:131|332:127,1,130,6|10,3:2|1:2,0:0:0:0:
417,134,119241,2,0,B|410:175|410:175|424:209|424:209|416:277,1,130,2|2,3:2|3:2,0:0:0:0:
410,351,119665,1,10,1:2:0:0:
333,301,119807,1,2,3:2:0:0:
254,348,119948,6,0,P|234:288|175:266,1,130,2|8,2:0|1:2,0:0:0:0:
91,291,120373,1,0,2:0:0:0:
91,291,120514,2,0,P|99:251|103:219,1,65,2|0,3:2|3:2,0:0:0:0:
167,163,120797,2,0,P|159:123|155:91,1,65,10|0,1:2|2:0,0:0:0:0:
273,31,121080,6,0,P|292:91|226:117,1,130,2|10,3:2|1:2,0:0:0:0:
155,99,121505,2,0,P|90:104|48:167,1,130,2|0,2:0|3:2,0:0:0:0:
102,227,121930,1,10,1:2:0:0:
50,303,122071,1,0,3:2:0:0:
128,349,122213,6,0,B|163:360|177:277|252:308,1,130,2|8,2:0|1:2,0:0:0:0:
418,347,122779,2,0,P|457:361|496:358,1,65,2|0,3:2|3:2,0:0:0:0:
466,270,123062,2,0,P|421:260|385:260,1,65,10|0,1:2|2:0,0:0:0:0:
281,238,123345,6,0,P|263:182|262:109,2,130,6|8|0,3:2|1:2|3:2,0:0:0:0:
357,186,124052,1,0,3:2:0:0:
358,186,124194,2,0,L|448:197,1,65,10|2,1:2|3:2,0:0:0:0:
455,108,124477,6,0,B|420:111|420:111|389:75|330:85,2,130,2|8|0,2:0|1:2|3:2,0:0:0:0:
493,27,125184,1,0,3:2:0:0:
493,27,125326,2,0,P|455:14|408:23,1,65,10|2,1:2|2:0,0:0:0:0:
333,84,125609,6,0,P|269:111|224:64,1,130,6|8,3:2|1:2,0:0:0:0:
75,176,126175,2,0,B|105:196|105:196|157:165|205:192,1,130,2|8,3:2|1:2,0:0:0:0:
255,254,126599,1,0,2:0:0:0:
343,232,126741,6,0,L|350:162,1,65,6|0,3:2|2:0,0:0:0:0:
398,90,127024,1,10,1:2:0:0:
477,152,127165,1,8,2:0:0:0:
477,152,127236,1,8,2:0:0:0:
477,152,127307,2,0,L|487:243,1,65,8|0,2:0|3:2,0:0:0:0:
444,298,127590,2,0,L|372:310,1,65,8|8,2:0|2:3,0:0:0:0:
240,299,127873,6,0,B|235:262|334:256|279:149,1,156,6|0,3:2|3:2,0:0:0:0:
300,83,128439,2,0,B|223:60|223:60|141:111,1,156,8|0,2:0|3:2,0:0:0:0:
93,151,129005,2,0,L|28:143,2,52,2|8|2,3:0|2:3|3:0,0:0:0:0:
137,311,129571,2,0,P|104:332|72:251,1,156,8|8,2:0|2:0,0:0:0:0:
149,226,130137,6,0,B|238:218|197:297|289:285,1,156,0|0,3:2|3:2,0:0:0:0:
361,257,130703,2,0,B|381:305|381:305|407:198,1,156,8|0,2:0|3:2,0:0:0:0:
377,125,131269,1,2,3:0:0:0:
449,83,131411,2,0,P|462:120|465:145,1,52,8|2,2:3|3:0,0:0:0:0:
306,77,131835,1,8,1:2:0:0:
306,77,132401,6,0,P|272:141|192:123,1,156,4|0,3:2|3:2,0:0:0:0:
143,67,132967,2,0,B|109:48|109:48|39:87|90:162,1,156,8|0,2:0|3:2,0:0:0:0:
132,211,133533,2,0,L|139:272,2,52,2|8|2,3:0|2:3|3:0,0:0:0:0:
9,323,134099,2,0,P|40:369|128:336,1,156,8|8,2:0|2:0,0:0:0:0:
137,262,134665,6,0,P|163:221|258:239,1,156,2|0,3:2|3:2,0:0:0:0:
332,273,135231,2,0,B|364:295|384:332|384:332|385:290|407:256,1,156,8|0,2:0|3:2,0:0:0:0:
370,183,135797,1,2,3:0:0:0:
424,119,135939,2,0,P|458:123|489:137,1,52,8|2,2:3|3:0,0:0:0:0:
349,18,136364,1,8,3:2:0:0:
349,18,136505,1,8,3:2:0:0:
293,80,136647,2,0,L|238:88,1,52,4|0,3:0|2:0,0:0:0:0:
172,134,136930,6,0,P|216:127|254:182,1,104,6|2,3:2|2:3,0:0:0:0:
204,235,137354,1,0,3:2:0:0:
204,235,137496,2,0,L|187:294,1,52,10|0,2:0|2:0,0:0:0:0:
238,352,137779,2,0,L|305:373,1,52,2|0,2:0|3:2,0:0:0:0:
355,318,138062,6,0,B|390:315|390:315|418:281|418:281|452:275,2,104,2|2|10,3:2|3:0|2:0,0:0:0:0:
189,284,138911,1,2,2:0:0:0:
244,147,139194,6,0,P|218:121|152:126,1,104,0|2,3:2|2:0,0:0:0:0:
112,195,139618,1,0,3:2:0:0:
112,195,139760,2,0,L|2:211,1,104,10|2,2:0|2:0,0:0:0:0:
0,298,140184,1,0,3:2:0:0:
75,333,140326,6,0,L|65:392,2,52,2|8|2,3:2|2:0|3:2,0:0:0:0:
133,274,140750,1,0,2:0:0:0:
199,323,140892,2,0,L|257:314,1,52,10|0,1:2|2:0,0:0:0:0:
461,181,141458,6,0,P|414:192|363:140,1,104,4|2,3:2|2:0,0:0:0:0:
354,85,141882,1,0,3:2:0:0:
354,85,142024,2,0,P|305:95|285:108,1,52,10|0,2:0|2:0,0:0:0:0:
229,134,142307,2,0,L|157:122,1,52,2|0,2:0|3:2,0:0:0:0:
99,95,142590,6,0,L|95:38,2,52,2|8|2,3:2|2:0|3:2,0:0:0:0:
48,160,143014,1,0,2:0:0:0:
90,232,143156,2,0,P|135:245|146:252,1,52,10|0,2:0|2:0,0:0:0:0:
198,306,143439,2,0,P|235:298|256:288,1,52,2|8,2:0|2:0,0:0:0:0:
301,228,143722,5,0,3:2:0:0:
408,354,144005,2,0,P|435:322|451:257,1,104,2|10,2:0|2:0,0:0:0:0:
402,201,144430,1,0,2:0:0:0:
402,201,144571,2,0,P|410:161|425:140,1,52,2|0,2:0|3:2,0:0:0:0:
478,97,144854,6,0,L|532:106,2,52,2|8|2,3:2|2:0|3:2,0:0:0:0:
413,43,145279,1,0,2:0:0:0:
413,43,145420,2,0,L|346:51,1,52,8|8,3:2|3:2,0:0:0:0:
297,103,145703,2,0,L|238:92,1,52,4|0,3:0|2:0,0:0:0:0:
147,154,145986,6,0,P|149:207|206:226,1,104,4|0,3:2|2:0,0:0:0:0:
297,103,146552,2,0,L|289:178,1,52,10|0,2:0|2:0,0:0:0:0:
269,235,146835,2,0,L|273:296,1,52,2|8,2:0|2:0,0:0:0:0:
341,333,147118,6,0,P|387:317|438:352,2,104,2|2|10,3:2|3:2|2:0,0:0:0:0:
264,365,147826,1,2,2:3:0:0:
183,343,147967,2,0,P|156:297|155:246,1,104,2|0,2:0|3:2,0:0:0:0:
147,81,148533,6,0,B|189:88|189:88|209:101|209:101|270:91,1,104,2|8,2:0|2:0,0:0:0:0:
326,69,148958,1,2,2:3:0:0:
326,69,149099,2,0,P|342:101|348:128,1,52,2|8,2:0|2:0,0:0:0:0:
295,182,149382,1,2,3:2:0:0:
352,242,149524,2,0,P|388:235|437:287,1,104,10|0,2:0|2:0,0:0:0:0:
376,334,149948,2,0,P|375:373|392:396,2,52,10|0|2,2:0|2:0|3:2,0:0:0:0:
236,273,150514,5,12,2:0:0:0:
236,273,150656,2,0,P|201:302|141:296,1,104,8|0,2:0|3:2,0:0:0:0:
93,233,151080,2,0,L|110:121,1,104,8|2,2:0|2:0,0:0:0:0:
181,89,151505,1,8,2:0:0:0:
181,89,151647,6,0,P|222:104|250:108,1,52,2|8,3:2|2:0,0:0:0:0:
291,48,151930,2,0,L|353:40,1,52,2|0,3:2|2:0,0:0:0:0:
321,122,152213,2,0,L|306:239,1,104,10|2,2:0|2:0,0:0:0:0:
378,268,152637,1,10,2:0:0:0:
445,219,152779,1,0,3:2:0:0:
316,323,153062,5,2,2:0:0:0:
316,323,153203,1,0,3:2:0:0:
237,293,153345,2,0,L|230:240,2,52,10|0|2,2:0|2:0|2:0,0:0:0:0:
253,374,153769,1,8,2:0:0:0:
133,296,153911,6,0,P|150:253|166:240,1,52,2|8,3:2|2:0,0:0:0:0:
176,169,154194,2,0,P|216:161|242:165,1,52,2|0,3:2|2:0,0:0:0:0:
290,107,154477,2,0,P|325:115|346:125,1,52,10|8,2:0|2:0,0:0:0:0:
425,141,154760,1,10,2:0:0:0:
425,141,154901,1,8,2:0:0:0:
337,228,155043,6,0,B|290:229|290:229|265:239|264:239|231:244,2,104,6|10|8,3:2|2:0|2:0,0:0:0:0:
494,282,155892,1,2,2:3:0:0:
438,219,156033,1,2,2:0:0:0:
476,148,156175,6,0,L|483:90,1,52,10|0,3:2|2:0,0:0:0:0:
404,65,156458,2,0,L|395:128,1,52,2|8,2:0|3:2,0:0:0:0:
324,159,156741,2,0,L|260:172,2,52,2|0|10,3:2|2:0|2:0,0:0:0:0:
319,76,157165,1,0,2:0:0:0:
249,30,157307,6,0,P|223:64|166:76,2,104,2|10|8,3:2|2:0|2:0,0:0:0:0:
195,187,158156,1,2,2:3:0:0:
119,152,158297,1,2,2:0:0:0:
59,210,158439,6,0,L|64:273,1,52,10|8,3:2|3:2,0:0:0:0:
128,313,158722,2,0,L|189:306,1,52,0|2,2:0|2:0,0:0:0:0:
247,259,159005,2,0,L|241:201,2,52,10|10|2,3:2|3:2|2:0,0:0:0:0:
309,314,159430,1,0,2:0:0:0:
358,247,159571,6,0,P|417:254|449:306,2,104,6|10|8,3:2|2:0|2:0,0:0:0:0:
312,176,160279,2,0,B|318:141|338:121|338:121|346:64,1,104,0|0,3:2|2:0,0:0:0:0:
289,16,160703,6,0,P|256:11|233:21,1,52,8|2,3:2|2:3,0:0:0:0:
189,83,160986,1,2,2:3:0:0:
189,83,161128,1,8,2:0:0:0:
109,61,161269,2,0,L|103:8,2,52,0|0|8,3:2|3:2|2:0,0:0:0:0:
135,225,161835,5,6,3:2:0:0:
135,225,164099,5,6,3:2:0:0:
410,75,168062,5,8,3:2:0:0:
410,75,168203,1,8,3:2:0:0:
410,75,168628,6,0,P|371:98|297:51,2,130,6|8|2,3:2|1:2|3:2,0:0:0:0:
490,31,169335,1,0,3:2:0:0:
509,119,169477,2,0,L|490:206,1,65,10|0,1:2|3:2,0:0:0:0:
423,239,169760,6,0,P|388:291|411:349,2,130,2|10|2,2:0|1:2|3:2,0:0:0:0:
387,154,170467,1,0,3:2:0:0:
319,215,170609,2,0,P|288:225|237:220,1,65,10|2,1:2|2:3,0:0:0:0:
190,160,170892,6,0,B|154:145|168:229|64:212,1,130,6|8,3:2|1:2,0:0:0:0:
4,49,171458,2,0,P|48:62|77:86,1,65,2|0,3:2|3:2,0:0:0:0:
153,85,171741,2,0,B|159:81|189:74|229:46,1,65,10|0,1:2|3:2,0:0:0:0:
295,21,172024,6,0,P|353:34|371:116,1,130,2|8,0:0|1:2,0:0:0:0:
302,144,172448,1,4,3:2:0:0:
302,144,172590,2,0,L|294:236,1,65,8|0,2:0|3:2,0:0:0:0:
254,289,172873,2,0,L|201:296,3,32.5,8|8|8|8,2:0|2:0|2:0|2:0,0:0:0:0:
289,307,173156,1,6,3:2:0:0:
464,356,173439,5,10,1:2:0:0:
383,314,173580,2,0,P|378:248|449:204,1,130,2|2,3:2|3:2,0:0:0:0:
510,185,174005,1,10,1:2:0:0:
482,97,174147,1,2,3:2:0:0:
394,122,174288,6,0,B|352:108|352:108|320:117|320:117|285:98|243:101,1,130,2|8,2:0|1:2,0:0:0:0:
191,145,174713,1,0,2:0:0:0:
191,145,174854,2,0,L|179:71,1,65,2|0,3:2|3:2,0:0:0:0:
99,38,175137,2,0,L|87:112,1,65,10|0,1:2|2:0,0:0:0:0:
5,139,175420,6,0,P|68:144|108:193,1,130,2|10,3:2|1:2,0:0:0:0:
197,215,175845,2,0,P|135:225|94:291,1,130,2|0,2:0|3:2,0:0:0:0:
76,364,176269,1,10,1:2:0:0:
165,382,176411,1,0,3:2:0:0:
211,304,176552,6,0,B|276:282|276:282|343:325,1,130,2|8,2:0|1:2,0:0:0:0:
228,162,177118,2,0,P|185:174|153:182,1,65,2|0,3:2|3:2,0:0:0:0:
112,104,177401,2,0,P|149:92|185:87,1,65,10|0,1:2|2:0,0:0:0:0:
292,48,177684,6,0,B|352:73|352:73|445:61,2,130,6|8|0,3:2|1:2|3:2,0:0:0:0:
301,138,178392,1,0,3:2:0:0:
309,228,178533,2,0,L|316:300,1,65,10|2,1:2|3:2,0:0:0:0:
394,247,178816,6,0,B|426:229|426:229|460:272|513:262,2,130,2|8|0,2:0|1:2|3:2,0:0:0:0:
315,292,179524,1,0,3:2:0:0:
231,269,179665,2,0,P|197:276|166:292,1,65,10|2,1:2|2:0,0:0:0:0:
34,228,179948,6,0,B|104:238|104:238|155:204,1,130,6|8,3:2|1:2,0:0:0:0:
334,191,180514,2,0,B|348:150|330:117|330:117|333:51,1,130,2|8,3:2|1:2,0:0:0:0:
404,7,180939,1,0,2:0:0:0:
466,72,181080,6,0,L|460:145,1,65,6|0,3:2|2:0,0:0:0:0:
436,218,181364,1,10,1:2:0:0:
503,284,181505,1,8,2:0:0:0:
503,284,181576,1,8,2:0:0:0:
503,284,181647,2,0,P|486:329|464:362,1,65,8|0,2:0|3:2,0:0:0:0:
394,328,181930,2,0,P|379:299|369:268,1,65,8|8,2:0|2:3,0:0:0:0:
378,141,182213,6,0,P|352:133|274:180,1,116.999996429443,6|10,3:2|1:2,0:0:0:0:
286,253,182637,2,0,B|239:261|239:261|154:247,1,116.999996429443,2|2,2:0|3:2,0:0:0:0:
114,197,183062,1,8,1:2:0:0:
114,197,183203,6,0,L|30:181,2,58.4999982147217,2|2|2,3:2|2:3|3:2,0:0:0:0:
162,130,183628,2,0,L|230:110,1,58.4999982147217,8|0,1:2|3:2,0:0:0:0:
250,87,183840,1,8,2:0:0:0:
250,87,183911,2,0,L|323:111,1,58.4999982147217,10|0,1:2|3:2,0:0:0:0:
383,130,184194,2,0,L|442:120,1,58.4999982147217,10|0,1:2|2:0,0:0:0:0:
396,223,184477,6,0,B|354:223|324:253|324:253|275:256,1,116.999996429443,2|10,3:2|1:2,0:0:0:0:
231,314,184901,2,0,B|192:289|192:289|144:294|104:277,1,116.999996429443,2|2,2:0|3:2,0:0:0:0:
46,264,185326,1,8,1:2:0:0:
46,264,185467,6,0,L|37:325,2,58.4999982147217,2|2|2,3:2|2:3|3:2,0:0:0:0:
105,206,185892,2,0,L|98:139,1,58.4999982147217,8|2,1:2|3:2,0:0:0:0:
78,118,186104,1,8,2:0:0:0:
78,118,186175,2,0,L|84:49,1,58.4999982147217,10|2,1:2|3:2,0:0:0:0:
145,6,186458,1,10,1:2:0:0:
196,161,186741,6,0,B|188:200|188:200|208:259|265:250,1,116.999996429443,2|10,3:2|1:2,0:0:0:0:
314,216,187165,2,0,B|331:177|331:177|314:147|314:147|311:90,1,116.999996429443,2|2,2:0|3:2,0:0:0:0:
288,33,187590,1,8,1:2:0:0:
288,33,187731,6,0,L|213:53,2,58.4999982147217,2|2|2,3:2|2:3|3:2,0:0:0:0:
311,107,188156,2,0,L|381:86,1,58.4999982147217,8|0,1:2|3:2,0:0:0:0:
408,110,188368,1,8,2:0:0:0:
408,110,188439,2,0,P|422:144|428:182,1,58.4999982147217,10|0,1:2|3:2,0:0:0:0:
371,226,188722,2,0,P|352:263|351:298,1,58.4999982147217,10|0,1:2|2:0,0:0:0:0:
460,351,189005,6,0,B|434:293|434:293|460:225,1,116.999996429443,2|10,3:2|1:2,0:0:0:0:
426,165,189430,2,0,P|361:135|300:160,1,116.999996429443,2|2,2:0|3:2,0:0:0:0:
268,209,189854,2,0,B|233:228|233:228|193:215|193:215|147:227,1,116.999996429443,10|2,1:2|2:0,0:0:0:0:
95,275,190279,6,0,P|59:240|62:163,1,116.999996429443,2|2,3:2|3:2,0:0:0:0:
68,136,190632,1,8,2:0:0:0:
68,136,190703,2,0,L|56:56,1,58.4999982147217,10|0,1:2|3:2,0:0:0:0:
111,14,190986,1,10,1:2:0:0:
254,92,191269,6,0,L|266:19,1,58.4999982147217,6|2,3:2|2:0,0:0:0:0:
344,22,191552,1,10,1:2:0:0:
410,70,191694,2,0,L|472:56,2,58.4999982147217,2|8|2,2:0|1:2|3:2,0:0:0:0:
419,155,192118,1,2,2:3:0:0:
419,155,192260,6,0,L|490:167,2,58.4999982147217,10|2|0,1:2|2:3|3:2,0:0:0:0:
343,123,192684,2,0,L|272:146,1,58.4999982147217,10|0,1:2|3:2,0:0:0:0:
228,198,192967,2,0,L|154:174,1,58.4999982147217,2|2,3:2|3:2,0:0:0:0:
133,107,193250,1,10,1:2:0:0:
46,246,193533,6,0,P|33:298|30:326,1,58.4999982147217,2|2,3:2|3:2,0:0:0:0:
90,361,193816,1,10,1:2:0:0:
158,315,193958,2,0,L|151:256,2,58.4999982147217,2|8|2,2:0|1:2|3:2,0:0:0:0:
242,332,194382,1,2,2:3:0:0:
242,332,194524,6,0,L|255:269,2,58.4999982147217,10|2|2,1:2|2:3|3:2,0:0:0:0:
313,370,194948,2,0,L|389:352,1,58.4999982147217,10|2,1:2|3:2,0:0:0:0:
422,292,195231,2,0,L|429:234,1,58.4999982147217,2|2,3:2|3:2,0:0:0:0:
392,160,195514,1,10,1:2:0:0:
258,255,195797,6,0,L|248:181,1,58.4999982147217,6|2,3:2|2:0,0:0:0:0:
194,136,196080,1,10,1:2:0:0:
128,185,196222,2,0,L|57:204,2,58.4999982147217,2|8|2,2:0|1:2|3:2,0:0:0:0:
116,108,196647,1,0,2:0:0:0:
116,108,196788,6,0,L|31:96,2,58.4999982147217,10|2|0,1:2|2:0|3:2,0:0:0:0:
194,136,197213,2,0,L|260:117,1,58.4999982147217,10|0,1:2|3:2,0:0:0:0:
314,68,197496,2,0,P|329:103|334:140,1,58.4999982147217,2|0,3:2|3:2,0:0:0:0:
316,203,197779,1,10,1:2:0:0:
447,337,198062,5,10,3:2:0:0:
447,337,198203,1,8,3:2:0:0:
502,166,198486,1,8,3:2:0:0:
502,166,198628,1,8,3:2:0:0:
383,35,198911,1,8,3:2:0:0:
383,35,199052,1,8,3:2:0:0:
320,207,199335,1,0,3:2:0:0:
320,207,199477,1,12,2:0:0:0:
245,252,199618,5,8,2:0:0:0:
245,252,199689,1,8,2:0:0:0:
245,252,199760,2,0,L|232:323,1,65,8|8,2:0|2:0,0:0:0:0:
151,357,200043,2,0,L|134:279,1,65,0|8,3:2|2:3,0:0:0:0:
164,206,200326,1,4,3:2:0:0:
256,192,200467,12,0,205703,2:0:0:0:
