osu file format v14

[General]
AudioFilename: audio.mp3
AudioLeadIn: 0
PreviewTime: 73678
Countdown: 0
SampleSet: Soft
StackLeniency: 0.7
Mode: 0
LetterboxInBreaks: 0
WidescreenStoryboard: 1

[Editor]
Bookmarks: 1827,12094,22361,32629,42896,53163,73698,83966,94233,104500,114768,125035,135302,155837,166105,176372,186639,196907,217441,227709,237976,248244,258511
DistanceSpacing: 1.2
BeatDivisor: 4
GridSize: 32
TimelineZoom: 1.4

[Metadata]
Title:Helsinki no Yume
TitleUnicode:ヘルシンキの夢
Artist:culenasm
ArtistUnicode:クレナズム
Creator:Lasse
Version:Reverie
Source:
Tags:japanese pop rock In your fragrance
BeatmapID:2266782
BeatmapSetID:1083875

[Difficulty]
HPDrainRate:7
CircleSize:4
OverallDifficulty:8.6
ApproachRate:9
SliderMultiplier:1.76
SliderTickRate:1

[Events]
//Background and Video events
0,0,"bg.jpg",0,0
//Break Periods
//Storyboard Layer 0 (Background)
//Storyboard Layer 1 (Fail)
//Storyboard Layer 2 (Pass)
//Storyboard Layer 3 (Foreground)
//Storyboard Layer 4 (Overlay)
//Storyboard Sound Samples

[TimingPoints]
1827,320.855614973262,4,2,1,50,1,0
1827,-100,4,2,1,60,0,0
22201,-100,4,2,1,58,0,0
22281,-100,4,2,1,56,0,0
22361,-125,4,2,1,54,0,0
22682,-125,4,2,1,46,0,0
41613,-125,4,2,1,50,0,0
42896,-100,4,2,1,60,0,0
52682,-100,4,2,1,59,0,0
52762,-100,4,2,1,58,0,0
52843,-100,4,2,1,57,0,0
52923,-100,4,2,1,56,0,0
53003,-100,4,2,1,55,0,0
53083,-100,4,2,1,54,0,0
53163,-117.647058823529,4,2,1,53,0,0
53484,-117.647058823529,4,2,1,48,0,0
71131,-117.647058823529,4,2,1,50,0,0
72094,-117.647058823529,4,2,1,54,0,0
73056,-117.647058823529,4,2,1,60,0,0
73217,-117.647058823529,4,2,1,61,0,0
73297,-117.647058823529,4,2,1,62,0,0
73377,-117.647058823529,4,2,1,63,0,0
73458,-117.647058823529,4,2,1,64,0,0
73538,-117.647058823529,4,2,1,65,0,0
73618,-117.647058823529,4,2,1,66,0,0
73698,-83.3333333333333,4,2,1,70,0,0
94072,-100,4,2,1,68,0,0
94233,-100,4,2,1,62,0,0
114607,-100,4,2,1,60,0,0
114687,-100,4,2,1,58,0,0
114768,-117.647058823529,4,2,1,56,0,0
115089,-117.647058823529,4,2,1,50,0,0
125035,-111.111111111111,4,2,1,52,0,0
135302,-105.263157894737,4,2,1,56,0,0
145570,-105.263157894737,4,2,1,58,0,0
155195,-105.263157894737,4,2,1,62,0,0
155356,-105.263157894737,4,2,1,63,0,0
155436,-105.263157894737,4,2,1,64,0,0
155516,-105.263157894737,4,2,1,65,0,0
155597,-105.263157894737,4,2,1,66,0,0
155677,-105.263157894737,4,2,1,67,0,0
155757,-105.263157894737,4,2,1,68,0,0
155837,-76.9230769230769,4,2,1,72,0,0
175570,-76.9230769230769,4,2,1,69,0,0
175650,-76.9230769230769,4,2,1,68,0,0
175730,-76.9230769230769,4,2,1,67,0,0
175891,-76.9230769230769,4,2,1,65,0,0
176051,-76.9230769230769,4,2,2,64,0,0
176212,-76.9230769230769,4,2,2,60,0,0
176372,-100,4,2,1,55,0,0
177014,-200,4,2,1,42,0,0
181506,-200,4,2,1,44,0,0
186318,-200,4,2,1,26,0,0
186639,-166.666666666667,4,2,1,46,0,0
191773,-142.857142857143,4,2,1,48,0,0
195623,-125,4,2,1,50,0,0
195944,-125,4,2,1,46,0,0
196105,-125,4,2,1,47,0,0
196265,-125,4,2,1,48,0,0
196425,-125,4,2,1,49,0,0
196586,-125,4,2,1,50,0,0
196907,-100,4,2,1,56,0,0
197147,-100,4,2,1,24,0,0
197228,-100,4,2,1,56,0,0
207174,-90.9090909090909,4,2,1,58,0,0
216158,-90.9090909090909,4,2,1,60,0,0
216800,-90.9090909090909,4,2,1,62,0,0
216960,-90.9090909090909,4,2,1,63,0,0
217040,-90.9090909090909,4,2,1,64,0,0
217121,-90.9090909090909,4,2,1,65,0,0
217201,-90.9090909090909,4,2,1,66,0,0
217281,-90.9090909090909,4,2,1,67,0,0
217361,-90.9090909090909,4,2,1,68,0,0
217441,-71.4285714285714,4,2,1,74,0,0
237976,-66.6666666666667,4,2,1,72,0,0
238778,-76.9230769230769,4,2,1,72,0,0
248244,-62.5,4,2,1,74,0,0
248564,-71.4285714285714,4,2,1,74,0,0
258030,-71.4285714285714,4,2,1,72,0,0
258110,-71.4285714285714,4,2,1,71,0,0
258190,-71.4285714285714,4,2,1,70,0,0
258270,-71.4285714285714,4,2,1,69,0,0
258351,-71.4285714285714,4,2,1,68,0,0
258431,-71.4285714285714,4,2,1,67,0,0
258511,-210.20459212952,4,2,1,66,0,0
258591,-210.20459212952,4,2,1,20,0,0
259794,-210.20459212952,4,2,1,15,0,0
261078,-210.20459212952,4,2,1,10,0,0
262361,-210.20459212952,4,2,99,5,0,0
263645,-210.20459212952,4,2,99,6,0,0

[Colours]
Combo1 : 250,180,240
Combo2 : 120,200,230
Combo3 : 255,230,130
Combo4 : 160,230,150

[HitObjects]
71,185,543,5,2,0:3:0:0:
71,185,864,1,2,0:3:0:0:
71,185,1185,1,2,0:3:0:0:
71,185,1506,1,2,0:3:0:0:
158,75,1827,5,6,1:2:0:0:
253,115,1987,1,0,0:2:0:0:
329,41,2147,1,8,0:2:0:0:
232,2,2308,1,0,0:2:0:0:
167,180,2468,6,0,P|163:225|179:282,1,88,2|0,1:2|1:2,0:2:0:0:
316,338,2789,2,0,P|392:318|507:313,2,176,10|2|8,0:2|1:2|0:2,0:1:0:0:
162,384,3591,2,0,P|113:369|65:342,1,88,2|0,0:2|1:2,0:2:0:0:
247,292,3912,1,2,1:2:0:0:
167,173,4072,2,0,P|128:192|86:205,1,88,10|0,0:2|0:2,0:2:0:0:
279,29,4393,5,2,1:2:0:0:
154,67,4554,1,0,0:2:0:0:
272,11,4714,1,8,0:2:0:0:
392,73,4875,1,2,3:2:0:0:
392,73,4955,1,0,3:2:0:0:
392,73,5035,2,0,P|442:82|486:85,1,88,0|0,1:2|1:2,0:2:0:0:
301,304,5356,2,0,P|320:244|285:128,1,176,10|0,0:2|1:2,0:2:0:0:
292,137,5837,1,4,0:3:0:0:
125,0,5998,6,2,B|138:41|138:41|103:103,1,88,10|0,0:2|0:2,0:1:0:0:
296,141,6318,2,2,B|283:182|283:182|318:244,1,88,0|0,1:2|1:2,0:1:0:0:
117,296,6639,2,2,B|130:337|130:337|95:399,1,88,10|0,0:2|0:2,0:1:0:0:
20,384,6960,5,2,1:2:0:0:
55,228,7121,1,0,0:2:0:0:
211,262,7281,1,8,0:2:0:0:
305,220,7441,6,0,P|318:171|302:125,1,88,2|0,0:2|1:2,0:2:0:0:
166,0,7762,1,2,1:2:0:0:
99,94,7923,2,0,P|139:89|196:82,1,88,10|0,0:2|0:2,0:2:0:0:
447,41,8244,6,0,P|375:33|253:11,1,176,2|8,1:2|0:2,0:1:0:0:
410,146,8725,2,0,P|460:170|467:309,1,176,2|0,0:2|1:2,0:1:0:0:
324,384,9206,2,0,L|314:282,1,88,10|0,0:2|0:2,0:2:0:0:
161,182,9527,5,2,1:1:0:0:
20,219,9687,1,2,0:2:0:0:
71,130,9848,1,10,1:2:0:0:
109,269,10008,1,2,0:2:0:0:
354,95,10169,5,2,1:1:0:0:
204,53,10329,1,2,1:2:0:0:
299,0,10490,1,10,0:2:0:0:
267,156,10650,1,2,3:2:0:0:
267,156,10730,1,0,3:2:0:0:
267,156,10810,1,0,1:2:0:0:
84,384,11131,6,2,P|47:370|-19:361,1,88,10|0,0:2|0:2,0:1:0:0:
251,233,11452,2,2,P|257:272|282:333,1,88,2|0,1:2|1:2,0:1:0:0:
37,164,11773,2,2,P|67:138|108:86,1,88,10|0,0:2|0:2,0:1:0:0:
134,18,12094,5,6,1:2:0:0:
282,106,12254,1,0,0:2:0:0:
256,16,12415,1,8,0:2:0:0:
98,101,12575,1,0,0:2:0:0:
229,198,12736,6,0,L|324:187,1,88,2|0,1:2|1:2,0:2:0:0:
445,362,13056,2,0,P|429:295|320:283,2,176,10|2|8,0:2|1:2|0:2,0:2:0:0:
280,360,13859,2,0,P|325:352|368:350,1,88,2|0,0:2|1:2,0:2:0:0:
251,274,14179,1,2,1:2:0:0:
415,178,14340,2,0,P|419:223|428:264,1,88,10|0,0:2|0:2,0:2:0:0:
244,87,14661,5,2,1:2:0:0:
189,166,14821,1,0,0:2:0:0:
201,0,14982,1,8,0:2:0:0:
340,93,15142,1,2,3:2:0:0:
340,93,15222,1,0,3:2:0:0:
340,93,15302,2,0,P|383:93|438:73,1,88,0|0,1:2|1:2,0:2:0:0:
189,166,15623,2,0,P|106:130|8:124,1,176,10|0,0:2|1:2,0:2:0:0:
22,122,16105,1,4,0:3:0:0:
118,336,16265,6,2,B|83:329|83:329|64:337|64:337|10:325,1,88,10|0,0:2|0:2,0:1:0:0:
274,160,16586,2,2,B|239:167|239:167|220:159|220:159|166:171,1,88,2|0,1:2|1:2,0:1:0:0:
398,382,16907,2,2,B|363:375|363:375|344:383|344:383|290:371,1,88,10|0,0:2|0:2,0:1:0:0:
506,118,17228,5,2,1:2:0:0:
414,224,17388,1,0,0:2:0:0:
333,102,17548,1,8,0:2:0:0:
362,26,17709,6,0,P|404:21|447:7,1,88,2|0,0:2|1:2,0:2:0:0:
309,111,18030,1,2,1:2:0:0:
414,224,18190,2,0,P|416:171|432:127,1,88,10|0,0:2|0:2,0:2:0:0:
277,377,18511,6,0,P|266:289|231:209,1,176,2|8,1:2|0:2,0:2:0:0:
46,34,18992,2,0,P|10:114|1:201,1,176,2|0,0:2|1:2,0:2:0:0:
67,246,19474,2,0,L|174:228,1,88,8|0,0:2|0:2,0:2:0:0:
481,72,19794,5,2,1:1:0:0:
396,163,19955,1,2,0:2:0:0:
282,115,20115,1,10,1:2:0:0:
367,27,20276,1,2,0:2:0:0:
233,209,20436,5,2,1:1:0:0:
134,103,20597,1,2,1:2:0:0:
0,159,20757,1,10,0:2:0:0:
106,267,20917,1,2,3:2:0:0:
106,267,20998,1,0,3:2:0:0:
106,267,21078,1,0,1:2:0:0:
278,10,21399,5,10,0:1:0:0:
357,156,21559,1,2,0:2:0:0:
434,7,21720,1,6,1:1:0:0:
512,206,21880,5,8,0:2:0:0:
490,200,21960,1,8,0:2:0:0:
472,186,22040,1,8,0:2:0:0:
288,296,22201,5,8,0:2:0:0:
313,287,22281,1,8,0:2:0:0:
330,267,22361,1,6,1:2:0:0:
191,1,22682,5,10,0:2:0:0:
151,68,22843,1,0,0:2:0:0:
77,43,23003,2,0,P|41:35|-13:31,1,70.4,2|0,3:2|3:2,0:2:0:0:
89,120,23324,2,0,P|70:142|43:181,1,70.4,10|0,0:2|0:2,0:2:0:0:
163,146,23645,2,0,P|179:208|224:274,2,140.8,2|8|0,3:2|0:2|3:2,0:1:0:0:
264,7,24447,2,0,L|250:82,1,70.4,0|8,3:2|0:2,0:2:0:0:
512,257,24928,5,2,3:2:0:0:
446,221,25089,1,0,0:2:0:0:
385,262,25249,1,10,0:2:0:0:
451,298,25409,1,0,0:2:0:0:
512,257,25570,2,0,P|519:218|512:176,1,70.4,2|0,3:2|3:2,0:2:0:0:
422,104,25891,2,2,L|265:72,1,140.8,10|0,0:2|3:2,0:2:0:0:
425,82,26372,1,2,2:2:0:0:
285,94,26532,2,2,L|424:82,1,140.8,10|0,0:2|3:2,0:2:0:0:
326,170,27014,2,0,P|336:203|334:237,1,70.4,0|8,3:2|0:2,0:2:0:0:
79,308,27495,6,0,P|116:303|159:302,1,70.4,2|0,3:2|0:2,0:2:0:0:
158,378,27816,2,0,P|121:383|78:384,1,70.4,10|0,0:2|0:2,0:2:0:0:
79,308,28137,2,0,P|80:275|74:218,1,70.4,2|0,3:2|3:2,0:2:0:0:
1,244,28458,2,0,P|0:277|6:334,1,70.4,10|0,0:2|0:2,0:2:0:0:
158,378,28778,2,0,P|160:316|153:207,2,140.8,2|8|0,3:2|0:2|3:2,0:1:0:0:
238,345,29581,2,0,P|236:308|238:264,1,70.4,0|8,3:2|0:2,0:2:0:0:
512,220,30062,6,0,L|371:210,1,140.8,2|8,3:2|0:2,0:1:0:0:
371,210,30543,1,2,0:2:0:0:
317,137,30704,2,0,P|320:105|317:56,1,70.4,2|0,3:2|3:2,0:2:0:0:
429,0,31024,2,0,P|426:32|429:81,1,70.4,10|0,0:2|0:2,0:2:0:0:
505,131,31345,1,2,3:2:0:0:
505,131,31506,1,0,2:3:0:0:
506,271,31666,2,2,P|509:200|503:118,1,140.8,10|0,0:2|3:2,0:2:0:0:
421,165,32147,2,0,P|417:200|419:235,1,70.4,0|8,3:2|0:2,0:2:0:0:
182,357,32629,6,0,P|212:352|262:351,1,70.4,2|0,3:2|0:2,0:2:0:0:
127,293,32949,2,0,P|133:227|121:150,1,140.8,10|0,0:2|3:2,0:1:0:0:
78,92,33431,1,0,3:2:0:0:
122,31,33591,1,10,0:2:0:0:
193,53,33752,1,0,0:2:0:0:
194,127,33912,2,0,P|192:163|199:197,1,70.4,2|0,3:2|0:2,0:2:0:0:
290,265,34233,2,2,P|358:249|454:244,1,140.8,10|0,0:2|3:2,0:2:0:0:
428,243,34714,1,0,3:2:0:0:
512,154,34875,6,0,P|480:149|428:136,1,70.4,10|0,0:2|0:2,0:2:0:0:
381,4,35195,2,0,P|383:39|382:75,1,70.4,2|0,3:2|0:2,0:2:0:0:
305,111,35516,2,2,P|240:88|157:76,1,140.8,10|0,2:2|3:2,0:2:0:0:
169,76,35998,1,0,3:2:0:0:
301,130,36158,2,0,P|232:143|166:168,2,140.8,10|2|10,0:2|3:2|0:2,0:1:0:0:
444,250,37121,2,0,P|485:258|511:268,2,70.4,0|0|8,3:2|3:2|0:2,0:2:0:0:
245,332,37762,6,0,P|176:359|105:376,1,140.8,2|8,3:2|0:2,0:2:0:0:
19,329,38244,2,0,P|12:294|0:261,1,70.4,2|0,0:2|3:2,0:2:0:0:
111,259,38564,2,0,P|117:227|131:190,1,70.4,2|8,3:2|0:2,0:2:0:0:
189,140,38885,1,2,0:2:0:0:
141,78,39046,2,0,P|61:99|-10:96,2,140.8,2|8|0,3:2|0:2|3:2,0:1:0:0:
257,26,39848,2,0,L|188:16,1,70.4,0|8,3:2|0:2,0:2:0:0:
431,145,40329,5,2,3:2:0:0:
398,74,40490,1,0,0:2:0:0:
327,107,40650,1,10,0:2:0:0:
360,178,40810,2,0,L|355:261,1,70.4,2|0,0:2|3:2,0:2:0:0:
266,340,41131,1,0,3:2:0:0:
380,382,41292,2,0,P|419:377|462:375,1,70.4,10|0,0:2|0:2,0:2:0:0:
255,234,41613,5,2,3:1:0:0:
158,299,41773,2,2,B|121:305|121:305|74:276,1,70.4,2|8,0:2|0:2,0:1:0:0:
254,116,42094,5,2,0:1:0:0:
355,248,42254,1,6,3:2:0:0:
426,171,42415,5,10,0:2:0:0:
416,143,42495,1,8,0:2:0:0:
410,114,42575,1,8,0:2:0:0:
410,85,42655,1,8,0:2:0:0:
414,56,42736,1,8,0:2:0:0:
424,28,42816,1,8,0:2:0:0:
438,2,42896,5,6,1:2:0:0:
509,79,43056,1,0,0:2:0:0:
410,114,43217,1,8,0:2:0:0:
339,37,43377,1,0,0:2:0:0:
232,225,43538,5,2,1:2:0:0:
325,190,43698,1,0,1:2:0:0:
258,118,43859,1,8,0:2:0:0:
165,153,44019,1,0,0:3:0:0:
79,87,44179,6,0,P|82:47|76:-5,1,88,2|0,1:2|0:2,0:2:0:0:
1,182,44500,1,10,0:2:0:0:
146,245,44661,2,0,P|183:231|235:224,1,88,2|0,0:2|1:2,0:2:0:0:
1,182,44982,1,2,1:2:0:0:
85,330,45142,2,0,P|118:352|162:371,1,88,10|0,0:2|0:2,0:2:0:0:
359,253,45463,5,2,1:2:0:0:
231,224,45623,1,0,0:2:0:0:
260,96,45784,1,8,0:2:0:0:
395,132,45944,1,2,3:2:0:0:
395,132,46024,1,0,3:2:0:0:
395,132,46105,2,0,P|438:132|489:108,1,88,0|0,1:2|1:2,0:2:0:0:
246,75,46425,2,0,P|162:45|69:33,1,176,10|0,0:2|1:2,0:2:0:0:
76,33,46907,1,4,0:3:0:0:
9,249,47067,6,2,B|2:218|2:218|8:202|8:202|-1:159,1,88,10|0,0:2|0:2,0:1:0:0:
208,341,47388,2,2,B|214:310|214:310|209:294|209:294|218:251,1,88,2|0,1:2|1:2,0:1:0:0:
398,203,47709,2,2,B|391:172|391:172|397:156|397:156|388:113,1,88,10|0,0:2|0:2,0:1:0:0:
512,302,48030,5,2,1:2:0:0:
402,375,48190,1,0,0:2:0:0:
324,266,48351,1,8,0:2:0:0:
398,203,48511,6,0,P|440:195|487:188,1,88,2|0,0:2|1:2,0:2:0:0:
370,1,48832,1,2,1:2:0:0:
232,69,48992,2,0,P|275:78|318:83,1,88,10|0,0:2|0:2,0:2:0:0:
91,188,49313,6,0,P|201:168|290:165,1,176,2|8,1:2|0:2,0:2:0:0:
415,288,49794,1,2,3:2:0:0:
415,288,49875,1,0,3:2:0:0:
415,288,49955,2,0,P|404:221|385:172,1,88,0|0,1:2|1:2,0:2:0:0:
204,47,50276,2,0,P|198:90|186:132,1,88,10|0,0:2|0:2,0:2:0:0:
0,267,50597,5,2,1:1:0:0:
148,294,50757,1,2,0:2:0:0:
87,206,50917,1,10,1:2:0:0:
59,354,51078,1,2,0:2:0:0:
381,252,51238,5,2,1:1:0:0:
220,221,51399,1,2,1:2:0:0:
315,157,51559,1,10,0:2:0:0:
292,324,51720,1,2,3:2:0:0:
292,324,51800,1,0,3:2:0:0:
292,324,51880,1,0,1:2:0:0:
512,40,52201,5,10,0:1:0:0:
404,167,52361,1,2,0:2:0:0:
351,7,52522,1,6,1:1:0:0:
240,61,52682,5,10,2:2:0:0:
236,102,52762,1,8,2:2:0:0:
217,140,52843,1,8,2:2:0:0:
184,166,52923,1,8,2:2:0:0:
143,177,53003,1,8,2:2:0:0:
102,171,53083,1,8,2:2:0:0:
66,149,53163,1,6,1:2:0:0:
0,345,53484,5,10,0:2:0:0:
76,325,53645,1,0,0:3:0:0:
143,365,53805,2,0,P|189:373|232:371,1,74.8000014266968,2|0,3:2|3:2,0:2:0:0:
284,297,54126,2,0,P|270:264|252:207,1,74.8000014266968,10|0,0:2|0:2,0:2:0:0:
386,175,54447,2,2,P|371:247|372:329,2,149.600002853394,2|10|0,3:2|0:2|3:2,0:2:0:0:
485,107,55249,2,0,P|495:141|517:187,1,74.8000014266968,0|8,3:2|0:2,0:2:0:0:
319,34,55730,5,2,3:2:0:0:
285,101,55891,1,0,0:2:0:0:
218,67,56051,1,10,0:2:0:0:
252,0,56212,1,0,0:2:0:0:
285,101,56372,2,0,P|285:135|275:184,1,74.8000014266968,2|0,3:2|3:2,0:2:0:0:
140,94,56693,2,0,P|140:60|150:11,1,74.8000014266968,10|0,0:2|0:2,0:2:0:0:
68,165,57014,2,0,P|49:132|37:97,1,74.8000014266968,2|0,3:2|0:2,0:2:0:0:
162,194,57335,2,2,P|159:242|119:352,1,149.600002853394,10|0,0:2|3:2,0:2:0:0:
33,384,57816,2,0,P|31:342|21:295,1,74.8000014266968,0|8,3:2|0:2,0:2:0:0:
254,90,58297,6,0,P|247:126|243:164,1,74.8000014266968,2|0,3:2|0:2,0:2:0:0:
329,208,58618,2,0,P|336:171|341:135,1,74.8000014266968,10|0,0:2|0:2,0:2:0:0:
263,285,58939,1,2,3:2:0:0:
263,285,59099,1,0,3:2:0:0:
345,342,59260,2,2,P|418:335|507:342,1,149.600002853394,10|2,0:2|3:2,0:2:0:0:
243,164,59901,1,10,0:2:0:0:
168,192,60062,2,0,P|127:185|87:175,1,74.8000014266968,2|0,0:2|3:2,0:2:0:0:
209,89,60383,2,0,P|201:52|198:15,1,74.8000014266968,0|8,3:2|0:2,0:2:0:0:
512,137,60864,5,2,3:2:0:0:
471,199,61024,1,0,0:2:0:0:
406,160,61185,1,10,0:2:0:0:
447,98,61345,1,0,0:3:0:0:
471,199,61506,2,0,P|472:243|464:291,1,74.8000014266968,2|0,3:2|3:2,0:2:0:0:
392,367,61826,2,0,P|360:353|299:340,1,74.8000014266968,10|0,0:2|0:2,0:2:0:0:
176,365,62147,1,2,3:2:0:0:
176,365,62308,1,0,3:2:0:0:
321,342,62468,2,2,P|251:367|172:364,1,149.600002853394,10|0,0:2|3:2,0:2:0:0:
65,319,62949,2,0,L|135:291,1,74.8000014266968,0|8,3:2|0:2,0:2:0:0:
249,218,63270,5,2,0:2:0:0:
191,169,63431,2,0,P|183:133|183:75,1,74.8000014266968,2|0,3:2|0:2,0:2:0:0:
333,194,63752,2,0,P|331:231|323:267,1,74.8000014266968,10|0,0:2|0:2,0:2:0:0:
213,331,64072,2,0,P|148:296|69:291,1,149.600002853394,2|8,3:2|0:2,0:2:0:0:
0,313,64554,1,2,0:2:0:0:
84,212,64714,2,0,P|47:205|14:186,1,74.8000014266968,2|0,3:2|2:2,0:2:0:0:
150,160,65035,2,2,P|210:126|312:117,1,149.600002853394,8|0,0:2|3:2,0:2:0:0:
288,114,65516,1,0,3:2:0:0:
195,43,65677,6,0,P|164:39|118:23,1,74.8000014266968,10|0,0:2|0:2,0:2:0:0:
195,43,65998,1,2,3:2:0:0:
86,96,66158,2,0,P|48:101|12:110,1,74.8000014266968,2|8,0:2|0:2,0:2:0:0:
150,160,66479,1,2,0:2:0:0:
77,263,66639,2,0,P|69:221|56:186,1,74.8000014266968,2|0,3:2|3:2,0:2:0:0:
223,225,66960,2,2,P|210:286|201:395,2,149.600002853394,10|2|10,0:2|3:2|0:2,0:2:0:0:
440,125,67923,2,0,P|490:139|529:143,2,74.8000014266968,0|0|8,3:2|3:2|0:2,0:2:0:0:
227,3,68564,5,2,3:2:0:0:
191,92,68725,2,0,P|223:83|272:74,1,74.8000014266968,2|8,0:2|0:2,0:2:0:0:
328,116,69046,1,0,0:3:0:0:
235,214,69206,1,2,3:2:0:0:
170,173,69367,2,0,P|138:164|89:155,1,74.8000014266968,0|8,3:2|0:2,0:2:0:0:
167,250,69687,1,2,0:2:0:0:
235,214,69848,1,2,0:2:0:0:
170,173,70008,1,0,0:2:0:0:
232,291,70169,2,2,P|241:347|333:347,1,149.600002853394,10|0,0:2|3:2,0:2:0:0:
419,286,70650,2,0,L|345:273,1,74.8000014266968,0|8,3:2|0:2,0:2:0:0:
71,120,71131,6,0,L|233:112,1,149.600002853394,2|8,3:2|0:2,0:2:0:0:
291,147,71613,1,2,0:2:0:0:
356,103,71773,1,2,3:2:0:0:
350,24,71933,1,0,3:2:0:0:
220,112,72094,2,2,P|145:105|127:27,2,149.600002853394,10|2|10,0:2|3:2|0:2,0:2:0:0:
444,0,73056,5,14,0:2:0:0:
356,103,73217,1,8,0:2:0:0:
392,109,73297,1,8,0:2:0:0:
424,128,73377,1,8,0:2:0:0:
448,157,73458,1,8,0:2:0:0:
461,192,73538,1,8,0:2:0:0:
461,229,73618,1,8,0:2:0:0:
449,264,73698,6,0,L|311:249,1,105.599996777344,6|0,1:2|0:2,0:1:0:0:
212,129,74019,2,0,P|214:82|193:5,1,105.599996777344,8|0,0:2|0:2,0:1:0:0:
0,206,74340,5,2,1:1:0:0:
88,279,74500,1,0,1:2:0:0:
188,219,74661,1,8,1:2:0:0:
100,146,74821,1,0,1:2:0:0:
303,27,74982,6,2,P|302:120|314:239,1,211.199993554688,2|8,1:2|0:2,0:1:0:0:
340,313,75463,1,4,2:3:0:0:
505,173,75623,2,0,P|452:168|403:149,1,105.599996777344,2|0,1:2|1:2,0:2:0:0:
201,50,75944,2,0,P|253:45|302:26,1,105.599996777344,8|0,0:2|0:2,0:2:0:0:
119,276,76265,5,2,1:1:0:0:
9,242,76425,1,0,1:2:0:0:
146,177,76586,1,10,1:1:0:0:
195,346,76746,1,0,1:2:0:0:
360,211,76907,5,2,1:1:0:0:
233,246,77067,1,0,1:2:0:0:
298,121,77228,1,10,1:1:0:0:
423,292,77388,1,0,1:2:0:0:
491,204,77548,6,2,P|508:95|475:-12,2,211.199993554688,2|8|0,1:1|0:2|1:2,0:1:0:0:
423,292,78351,1,0,1:2:0:0:
293,148,78511,2,0,P|289:93|265:25,1,105.599996777344,10|0,0:2|0:2,0:2:0:0:
0,175,78832,5,2,1:1:0:0:
180,138,78992,1,2,0:2:0:0:
103,226,79153,1,10,2:1:0:0:
77,87,79313,1,2,0:2:0:0:
217,257,79474,5,2,1:1:0:0:
217,257,79634,1,0,1:2:0:0:
293,148,79794,5,10,0:1:0:0:
408,257,79955,1,2,0:2:0:0:
507,133,80115,1,2,1:2:0:0:
392,26,80276,2,0,P|320:34|266:25,1,105.599996777344,2|8,0:2|0:2,0:2:0:0:
217,257,80597,1,2,3:2:0:0:
217,257,80677,1,0,3:2:0:0:
217,257,80757,2,0,P|289:249|343:258,1,105.599996777344,0|0,1:2|1:2,0:2:0:0:
118,99,81078,5,10,0:1:0:0:
29,156,81238,1,2,0:2:0:0:
27,50,81399,1,2,1:2:0:0:
317,143,81559,5,2,0:1:0:0:
287,30,81720,1,10,0:2:0:0:
204,110,81880,1,2,0:2:0:0:
395,216,82040,5,2,1:1:0:0:
481,122,82201,1,2,1:2:0:0:
464,290,82361,2,2,L|417:81,1,211.199993554688,10|0,0:1|1:1,0:1:0:0:
102,12,82843,5,2,0:2:0:0:
204,110,83003,1,10,0:2:0:0:
46,235,83163,1,2,3:2:0:0:
46,235,83244,1,0,3:2:0:0:
46,235,83324,2,2,P|45:175|57:125,1,105.599996777344,0|0,1:2|1:2,0:1:0:0:
448,231,83645,2,2,P|449:291|437:341,1,105.599996777344,8|0,0:2|0:2,0:1:0:0:
232,383,83966,6,2,P|228:311|266:169,1,211.199993554688,6|8,1:2|0:2,0:1:0:0:
324,91,84447,1,4,0:3:0:0:
146,160,84607,1,2,1:1:0:0:
117,58,84768,1,0,1:2:0:0:
261,177,84928,1,8,1:2:0:0:
324,91,85089,1,0,1:2:0:0:
477,241,85249,6,2,P|468:144|444:19,1,211.199993554688,2|8,1:1|0:2,0:1:0:0:
379,153,85730,1,4,0:3:0:0:
211,22,85891,2,0,P|267:16|325:6,1,105.599996777344,2|0,1:2|1:2,0:2:0:0:
197,235,86212,2,0,P|144:226|92:220,1,105.599996777344,10|0,0:2|0:2,0:2:0:0:
0,260,86532,5,2,1:1:0:0:
127,309,86693,1,0,1:2:0:0:
176,135,86853,1,10,1:1:0:0:
92,220,87014,1,0,1:2:0:0:
62,107,87174,5,2,1:1:0:0:
197,235,87335,1,0,1:2:0:0:
297,87,87495,1,10,1:1:0:0:
176,135,87655,1,0,1:2:0:0:
367,192,87816,6,2,P|433:198|492:78,2,211.199993554688,2|8|0,1:1|0:2|1:2,0:1:0:0:
297,87,88618,1,0,1:2:0:0:
189,260,88778,2,0,L|308:243,1,105.599996777344,10|0,0:2|0:2,0:2:0:0:
33,161,89099,5,2,1:1:0:0:
0,280,89260,1,2,0:2:0:0:
189,260,89420,1,10,1:1:0:0:
157,379,89581,1,2,0:2:0:0:
89,238,89741,5,2,1:1:0:0:
252,344,89901,1,2,1:2:0:0:
261,151,90062,1,10,1:1:0:0:
189,260,90222,1,2,0:2:0:0:
350,326,90383,6,0,L|476:313,1,105.599996777344,2|0,1:1|0:2,0:2:0:0:
261,151,90704,1,10,0:1:0:0:
174,173,90864,1,2,3:2:0:0:
174,173,90944,1,0,3:2:0:0:
174,173,91024,1,0,1:2:0:0:
95,119,91185,2,0,L|81:4,1,105.599996777344,0|8,1:2|0:2,0:2:0:0:
361,116,91506,5,2,0:2:0:0:
261,151,91666,1,2,1:1:0:0:
281,47,91826,1,2,0:2:0:0:
441,185,91987,1,10,1:1:0:0:
461,81,92147,1,2,0:2:0:0:
381,12,92308,5,2,1:1:0:0:
261,151,92468,1,2,1:2:0:0:
441,185,92629,1,10,1:1:0:0:
57,57,92949,5,2,1:1:0:0:
206,1,93110,1,2,2:2:0:0:
261,151,93270,1,10,1:1:0:0:
111,206,93431,1,2,2:2:0:0:
0,305,93591,5,6,1:1:0:0:
115,384,93752,5,8,2:2:0:0:
117,357,93832,1,8,2:2:0:0:
120,330,93912,1,8,2:2:0:0:
304,378,94072,5,8,0:1:0:0:
294,353,94153,1,8,0:1:0:0:
285,328,94233,1,6,1:2:0:0:
208,255,94393,1,0,0:2:0:0:
281,178,94554,1,8,0:2:0:0:
358,251,94714,1,0,0:2:0:0:
446,197,94875,6,0,P|449:154|441:95,1,88,2|0,1:2|1:2,0:2:0:0:
176,43,95195,2,0,P|171:86|174:130,1,88,10|0,0:2|0:2,0:2:0:0:
281,178,95516,6,0,P|293:83|287:-6,1,176,2|8,1:2|0:2,0:2:0:0:
82,102,95998,2,0,P|84:131|114:214,1,88,2|0,0:2|1:2,0:2:0:0:
228,288,96318,1,2,1:2:0:0:
87,349,96479,2,0,L|-15:335,1,88,10|0,0:2|0:2,0:2:0:0:
190,133,96800,5,2,1:2:0:0:
100,187,96960,1,0,0:2:0:0:
161,39,97121,1,8,0:2:0:0:
273,79,97281,1,2,3:2:0:0:
273,79,97361,1,0,3:2:0:0:
273,79,97441,2,0,P|323:88|366:88,1,88,0|0,1:2|1:2,0:2:0:0:
239,298,97762,2,0,P|227:211|189:132,1,176,10|0,0:2|1:2,0:1:0:0:
189,132,98244,1,4,0:3:0:0:
95,20,98404,6,2,B|56:43|56:43|8:25,1,88,10|0,0:2|0:2,0:1:0:0:
271,129,98725,2,2,B|230:113|230:113|191:136,1,88,2|0,1:2|1:2,0:1:0:0:
440,15,99046,2,2,B|399:30|399:30|360:7,1,88,10|0,0:2|0:2,0:1:0:0:
512,186,99367,5,2,1:2:0:0:
392,153,99527,1,0,0:2:0:0:
297,231,99687,1,8,0:2:0:0:
192,135,99848,6,0,P|190:89|177:44,1,88,2|0,0:2|1:2,0:2:0:0:
109,251,100169,1,2,1:2:0:0:
0,182,100329,2,0,P|2:136|15:91,1,88,10|0,0:2|0:2,0:2:0:0:
204,29,100650,6,0,B|312:8|263:74|386:63,1,176,2|8,1:2|0:2,0:2:0:0:
248,213,101131,2,0,P|259:281|140:307,1,176,2|0,0:2|1:2,0:2:0:0:
20,384,101613,2,0,L|34:285,1,88,10|0,0:2|0:2,0:2:0:0:
111,135,101933,5,2,1:1:0:0:
248,213,102094,1,2,0:2:0:0:
220,105,102254,1,10,1:2:0:0:
140,241,102415,1,2,0:2:0:0:
328,296,102575,5,2,1:1:0:0:
465,218,102736,1,2,1:2:0:0:
437,326,102896,1,10,0:2:0:0:
364,197,103056,1,0,3:2:0:0:
364,197,103137,1,0,3:2:0:0:
364,197,103217,1,0,1:2:0:0:
93,364,103538,6,2,L|-16:352,1,88,10|0,0:2|0:2,0:1:0:0:
236,210,103859,2,2,L|127:198,1,88,2|0,1:2|1:2,0:1:0:0:
351,380,104179,2,2,L|242:368,1,88,10|0,0:2|0:2,0:1:0:0:
499,253,104500,5,6,1:2:0:0:
414,301,104661,1,0,0:2:0:0:
354,224,104821,1,8,0:2:0:0:
439,176,104982,1,0,0:2:0:0:
278,83,105142,5,2,1:2:0:0:
357,127,105302,1,0,1:2:0:0:
413,56,105463,1,8,0:2:0:0:
334,11,105623,1,0,0:2:0:0:
179,64,105784,6,0,P|138:57|89:39,1,88,2|0,1:2|0:0,0:0:0:0:
195,150,106105,1,10,0:0:0:0:
85,280,106265,2,0,P|74:230|55:173,1,88,2|0,0:2|1:2,0:2:0:0:
195,150,106586,1,2,1:2:0:0:
228,278,106746,2,0,P|215:320|206:363,1,88,10|0,0:2|0:2,0:2:0:0:
428,281,107067,5,2,1:2:0:0:
323,199,107228,1,0,0:2:0:0:
341,67,107388,1,8,0:2:0:0:
471,23,107548,1,2,3:2:0:0:
471,23,107629,1,0,3:2:0:0:
471,23,107709,2,0,P|476:62|498:121,1,88,0|0,1:2|1:2,0:2:0:0:
323,199,108030,2,0,P|234:166|131:155,1,176,10|0,0:2|1:2,0:2:0:0:
154,155,108511,1,4,0:3:0:0:
48,351,108671,6,2,B|44:319|44:319|47:308|47:308|39:264,1,88,10|0,0:2|0:2,0:1:0:0:
252,137,108992,2,2,B|248:169|248:169|251:180|251:180|243:224,1,88,2|0,1:2|1:2,0:1:0:0:
30,105,109313,2,2,B|26:73|26:73|29:62|29:62|21:18,1,88,10|0,0:2|0:2,0:1:0:0:
307,48,109634,5,2,1:2:0:0:
173,92,109794,1,0,0:2:0:0:
303,28,109955,1,8,0:2:0:0:
397,132,110115,6,0,P|438:145|492:149,1,88,2|0,0:2|1:2,0:2:0:0:
299,10,110436,1,2,1:2:0:0:
245,164,110597,2,0,L|272:264,1,88,10|0,0:2|0:2,0:2:0:0:
62,373,110917,6,0,P|65:275|115:184,1,176,2|8,1:2|0:2,0:2:0:0:
253,339,111399,1,2,3:2:0:0:
253,339,111479,1,0,3:2:0:0:
253,339,111559,2,0,P|209:337|152:316,1,88,0|0,1:2|1:2,0:2:0:0:
359,226,111880,2,0,P|361:179|350:117,1,88,8|0,0:2|0:2,0:2:0:0:
166,0,112201,5,2,1:1:0:0:
73,132,112361,1,2,0:2:0:0:
53,19,112522,1,10,1:2:0:0:
186,111,112682,1,2,0:2:0:0:
391,7,112843,5,2,1:1:0:0:
491,150,113003,1,2,1:2:0:0:
512,27,113163,1,10,0:2:0:0:
375,134,113324,1,2,3:2:0:0:
375,134,113404,1,0,3:2:0:0:
375,134,113484,1,0,1:2:0:0:
53,19,113805,5,10,0:1:0:0:
113,176,113966,1,2,0:2:0:0:
188,23,114126,1,6,1:1:0:0:
287,190,114286,5,8,0:2:0:0:
266,181,114367,1,8,0:2:0:0:
244,178,114447,1,8,0:2:0:0:
408,32,114607,5,8,0:2:0:0:
387,40,114687,1,8,0:2:0:0:
364,42,114768,1,6,1:2:0:0:
487,261,115089,6,0,P|505:178|486:102,1,149.600002853394,10|0,2:2|3:2,0:2:0:0:
492,115,115570,1,0,3:2:0:0:
424,142,115730,1,10,0:2:0:0:
349,136,115891,1,0,0:3:0:0:
291,87,116051,2,0,P|286:51|270:17,1,74.8000014266968,2|0,3:2|0:2,0:2:0:0:
232,134,116372,2,2,P|177:183|162:255,1,149.600002853394,2|0,3:2|3:2,0:2:0:0:
162,255,116853,1,0,3:2:0:0:
238,331,117014,6,0,L|319:316,1,74.8000014266968,10|0,0:2|0:2,0:2:0:0:
418,384,117335,2,0,P|403:343|411:300,1,74.8000014266968,2|0,3:2|0:2,0:2:0:0:
474,249,117655,1,10,0:2:0:0:
474,249,117816,1,0,0:2:0:0:
397,196,117976,2,0,L|323:180,1,74.8000014266968,2|0,3:2|3:2,0:2:0:0:
443,112,118297,2,2,P|446:40|518:24,2,149.600002853394,10|2|10,0:2|3:2|0:2,0:2:0:0:
483,295,119260,2,0,L|498:212,2,74.8000014266968,0|0|8,3:2|3:2|0:2,0:2:0:0:
309,384,119901,6,0,P|300:317|271:230,1,149.600002853394,2|8,3:2|2:2,0:2:0:0:
231,173,120383,1,2,2:2:0:0:
133,243,120543,2,2,P|141:206|152:171,1,74.8000014266968,2|0,3:2|3:2,2:2:0:0:
283,106,120864,2,0,P|275:67|264:33,1,74.8000014266968,10|0,0:2|0:2,0:2:0:0:
412,0,121185,2,2,P|394:48|377:159,2,149.600002853394,2|10|0,3:2|0:2|3:2,0:2:0:0:
493,95,121987,2,0,P|500:132|519:181,1,74.8000014266968,0|8,3:2|0:2,0:2:0:0:
466,366,122468,5,2,3:2:0:0:
398,325,122629,2,0,P|391:288|378:253,1,74.8000014266968,2|8,0:2|0:2,0:2:0:0:
312,295,122949,1,2,0:2:0:0:
245,252,123110,2,0,P|251:215|264:180,1,74.8000014266968,2|0,3:2|3:2,0:2:0:0:
384,163,123431,2,0,P|377:126|364:91,1,74.8000014266968,10|0,0:2|0:2,0:2:0:0:
284,28,123752,1,2,3:2:0:0:
232,87,123912,1,0,0:2:0:0:
164,46,124072,2,2,P|115:20|17:17,1,149.600002853394,10|0,0:2|3:2,0:2:0:0:
126,113,124554,2,0,P|104:140|94:182,1,74.8000014266968,0|8,3:2|0:2,0:2:0:0:
204,341,125035,5,2,3:2:0:0:
256,281,125195,1,0,0:2:0:0:
281,356,125356,1,10,0:2:0:0:
204,341,125516,1,0,0:2:0:0:
256,281,125677,2,0,P|269:246|268:201,1,79.1999975830079,2|0,3:2|3:2,0:2:0:0:
153,128,125998,2,0,P|140:163|141:208,1,79.1999975830079,10|0,0:2|0:2,0:2:0:0:
270,291,126318,2,0,P|307:276|349:275,1,79.1999975830079,2|0,3:2|0:2,0:2:0:0:
330,368,126639,2,2,P|407:387|485:376,1,158.399995166016,10|0,0:2|3:2,0:2:0:0:
485,376,127121,1,0,3:2:0:0:
512,262,127281,6,0,P|493:227|482:164,1,79.1999975830079,10|0,0:2|0:2,0:2:0:0:
345,274,127602,2,0,P|368:221|375:95,1,158.399995166016,2|8,3:2|0:2,0:2:0:0:
356,45,128083,1,0,0:3:0:0:
302,103,128244,1,2,3:2:0:0:
223,112,128404,1,0,3:2:0:0:
156,68,128564,2,0,P|120:49|82:41,1,79.1999975830079,10|0,0:2|0:2,0:2:0:0:
117,138,128885,2,0,P|79:149|46:170,1,79.1999975830079,2|0,3:2|0:2,0:2:0:0:
139,213,129206,2,2,P|105:283|114:361,1,158.399995166016,10|0,0:2|3:2,0:2:0:0:
190,384,129687,2,0,P|234:372|278:367,1,79.1999975830079,0|8,3:2|0:2,0:2:0:0:
512,384,130169,6,0,P|521:306|486:236,1,158.399995166016,2|8,3:2|0:2,0:2:0:0:
422,281,130650,1,2,0:2:0:0:
367,224,130810,2,0,P|367:184|381:147,1,79.1999975830079,2|0,3:2|3:2,0:2:0:0:
251,92,131131,2,0,P|250:52|236:15,1,79.1999975830079,10|0,0:2|0:2,0:2:0:0:
152,131,131452,2,2,P|76:87|-6:99,1,158.399995166016,2|8,3:2|0:2,0:2:0:0:
115,282,132094,5,2,3:2:0:0:
153,217,132254,1,0,3:2:0:0:
190,282,132415,1,10,0:2:0:0:
152,347,132575,1,0,0:2:0:0:
77,347,132736,2,0,P|34:340|-5:338,1,79.1999975830079,2|0,3:2|0:2,0:2:0:0:
190,282,133056,2,0,P|229:279|268:273,1,79.1999975830079,10|0,0:2|0:2,0:2:0:0:
171,144,133377,2,0,P|167:100|153:47,1,79.1999975830079,2|0,3:2|3:2,0:2:0:0:
42,10,133698,2,2,P|20:69|-2:180,2,158.399995166016,10|2|10,0:2|3:2|0:2,0:2:0:0:
321,76,134661,5,2,3:2:0:0:
259,126,134821,1,0,3:2:0:0:
247,49,134982,1,10,0:2:0:0:
480,107,135302,6,0,P|403:75|320:76,1,167.199995535278,6|8,3:2|0:2,0:2:0:0:
320,76,135784,1,2,0:2:0:0:
259,126,135944,1,2,3:2:0:0:
272,204,136105,1,0,3:2:0:0:
346,231,136265,1,8,0:2:0:0:
401,182,136425,5,2,0:2:0:0:
285,281,136586,1,2,3:2:0:0:
197,176,136746,2,0,P|159:165|111:162,1,83.5999977676392,2|8,0:2|0:2,0:2:0:0:
34,181,137067,1,2,0:2:0:0:
144,84,137228,2,0,P|181:67|219:38,2,83.5999977676392,2|0|8,3:2|3:2|0:2,0:2:0:0:
0,272,137869,6,0,P|83:279|180:323,1,167.199995535278,2|8,3:2|0:2,0:2:0:0:
160,310,138351,1,2,0:2:0:0:
285,384,138511,2,0,P|274:343|270:268,1,83.5999977676392,2|0,3:2|3:2,0:2:0:0:
399,243,138832,2,0,P|394:284|383:324,1,83.5999977676392,10|0,0:2|0:2,0:2:0:0:
254,216,139153,6,2,P|176:184|93:177,1,167.199995535278,2|8,3:2|0:2,0:2:0:0:
11,193,139634,1,2,0:2:0:0:
37,113,139794,1,2,3:2:0:0:
120,98,139955,1,0,3:2:0:0:
95,177,140115,1,10,0:2:0:0:
260,350,140436,6,0,L|242:165,2,167.199995535278,2|10|0,3:2|0:2|3:2,0:2:0:0:
334,380,141238,1,2,3:2:0:0:
399,335,141399,1,8,0:2:0:0:
470,368,141559,1,0,0:2:0:0:
392,257,141720,5,2,3:2:0:0:
313,285,141880,2,0,P|282:282|227:255,1,83.5999977676392,2|8,0:2|0:2,0:2:0:0:
177,198,142201,1,2,0:2:0:0:
231,134,142361,2,0,P|248:100|251:36,2,83.5999977676392,2|0|8,3:2|3:2|0:2,0:2:0:0:
11,243,143003,6,0,P|-11:163|9:84,1,167.199995535278,2|8,3:2|0:2,0:2:0:0:
9,83,143484,1,2,0:2:0:0:
158,19,143645,2,0,P|119:21|67:11,1,83.5999977676392,2|0,3:2|3:2,0:2:0:0:
256,149,143966,2,0,P|214:147|174:155,1,83.5999977676392,10|0,0:2|0:2,0:2:0:0:
393,237,144286,6,2,P|416:185|392:64,1,167.199995535278,2|8,3:2|0:2,0:2:0:0:
362,4,144768,1,2,0:2:0:0:
278,0,144928,1,2,3:2:0:0:
316,74,145089,1,0,3:2:0:0:
401,78,145249,1,10,0:2:0:0:
170,143,145570,6,0,P|101:120|-1:112,1,167.199995535278,6|8,3:2|0:2,0:2:0:0:
7,111,146051,1,2,0:2:0:0:
43,191,146212,1,2,3:2:0:0:
4,265,146372,1,0,3:2:0:0:
78,347,146532,5,8,0:2:0:0:
78,347,146693,1,0,0:2:0:0:
184,337,146853,5,2,3:2:0:0:
255,380,147014,2,0,L|359:361,1,83.5999977676392,2|8,0:2|0:2,0:2:0:0:
420,374,147335,1,2,0:2:0:0:
367,286,147495,2,0,P|353:253|345:196,2,83.5999977676392,2|0|8,3:2|3:2|0:2,0:2:0:0:
275,2,148137,6,0,P|279:83|253:168,1,167.199995535278,2|8,3:2|0:2,0:2:0:0:
254,164,148618,1,2,0:2:0:0:
158,236,148778,2,0,P|109:222|53:213,1,83.5999977676392,2|0,3:2|3:2,0:2:0:0:
217,341,149099,2,0,P|266:327|322:318,1,83.5999977676392,10|0,0:2|0:2,0:2:0:0:
419,367,149420,5,2,3:2:0:0:
377,295,149581,1,2,0:2:0:0:
398,214,149741,1,10,0:2:0:0:
477,178,149901,1,2,3:2:0:0:
477,178,149982,1,0,3:2:0:0:
477,178,150062,2,0,P|488:148|474:74,2,83.5999977676392,0|0|8,3:2|3:2|0:2,0:2:0:0:
228,320,150704,6,0,P|174:302|61:291,2,167.199995535278,2|8|0,3:2|0:2|3:2,0:2:0:0:
228,320,151506,1,2,3:2:0:0:
306,376,151666,1,10,0:2:0:0:
389,336,151826,1,0,0:2:0:0:
319,198,151987,5,2,3:2:0:0:
233,230,152147,2,0,P|190:225|151:206,1,83.5999977676392,2|8,0:2|0:2,0:2:0:0:
83,148,152468,1,2,0:2:0:0:
151,86,152629,2,0,P|172:43|178:-2,2,83.5999977676392,2|0|8,3:2|3:2|0:2,0:2:0:0:
0,257,153270,5,2,3:2:0:0:
68,318,153431,2,0,L|158:301,1,83.5999977676392,2|8,0:2|0:2,0:2:0:0:
209,365,153752,1,2,0:2:0:0:
291,267,153912,2,0,P|284:223|298:168,1,83.5999977676392,2|0,3:2|3:2,0:2:0:0:
431,142,154233,2,2,P|452:225|430:303,2,167.199995535278,10|2|10,0:2|3:2|0:2,0:2:0:0:
173,7,155195,5,14,0:2:0:0:
42,98,155356,1,8,0:2:0:0:
85,110,155436,1,8,0:2:0:0:
122,139,155516,1,8,0:2:0:0:
147,178,155597,1,8,0:2:0:0:
158,224,155677,1,8,0:2:0:0:
152,270,155757,1,8,0:2:0:0:
132,312,155837,6,0,P|73:303|-20:298,1,114.399994763184,6|0,1:2|0:2,0:1:0:0:
234,93,156158,2,0,P|291:88|347:79,1,114.399994763184,8|0,0:2|0:2,0:1:0:0:
467,30,156479,5,2,1:1:0:0:
309,2,156639,1,0,1:2:0:0:
360,164,156800,1,8,1:2:0:0:
378,66,156960,1,0,1:2:0:0:
495,238,157121,6,2,P|380:209|259:195,1,228.799989526368,2|8,1:2|0:2,0:1:0:0:
135,244,157602,1,4,2:3:0:0:
316,358,157762,2,0,P|384:340|439:333,1,114.399994763184,2|0,1:2|1:2,0:2:0:0:
257,102,158083,2,0,P|200:93|145:77,1,114.399994763184,8|0,0:2|0:2,0:2:0:0:
405,35,158404,5,2,1:1:0:0:
335,199,158564,1,0,1:2:0:0:
257,102,158725,1,10,1:1:0:0:
482,132,158885,1,0,1:2:0:0:
399,273,159046,5,2,1:1:0:0:
185,186,159206,1,0,1:2:0:0:
353,114,159367,1,10,1:1:0:0:
251,330,159527,1,0,1:2:0:0:
60,233,159687,6,2,B|48:176|48:176|61:97|61:97|35:-2,2,228.799989526368,2|8|0,1:1|0:2|1:2,0:1:0:0:
258,372,160490,1,0,1:2:0:0:
258,372,160570,1,0,1:0:0:0:
258,372,160650,2,0,L|273:243,1,114.399994763184,10|0,0:2|0:2,0:2:0:0:
178,31,160971,5,2,1:1:0:0:
97,200,161131,1,2,0:2:0:0:
231,133,161292,1,10,2:1:0:0:
44,98,161452,1,2,0:2:0:0:
209,247,161613,5,2,1:1:0:0:
209,247,161773,1,0,1:2:0:0:
58,370,161933,5,10,0:1:0:0:
97,200,162094,1,2,0:2:0:0:
340,185,162254,1,2,1:2:0:0:
301,355,162415,2,0,P|255:347|177:340,1,114.399994763184,2|8,0:2|0:2,0:2:0:0:
294,77,162736,1,2,3:2:0:0:
294,77,162816,1,0,3:2:0:0:
294,77,162896,2,0,P|351:72|407:66,1,114.399994763184,0|0,1:2|1:2,0:2:0:0:
183,14,163217,5,10,0:1:0:0:
140,120,163377,1,2,0:2:0:0:
34,77,163538,1,2,1:2:0:0:
294,77,163698,5,2,0:1:0:0:
341,193,163859,1,10,0:2:0:0:
457,146,164019,1,2,0:2:0:0:
237,153,164179,5,2,1:1:0:0:
107,253,164340,1,2,1:2:0:0:
283,370,164500,2,2,L|528:353,1,228.799989526368,10|0,0:1|1:1,0:1:0:0:
237,153,164982,5,2,0:2:0:0:
107,253,165142,1,10,0:2:0:0:
54,122,165302,1,2,3:2:0:0:
54,122,165383,1,0,3:2:0:0:
54,122,165463,2,2,B|39:69|39:69|61:14,1,114.399994763184,0|0,1:2|1:2,0:1:0:0:
440,138,165784,2,2,B|455:191|455:191|432:245,1,114.399994763184,8|0,0:2|0:2,0:1:0:0:
234,377,166105,6,2,B|268:232|200:306|237:152,1,228.799989526368,6|8,1:2|0:2,0:1:0:0:
292,27,166586,1,4,0:3:0:0:
332,224,166746,1,2,1:1:0:0:
440,138,166907,1,0,1:2:0:0:
237,152,167067,1,8,1:2:0:0:
292,27,167228,1,0,1:2:0:0:
102,219,167388,6,2,P|96:123|46:-7,1,228.799989526368,2|8,1:1|0:2,0:1:0:0:
0,181,167869,1,4,0:3:0:0:
179,279,168030,2,0,P|249:266|301:262,1,114.399994763184,2|0,1:2|1:2,0:2:0:0:
162,16,168351,2,0,P|105:10|49:0,1,114.399994763184,10|0,0:2|0:2,0:2:0:0:
328,113,168671,5,2,1:1:0:0:
501,17,168832,1,0,1:2:0:0:
510,123,168992,1,10,1:1:0:0:
351,12,169153,1,0,1:2:0:0:
141,115,169313,5,2,1:1:0:0:
333,218,169474,1,0,1:2:0:0:
245,42,169634,1,10,1:1:0:0:
210,284,169794,1,0,1:2:0:0:
381,357,169955,6,2,P|503:315|509:219,2,228.799989526368,2|8|0,1:1|0:2|1:2,0:1:0:0:
229,158,170757,1,0,1:2:0:0:
229,158,170837,1,0,1:2:0:0:
229,158,170917,2,0,L|251:40,1,114.399994763184,10|0,0:2|0:2,0:2:0:0:
0,230,171238,5,2,1:1:0:0:
135,187,171399,1,2,0:2:0:0:
205,275,171559,5,10,1:1:0:0:
326,76,171720,1,2,0:2:0:0:
391,165,171880,5,2,1:1:0:0:
289,302,172040,1,2,1:2:0:0:
194,108,172201,1,10,1:1:0:0:
365,0,172361,1,2,0:2:0:0:
477,99,172522,6,0,P|474:164|490:228,1,114.399994763184,2|0,1:1|0:2,0:2:0:0:
289,302,172843,1,10,0:1:0:0:
382,373,173003,1,2,3:2:0:0:
382,373,173083,1,0,3:2:0:0:
382,373,173163,1,0,1:2:0:0:
477,325,173324,2,0,P|487:268|484:212,1,114.399994763184,0|8,1:2|0:2,0:2:0:0:
271,46,173645,5,2,0:2:0:0:
207,142,173805,1,2,1:1:0:0:
192,13,173966,1,2,0:2:0:0:
286,199,174126,1,10,1:1:0:0:
337,0,174286,1,2,0:2:0:0:
414,48,174447,5,2,1:1:0:0:
207,142,174607,1,2,1:2:0:0:
391,274,174768,1,10,1:1:0:0:
66,384,175089,5,6,1:1:0:0:
272,306,175249,1,2,2:2:0:0:
103,166,175409,1,10,1:1:0:0:
9,219,175570,5,8,0:2:0:0:
0,252,175650,1,8,0:2:0:0:
4,285,175730,1,8,0:3:0:0:
167,384,175891,5,8,0:3:0:0:
226,229,176051,5,8,0:3:0:0:
103,166,176212,5,8,0:3:0:0:
81,261,176372,5,4,3:2:0:0:
139,311,177014,1,0,3:2:0:0:
213,291,177655,1,0,3:2:0:0:
252,224,178297,1,0,3:2:0:0:
228,150,178939,1,0,3:2:0:0:
263,81,179581,1,0,3:2:0:0:
338,64,180222,1,0,3:2:0:0:
409,92,180864,1,0,3:2:0:0:
282,5,181506,5,0,3:3:0:0:
230,65,182147,1,0,3:2:0:0:
151,76,182789,1,0,3:2:0:0:
75,53,183431,1,0,3:2:0:0:
8,96,184072,1,0,3:2:0:0:
5,175,184714,1,0,3:2:0:0:
66,225,185356,1,0,3:2:0:0:
271,154,185998,6,2,L|183:150,1,88,0|0,3:2|0:2,0:2:0:0:
183,150,186639,6,0,P|167:208|180:265,1,105.599996777344,6|0,3:2|0:2,0:2:0:0:
258,360,187281,1,2,3:2:0:0:
287,292,187441,2,0,L|307:231,1,52.7999983886719,0|0,3:2|0:2,0:2:0:0:
459,359,187923,2,0,P|465:307|450:257,1,105.599996777344,2|0,3:2|0:2,0:2:0:0:
350,121,188564,5,2,3:2:0:0:
282,151,188725,1,0,3:2:0:0:
290,77,188885,1,2,0:2:0:0:
92,26,189206,6,0,L|211:13,1,105.599996777344,2|0,3:2|0:2,0:2:0:0:
92,123,189848,1,2,3:2:0:0:
153,162,190008,2,0,L|214:152,1,52.7999983886719,0|0,3:2|0:2,0:2:0:0:
364,265,190490,2,0,L|245:252,1,105.599996777344,2|0,3:2|0:2,0:2:0:0:
172,373,191131,1,2,3:2:0:0:
120,320,191292,2,0,L|112:261,1,52.7999983886719,0|0,3:2|0:2,0:2:0:0:
0,157,191773,6,0,P|46:159|119:123,1,123.199996240234,2|0,3:2|0:2,0:2:0:0:
228,15,192415,1,2,3:2:0:0:
152,41,192575,2,0,L|88:27,1,61.5999981201172,0|0,3:2|0:2,0:2:0:0:
259,118,193056,2,0,P|312:89|373:88,1,123.199996240234,2|0,3:2|0:2,0:2:0:0:
502,236,193698,5,2,3:2:0:0:
486,157,193859,1,0,3:2:0:0:
426,211,194019,1,2,0:2:0:0:
232,132,194340,6,0,P|226:65|202:-2,1,123.199996240234,2|0,3:2|0:2,0:2:0:0:
109,138,194982,1,2,3:2:0:0:
52,81,195142,2,0,P|55:45|65:13,1,61.5999981201172,0|0,3:2|0:2,0:2:0:0:
232,132,195623,6,2,P|250:192|249:276,1,140.8,2|2,3:2|0:2,0:2:0:0:
195,357,196105,1,2,0:2:0:0:
92,354,196265,1,2,0:2:0:0:
147,266,196425,1,2,0:2:0:0:
302,364,196586,1,10,0:2:0:0:
511,216,196907,6,0,P|524:159|493:66,1,132,6|0,1:2|2:2,0:2:0:0:
507,88,197228,2,0,L|402:73,1,88,10|0,0:2|0:2,0:2:0:0:
285,0,197548,5,2,1:1:0:0:
237,166,197709,1,2,1:2:0:0:
103,68,197869,1,10,2:2:0:0:
261,83,198030,1,2,2:2:0:0:
215,246,198190,5,2,1:1:0:0:
180,103,198351,1,2,0:2:0:0:
322,146,198511,1,10,0:2:0:0:
63,384,198832,5,2,1:1:0:0:
0,299,198992,1,2,1:2:0:0:
85,236,199153,1,10,0:2:0:0:
147,321,199313,1,2,0:2:0:0:
74,310,199474,5,2,1:1:0:0:
180,103,199794,5,10,0:2:0:0:
262,174,199955,1,0,0:2:0:0:
427,100,200115,5,2,1:1:0:0:
337,94,200276,1,2,1:2:0:0:
461,177,200436,1,10,0:2:0:0:
471,29,200597,1,2,0:2:0:0:
374,172,200757,5,2,1:1:0:0:
509,106,200917,1,2,0:2:0:0:
384,20,201078,2,2,P|291:1|196:12,2,176,10|2|10,0:2|1:2|0:2,0:1:0:0:
507,260,202040,5,2,1:1:0:0:
346,309,202201,1,2,0:2:0:0:
404,220,202361,1,10,0:2:0:0:
201,177,202522,5,2,0:1:0:0:
300,213,202682,1,2,1:2:0:0:
281,110,202843,1,2,1:2:0:0:
219,279,203003,1,10,0:2:0:0:
116,27,203324,5,2,1:1:0:0:
195,81,203484,1,2,0:2:0:0:
201,177,203645,1,10,0:2:0:0:
134,246,203805,1,2,3:2:0:0:
134,246,203885,1,2,3:2:0:0:
134,246,203966,2,2,L|34:227,1,88,0|0,1:1|1:2,0:1:0:0:
247,384,204286,5,10,0:2:0:0:
247,384,204447,1,0,0:2:0:0:
344,288,204607,5,2,1:1:0:0:
512,331,204768,1,2,0:2:0:0:
467,92,204928,1,10,0:2:0:0:
319,175,205089,5,2,3:1:0:0:
357,185,205169,1,0,3:2:0:0:
395,195,205249,1,0,1:2:0:0:
300,46,205409,5,2,0:1:0:0:
223,217,205570,1,10,0:2:0:0:
0,35,205891,5,10,1:1:0:0:
127,8,206051,1,2,0:2:0:0:
10,131,206212,1,10,0:2:0:0:
129,156,206372,1,2,0:2:0:0:
56,302,206532,6,0,P|47:260|52:216,1,88,2|0,1:1|1:2,0:2:0:0:
406,72,206853,2,0,P|415:114|410:158,1,88,10|0,0:2|0:2,0:2:0:0:
252,361,207174,5,6,1:1:0:0:
252,361,207335,2,0,L|238:232,1,96.8000029541017,2|8,0:2|0:2,0:2:0:0:
212,18,207655,2,0,L|226:147,1,96.8000029541017,2|0,0:2|1:2,0:2:0:0:
394,250,207976,5,2,1:1:0:0:
463,134,208137,1,10,0:2:0:0:
512,292,208297,1,2,0:2:0:0:
361,352,208458,5,2,1:1:0:0:
364,162,208618,1,2,0:2:0:0:
476,217,208778,1,10,0:2:0:0:
286,274,208939,1,2,3:2:0:0:
286,274,209019,1,0,3:2:0:0:
286,274,209099,2,2,P|238:263|172:255,1,96.8000029541017,0|0,1:1|1:2,0:1:0:0:
311,75,209420,2,0,P|358:68|406:57,1,96.8000029541017,10|0,0:2|0:2,0:2:0:0:
158,115,209741,6,2,P|139:34|14:38,1,193.600005908203,2|8,1:2|0:2,0:1:0:0:
0,225,210222,1,2,0:2:0:0:
190,290,210383,2,0,L|297:272,1,96.8000029541017,2|0,1:1|1:2,0:1:0:0:
425,374,210704,1,10,0:2:0:0:
425,374,210864,1,2,0:2:0:0:
494,202,211024,6,2,B|504:130|504:130|491:100|491:100|507:-9,2,193.600005908203,2|10|0,1:2|0:2|1:2,0:1:0:0:
425,374,211826,1,2,1:2:0:0:
285,273,211987,1,10,0:2:0:0:
176,333,212147,1,2,0:2:0:0:
95,264,212308,6,2,P|78:195|94:68,2,193.600005908203,2|10|0,1:2|0:2|1:2,0:1:0:0:
176,333,213110,1,0,1:3:0:0:
347,270,213270,6,0,P|357:222|361:174,1,96.8000029541017,10|0,0:2|0:2,0:2:0:0:
91,74,213591,2,0,P|81:121|77:169,1,96.8000029541017,2|0,1:2|0:2,0:2:0:0:
353,80,213912,2,0,P|317:47|277:19,1,96.8000029541017,10|0,0:2|0:2,0:2:0:0:
96,263,214233,2,0,P|131:295|171:323,1,96.8000029541017,2|0,1:2|1:2,0:2:0:0:
190,24,214554,2,0,P|143:38|99:58,1,96.8000029541017,10|0,0:2|0:2,0:2:0:0:
268,308,214875,5,2,1:2:0:0:
268,308,215035,1,2,0:2:0:0:
324,251,215195,2,2,B|452:222|395:283|513:258,1,193.600005908203,10|0,0:2|1:2,0:1:0:0:
512,258,215677,1,0,1:2:0:0:
384,152,215837,2,0,P|384:91|368:36,1,96.8000029541017,10|0,0:2|0:2,0:2:0:0:
182,0,216158,5,2,1:1:0:0:
84,194,216318,1,2,1:2:0:0:
25,97,216479,1,10,0:1:0:0:
240,97,216639,1,2,0:2:0:0:
153,280,216800,5,6,1:1:0:0:
132,95,216960,1,8,0:2:0:0:
141,142,217040,1,8,0:2:0:0:
170,180,217121,1,8,0:2:0:0:
213,202,217201,1,8,0:2:0:0:
261,203,217281,1,8,0:2:0:0:
305,183,217361,1,8,0:2:0:0:
336,147,217441,6,0,P|338:94|354:14,1,123.199996240234,6|0,1:2|0:2,0:1:0:0:
512,211,217762,2,0,P|509:272|497:332,1,123.199996240234,8|0,0:2|0:2,0:1:0:0:
219,384,218083,5,2,1:1:0:0:
261,203,218244,1,0,1:2:0:0:
358,319,218404,1,8,1:2:0:0:
113,261,218564,1,0,1:2:0:0:
297,72,218725,6,2,B|386:157|386:157|497:88,1,246.399992480469,2|8,1:2|0:2,0:1:0:0:
366,0,219206,1,4,2:3:0:0:
261,203,219367,2,0,B|281:261|281:261|254:328,1,123.199996240234,2|0,1:2|1:2,0:2:0:0:
0,384,219687,2,0,B|-20:326|-20:326|7:259,1,123.199996240234,8|0,0:2|0:2,0:2:0:0:
297,72,220008,5,2,1:1:0:0:
116,203,220169,1,0,1:2:0:0:
182,2,220329,1,10,1:1:0:0:
261,203,220490,1,0,1:2:0:0:
512,138,220650,5,2,1:1:0:0:
297,72,220810,1,0,1:2:0:0:
446,260,220971,1,10,1:1:0:0:
428,23,221131,1,0,1:2:0:0:
235,225,221292,6,2,B|126:279|126:279|33:166,2,246.399992480469,2|8|0,1:1|0:2|1:2,0:1:0:0:
457,112,222094,1,0,1:2:0:0:
457,112,222174,1,0,1:0:0:0:
457,112,222254,1,10,0:2:0:0:
335,0,222415,1,4,0:3:0:0:
73,116,222575,5,2,1:1:0:0:
303,93,222736,1,2,0:2:0:0:
114,243,222896,1,10,2:1:0:0:
179,11,223056,1,2,0:2:0:0:
302,226,223217,5,2,1:1:0:0:
302,226,223377,1,0,1:2:0:0:
199,110,223538,5,10,0:1:0:0:
408,176,223698,1,2,0:2:0:0:
304,378,223859,1,2,1:2:0:0:
95,312,224019,2,0,P|38:300|-35:298,1,123.199996240234,2|8,0:2|0:2,0:2:0:0:
294,134,224340,1,2,3:2:0:0:
294,134,224420,1,0,3:2:0:0:
294,134,224500,2,0,P|415:137|512:64,1,246.399992480469,0|8,1:2|0:1,0:2:0:0:
198,13,224982,5,2,0:2:0:0:
113,203,225142,1,2,1:1:0:0:
282,295,225302,1,2,0:2:0:0:
210,120,225463,1,10,0:2:0:0:
155,352,225623,1,2,0:2:0:0:
308,188,225784,5,2,1:1:0:0:
76,285,225944,1,2,1:2:0:0:
267,384,226105,2,2,P|373:372|512:367,1,246.399992480469,10|0,0:1|1:1,0:1:0:0:
210,120,226586,5,2,0:2:0:0:
76,285,226746,1,10,0:2:0:0:
0,111,226907,1,2,3:2:0:0:
0,111,226987,1,0,3:2:0:0:
0,111,227067,2,2,P|-3:56|25:-16,1,123.199996240234,0|0,1:2|1:2,0:1:0:0:
467,156,227388,2,2,P|470:210|441:283,1,123.199996240234,8|0,0:2|0:2,0:1:0:0:
167,358,227709,6,2,P|169:235|210:120,1,246.399992480469,6|8,1:2|0:2,0:1:0:0:
308,9,228190,1,4,0:3:0:0:
343,237,228351,1,2,1:1:0:0:
467,156,228511,1,0,1:2:0:0:
210,119,228671,1,8,1:2:0:0:
308,9,228832,1,0,1:2:0:0:
507,236,228992,6,2,P|386:154|264:179,1,246.399992480469,2|8,1:1|0:2,0:1:0:0:
142,237,229474,1,4,0:3:0:0:
264,358,229634,2,0,P|325:346|396:342,1,123.199996240234,2|0,1:2|1:2,0:2:0:0:
210,119,229955,2,0,P|148:114|88:102,1,123.199996240234,10|0,0:2|0:2,0:2:0:0:
398,0,230276,5,2,1:1:0:0:
310,194,230436,1,0,1:2:0:0:
186,28,230597,1,10,1:1:0:0:
363,120,230757,1,0,1:2:0:0:
512,15,230917,5,2,1:1:0:0:
285,61,231078,1,0,1:2:0:0:
466,199,231238,1,10,1:1:0:0:
398,0,231399,1,0,1:2:0:0:
198,190,231559,6,2,B|84:228|84:228|-16:117,1,246.399992480469,2|8,1:1|0:2,0:1:0:0:
186,28,232040,1,2,0:0:0:0:
276,244,232201,2,0,L|291:374,1,123.199996240234,2|0,1:1|1:0,0:0:0:0:
512,200,232522,5,10,0:2:0:0:
343,153,232682,1,2,0:0:0:0:
452,98,232843,5,2,1:1:0:0:
221,125,233003,1,2,0:2:0:0:
343,153,233163,1,10,1:1:0:0:
125,211,233324,1,2,0:2:0:0:
281,251,233484,5,2,1:1:0:0:
281,251,233645,1,0,1:2:0:0:
115,328,233805,5,10,1:1:0:0:
342,384,233966,1,2,0:2:0:0:
125,211,234126,1,2,1:2:0:0:
343,153,234286,2,0,P|362:94|337:26,1,123.199996240234,2|8,0:2|0:1,0:0:0:0:
125,211,234607,5,2,2:2:0:0:
37,258,234768,2,2,P|-8:184|59:50,1,246.399992480469,2|8,1:1|0:0,0:1:0:0:
345,37,235249,5,2,0:2:0:0:
125,211,235409,1,2,1:1:0:0:
196,0,235570,1,2,0:2:0:0:
381,201,235730,5,10,1:1:0:0:
172,107,235891,1,2,0:2:0:0:
459,2,236051,1,2,1:1:0:0:
459,2,236212,1,2,1:2:0:0:
480,325,236372,5,10,1:1:0:0:
50,377,236693,5,2,1:1:0:0:
0,142,236853,1,2,1:2:0:0:
235,92,237014,1,10,0:1:0:0:
284,327,237174,1,2,0:2:0:0:
161,205,237335,5,10,0:1:0:0:
202,223,237415,1,8,0:2:0:0:
248,227,237495,1,8,0:2:0:0:
293,215,237575,1,8,0:2:0:0:
330,188,237655,1,8,0:2:0:0:
356,150,237736,1,8,0:2:0:0:
368,106,237816,1,8,0:2:0:0:
364,60,237896,1,8,0:2:0:0:
344,18,237976,1,6,1:2:0:0:
38,197,238297,6,2,B|192:163|146:256|293:215,1,264.000010070801,14|0,0:2|1:2,0:1:0:0:
421,140,238778,1,0,1:2:0:0:
299,317,238939,1,10,0:2:0:0:
455,357,239099,1,2,0:2:0:0:
512,193,239260,6,0,P|501:136|498:79,1,114.399994763184,2|0,1:1|0:2,0:2:0:0:
283,11,239581,2,0,P|279:68|269:124,1,114.399994763184,10|0,0:1|0:2,0:2:0:0:
110,260,239901,2,0,P|63:244|-27:229,1,114.399994763184,2|0,1:1|1:2,0:2:0:0:
255,375,240222,2,0,P|309:356|365:345,1,114.399994763184,10|0,0:1|0:2,0:2:0:0:
165,159,240543,6,0,P|153:74|24:44,1,228.799989526368,2|8,1:1|0:2,0:1:0:0:
1,232,241024,1,4,0:3:0:0:
145,305,241185,2,0,P|203:291|271:283,1,114.399994763184,2|0,1:2|1:2,0:2:0:0:
385,70,241506,2,0,P|328:62|272:48,1,114.399994763184,10|0,0:2|0:2,0:2:0:0:
512,235,241826,6,2,P|397:186|267:171,1,228.799989526368,2|8,1:1|0:2,0:1:0:0:
119,212,242308,1,4,0:3:0:0:
257,283,242468,1,2,1:1:0:0:
219,112,242629,1,2,1:2:0:0:
148,307,242789,1,10,0:2:0:0:
294,384,242949,1,2,0:2:0:0:
444,304,243110,6,2,P|448:189|414:71,1,228.799989526368,2|8,1:1|0:2,0:1:0:0:
346,0,243591,1,4,0:3:0:0:
169,150,243752,2,0,P|238:130|292:132,1,114.399994763184,2|0,1:2|1:2,0:2:0:0:
443,304,244072,2,0,P|389:321|332:323,1,114.399994763184,10|0,0:2|0:2,0:2:0:0:
79,270,244393,6,2,L|336:222,2,228.799989526368,2|10|0,1:1|0:2|1:2,0:1:0:0:
0,151,245195,1,0,1:2:0:0:
173,62,245356,1,10,0:1:0:0:
303,227,245516,1,2,0:2:0:0:
367,33,245677,6,0,P|309:30|233:-3,1,114.399994763184,2|0,1:1|0:2,0:2:0:0:
374,279,245998,2,0,P|432:282|508:315,1,114.399994763184,10|0,0:1|0:2,0:2:0:0:
173,62,246318,2,0,P|119:80|62:83,1,114.399994763184,2|0,1:1|1:2,0:2:0:0:
402,204,246639,2,0,P|455:185|512:182,1,114.399994763184,10|0,0:1|0:2,0:2:0:0:
256,11,246960,5,2,1:1:0:0:
153,191,247121,1,2,0:2:0:0:
233,259,247281,1,10,2:2:0:0:
173,62,247441,1,2,0:2:0:0:
48,238,247602,5,2,1:1:0:0:
235,352,247762,1,2,1:2:0:0:
153,191,247923,1,10,0:2:0:0:
15,327,248083,1,2,0:2:0:0:
253,376,248244,6,2,P|406:351|557:346,1,281.6,6|8,1:2|0:2,0:1:0:0:
301,271,248725,1,4,0:3:0:0:
502,178,248885,1,2,1:1:0:0:
377,129,249046,1,2,1:2:0:0:
439,332,249206,1,10,0:2:0:0:
301,271,249367,1,2,0:2:0:0:
224,136,249527,6,0,P|237:83|221:-13,1,123.199996240234,2|0,1:1|0:2,0:2:0:0:
33,168,249848,2,0,P|20:221|36:317,1,123.199996240234,10|0,0:1|0:2,0:2:0:0:
231,15,250169,2,0,P|172:33|122:69,1,123.199996240234,2|0,1:1|1:2,0:2:0:0:
175,362,250490,2,0,P|233:343|283:307,1,123.199996240234,10|0,0:1|0:2,0:2:0:0:
412,134,250810,6,2,B|279:109|329:222|183:189,1,246.399992480469,2|8,1:1|0:2,0:1:0:0:
26,98,251292,1,4,0:3:0:0:
310,50,251452,1,2,1:1:0:0:
167,4,251613,1,2,1:2:0:0:
327,248,251773,1,10,0:2:0:0:
185,189,251933,1,2,0:2:0:0:
352,367,252094,6,2,P|461:358|475:224,2,246.399992480469,2|10|0,1:1|0:2|1:2,0:1:0:0:
188,278,252896,1,0,1:2:0:0:
353,182,253056,2,0,L|502:141,1,123.199996240234,10|0,0:2|0:2,0:2:0:0:
224,17,253377,6,2,B|66:4|145:107|-15:82,1,246.399992480469,2|8,1:1|0:2,0:1:0:0:
157,203,253859,1,4,0:3:0:0:
47,314,254019,2,0,P|28:259|51:187,1,123.199996240234,2|0,1:2|1:2,0:2:0:0:
372,90,254340,2,0,P|391:145|368:217,1,123.199996240234,10|0,0:2|0:2,0:2:0:0:
210,366,254661,6,2,B|252:218|172:287|213:118,2,246.399992480469,2|10|0,1:1|0:2|1:2,0:1:0:0:
105,304,255463,1,0,1:2:0:0:
317,196,255623,1,10,0:2:0:0:
211,125,255784,1,2,0:2:0:0:
360,40,255944,6,0,L|510:23,1,123.199996240234,2|0,1:1|0:2,0:2:0:0:
211,125,256265,2,0,L|88:111,1,123.199996240234,10|0,0:1|0:2,0:2:0:0:
369,269,256586,2,0,L|519:252,1,123.199996240234,2|0,1:1|1:2,0:2:0:0:
200,370,256907,2,0,L|50:353,1,123.199996240234,10|0,0:1|0:2,0:2:0:0:
229,0,257228,5,2,1:1:0:0:
369,269,257388,1,2,0:2:0:0:
421,28,257548,1,10,0:1:0:0:
152,187,257709,1,2,0:2:0:0:
445,353,257869,5,6,1:1:0:0:
358,104,258030,1,8,0:2:0:0:
354,153,258110,1,8,0:2:0:0:
329,198,258190,1,8,0:2:0:0:
287,227,258270,1,8,0:2:0:0:
238,236,258351,1,8,0:2:0:0:
189,220,258431,1,8,0:2:0:0:
152,187,258511,6,0,B|221:12|-52:-127|-258:195|-40:478|237:377|258:287|248:278|230:274|235:108|347:-70|698:-1|672:381|414:455|318:280,1,1339.64724656736,6|0,0:2|2:2,0:2:0:0:
