osu file format v14

[General]
AudioFilename: audio.mp3
AudioLeadIn: 0
PreviewTime: 90167
Countdown: 0
SampleSet: Soft
StackLeniency: 0.7
Mode: 0
LetterboxInBreaks: 0
WidescreenStoryboard: 1

[Editor]
DistanceSpacing: 1.4
BeatDivisor: 8
GridSize: 16
TimelineZoom: 2.3

[Metadata]
Title:Hanabira
TitleUnicode:花弁
Artist:culenasm
ArtistUnicode:クレナズム
Creator:Lasse
Version:Insane
Source:
Tags:japanese pop rock In your fragrance
BeatmapID:2447897
BeatmapSetID:1173647

[Difficulty]
HPDrainRate:6
CircleSize:4
OverallDifficulty:7.8
ApproachRate:8.4
SliderMultiplier:3.2
SliderTickRate:1

[Events]
//Background and Video events
0,0,"bg.jpg",0,0
//Break Periods
//Storyboard Layer 0 (Background)
//Storyboard Layer 1 (Fail)
//Storyboard Layer 2 (Pass)
//Storyboard Layer 3 (Foreground)
//Storyboard Layer 4 (Overlay)
//Storyboard Sound Samples

[TimingPoints]
1252,705.882352941176,4,1,1,60,1,0
1252,-100,4,1,1,60,0,0
22781,-100,4,2,2,60,0,0
22957,-100,4,2,2,58,0,0
23134,-100,4,2,2,56,0,0
23310,-100,4,2,2,54,0,0
23487,-100,4,2,2,52,0,0
23663,-100,4,2,2,50,0,0
23840,-133.333333333333,4,2,2,46,0,0
68310,666.666666666666,4,2,2,50,1,0
68310,-133.333333333333,4,2,2,50,0,0
68810,824.175824175824,4,2,2,50,1,0
69016,705.882352941176,4,2,2,44,1,0
69016,-200,4,2,2,44,0,0
69369,-200,4,2,2,42,0,0
80310,-166.666666666667,4,2,2,44,0,0
85604,731.70731707317,4,2,2,44,1,0
85878,-142.857142857143,4,2,2,48,0,0
85969,705.882352941176,4,2,2,48,1,0
85969,-142.857142857143,4,2,2,48,0,0
88792,-200,4,2,2,50,0,0
88957,-200,4,2,2,10,0,0
90204,700.116686114352,4,2,99,16,1,0
90204,-200,4,2,99,16,0,0
91604,705.882352941176,4,2,1,70,1,0
91604,-90.9090909090909,4,2,1,70,0,0
91957,-90.9090909090909,4,1,1,70,0,0
114193,-100,4,1,1,60,0,0
132721,666.666666666666,4,1,1,60,1,0
132887,705.882352941176,4,1,1,60,1,0
133945,-100,4,1,1,60,0,0
136063,718.562874251497,4,1,1,60,1,0
136781,705.882352941176,4,2,2,56,1,0
136781,-125,4,2,2,56,0,0
156546,-142.857142857143,4,2,2,60,0,0
156722,-142.857142857143,4,2,2,20,0,0
158663,-142.857142857143,4,2,99,20,0,0
159369,-200,4,2,2,40,0,0
170663,-142.857142857143,4,2,2,44,0,0
177722,-142.857142857143,4,2,2,46,0,0
178428,-142.857142857143,4,2,2,48,0,0
179134,-166.666666666667,4,2,99,40,0,0
179840,-166.666666666667,4,2,99,16,0,0
181957,-83.3333333333333,4,1,1,70,0,0
204546,-100,4,1,1,60,0,0
225898,689.655172413792,4,1,1,60,1,0
226070,674.157303370786,4,1,1,60,1,0
226407,666.666666666666,4,1,1,60,1,0
226907,839.160839160839,4,1,1,60,1,0
227116,1000,4,1,1,60,1,0
227116,-200,4,2,2,60,0,0
227222,-100,4,2,2,30,0,0
228546,-100,4,2,2,20,0,0
229957,-100,4,2,2,10,0,0
231116,-100,4,2,99,10,0,0

[Colours]
Combo1 : 250,180,240
Combo2 : 120,200,230
Combo3 : 255,230,130
Combo4 : 160,230,150

[HitObjects]
211,186,546,5,8,0:2:0:0:
274,88,722,1,8,0:2:0:0:
371,151,899,1,8,0:2:0:0:
308,249,1075,1,8,0:2:0:0:
184,99,1252,6,0,P|178:49|191:11,1,80,4|0,0:1|0:2,0:2:0:0:
122,165,1604,2,0,P|81:195|42:202,1,80,2|0,0:2|0:2,0:2:0:0:
53,201,1957,1,10,0:1:0:0:
211,186,2134,1,0,0:2:0:0:
211,186,2222,1,0,0:2:0:0:
211,186,2310,2,0,P|257:205|283:236,1,80,0|0,0:2|0:2,0:2:0:0:
376,384,2663,6,0,P|364:309|400:217,1,160,2|0,0:2|0:2,0:1:0:0:
390,230,3193,1,0,0:2:0:0:
512,306,3369,2,0,P|524:231|488:139,1,160,10|0,0:1|0:2,0:2:0:0:
395,66,3899,1,0,0:2:0:0:
328,102,4075,2,0,B|291:87|291:87|240:92,1,80,2|0,0:2|0:2,0:2:0:0:
241,168,4428,2,0,B|278:183|278:183|329:178,1,80,2|0,0:2|0:2,0:2:0:0:
173,121,4781,5,10,0:1:0:0:
139,193,4957,1,0,0:2:0:0:
89,130,5134,1,0,0:2:0:0:
62,209,5310,1,2,0:2:0:0:
62,209,5399,1,0,0:2:0:0:
62,209,5487,2,0,P|34:297|78:375,1,160,0|2,0:2|0:2,0:2:0:0:
329,306,6193,6,0,P|357:218|313:140,1,160,10|0,0:1|0:2,0:2:0:0:
332,158,6722,1,0,0:2:0:0:
221,226,6899,2,0,L|51:207,1,160,2|0,0:2|0:2,0:2:0:0:
62,208,7604,6,0,P|57:129|104:67,1,160,10|0,0:1|0:2,0:2:0:0:
260,8,8134,1,0,0:2:0:0:
260,8,8222,1,0,0:2:0:0:
260,8,8310,2,0,P|247:50|244:90,1,80,2|0,0:2|0:2,0:2:0:0:
434,91,8663,2,0,P|430:52|418:14,1,80,2|0,0:2|0:2,0:2:0:0:
326,137,9016,6,0,P|317:170|312:228,1,80,10|0,0:1|0:2,0:0:0:0:
487,227,9369,2,0,P|497:265|501:305,1,80,0|0,0:2|0:2,0:0:0:0:
366,372,9722,2,0,P|267:353|189:360,1,160,2|0,0:2|0:2,0:2:0:0:
0,243,10428,5,10,0:1:0:0:
0,243,10604,1,0,0:2:0:0:
81,294,10781,1,0,0:2:0:0:
163,245,10957,1,0,0:2:0:0:
163,245,11046,1,0,0:2:0:0:
163,245,11134,2,0,L|171:152,1,80,2|0,0:2|0:2,0:2:0:0:
299,269,11487,2,0,L|291:176,1,80,2|0,0:2|0:2,0:2:0:0:
147,80,11840,6,0,P|73:104|6:41,1,160,10|0,0:1|0:2,0:2:0:0:
211,23,12369,1,0,0:2:0:0:
211,23,12457,1,0,0:2:0:0:
211,23,12546,2,2,P|170:73|182:187,1,160,6|0,0:2|0:2,0:1:0:0:
390,314,13251,5,10,0:1:0:0:
466,278,13428,1,0,0:2:0:0:
466,278,13516,1,0,0:2:0:0:
466,278,13604,2,0,L|454:186,1,80,2|0,0:2|0:2,0:2:0:0:
297,334,13957,2,0,L|329:165,1,160,2|2,0:2|0:2,0:2:0:0:
326,176,14487,1,0,0:2:0:0:
470,90,14663,6,0,P|396:97|312:41,1,160,10|0,0:1|0:2,0:2:0:0:
220,164,15193,1,0,0:2:0:0:
167,103,15369,2,0,B|180:66|180:66|154:1,1,80,2|0,0:2|0:2,0:2:0:0:
37,134,15722,2,0,B|21:171|21:171|34:208,1,80,2|0,0:2|0:2,0:2:0:0:
107,329,16075,5,10,0:1:0:0:
185,290,16251,1,0,0:2:0:0:
107,329,16428,1,0,0:2:0:0:
232,365,16604,1,0,0:2:0:0:
232,365,16693,1,0,0:2:0:0:
232,365,16781,2,0,P|269:284|216:199,1,160,2|0,0:1|0:2,0:0:0:0:
37,37,17487,6,0,P|0:118|53:203,1,160,10|0,0:1|0:2,0:2:0:0:
118,13,18016,1,0,0:2:0:0:
184,61,18193,2,0,L|354:42,1,160,2|0,0:1|0:2,0:2:0:0:
479,233,18899,6,0,P|502:307|466:375,1,160,10|0,0:1|0:2,0:2:0:0:
312,289,19428,1,0,0:2:0:0:
312,289,19516,1,0,0:2:0:0:
312,289,19604,2,0,L|401:299,1,80,2|0,0:2|0:2,0:2:0:0:
489,139,19957,2,0,L|400:149,1,80,2|0,0:2|0:2,0:2:0:0:
303,82,20310,6,0,P|303:39|317:3,1,80,10|0,0:1|0:2,0:0:0:0:
409,147,20663,2,0,P|408:189|394:225,1,80,0|0,0:2|0:2,0:0:0:0:
308,337,21016,2,0,L|144:319,1,160,2|2,0:2|0:2,0:2:0:0:
0,125,21722,5,10,0:1:0:0:
46,212,21899,1,0,0:2:0:0:
133,165,22075,1,0,0:2:0:0:
87,78,22251,1,2,0:2:0:0:
87,78,22340,1,0,0:2:0:0:
87,78,22428,2,0,P|79:45|88:-13,1,80,0|0,0:2|0:2,0:2:0:0:
218,137,22781,5,2,3:2:0:0:
314,66,22957,1,8,2:2:0:0:
413,133,23134,1,10,2:2:0:0:
317,204,23310,1,8,2:2:0:0:
211,34,23487,5,10,2:2:0:0:
211,34,23663,1,8,2:2:0:0:
122,94,23840,6,0,B|63:105|63:105|8:76,2,120.000004577637,6|0|8,3:2|0:2|0:2,0:2:0:0:
317,204,24899,2,0,B|376:193|376:193|431:222,2,120.000004577637,2|0|0,0:2|0:2|3:2,0:2:0:0:
199,311,25957,6,0,L|194:379,1,60.0000022888184,10|0,0:2|0:2,0:2:0:0:
121,302,26310,2,0,P|60:311|0:282,1,120.000004577637,0|0,0:2|3:2,0:2:0:0:
5,308,27016,2,0,P|59:330|118:321,1,120.000004577637,0|8,3:2|0:2,0:2:0:0:
261,201,27722,6,0,L|272:71,1,120.000004577637,2|0,0:2|0:2,0:2:0:0:
387,166,28428,1,2,3:2:0:0:
506,85,28781,1,8,0:2:0:0:
390,0,29134,1,0,0:2:0:0:
274,98,29487,6,0,P|306:105|334:98,1,60.0000022888184,2|0,3:2|0:2,0:2:0:0:
226,15,29840,2,0,P|194:8|166:15,1,60.0000022888184,0|0,3:2|0:2,0:2:0:0:
89,77,30193,2,0,P|77:115|84:204,2,120.000004577637,10|0|0,0:2|0:2|0:2,0:2:0:0:
337,199,31251,2,0,P|343:139|328:81,1,120.000004577637,0|8,3:2|0:2,0:2:0:0:
163,251,31957,5,0,2:2:0:0:
224,318,32134,1,0,2:2:0:0:
224,318,32222,1,0,2:2:0:0:
224,318,32310,1,0,3:2:0:0:
107,380,32663,1,0,3:2:0:0:
21,279,33016,2,0,P|12:215|39:144,2,120.000004577637,8|0|0,0:2|0:2|0:2,0:2:0:0:
224,318,34075,5,2,3:2:0:0:
351,284,34428,1,8,0:2:0:0:
447,374,34781,2,0,P|478:385|512:382,1,60.0000022888184,2|0,0:2|0:2,0:2:0:0:
457,297,35134,2,0,B|480:243|480:243|459:171,2,120.000004577637,2|0|8,3:2|3:2|0:2,0:2:0:0:
305,354,36193,5,0,0:2:0:0:
305,354,36369,2,0,L|311:218,1,120.000004577637,2|0,0:2|0:2,0:2:0:0:
230,294,36899,2,0,L|224:158,1,120.000004577637,0|8,3:2|0:2,0:2:0:0:
208,173,37604,2,0,L|213:292,1,120.000004577637,2|0,0:2|3:2,0:2:0:0:
107,372,38310,1,2,3:2:0:0:
11,281,38663,1,8,0:2:0:0:
118,100,39016,5,0,0:2:0:0:
118,100,39193,1,0,0:2:0:0:
199,126,39369,1,2,0:2:0:0:
144,19,39722,1,0,3:2:0:0:
37,74,40075,1,8,0:2:0:0:
92,181,40428,1,0,0:2:0:0:
18,282,40781,6,0,P|68:266|150:277,2,120.000004577637,2|0|8,3:2|3:2|0:2,0:2:0:0:
134,271,41840,2,0,P|184:287|266:276,1,120.000004577637,2|0,0:2|0:2,0:2:0:0:
361,209,42546,1,0,3:2:0:0:
243,149,42899,1,8,0:2:0:0:
250,281,43251,1,0,0:2:0:0:
449,195,43604,5,0,3:2:0:0:
361,209,43781,1,8,0:2:0:0:
500,259,43957,1,0,3:2:0:0:
474,114,44310,1,8,0:2:0:0:
449,195,44487,1,8,0:2:0:0:
351,20,44840,5,8,0:2:0:0:
351,20,44928,1,8,0:2:0:0:
351,20,45016,1,8,0:2:0:0:
75,51,45369,5,2,3:2:0:0:
251,104,45722,1,8,0:2:0:0:
230,13,45899,1,8,0:2:0:0:
163,77,46075,2,0,P|158:111|167:146,1,60.0000022888184,2|0,0:2|0:2,0:2:0:0:
249,198,46428,6,0,B|395:184,2,120.000004577637,6|0|8,3:2|3:2|0:2,0:2:0:0:
136,291,47487,1,0,0:2:0:0:
136,291,47663,2,0,P|56:289|40:378,1,180.000006866455,2|0,0:2|3:2,2:2:0:0:
37,373,48546,6,0,L|105:370,1,60.0000022888184,10|0,0:2|0:2,0:2:0:0:
178,378,48899,2,0,P|165:346|193:243,1,120.000004577637,0|0,0:2|3:2,0:2:0:0:
195,265,49604,2,0,P|179:322|195:379,1,120.000004577637,0|8,3:2|0:2,0:2:0:0:
375,255,50310,5,2,0:2:0:0:
475,341,50663,1,0,0:2:0:0:
375,255,51016,1,0,3:2:0:0:
499,211,51369,1,8,0:2:0:0:
475,341,51722,1,0,0:2:0:0:
499,211,52075,6,0,L|503:151,1,60.0000022888184,2|0,3:2|0:2,0:2:0:0:
410,175,52428,2,0,L|414:115,1,60.0000022888184,0|0,3:2|0:2,0:2:0:0:
316,201,52781,2,0,L|325:75,2,120.000004577637,10|0|0,0:2|0:2|0:2,0:2:0:0:
209,384,53840,6,0,L|199:264,1,120.000004577637,0|8,3:2|0:2,0:2:0:0:
134,149,54546,1,0,0:2:0:0:
68,190,54722,1,0,0:2:0:0:
68,190,54810,1,0,0:2:0:0:
68,190,54899,1,0,3:2:0:0:
131,71,55251,1,0,3:2:0:0:
202,185,55604,1,8,0:2:0:0:
320,4,55957,5,2,0:2:0:0:
297,121,56310,1,0,0:2:0:0:
329,236,56663,1,0,3:2:0:0:
296,351,57016,1,8,0:2:0:0:
243,201,57369,5,2,0:2:0:0:
243,201,57546,1,0,0:2:0:0:
329,236,57722,2,0,P|387:245|443:226,2,120.000004577637,2|0|8,3:2|3:2|0:2,0:2:0:0:
228,157,58781,5,0,0:2:0:0:
228,157,58957,2,0,P|239:97|221:24,1,120.000004577637,2|0,0:2|0:2,0:2:0:0:
151,59,59487,2,0,P|140:119|158:192,1,120.000004577637,0|8,3:2|0:2,0:2:0:0:
134,177,60193,2,0,P|123:118|134:59,1,120.000004577637,2|0,0:2|3:2,0:2:0:0:
256,10,60899,1,0,3:2:0:0:
382,47,61251,1,8,0:2:0:0:
453,203,61604,5,2,0:2:0:0:
379,226,61781,1,0,0:2:0:0:
379,226,61869,1,0,0:2:0:0:
379,226,61957,1,2,0:2:0:0:
417,352,62310,5,0,3:2:0:0:
379,226,62663,1,8,0:2:0:0:
341,100,63016,1,0,0:2:0:0:
276,55,63193,5,0,0:2:0:0:
276,55,63281,1,0,0:2:0:0:
276,55,63369,2,0,B|217:71|217:71|152:43,2,120.000004577637,2|0|8,3:2|3:2|0:2,0:2:0:0:
395,182,64428,2,0,B|449:158|449:158|508:174,1,120.000004577637,2|0,0:2|0:2,0:2:0:0:
508,174,65134,6,0,P|509:206|511:238,1,60.0000022888184,2|0,3:2|0:2,0:2:0:0:
473,302,65487,2,0,P|443:284|419:274,1,60.0000022888184,8|0,0:2|0:2,0:2:0:0:
340,277,65840,1,0,0:2:0:0:
392,197,66016,5,0,0:2:0:0:
392,197,66104,1,0,0:2:0:0:
392,197,66193,2,0,P|410:140|401:81,1,120.000004577637,2|0,3:2|0:2,0:2:0:0:
157,150,66899,2,0,P|147:91|166:34,1,120.000004577637,10|0,0:2|0:2,0:2:0:0:
275,231,67604,5,2,0:2:0:0:
191,261,67781,1,0,0:2:0:0:
191,261,67869,1,0,0:2:0:0:
191,261,67957,2,0,L|127:252,1,60.0000022888184,2|0,3:3|0:2,0:2:0:0:
241,138,68310,5,8,0:2:0:0:
289,247,68476,1,8,0:2:0:0:
382,172,68643,1,8,0:2:0:0:
334,63,68810,1,8,0:2:0:0:
241,138,69016,6,0,B|165:159|165:159|98:108,1,160,6|0,3:2|0:2,0:2:0:0:
100,109,70075,2,0,L|85:200,2,80,2|0|0,3:2|0:2|3:2,0:2:0:0:
196,24,71134,1,10,0:2:0:0:
196,24,71487,1,0,0:2:0:0:
334,114,71840,6,0,P|389:132|455:97,1,120,2|0,3:2|3:2,2:2:0:0:
445,110,72899,1,2,3:2:0:0:
322,144,73251,1,0,0:2:0:0:
316,271,73604,1,0,3:2:0:0:
434,315,73957,1,8,0:2:0:0:
512,216,74310,1,0,0:2:0:0:
445,110,74663,6,0,P|438:75|442:13,2,80,2|0|0,3:2|0:2|0:2,0:2:0:0:
512,216,75722,2,0,P|513:255|505:295,2,80,2|0|0,3:2|0:2|3:2,0:2:0:0:
367,133,76781,6,0,P|326:135|283:115,1,80,10|0,0:2|0:2,0:2:0:0:
175,62,77487,2,0,P|121:37|57:35,1,120,0|0,3:2|3:2,0:2:0:0:
61,34,78546,2,0,L|46:120,1,80,0|0,3:2|0:2,0:2:0:0:
139,296,79251,5,2,3:2:0:0:
26,371,79604,1,8,0:2:0:0:
61,301,79781,1,8,0:2:0:0:
18,236,79957,1,2,0:2:0:0:
139,108,80310,6,0,P|147:60|136:14,2,95.9999970703126,6|0|0,3:2|0:2|0:2,0:2:0:0:
80,250,81369,2,0,P|69:296|77:343,2,95.9999970703126,2|0|0,3:2|0:2|3:2,0:2:0:0:
214,174,82428,5,10,0:2:0:0:
214,174,82781,2,0,P|240:183|319:167,1,95.9999970703126,0|0,0:2|3:2,0:2:0:0:
420,289,83487,1,2,0:2:0:0:
420,289,83663,2,0,P|407:255|427:194,1,95.9999970703126,0|0,3:2|2:2,2:2:0:0:
483,152,84193,5,2,3:2:0:0:
343,187,84546,1,0,0:2:0:0:
207,137,84899,1,0,3:2:0:0:
66,168,85251,1,8,0:2:0:0:
207,137,85604,1,0,0:2:0:0:
72,273,85878,5,2,0:2:0:0:
72,273,85969,2,0,P|55:236|77:151,1,111.999996582031,6|0,3:2|0:2,0:2:0:0:
287,9,86674,2,0,P|304:46|282:131,1,111.999996582031,10|0,0:2|0:2,0:2:0:0:
174,177,87204,5,8,0:2:0:0:
174,177,87292,1,8,0:2:0:0:
174,177,87380,2,0,P|123:161|59:170,1,111.999996582031,2|0,3:2|3:2,0:2:0:0:
204,319,88086,2,0,P|255:335|319:326,1,111.999996582031,10|0,0:2|0:2,0:2:0:0:
416,257,88616,5,8,0:2:0:0:
416,257,88704,1,8,0:2:0:0:
416,257,88792,2,0,B|351:220|357:147|362:102|410:65|410:65|392:96|396:124|406:119|411:141|386:159,1,320,6|4,3:2|0:2,0:2:0:0:
124,71,91604,6,0,P|95:153|109:239,1,176.000005371094,6|0,0:1|0:2,0:1:0:0:
213,207,92134,1,0,0:2:0:0:
109,239,92310,2,0,P|57:242|6:225,1,88.000002685547,10|0,0:1|0:2,0:2:0:0:
199,384,92663,2,0,P|201:346|227:284,1,88.000002685547,2|0,0:2|0:2,0:2:0:0:
318,214,93016,5,2,0:1:0:0:
383,312,93193,1,0,0:2:0:0:
318,214,93369,2,0,P|302:172|299:129,1,88.000002685547,2|0,0:2|0:2,0:2:0:0:
424,84,93722,2,0,P|426:40|442:0,1,88.000002685547,10|0,0:1|0:2,0:2:0:0:
512,135,94075,1,0,0:2:0:0:
512,135,94251,1,0,0:2:0:0:
330,33,94428,6,0,P|218:9|119:15,2,176.000005371094,2|2|10,0:1|0:2|0:1,0:1:0:0:
90,189,95487,1,2,0:2:0:0:
90,189,95663,1,0,0:2:0:0:
158,251,95840,2,0,P|171:211|183:158,1,88.000002685547,2|0,0:1|0:0,0:2:0:0:
90,189,96193,1,0,0:2:0:0:
179,264,96369,1,0,0:2:0:0:
179,264,96457,1,0,0:2:0:0:
179,264,96546,2,0,P|192:224|204:171,1,88.000002685547,10|0,0:1|0:2,0:2:0:0:
248,20,96899,5,2,0:2:0:0:
164,66,97075,1,0,0:2:0:0:
164,66,97163,1,0,0:2:0:0:
164,66,97251,2,0,P|107:77|-2:26,1,176.000005371094,2|2,0:1|0:2,0:2:0:0:
3,31,97957,2,0,P|31:61|50:117,1,88.000002685547,10|0,0:1|0:2,0:2:0:0:
143,206,98310,2,0,P|145:246|125:302,1,88.000002685547,2|0,0:2|0:2,0:2:0:0:
21,383,98663,6,0,P|22:274|43:209,1,176.000005371094,2|0,0:1|0:2,0:1:0:0:
42,210,99193,1,0,0:2:0:0:
234,325,99369,2,0,P|233:216|212:151,1,176.000005371094,10|0,0:1|0:2,0:1:0:0:
307,48,99899,5,0,0:2:0:0:
307,48,99987,1,0,0:2:0:0:
307,48,100075,2,0,P|391:22|490:14,1,176.000005371094,2|0,0:1|0:2,0:2:0:0:
405,290,100781,2,0,P|317:297|234:324,1,176.000005371094,10|0,0:1|0:2,0:2:0:0:
499,322,101310,5,0,0:2:0:0:
499,322,101399,1,0,0:2:0:0:
499,322,101487,1,2,0:1:0:0:
411,204,101663,1,8,0:2:0:0:
353,383,101840,1,2,0:2:0:0:
420,186,102193,5,10,0:1:0:0:
0,205,102546,1,2,0:2:0:0:
87,259,102722,5,0,0:2:0:0:
87,259,102810,1,0,0:2:0:0:
87,259,102899,2,2,B|131:168|50:177|102:69,1,176.000005371094,6|0,0:2|0:2,0:1:0:0:
212,6,103428,1,0,0:2:0:0:
94,89,103604,2,0,P|44:84|3:65,1,88.000002685547,10|0,0:1|0:2,0:2:0:0:
212,6,103957,2,0,P|207:63|220:120,1,88.000002685547,2|0,0:2|0:2,0:2:0:0:
345,182,104310,5,2,0:1:0:0:
470,144,104487,1,0,0:2:0:0:
375,81,104663,1,2,0:2:0:0:
445,247,104840,1,0,0:2:0:0:
497,150,105016,2,0,P|515:67|434:20,1,176.000005371094,10|0,0:1|0:2,0:2:0:0:
290,119,105546,5,0,0:2:0:0:
290,119,105634,1,0,0:2:0:0:
290,119,105722,2,0,L|298:222,1,88.000002685547,2|0,0:1|0:2,0:2:0:0:
167,141,106075,2,0,L|159:244,1,88.000002685547,2|0,0:2|0:2,0:2:0:0:
65,74,106428,2,0,L|21:259,1,176.000005371094,10|0,0:1|0:2,0:2:0:0:
359,384,107134,5,2,0:1:0:0:
302,295,107310,1,0,0:2:0:0:
350,210,107487,1,2,0:2:0:0:
304,136,107663,1,0,0:2:0:0:
304,136,107751,1,0,0:2:0:0:
304,136,107840,2,0,P|305:86|317:36,1,88.000002685547,10|0,0:1|0:0,0:0:0:0:
392,0,108193,5,2,0:2:0:0:
212,58,108369,1,0,0:2:0:0:
212,58,108457,1,0,0:2:0:0:
212,58,108546,2,2,P|124:65|36:29,2,176.000005371094,6|0|8,0:2|0:2|0:2,0:1:0:0:
505,268,109604,5,2,0:2:0:0:
433,193,109781,1,0,0:2:0:0:
433,193,109869,1,0,0:2:0:0:
433,193,109957,2,2,P|351:162|264:169,1,176.000005371094,6|0,0:2|0:2,0:1:0:0:
264,169,110487,1,0,0:2:0:0:
175,266,110663,2,2,L|185:87,1,176.000005371094,8|0,0:2|0:2,0:1:0:0:
438,200,111193,5,0,0:2:0:0:
438,200,111281,1,0,0:2:0:0:
438,200,111369,2,2,L|428:21,2,176.000005371094,6|0|8,0:2|0:2|0:2,0:1:0:0:
264,361,112428,5,2,0:1:0:0:
171,331,112604,1,0,0:2:0:0:
201,238,112781,1,2,0:2:0:0:
294,268,112957,1,0,0:2:0:0:
73,277,113134,5,2,0:2:0:0:
438,200,113487,1,10,0:2:0:0:
92,32,113840,1,2,0:2:0:0:
184,99,114016,5,0,0:2:0:0:
184,99,114104,1,0,0:2:0:0:
184,99,114193,2,0,P|229:97|269:82,1,80,6|0,0:1|0:2,0:2:0:0:
114,183,114546,2,0,P|89:145|56:117,1,80,2|0,0:2|0:2,0:2:0:0:
63,122,114899,1,10,0:2:0:0:
221,202,115075,1,0,0:2:0:0:
221,202,115163,1,0,0:2:0:0:
221,202,115251,2,0,P|202:236|194:276,1,80,2|0,0:2|0:2,0:2:0:0:
335,384,115604,6,0,P|422:348|517:364,1,160,2|0,0:1|0:2,0:2:0:0:
412,273,116134,1,0,0:2:0:0:
483,205,116310,2,0,P|510:141|484:49,1,160,10|2,0:2|0:2,0:2:0:0:
489,55,116840,1,0,0:2:0:0:
392,127,117016,6,0,B|302:114,1,80,2|0,0:1|0:0,0:2:0:0:
255,208,117369,2,0,B|345:221,1,80,0|0,0:2|0:0,0:0:0:0:
221,51,117722,1,10,0:2:0:0:
154,108,117899,1,0,0:2:0:0:
95,41,118075,1,0,0:2:0:0:
10,149,118251,5,0,0:2:0:0:
10,149,118340,1,0,0:2:0:0:
10,149,118428,2,0,P|-2:200|5:243,1,80,2|0,0:1|0:2,0:2:0:0:
100,366,118781,2,0,P|112:315|105:272,1,80,2|0,0:2|0:2,0:2:0:0:
238,165,119134,2,0,P|226:216|233:259,1,80,10|0,0:2|0:2,0:2:0:0:
370,379,119487,5,2,0:2:0:0:
456,324,119663,1,0,0:2:0:0:
456,324,119751,1,0,0:2:0:0:
456,324,119840,2,0,P|474:240|448:145,1,160,2|0,0:1|0:2,0:2:0:0:
241,320,120546,2,0,P|223:242|237:164,1,160,10|0,0:2|0:2,0:2:0:0:
332,59,121075,5,0,0:2:0:0:
332,59,121163,1,0,0:2:0:0:
332,59,121251,2,0,P|367:72|418:56,1,80,2|0,0:1|0:2,0:2:0:0:
234,146,121604,2,0,P|199:133|148:149,1,80,2|0,0:2|0:2,0:2:0:0:
293,247,121957,1,10,0:1:0:0:
267,356,122134,1,0,0:2:0:0:
376,382,122310,1,0,0:2:0:0:
402,273,122487,1,0,0:2:0:0:
211,291,122663,6,0,B|132:302|132:302|43:251,1,160,2|0,0:1|0:2,0:2:0:0:
0,90,123369,1,10,0:2:0:0:
83,117,123546,1,0,0:2:0:0:
170,105,123722,1,0,0:2:0:0:
249,143,123899,1,0,0:2:0:0:
359,91,124075,6,0,P|356:47|372:-2,1,80,2|0,0:1|0:2,0:2:0:0:
472,139,124428,2,0,P|475:183|459:232,1,80,2|0,0:2|0:2,0:2:0:0:
396,333,124781,2,0,P|334:299|226:315,1,160,10|0,0:2|0:2,0:2:0:0:
134,384,125310,5,0,0:2:0:0:
134,384,125399,1,0,0:2:0:0:
134,384,125487,2,2,L|156:190,1,160,6|0,0:2|0:2,0:1:0:0:
396,333,126193,1,10,0:2:0:0:
466,278,126369,1,0,0:2:0:0:
466,278,126457,1,0,0:2:0:0:
466,278,126546,2,0,L|455:181,1,80,2|0,0:2|0:2,0:2:0:0:
512,72,126899,6,0,B|437:90|437:90|360:57,1,160,2|0,0:1|0:2,0:2:0:0:
360,57,127428,1,0,0:2:0:0:
351,186,127604,2,0,B|274:153|274:153|199:171,1,160,10|0,0:2|0:2,0:2:0:0:
199,171,128134,1,0,0:2:0:0:
94,87,128310,6,0,B|107:50|107:50|91:12,1,80,2|0,0:1|0:2,0:2:0:0:
0,143,128663,2,0,B|-13:180|-13:180|2:217,1,80,2|0,0:2|0:2,0:2:0:0:
97,345,129016,1,10,0:2:0:0:
183,332,129193,1,0,0:2:0:0:
270,345,129369,1,0,0:2:0:0:
356,332,129546,1,0,0:2:0:0:
452,384,129722,6,0,B|487:342|487:342|450:235,1,160,2|0,0:1|0:2,0:2:0:0:
193,269,130428,2,0,B|158:227|158:227|195:120,1,160,10|0,0:2|0:2,0:2:0:0:
234,40,130957,1,0,0:2:0:0:
358,142,131134,6,0,P|448:154|523:115,1,160,2|0,0:1|0:2,0:2:0:0:
234,40,131840,2,0,P|160:11|82:24,1,160,10|0,0:2|0:2,0:2:0:0:
0,118,132369,5,0,0:2:0:0:
0,118,132457,1,0,0:2:0:0:
0,118,132545,2,0,L|8:205,1,80,2|0,0:1|0:2,0:2:0:0:
139,267,132887,2,0,L|146:187,1,80,2|0,0:2|0:2,0:2:0:0:
338,112,133239,2,0,L|345:191,1,80,10|0,0:2|0:2,0:2:0:0:
477,122,133592,2,0,L|484:42,1,80,2|0,0:2|0:2,0:2:0:0:
239,9,133945,5,2,0:1:0:0:
338,112,134122,1,8,0:2:0:0:
264,212,134298,1,8,0:3:0:0:
289,299,134475,1,4,0:3:0:0:
199,384,134651,2,0,L|20:373,1,160,6|0,0:2|0:2,0:2:0:0:
141,229,135181,5,0,0:2:0:0:
141,229,135269,1,0,0:2:0:0:
141,229,135357,1,2,0:1:0:0:
33,178,135534,1,0,0:2:0:0:
201,109,135710,5,2,0:1:0:0:
239,290,135887,1,0,0:2:0:0:
308,137,136063,5,8,2:3:0:0:
308,137,136152,1,8,2:3:0:0:
308,137,136242,1,8,2:3:0:0:
423,92,136422,5,4,2:3:0:0:
429,66,136542,1,4,2:3:0:0:
422,40,136661,1,4,2:3:0:0:
407,17,136781,6,0,P|330:21|267:-10,2,128,6|0|8,3:2|3:2|0:2,0:2:0:0:
477,134,137840,1,2,0:2:0:0:
477,134,138016,2,0,P|500:191|464:320,1,192,8|0,0:2|3:2,0:2:0:0:
237,384,138899,6,0,L|243:295,1,64,10|0,0:2|0:2,0:2:0:0:
316,262,139251,2,0,P|383:267|409:200,1,128,2|0,0:2|3:2,0:2:0:0:
305,74,139957,2,0,L|170:58,1,128,2|8,3:2|0:2,0:2:0:0:
26,197,140663,6,0,P|10:242|31:341,1,128,2|0,0:2|0:2,0:2:0:0:
160,384,141369,1,2,3:2:0:0:
297,315,141722,1,8,0:2:0:0:
441,379,142075,1,2,0:2:0:0:
441,379,142251,1,8,0:2:0:0:
493,322,142428,5,2,3:2:0:0:
342,384,142781,1,2,3:2:0:0:
410,246,143134,2,0,P|423:196|403:116,2,128,10|0|0,0:2|0:2|0:2,0:2:0:0:
342,384,144193,1,0,3:2:0:0:
222,287,144546,2,0,P|205:225|218:163,1,128,8|0,0:2|0:2,0:2:0:0:
272,98,145075,5,2,0:2:0:0:
272,98,145163,1,2,0:2:0:0:
272,98,145251,1,2,3:2:0:0:
404,175,145604,1,0,3:2:0:0:
272,98,145957,1,8,0:2:0:0:
177,225,146310,1,2,0:2:0:0:
177,225,146487,2,0,B|119:253|119:253|52:198,1,128,2|0,0:2|0:2,0:2:0:0:
17,156,147016,5,2,3:2:0:0:
115,335,147369,1,8,0:2:0:0:
243,176,147722,1,2,0:2:0:0:
243,176,147899,1,0,0:2:0:0:
326,220,148075,6,0,B|384:248|384:248|451:193,2,128,6|0|8,3:2|3:2|0:2,0:2:0:0:
195,138,149134,1,2,0:2:0:0:
195,138,149310,2,0,B|114:85|114:85|14:123,1,192,8|0,0:2|3:2,0:2:0:0:
25,119,150193,6,0,L|35:258,1,128,10|0,0:2|0:2,0:2:0:0:
17,342,150722,1,8,0:2:0:0:
17,342,150899,2,0,P|53:326|97:325,1,64,2|0,3:2|0:2,0:2:0:0:
169,347,151251,2,0,P|231:369|304:363,1,128,2|8,3:2|0:2,0:2:0:0:
460,306,151957,1,2,0:2:0:0:
460,306,152134,1,8,0:2:0:0:
394,251,152310,6,0,P|380:198|405:123,1,128,2|0,0:2|3:2,0:2:0:0:
509,20,153016,1,10,0:2:0:0:
405,133,153369,1,2,0:2:0:0:
405,133,153546,1,0,0:2:0:0:
337,74,153722,6,0,P|286:48|204:64,1,128,2|0,3:2|3:2,0:2:0:0:
169,235,154428,2,0,P|225:262|288:252,1,128,10|0,0:2|0:2,0:2:0:0:
348,316,154957,1,8,0:2:0:0:
348,316,155134,2,0,P|337:250|369:179,1,128,2|0,0:2|3:2,0:2:0:0:
483,23,155840,2,0,P|494:89|462:160,1,128,10|0,0:2|0:2,0:2:0:0:
364,201,156369,5,8,0:2:0:0:
364,201,156457,1,8,0:2:0:0:
364,201,156546,2,0,B|298:229|226:200|216:124|216:124|260:199|296:137|318:204|283:310|226:381|129:381|129:381|162:368|183:350|161:338|188:324|225:325,1,671.999979492188,6|4,3:2|0:2,0:2:0:0:
233,321,159369,6,0,B|315:300|376:372|376:372|471:392|512:296,3,320,2|2|2|2,0:2|0:2|0:2|0:2,0:2:0:0:
484,287,165016,6,0,B|534:165|409:187|483:51,1,240,2|0,0:2|0:2,0:2:0:0:
478,60,166428,2,0,P|465:100|319:51,1,240,2|0,0:2|0:2,0:2:0:0:
311,79,167840,6,0,L|309:171,1,80,2|0,0:2|0:2,0:2:0:0:
228,176,168546,2,0,L|229:96,1,80,2|0,0:2|0:2,0:2:0:0:
132,0,169251,5,2,0:2:0:0:
132,0,169604,1,0,0:2:0:0:
62,94,169957,5,2,0:2:0:0:
62,94,170310,1,0,0:2:0:0:
215,173,170663,6,0,L|340:163,1,111.999996582031,2|0,0:2|0:2,0:2:0:0:
331,181,171369,2,0,L|219:189,1,111.999996582031,2|0,0:2|3:2,0:2:0:0:
390,332,172075,6,0,L|515:322,1,111.999996582031,2|0,0:2|0:2,0:2:0:0:
506,340,172781,2,0,L|394:348,1,111.999996582031,2|0,0:2|3:2,0:2:0:0:
298,232,173487,6,0,P|309:178|290:126,1,111.999996582031,2|0,0:2|0:2,0:2:0:0:
266,125,174193,2,0,P|285:176|273:230,1,111.999996582031,2|0,0:2|3:2,0:2:0:0:
108,302,174899,6,0,P|96:248|115:196,1,111.999996582031,2|0,0:2|0:2,0:2:0:0:
140,195,175604,2,0,P|120:246|132:300,1,111.999996582031,2|0,0:2|3:2,0:2:0:0:
297,356,176310,6,0,B|335:351|335:351|363:364|363:364|405:359,1,111.999996582031,2|0,3:2|0:2,0:2:0:0:
406,339,177016,2,0,B|363:343|363:343|335:330|335:330|297:335,1,111.999996582031,2|0,0:2|3:2,0:2:0:0:
177,282,177722,5,2,0:2:0:0:
177,282,178075,1,0,0:2:0:0:
259,180,178428,5,2,0:2:0:0:
259,180,178781,1,0,3:2:0:0:
240,32,179134,6,0,B|249:83|229:116|210:90|178:144|178:144|176:114|202:91,1,191.999994140625,2|4,2:2|0:2,0:2:0:0:
180,355,181957,6,0,P|86:372|-14:325,1,191.999994140625,6|0,0:1|0:2,0:2:0:0:
212,266,182487,1,0,0:2:0:0:
147,182,182663,1,10,0:1:0:0:
217,103,182840,1,0,0:2:0:0:
217,103,182928,1,0,0:2:0:0:
217,103,183016,2,0,P|215:65|238:-3,1,95.9999970703126,2|0,0:2|0:2,0:2:0:0:
428,107,183369,5,2,0:1:0:0:
348,36,183546,1,0,0:2:0:0:
328,139,183722,2,0,P|326:177|349:245,1,95.9999970703126,2|0,0:2|0:2,0:2:0:0:
469,365,184075,2,0,P|483:319|482:271,1,95.9999970703126,10|0,0:1|0:2,0:2:0:0:
482,271,184340,1,0,0:2:0:0:
482,271,184428,1,2,0:2:0:0:
347,370,184604,1,0,0:2:0:0:
259,318,184781,6,0,B|172:278|172:278|54:307,1,191.999994140625,2|0,0:1|0:2,0:2:0:0:
322,122,185487,2,0,B|415:144|415:144|502:104,1,191.999994140625,10|0,0:2|0:2,0:2:0:0:
281,3,186016,5,0,0:2:0:0:
281,3,186104,1,0,0:2:0:0:
281,3,186193,1,2,0:1:0:0:
209,107,186369,1,0,0:2:0:0:
281,3,186546,1,2,0:2:0:0:
330,130,186722,1,0,0:2:0:0:
330,130,186810,1,0,0:2:0:0:
330,130,186899,2,0,P|337:178|322:228,1,95.9999970703126,10|0,0:1|0:2,0:2:0:0:
230,315,187251,5,2,0:2:0:0:
138,262,187428,1,2,0:2:0:0:
47,361,187604,2,0,P|34:264|68:166,1,191.999994140625,2|0,0:1|0:2,0:2:0:0:
270,37,188310,2,0,L|171:23,1,95.9999970703126,10|0,0:1|0:2,0:2:0:0:
345,148,188663,2,0,L|357:52,1,95.9999970703126,2|0,0:2|0:2,0:2:0:0:
452,178,189016,6,0,P|465:272|436:363,1,191.999994140625,2|0,0:1|0:2,0:2:0:0:
436,363,189546,1,0,0:2:0:0:
301,330,189722,2,0,L|79:307,1,191.999994140625,10|0,0:1|0:2,0:2:0:0:
291,206,190251,5,0,0:2:0:0:
291,206,190340,1,0,0:2:0:0:
291,206,190428,2,0,P|319:115|306:20,1,191.999994140625,2|0,0:1|0:2,0:2:0:0:
4,194,191134,2,0,P|-9:288|19:379,1,191.999994140625,10|0,0:2|0:2,0:2:0:0:
173,281,191663,5,0,0:2:0:0:
173,281,191751,1,0,0:2:0:0:
173,281,191840,1,2,0:1:0:0:
272,383,192016,1,0,0:2:0:0:
354,207,192193,1,2,0:2:0:0:
411,310,192546,5,10,0:1:0:0:
137,13,192899,1,2,0:2:0:0:
220,83,193075,5,0,0:2:0:0:
220,83,193163,1,0,0:2:0:0:
220,83,193251,2,2,B|308:110|308:110|411:37,1,191.999994140625,6|0,0:2|0:2,0:1:0:0:
389,52,193781,1,0,0:2:0:0:
327,196,193957,2,0,P|318:239|337:302,1,95.9999970703126,10|0,0:1|0:2,0:2:0:0:
473,384,194310,2,0,P|482:341|463:278,1,95.9999970703126,2|0,0:2|0:2,0:2:0:0:
315,173,194663,5,2,0:1:0:0:
230,318,194840,1,0,0:2:0:0:
294,153,195016,1,2,0:2:0:0:
209,298,195193,1,0,0:2:0:0:
111,160,195369,2,0,P|199:188|273:133,1,191.999994140625,10|0,0:1|0:2,0:2:0:0:
408,31,195899,5,0,0:2:0:0:
408,31,195987,1,0,0:2:0:0:
408,31,196075,2,0,L|303:19,1,95.9999970703126,2|0,0:1|0:2,0:2:0:0:
274,133,196428,2,0,L|379:145,1,95.9999970703126,2|0,0:2|0:2,0:2:0:0:
221,54,196781,2,0,L|19:30,1,191.999994140625,10|2,0:1|0:2,0:2:0:0:
147,162,197310,5,0,0:2:0:0:
147,162,197399,1,0,0:2:0:0:
147,162,197487,1,2,0:1:0:0:
14,192,197663,1,0,0:2:0:0:
44,325,197840,1,2,0:2:0:0:
177,295,198016,1,0,0:2:0:0:
304,344,198193,2,0,B|396:369|396:369|517:341,1,191.999994140625,10|0,0:1|0:2,0:2:0:0:
397,203,198722,5,0,0:2:0:0:
397,203,198810,1,0,0:2:0:0:
397,203,198899,2,2,P|438:130|413:28,2,191.999994140625,6|0|8,0:2|0:2|0:2,0:1:0:0:
268,376,199957,5,2,0:2:0:0:
229,286,200134,1,0,0:2:0:0:
229,286,200222,1,0,0:2:0:0:
229,286,200310,2,2,P|147:255|35:274,1,191.999994140625,6|0,0:2|0:2,0:1:0:0:
45,269,200840,1,0,0:2:0:0:
229,286,201016,2,2,P|322:300|412:269,1,191.999994140625,10|0,0:2|0:2,0:1:0:0:
300,174,201546,5,0,0:2:0:0:
300,174,201634,1,0,0:2:0:0:
300,174,201722,2,2,B|340:130|340:130|284:-4,2,191.999994140625,6|0|8,0:2|0:2|0:2,0:1:0:0:
99,17,202781,5,2,0:1:0:0:
26,127,202957,1,0,0:2:0:0:
137,199,203134,1,2,0:2:0:0:
209,89,203310,1,0,0:2:0:0:
28,226,203487,5,2,0:2:0:0:
512,141,203840,1,10,0:2:0:0:
99,17,204193,1,2,0:2:0:0:
217,96,204369,5,0,0:2:0:0:
217,96,204457,1,0,0:2:0:0:
217,96,204546,2,0,P|260:98|302:79,1,80,6|0,0:1|0:2,0:2:0:0:
407,10,204899,2,0,P|383:46|379:92,1,80,2|0,0:2|0:2,0:2:0:0:
386,217,205251,1,10,0:2:0:0:
386,217,205340,1,0,0:2:0:0:
386,217,205428,1,0,0:2:0:0:
386,217,205516,1,0,0:2:0:0:
386,217,205604,2,0,P|366:178|328:151,1,80,2|0,0:2|0:2,0:2:0:0:
216,96,205957,6,0,P|155:142|80:122,1,160,2|0,0:1|0:2,0:2:0:0:
79,121,206487,1,0,0:2:0:0:
0,264,206663,2,0,P|61:217|136:237,1,160,10|0,0:1|0:2,0:2:0:0:
229,352,207193,1,0,0:2:0:0:
281,296,207369,2,0,B|268:259|268:259|282:219,1,80,2|0,0:2|0:2,0:2:0:0:
362,220,207722,2,0,B|375:257|375:257|361:297,1,80,2|0,0:2|0:2,0:2:0:0:
241,150,208075,5,10,0:1:0:0:
308,107,208251,1,0,0:2:0:0:
265,40,208428,1,0,0:2:0:0:
200,82,208604,1,0,0:2:0:0:
200,82,208693,1,0,0:2:0:0:
200,82,208781,2,0,P|136:87|16:43,1,160,2|2,0:2|0:2,0:2:0:0:
44,61,209310,1,0,0:2:0:0:
108,160,209487,6,0,P|118:203|109:241,1,80,10|0,0:1|0:2,0:0:0:0:
8,347,209840,2,0,P|-2:304|7:266,1,80,0|0,0:2|0:2,0:0:0:0:
129,148,210193,2,0,B|157:201|134:250|134:250|168:232|176:193,1,160,2|0,0:2|0:2,0:2:0:0:
170,211,210899,6,0,P|156:127|186:59,1,160,10|0,0:1|0:2,0:2:0:0:
306,0,211428,1,0,0:2:0:0:
306,0,211516,1,0,0:2:0:0:
306,0,211604,2,0,L|312:89,1,80,2|0,0:2|0:2,0:2:0:0:
460,43,211957,2,0,L|454:122,1,80,2|0,0:2|0:2,0:2:0:0:
342,218,212310,6,0,P|306:205|254:201,1,80,10|0,0:1|0:2,0:0:0:0:
381,341,212663,2,0,P|418:354|458:358,1,80,0|0,0:2|0:2,0:0:0:0:
345,207,213016,2,0,P|248:191|160:221,1,160,2|0,0:2|0:2,0:2:0:0:
0,346,213722,5,10,0:1:0:0:
90,377,213899,1,0,0:2:0:0:
156,307,214075,1,0,0:2:0:0:
75,275,214251,1,0,0:2:0:0:
75,275,214340,1,0,0:2:0:0:
75,275,214428,2,0,P|66:232|76:179,1,80,2|0,0:2|0:2,0:2:0:0:
283,255,214781,2,0,P|286:215|278:176,1,80,2|0,0:2|0:2,0:2:0:0:
148,96,215134,6,0,B|69:108|69:108|2:64,1,160,10|0,0:1|0:2,0:2:0:0:
257,5,215663,1,0,0:2:0:0:
257,5,215751,1,0,0:2:0:0:
257,5,215840,2,2,P|247:54|261:93,1,80,6|0,0:2|0:2,0:1:0:0:
365,156,216193,2,0,L|470:147,1,80,2|0,0:2|0:2,0:2:0:0:
333,274,216546,5,10,0:1:0:0:
487,330,216722,1,0,0:2:0:0:
487,330,216810,1,0,0:2:0:0:
487,330,216899,2,0,L|494:244,1,80,2|0,0:2|0:2,0:2:0:0:
375,345,217251,2,0,L|359:155,1,160,2|2,0:2|0:2,0:2:0:0:
361,185,217781,1,0,0:2:0:0:
512,95,217957,6,0,B|435:119|435:119|340:67,1,160,10|0,0:1|0:2,0:2:0:0:
258,210,218487,1,0,0:2:0:0:
205,149,218663,2,0,P|214:109|192:47,1,80,2|0,0:2|0:2,0:2:0:0:
36,214,219016,2,0,P|27:254|49:316,1,80,2|0,0:2|0:2,0:2:0:0:
123,375,219369,5,10,0:1:0:0:
215,350,219546,1,0,0:2:0:0:
306,381,219722,1,0,0:2:0:0:
403,359,219899,1,0,0:2:0:0:
403,359,219987,1,0,0:2:0:0:
403,359,220075,2,0,B|440:321|440:321|403:200,1,160,2|2,0:2|0:2,0:2:0:0:
408,218,220604,1,0,0:2:0:0:
363,99,220781,6,0,B|438:119|438:119|512:84,1,160,10|0,0:1|0:2,0:2:0:0:
512,84,221310,1,0,0:2:0:0:
363,99,221487,2,0,B|288:79|288:79|213:113,1,160,2|0,0:2|0:2,0:2:0:0:
213,113,222193,6,0,P|247:175|228:269,1,160,10|0,0:1|0:2,0:2:0:0:
135,384,222722,1,0,0:2:0:0:
135,384,222810,1,0,0:2:0:0:
135,384,222899,2,0,L|128:291,1,80,2|0,0:2|0:2,0:2:0:0:
0,347,223251,2,0,L|7:254,1,80,0|0,0:2|0:2,0:2:0:0:
26,121,223604,6,0,P|63:135|102:131,1,80,10|0,0:1|0:2,0:0:0:0:
232,30,223957,2,0,P|194:15|155:19,1,80,0|0,0:2|0:2,0:0:0:0:
243,142,224310,2,0,P|218:187|242:313,1,160,2|0,0:2|0:2,0:2:0:0:
389,285,225016,5,10,0:1:0:0:
441,384,225193,1,0,0:2:0:0:
512,298,225369,1,0,0:2:0:0:
460,199,225546,1,0,0:2:0:0:
460,199,225634,1,0,0:2:0:0:
460,199,225722,2,0,P|451:154|464:98,1,80,2|0,0:2|0:2,0:2:0:0:
302,259,226070,2,0,P|306:298|297:337,1,80,2|0,0:2|0:2,0:2:0:0:
111,153,226407,5,8,0:2:0:0:
0,325,226573,1,8,0:2:0:0:
9,111,226740,5,8,0:2:0:0:
107,363,226907,1,8,0:2:0:0:
240,104,227116,6,0,B|209:175|225:273|273:331|371:383|371:383|366:284|411:225|421:255|466:186|416:87,1,640,6|4,3:2|0:2,0:2:0:0:
