osu file format v14

[General]
AudioFilename: audio.mp3
AudioLeadIn: 0
PreviewTime: 53533
Countdown: 0
SampleSet: Soft
StackLeniency: 1
Mode: 0
LetterboxInBreaks: 0
EpilepsyWarning: 1
WidescreenStoryboard: 1

[Editor]
Bookmarks: 8908,25708,44908,54508,73708,92908,102508,109708,131308,148108,155308
DistanceSpacing: 1.4
BeatDivisor: 4
GridSize: 16
TimelineZoom: 3.699998

[Metadata]
Title:Byouka
TitleUnicode:杪夏
Artist:culenasm
ArtistUnicode:クレナズム
Creator:Liyuu
Version:Kyuuchie's Expert
Source:
Tags:touch the figure japanese rock jrock j-rock pop jpop j-pop Airiesu Mujina Nagaraia Kyuuchie Kowari newton- Rielle Aquivery Shiwakaze Midorijeon Makoto まこと Moe 萌映 Kenjiro けんじろう Shuta しゅうた 4th mini album female vocal vocalist
BeatmapID:3804216
BeatmapSetID:1851452

[Difficulty]
HPDrainRate:6
CircleSize:4
OverallDifficulty:8.6
ApproachRate:9.2
SliderMultiplier:1.84
SliderTickRate:1

[Events]
//Background and Video events
0,0,"bg.jpg",0,0
//Break Periods
2,93108,101938
//Storyboard Layer 0 (Background)
//Storyboard Layer 1 (Fail)
//Storyboard Layer 2 (Pass)
//Storyboard Layer 3 (Foreground)
//Storyboard Layer 4 (Overlay)
//Storyboard Sound Samples

[TimingPoints]
508,300,4,2,1,60,1,0
1708,300,4,2,4,60,1,0
7708,-250,4,2,1,60,0,0
8908,-90.9090909090909,4,2,1,70,0,0
9208,-90.9090909090909,4,2,3,70,0,0
9658,-90.9090909090909,4,2,1,70,0,0
9808,-90.9090909090909,4,2,3,70,0,0
9958,-90.9090909090909,4,2,1,70,0,0
10108,-90.9090909090909,4,2,3,70,0,0
10858,-90.9090909090909,4,2,1,70,0,0
11008,-90.9090909090909,4,2,3,70,0,0
11158,-90.9090909090909,4,2,1,70,0,0
11308,-90.9090909090909,4,2,3,70,0,0
12058,-90.9090909090909,4,2,1,70,0,0
12208,-90.9090909090909,4,2,3,70,0,0
12958,-90.9090909090909,4,2,1,70,0,0
13108,-90.9090909090909,4,2,3,70,0,0
13258,-90.9090909090909,4,2,1,70,0,0
13408,-90.9090909090909,4,2,3,70,0,0
13558,-90.9090909090909,4,2,1,70,0,0
13708,-90.9090909090909,4,2,1,70,0,0
14008,-90.9090909090909,4,2,3,70,0,0
14458,-90.9090909090909,4,2,1,70,0,0
14608,-90.9090909090909,4,2,3,70,0,0
15658,-90.9090909090909,4,2,1,70,0,0
15808,-90.9090909090909,4,2,3,70,0,0
16558,-90.9090909090909,4,2,1,70,0,0
16708,-90.9090909090909,4,2,3,70,0,0
16858,-90.9090909090909,4,2,1,70,0,0
17008,-90.9090909090909,4,2,3,70,0,0
18058,-90.9090909090909,4,2,1,70,0,0
18808,-90.9090909090909,4,2,3,70,0,0
19258,-90.9090909090909,4,2,1,70,0,0
19408,-90.9090909090909,4,2,3,70,0,0
20458,-90.9090909090909,4,2,1,70,0,0
20608,-90.9090909090909,4,2,3,70,0,0
20758,-90.9090909090909,4,2,1,70,0,0
20908,-90.9090909090909,4,2,3,70,0,0
21658,-90.9090909090909,4,2,1,70,0,0
21808,-90.9090909090909,4,2,3,70,0,0
22858,-90.9090909090909,4,2,1,70,0,0
23008,-90.9090909090909,4,2,3,70,0,0
23308,-90.9090909090909,4,2,1,70,0,0
23608,-90.9090909090909,4,2,3,70,0,0
24058,-90.9090909090909,4,2,1,70,0,0
24208,-90.9090909090909,4,2,3,70,0,0
25258,-90.9090909090909,4,2,1,70,0,0
25408,-90.9090909090909,4,2,3,70,0,0
25558,-90.9090909090909,4,2,1,70,0,0
25708,-125,4,2,1,60,0,0
26008,-125,4,2,5,60,0,0
44908,-100,4,2,4,60,0,0
45058,-100,4,2,1,60,0,0
49708,-100,4,2,1,40,0,0
52108,-62.5,4,2,2,75,0,0
52558,-62.5,4,2,6,75,0,0
53158,-62.5,4,2,5,75,0,0
53458,-62.5,4,2,6,75,0,0
53908,-62.5,4,2,6,60,0,0
54508,-90.9090909090909,4,2,9,80,0,0
54808,-90.9090909090909,4,2,7,80,0,0
59158,-90.9090909090909,4,2,1,80,0,0
59308,-90.9090909090909,4,2,1,80,0,0
59608,-90.9090909090909,4,2,7,80,0,0
61708,-71.4285714285714,4,2,1,80,0,0
62008,-71.4285714285714,4,2,7,80,0,0
62158,-71.4285714285714,4,2,2,80,0,0
62608,-125,4,2,1,80,0,0
63508,-71.4285714285714,4,2,1,80,0,0
63733,-71.4285714285714,4,2,2,80,0,0
63958,-35.7142857142857,4,2,5,80,0,0
64108,-90.9090909090909,4,2,9,80,0,0
64408,-90.9090909090909,4,2,3,80,0,0
64558,-90.9090909090909,4,2,1,80,0,0
64708,-90.9090909090909,4,2,3,80,0,0
64858,-90.9090909090909,4,2,1,80,0,0
65008,-90.9090909090909,4,2,3,80,0,0
65758,-90.9090909090909,4,2,1,80,0,0
65908,-90.9090909090909,4,2,3,80,0,0
66058,-90.9090909090909,4,2,1,80,0,0
66208,-90.9090909090909,4,2,3,80,0,0
67258,-90.9090909090909,4,2,1,80,0,0
67408,-90.9090909090909,4,2,3,80,0,0
68158,-90.9090909090909,4,2,1,80,0,0
68308,-90.9090909090909,4,2,3,80,0,0
68458,-90.9090909090909,4,2,1,80,0,0
68608,-90.9090909090909,4,2,3,80,0,0
68908,-90.9090909090909,4,2,1,80,0,0
69208,-90.9090909090909,4,2,3,80,0,0
69658,-90.9090909090909,4,2,1,80,0,0
69808,-90.9090909090909,4,2,3,80,0,0
70558,-90.9090909090909,4,2,1,80,0,0
70708,-90.9090909090909,4,2,3,80,0,0
70858,-90.9090909090909,4,2,1,80,0,0
71008,-90.9090909090909,4,2,3,80,0,0
72058,-90.9090909090909,4,2,1,80,0,0
72208,-90.9090909090909,4,2,3,80,0,0
73108,-90.9090909090909,4,2,2,80,0,0
73408,-90.9090909090909,4,2,3,80,0,0
73558,-90.9090909090909,4,2,2,75,0,0
73633,-90.9090909090909,4,2,2,70,0,0
73708,-90.9090909090909,4,2,9,80,0,0
74008,-90.9090909090909,4,2,3,80,0,0
74158,-90.9090909090909,4,2,1,80,0,0
74308,-90.9090909090909,4,2,3,80,0,0
74458,-90.9090909090909,4,2,1,80,0,0
75808,-90.9090909090909,4,2,3,80,0,0
76558,-90.9090909090909,4,2,1,80,0,0
76708,-90.9090909090909,4,2,3,80,0,0
76858,-90.9090909090909,4,2,1,80,0,0
78208,-90.9090909090909,4,2,3,80,0,0
78358,-90.9090909090909,4,2,1,80,0,0
78508,-90.9090909090909,4,2,1,80,0,0
78808,-90.9090909090909,4,2,3,80,0,0
78958,-90.9090909090909,4,2,1,80,0,0
79108,-90.9090909090909,4,2,3,80,0,0
79258,-90.9090909090909,4,2,1,80,0,0
80608,-90.9090909090909,4,2,3,80,0,0
81358,-90.9090909090909,4,2,1,80,0,0
81508,-90.9090909090909,4,2,3,80,0,0
81658,-90.9090909090909,4,2,1,80,0,0
83308,-90.9090909090909,4,2,9,80,0,0
83608,-90.9090909090909,4,2,3,80,0,0
83758,-90.9090909090909,4,2,1,80,0,0
83908,-90.9090909090909,4,2,3,80,0,0
84058,-90.9090909090909,4,2,1,80,0,0
85408,-90.9090909090909,4,2,3,80,0,0
85558,-90.9090909090909,4,2,1,80,0,0
85708,-90.9090909090909,4,2,3,80,0,0
86158,-90.9090909090909,4,2,1,80,0,0
86308,-90.9090909090909,4,2,3,80,0,0
86458,-90.9090909090909,4,2,1,80,0,0
87808,-90.9090909090909,4,2,3,80,0,0
88108,-90.9090909090909,4,2,1,80,0,0
88408,-90.9090909090909,4,2,3,80,0,0
88858,-90.9090909090909,4,2,1,80,0,0
89008,-90.9090909090909,4,2,3,80,0,0
89158,-90.9090909090909,4,2,1,80,0,0
89608,-90.9090909090909,4,2,3,80,0,0
89758,-90.9090909090909,4,2,1,80,0,0
90208,-90.9090909090909,4,2,3,80,0,0
91258,-90.9090909090909,4,2,1,80,0,0
91408,-90.9090909090909,4,2,3,80,0,0
92008,-100,4,2,3,80,0,0
92308,-125,4,2,3,80,0,0
92608,-166.666666666667,4,2,3,80,0,0
92908,-166.666666666667,4,2,1,40,0,0
102508,-500.000000000003,4,2,4,40,0,0
108508,-166.666666666667,4,2,6,60,0,0
108526,-166.666666666667,4,2,2,5,0,0
108808,-166.666666666667,4,2,1,20,0,0
108958,-166.666666666667,4,2,2,40,0,0
109108,-166.666666666667,4,2,1,60,0,0
109258,-166.666666666667,4,2,2,70,0,0
109408,-166.666666666667,4,2,1,80,0,0
109633,-166.666666666667,4,2,1,5,0,0
109708,-90.9090909090909,4,2,9,85,0,0
110008,-90.9090909090909,4,2,3,85,0,0
110158,-90.9090909090909,4,2,1,85,0,0
110308,-90.9090909090909,4,2,3,85,0,0
110458,-90.9090909090909,4,2,1,85,0,0
110608,-90.9090909090909,4,2,3,85,0,0
111358,-90.9090909090909,4,2,1,85,0,0
111508,-90.9090909090909,4,2,3,85,0,0
111658,-90.9090909090909,4,2,1,85,0,0
111808,-90.9090909090909,4,2,3,85,0,0
112558,-90.9090909090909,4,2,1,85,0,0
112708,-90.9090909090909,4,2,3,85,0,0
112858,-90.9090909090909,4,2,1,85,0,0
113008,-90.9090909090909,4,2,3,85,0,0
113758,-90.9090909090909,4,2,1,85,0,0
113908,-90.9090909090909,4,2,3,85,0,0
114058,-90.9090909090909,4,2,1,85,0,0
114208,-90.9090909090909,4,2,3,85,0,0
114508,-90.9090909090909,4,2,1,85,0,0
114808,-90.9090909090909,4,2,3,85,0,0
115258,-90.9090909090909,4,2,1,85,0,0
115408,-90.9090909090909,4,2,3,85,0,0
116458,-90.9090909090909,4,2,1,85,0,0
116608,-90.9090909090909,4,2,3,85,0,0
117358,-90.9090909090909,4,2,1,85,0,0
117508,-90.9090909090909,4,2,3,85,0,0
117658,-90.9090909090909,4,2,1,85,0,0
117808,-90.9090909090909,4,2,3,85,0,0
118708,-90.9090909090909,4,2,1,85,0,0
119008,-90.9090909090909,4,2,1,85,0,0
119158,-90.9090909090909,4,2,1,85,0,0
119308,-90.9090909090909,4,2,9,85,0,0
119608,-90.9090909090909,4,2,3,85,0,0
119758,-90.9090909090909,4,2,1,85,0,0
119908,-90.9090909090909,4,2,3,85,0,0
120058,-90.9090909090909,4,2,1,85,0,0
120208,-90.9090909090909,4,2,3,85,0,0
121258,-90.9090909090909,4,2,1,85,0,0
121408,-90.9090909090909,4,2,3,85,0,0
122158,-90.9090909090909,4,2,1,85,0,0
122308,-90.9090909090909,4,2,3,85,0,0
122458,-90.9090909090909,4,2,1,85,0,0
122608,-90.9090909090909,4,2,3,85,0,0
123358,-90.9090909090909,4,2,1,85,0,0
123508,-90.9090909090909,4,2,3,85,0,0
123658,-90.9090909090909,4,2,1,85,0,0
123808,-90.9090909090909,4,2,3,85,0,0
124108,-90.9090909090909,4,2,1,85,0,0
124408,-90.9090909090909,4,2,3,85,0,0
124558,-90.9090909090909,4,2,1,85,0,0
124708,-90.9090909090909,4,2,3,85,0,0
124858,-90.9090909090909,4,2,1,85,0,0
125008,-90.9090909090909,4,2,3,85,0,0
125908,-90.9090909090909,4,2,1,85,0,0
126058,-125,4,2,1,85,0,0
126508,-200,4,2,4,75,0,0
127008,-200,4,2,2,75,0,0
127608,-200,4,2,1,75,0,0
127708,-200,4,2,2,75,0,0
127858,-200,4,2,2,65,0,0
128308,-166.666666666667,4,2,1,75,0,0
128908,-153.846153846154,4,2,1,75,0,0
130108,-153.846153846154,4,2,4,70,0,0
131308,-90.9090909090909,4,2,1,80,0,0
131608,-90.9090909090909,4,2,3,80,0,0
131758,-90.9090909090909,4,2,1,80,0,0
131908,-90.9090909090909,4,2,3,80,0,0
132058,-90.9090909090909,4,2,1,80,0,0
132208,-90.9090909090909,4,2,3,80,0,0
132958,-90.9090909090909,4,2,1,80,0,0
133108,-90.9090909090909,4,2,3,80,0,0
133258,-90.9090909090909,4,2,1,80,0,0
133408,-90.9090909090909,4,2,3,80,0,0
134158,-90.9090909090909,4,2,1,80,0,0
134308,-90.9090909090909,4,2,3,80,0,0
134458,-90.9090909090909,4,2,1,80,0,0
134608,-90.9090909090909,4,2,3,80,0,0
135358,-90.9090909090909,4,2,1,80,0,0
135508,-90.9090909090909,4,2,3,80,0,0
135658,-90.9090909090909,4,2,1,80,0,0
135808,-90.9090909090909,4,2,3,80,0,0
135958,-90.9090909090909,4,2,1,80,0,0
136108,-90.9090909090909,4,2,1,80,0,0
136408,-90.9090909090909,4,2,3,80,0,0
136558,-90.9090909090909,4,2,1,80,0,0
136708,-90.9090909090909,4,2,3,80,0,0
136858,-90.9090909090909,4,2,1,80,0,0
137008,-90.9090909090909,4,2,3,80,0,0
137758,-90.9090909090909,4,2,1,80,0,0
137908,-90.9090909090909,4,2,3,80,0,0
138058,-90.9090909090909,4,2,1,80,0,0
138208,-90.9090909090909,4,2,3,80,0,0
139258,-90.9090909090909,4,2,1,80,0,0
139408,-90.9090909090909,4,2,3,80,0,0
139708,-90.9090909090909,4,2,1,80,0,0
140458,-166.666666666667,4,2,1,75,0,0
140608,-166.666666666667,4,2,2,70,0,0
140758,-166.666666666667,4,2,2,65,0,0
140908,-125,4,2,1,75,0,0
141508,-125,4,2,3,75,0,0
141808,-125,4,2,1,75,0,0
142708,-125,4,2,3,75,0,0
143083,-125,4,2,1,70,0,0
143158,-125,4,2,1,65,0,0
143233,-125,4,2,1,60,0,0
143308,-125,4,2,3,75,0,0
144208,-125,4,2,1,75,0,0
145108,-125,4,2,3,75,0,0
145258,-125,4,2,1,75,0,0
146008,-125,4,2,3,75,0,0
146158,-125,4,2,1,75,0,0
146308,-125,4,2,3,75,0,0
146458,-125,4,2,1,75,0,0
148108,-277.777777777778,4,2,1,60,0,0
149308,-277.777777777778,4,2,2,55,0,0
150508,-277.777777777778,4,2,1,50,0,0
151708,-277.777777777778,4,2,2,45,0,0
152908,-277.777777777778,4,2,1,40,0,0
153508,-277.777777777778,4,2,2,35,0,0
154108,-277.777777777778,4,2,1,30,0,0
154408,-277.777777777778,4,2,2,25,0,0
154558,-277.777777777778,4,2,1,20,0,0
154633,-277.777777777778,4,2,2,15,0,0
154708,-277.777777777778,4,2,1,10,0,0
155308,-277.777777777778,4,2,99,5,0,0

[Colours]
Combo1 : 216,84,84
Combo2 : 251,165,90
Combo3 : 101,159,215
Combo4 : 172,111,174

[HitObjects]
95,283,1708,5,10,0:0:0:0:
85,299,2008,1,8,0:0:0:0:
71,312,2308,1,8,0:0:0:0:
54,321,2608,1,8,0:0:0:0:
161,216,2908,5,10,0:0:0:0:
179,216,3208,1,8,0:0:0:0:
198,222,3508,1,8,0:0:0:0:
214,232,3808,1,8,0:0:0:0:
69,193,4108,5,10,0:0:0:0:
60,176,4408,1,8,0:0:0:0:
55,157,4708,1,8,0:0:0:0:
56,138,5008,1,8,0:0:0:0:
265,42,5308,5,10,0:0:0:0:
274,59,5608,1,8,0:0:0:0:
279,78,5908,1,8,0:0:0:0:
278,97,6208,1,8,0:0:0:0:
172,272,6508,5,10,0:0:0:0:
182,255,6808,1,8,0:0:0:0:
196,241,7108,1,8,0:0:0:0:
214,232,7408,1,8,0:0:0:0:
316,308,7708,6,0,B|387:296|410:361|377:331|415:399|490:411|524:367|506:305|464:299|437:335,1,276,2|0,0:3|0:0,0:0:0:0:
442,328,8908,6,0,P|429:261|412:215,1,101.200003088379,14|0,0:1|0:0,0:0:0:0:
508,44,9208,2,0,B|485:108|416:103|416:103|379:59|316:64,1,202.400006176758,10|10,0:0|0:1,0:0:0:0:
128,150,9658,1,8,0:1:0:0:
202,35,9808,1,10,0:0:0:0:
286,183,9958,5,8,0:1:0:0:
286,183,10033,1,8,0:1:0:0:
286,183,10108,2,0,P|269:238|259:289,1,101.200003088379,10|0,0:1|0:0,0:0:0:0:
17,367,10408,2,0,P|40:314|144:305,1,151.800004632569,8|0,0:0|0:0,0:0:0:0:
125,295,10708,1,10,0:1:0:0:
286,183,10858,1,8,0:1:0:0:
102,52,11008,2,0,P|119:107|129:158,1,101.200003088379,8|8,0:0|0:1,0:0:0:0:
119,161,11233,5,8,0:1:0:0:
119,161,11308,2,0,P|54:183|12:202,1,101.200003088379,10|0,0:1|0:0,0:0:0:0:
225,100,11608,2,0,P|238:32|242:-13,1,101.200003088379,8|0,0:0|0:0,0:0:0:0:
102,52,11908,1,10,0:1:0:0:
102,52,12058,1,8,0:1:0:0:
286,183,12208,2,0,P|332:163|380:147,1,101.200003088379,8|0,0:0|0:0,0:0:0:0:
497,375,12508,6,0,B|403:355|465:320|351:304,1,151.800004632569,10|0,0:1|0:0,0:0:0:0:
350,296,12808,2,0,P|312:337|328:383,1,101.200003088379,8|8,0:0|0:1,0:0:0:0:
322,376,13033,1,8,0:1:0:0:
322,376,13108,1,10,0:1:0:0:
470,239,13258,1,8,0:1:0:0:
274,174,13408,1,8,0:0:0:0:
159,363,13558,5,8,0:1:0:0:
159,363,13633,1,8,0:1:0:0:
159,363,13708,2,0,P|133:203|116:143,2,202.400006176758,14|8|10,0:1|0:0|0:1,0:0:0:0:
41,273,14458,1,8,0:1:0:0:
252,101,14608,2,0,P|241:150|235:200,1,101.200003088379,10|0,0:0|0:0,0:0:0:0:
29,135,14908,6,0,P|39:67|127:49,1,151.800004632569,10|0,0:1|0:0,0:0:0:0:
127,55,15208,2,0,B|189:39|154:24|222:12,1,101.200003088379,10|0,0:0|0:0,0:0:0:0:
371,125,15508,1,10,0:1:0:0:
235,200,15658,1,8,0:1:0:0:
387,116,15808,2,0,P|457:132|511:141,1,101.200003088379,10|0,0:0|0:0,0:0:0:0:
330,320,16108,6,0,P|231:297|155:284,1,151.800004632569,10|0,0:1|0:0,0:0:0:0:
168,276,16408,2,0,P|133:323|146:363,1,101.200003088379,8|8,0:0|0:1,0:0:0:0:
143,360,16633,1,8,0:1:0:0:
143,360,16708,1,8,0:1:0:0:
265,216,16858,1,8,0:1:0:0:
108,164,17008,2,0,P|38:180|-16:189,1,101.200003088379,10|0,0:0|0:0,0:0:0:0:
143,7,17308,6,0,B|174:-7|174:-7|246:31|202:111,1,151.800004632569,10|0,0:1|0:0,0:0:0:0:
196,95,17608,2,0,B|254:109|223:122|293:133,1,101.200003088379,8|0,0:0|0:0,0:0:0:0:
512,130,17908,1,10,0:1:0:0:
332,251,18058,1,8,0:1:0:0:
383,52,18208,1,12,0:0:0:0:
465,211,18358,5,8,0:0:0:0:
465,211,18433,1,8,0:0:0:0:
465,211,18508,2,0,P|444:332|440:372,1,151.800004632569,14|0,0:1|0:0,0:0:0:0:
431,365,18808,2,0,P|364:349|319:343,1,101.200003088379,10|0,0:0|0:0,0:0:0:0:
160,255,19108,1,10,0:1:0:0:
304,179,19258,1,8,0:1:0:0:
252,384,19408,2,0,P|228:334|252:292,1,101.200003088379,10|0,0:0|0:0,0:0:0:0:
497,111,19708,6,0,B|441:88|388:142|435:133|383:196|310:169,1,202.400006176758,10|8,0:1|0:0,0:0:0:0:
319,171,20158,1,0,0:0:0:0:
124,89,20308,2,0,B|97:47|97:47|116:-3,1,101.200003088379,10|8,0:1|0:1,0:0:0:0:
238,87,20608,2,0,P|222:157|210:217,1,101.200003088379,8|8,0:0|0:1,0:0:0:0:
205,198,20833,5,8,0:1:0:0:
204,200,20908,2,0,P|129:187|78:169,1,101.200003088379,10|0,0:1|0:0,0:0:0:0:
8,369,21208,2,0,P|56:355|106:348,1,101.200003088379,8|0,0:0|0:0,0:0:0:0:
196,293,21508,1,10,0:1:0:0:
196,293,21658,1,8,0:1:0:0:
31,118,21808,2,0,P|-1:166|15:211,1,101.200003088379,8|0,0:0|0:0,0:0:0:0:
273,359,22108,6,0,P|334:267|303:181,1,202.400006176758,10|8,0:1|0:0,0:0:0:0:
308,186,22558,1,0,0:0:0:0:
403,108,22708,1,10,0:1:0:0:
246,35,22858,1,8,0:1:0:0:
413,118,23008,2,0,P|470:104|532:93,1,101.200003088379,8|0,0:0|0:0,0:0:0:0:
302,282,23308,6,0,P|401:299|499:323,2,202.400006176758,14|8|8,0:1|0:0|0:1,0:0:0:0:
133,325,24058,1,8,0:1:0:0:
165,156,24208,2,0,P|203:191|207:242,1,101.200003088379,10|0,0:0|0:0,0:0:0:0:
32,356,24508,6,0,B|48:301|52:248,1,101.200003088379,10|0,0:1|0:0,0:0:0:0:
184,56,24808,2,0,B|168:111|164:164,1,101.200003088379,10|0,0:0|0:0,0:0:0:0:
62,80,25108,1,10,0:1:0:0:
62,80,25258,1,8,0:1:0:0:
265,119,25408,2,0,B|320:103|364:99,1,101.200003088379,10|8,0:0|0:2,0:0:0:0:
377,84,25633,1,8,0:2:0:0:
377,84,25708,6,0,P|429:99|469:110,1,73.6,14|0,0:1|0:0,0:0:0:0:
370,260,26008,2,0,P|356:207|346:167,1,73.6,8|0,0:1|0:0,0:0:0:0:
484,222,26308,2,0,P|465:293|448:364,1,147.2,10|10,0:1|0:1,0:0:0:0:
285,298,26758,2,0,B|241:291|205:322|240:314|195:349|148:341,1,147.2,2|0,0:0|0:0,0:0:0:0:
149,341,27208,1,10,0:1:0:0:
40,346,27358,2,0,P|55:268|80:193,1,147.2,2|0,0:0|0:0,0:0:0:0:
180,181,27808,2,0,P|168:216|161:252,1,73.6,10|2,0:1|0:0,0:0:0:0:
0,166,28108,6,0,P|57:165|106:89,2,147.2,10|8|8,0:1|0:1|0:1,0:0:0:0:
161,252,29008,2,0,P|209:262|241:273,1,73.6,10|0,0:1|0:0,0:0:0:0:
290,340,29308,2,0,B|335:347|380:312|345:320|381:289|425:296,1,147.2,10|10,0:1|0:1,0:0:0:0:
494,231,29758,2,0,P|507:179|514:153,1,73.6,2|8,0:0|0:1,0:0:0:0:
388,153,30058,2,0,P|408:229|426:307,1,147.2,2|0,0:0|0:0,0:0:0:0:
416,21,30508,6,0,P|382:63|291:64,2,147.2,10|8|8,0:1|0:1|0:1,0:0:0:0:
414,163,31408,2,0,P|378:171|342:181,1,73.6,10|0,0:1|0:0,0:0:0:0:
242,146,31708,2,0,P|214:180|250:277,1,147.2,10|10,0:1|0:1,0:0:0:0:
303,340,32158,2,0,P|316:292|328:261,1,73.6,2|8,0:0|0:1,0:0:0:0:
512,304,32458,2,0,P|470:344|385:326,1,147.2,2|0,0:0|0:0,0:0:0:0:
160,235,32908,6,0,P|65:259|1:270,2,147.2,10|8|8,0:1|0:1|0:1,0:0:0:0:
240,271,33808,1,8,0:1:0:0:
367,69,34108,6,0,P|461:93|525:104,2,147.2,8|8|8,0:1|0:1|0:1,0:0:0:0:
287,105,35008,1,8,0:1:0:0:
209,43,35158,5,2,0:0:0:0:
209,43,35233,1,2,0:0:0:0:
209,43,35308,2,0,P|170:76|185:171,1,147.2,10|8,0:1|0:1,0:0:0:0:
15,337,35908,6,0,P|66:288|135:302,1,147.2,10|10,0:1|0:1,0:0:0:0:
211,376,36358,2,0,P|227:291|242:223,1,147.2,2|0,0:0|0:0,0:0:0:0:
443,316,36808,1,10,0:1:0:0:
443,316,36958,2,0,P|367:339|292:365,1,147.2,2|0,0:0|0:0,0:0:0:0:
239,231,37408,2,0,P|273:243|308:254,1,73.6,10|2,0:1|0:0,0:0:0:0:
327,246,37633,5,2,0:0:0:0:
327,246,37708,2,0,B|416:220|363:197|466:171,2,147.2,10|8|8,0:1|0:1|0:1,0:0:0:0:
111,142,38608,2,0,P|44:130|13:122,1,73.6,10|0,0:1|0:0,0:0:0:0:
156,41,38908,6,0,P|210:97|283:81,1,147.2,10|10,0:1|0:1,0:0:0:0:
362,3,39358,2,0,P|376:54|392:90,1,73.6,2|8,0:0|0:1,0:0:0:0:
507,40,39658,2,0,P|487:115|459:191,1,147.2,2|2,0:0|0:0,0:0:0:0:
453,177,40033,5,2,0:0:0:0:
453,177,40108,2,0,B|402:172|369:210|411:205|356:250|311:238,1,147.2,10|8,0:1|0:1,0:0:0:0:
184,370,40708,2,0,B|119:356|157:333|76:323,1,110.4,10|0,0:1|0:0,0:0:0:0:
69,332,41008,2,0,P|58:280|48:242,1,73.6,10|0,0:1|0:0,0:0:0:0:
146,167,41308,2,0,P|75:181|18:138,2,147.2,8|10|10,0:1|0:1|0:1,0:0:0:0:
291,100,42208,2,0,P|299:64|306:28,1,73.6,10|0,0:1|0:0,0:0:0:0:
186,84,42508,6,0,P|199:156|217:227,2,147.2,10|8|8,0:1|0:1|0:1,0:0:0:0:
288,119,43408,1,10,0:1:0:0:
104,259,43708,2,0,P|64:252|11:242,1,73.6,8|0,0:1|0:0,0:0:0:0:
144,352,44008,2,0,P|180:345|216:338,1,73.6,10|0,0:1|0:0,0:0:0:0:
174,173,44308,6,0,P|187:217|201:255,1,73.6,10|0,0:1|0:0,0:0:0:0:
317,290,44608,2,0,P|304:246|290:208,1,73.6,10|0,0:1|0:0,0:0:0:0:
8,73,44908,5,14,0:1:0:0:
8,73,45058,1,8,0:1:0:0:
79,116,45208,2,0,B|120:131|184:71|132:78|178:27|235:35,1,184,10|0,0:0|0:0,0:0:0:0:
406,144,45658,1,0,0:0:0:0:
344,3,45808,2,0,P|326:50|314:103,1,92,10|0,0:0|0:0,0:0:0:0:
430,224,46108,6,0,P|461:140|483:40,1,184,2|10,0:0|0:0,0:0:0:0:
473,328,46558,2,0,P|422:261|327:259,1,184
328,258,47008,1,10,0:0:0:0:
247,323,47158,1,0,0:0:0:0:
248,233,47308,5,8,0:1:0:0:
342,356,47458,1,10,0:1:0:0:
235,217,47608,2,0,P|170:244|129:259,1,92,8|2,0:0|0:0,0:0:0:0:
149,251,47833,1,2,0:0:0:0:
149,251,47908,1,2,0:0:0:0:
85,199,48058,1,2,0:0:0:0:
169,142,48208,2,0,P|126:125|83:107,1,92,10|2,0:0|0:0,0:0:0:0:
303,52,48508,6,0,P|359:38|404:22,1,92
512,186,48808,2,0,P|446:163|379:147,1,138,8|0,0:0|0:0,0:0:0:0:
369,154,49108,6,0,P|346:205|336:256,1,92,2|0,0:0|0:0,0:0:0:0:
276,348,49408,2,0,P|264:303|244:262,1,92,8|0,0:0|0:0,0:0:0:0:
158,231,49708,5,2,0:1:0:0:
236,163,52108,6,0,B|286:176|314:145|323:112|320:101|309:102|318:59|360:42|402:54,1,220.8,12|0,0:0|0:0,0:0:0:0:
396,52,52408,1,0,0:0:0:0:
504,239,52558,6,0,B|490:189|450:179|416:188|408:196|415:205|373:219|337:192|326:149,1,220.8,12|0,0:0|0:0,0:0:0:0:
328,155,52858,1,12,0:0:0:0:
467,108,53008,1,0,0:0:0:0:
356,383,53158,1,12,0:0:0:0:
356,383,53458,5,12,0:0:0:0:
178,93,53608,1,14,0:0:0:0:
33,345,54508,6,0,B|69:311|118:319|118:319|142:343|184:347,1,151.800004632569,14|0,0:1|0:0,0:0:0:0:
189,346,54808,2,0,P|218:293|197:255,1,101.200003088379,10|0,0:0|0:0,0:0:0:0:
52,124,55108,2,0,P|70:174|83:231,1,101.200003088379,10|0,0:1|0:0,0:0:0:0:
302,321,55408,6,0,B|346:332|387:293|351:287|403:253|442:262,1,151.800004632569,10|0,0:0|0:0,0:0:0:0:
447,270,55708,2,0,B|473:256|478:227|478:227|465:205|460:180,1,101.200003088379,8|0,0:1|0:0,0:0:0:0:
492,22,56008,2,0,P|434:82|347:62,1,151.800004632569,10|0,0:0|0:0,0:0:0:0:
370,77,56308,1,10,0:1:0:0:
222,165,56458,1,0,0:0:0:0:
220,10,56608,2,0,P|262:26|270:88,1,101.200003088379,10|0,0:0|0:0,0:0:0:0:
35,277,56908,6,0,P|25:217|91:167,1,151.800004632569,8|0,0:1|0:0,0:0:0:0:
107,174,57208,2,0,P|164:159|210:145,1,101.200003088379,10|0,0:0|0:0,0:0:0:0:
346,341,57508,1,10,0:1:0:0:
191,281,57658,1,2,0:0:0:0:
324,149,57808,2,0,P|304:201|293:250,1,101.200003088379,10|0,0:0|0:0,0:0:0:0:
435,383,58108,6,0,P|489:354|482:260,1,151.800004632569,8|0,0:1|0:0,0:0:0:0:
482,260,58408,2,0,B|426:245|460:229|386:213,1,101.200003088379,10|0,0:0|0:0,0:0:0:0:
215,111,58708,2,0,B|281:96|247:80|303:65,1,101.200003088379,10|0,0:1|0:0,0:0:0:0:
475,27,59008,2,0,P|507:69|492:113,1,101.200003088379,10|8,0:0|0:1,0:0:0:0:
481,127,59233,5,8,0:1:0:0:
481,127,59308,2,0,P|427:110|377:96,1,101.200003088379,14|0,0:1|0:0,0:0:0:0:
196,271,59608,2,0,P|250:254|300:240,1,101.200003088379,10|0,0:0|0:0,0:0:0:0:
238,12,59908,2,0,P|225:67|212:117,1,101.200003088379,10|0,0:1|0:0,0:0:0:0:
410,284,60208,6,0,P|330:271|259:377,1,202.400006176758,10|8,0:0|0:1,0:0:0:0:
258,356,60658,1,0,0:0:0:0:
22,273,60808,2,0,P|76:256|126:242,1,101.200003088379,10|0,0:0|0:0,0:0:0:0:
311,139,61108,2,0,P|262:125|214:109,1,101.200003088379,8|0,0:1|0:0,0:0:0:0:
88,21,61408,2,0,P|100:70|111:119,1,101.200003088379,10|0,0:0|0:0,0:0:0:0:
198,306,61708,6,0,B|175:367|259:416|339:291|228:224,1,257.599992138672,12|10,0:1|0:0,0:0:0:0:
38,156,62158,2,0,B|82:172|147:135|101:129|151:90|215:109,1,193.199994104004,12|0,0:1|0:0,0:0:0:0:
214,108,62458,1,8,0:0:0:0:
418,178,62608,6,0,B|306:110|386:-14|470:34|447:95,1,257.599992138672,14|8,0:1|0:1,0:0:0:0:
447,94,63283,1,8,0:0:0:0:
377,319,63508,6,0,B|398:347|387:381|387:381|383:369|369:350|369:364|356:344|370:320,1,128.799996069336,12|0,0:0|0:0,0:0:0:0:
363,225,63733,6,0,B|376:191|411:184|411:184|403:194|393:215|405:209|395:230|367:230,1,128.799996069336,12|0,0:0|0:0,0:0:0:0:
290,284,63958,6,0,B|254:288|230:262|230:262|243:264|266:261|254:254|278:253|292:277,1,128.799996069336,12|0,0:0|0:0,0:0:0:0:
494,169,64108,6,0,P|376:139|309:115,1,151.800004632569,14|0,0:1|0:0,0:0:0:0:
330,125,64408,2,0,P|323:66|364:42,1,101.200003088379,10|8,0:0|0:1,0:0:0:0:
352,43,64633,1,8,0:1:0:0:
352,43,64708,1,10,0:1:0:0:
478,256,64858,1,8,0:1:0:0:
252,189,65008,2,0,B|199:182|160:229|202:216|150:267|101:247,1,151.800004632569,10|0,0:0|0:0,0:0:0:0:
97,239,65308,6,0,P|80:182|62:134,1,101.200003088379,8|0,0:1|0:0,0:0:0:0:
261,281,65608,2,0,P|243:328|229:377,1,101.200003088379,10|8,0:0|0:1,0:0:0:0:
229,377,65833,1,8,0:1:0:0:
229,377,65908,1,10,0:1:0:0:
121,251,66058,1,8,0:1:0:0:
342,356,66208,2,0,P|389:338|438:324,1,101.200003088379,10|0,0:0|0:0,0:0:0:0:
504,129,66508,6,0,B|472:171|421:165|421:165|402:132|360:128,1,151.800004632569,10|0,0:1|0:0,0:0:0:0:
377,131,66808,1,10,0:0:0:0:
210,71,66958,1,0,0:0:0:0:
265,194,67108,1,10,0:1:0:0:
330,8,67258,1,10,0:1:0:0:
100,153,67408,2,0,P|122:226|140:336,1,151.800004632569,10|0,0:0|0:0,0:0:0:0:
131,320,67708,6,0,P|76:339|16:371,1,101.200003088379,8|0,0:1|0:0,0:0:0:0:
258,207,68008,2,0,P|303:228|351:245,1,101.200003088379,10|8,0:0|0:1,0:0:0:0:
351,245,68233,1,8,0:1:0:0:
351,245,68308,1,10,0:1:0:0:
506,157,68458,1,8,0:1:0:0:
368,33,68608,2,0,P|379:82|397:129,1,101.200003088379,10|0,0:0|0:0,0:0:0:0:
245,356,68908,6,0,P|219:246|179:141,2,202.400006176758,14|10|10,0:1|0:0|0:1,0:0:0:0:
338,267,69658,1,8,0:1:0:0:
116,222,69808,1,10,0:0:0:0:
297,105,69958,1,2,0:0:0:0:
102,236,70108,6,0,P|42:201|60:114,1,151.800004632569,10|0,0:1|0:0,0:0:0:0:
70,123,70408,2,0,B|132:102|90:92|158:70,1,101.200003088379,10|8,0:0|0:1,0:0:0:0:
154,71,70633,1,8,0:1:0:0:
154,71,70708,1,10,0:1:0:0:
379,24,70858,1,8,0:1:0:0:
282,114,71008,2,0,P|269:65|259:16,1,101.200003088379,10|0,0:0|0:0,0:0:0:0:
501,152,71308,6,0,P|484:226|465:299,1,151.800004632569,8|0,0:1|0:0,0:0:0:0:
457,310,71608,2,0,B|399:324|432:344|360:361,1,101.200003088379,8|0,0:0|0:0,0:0:0:0:
189,261,71908,1,8,0:1:0:0:
326,171,72058,1,8,0:1:0:0:
268,364,72208,2,0,P|289:291|304:251,1,101.200003088379,10|0,0:0|0:0,0:0:0:0:
497,128,72508,6,0,P|472:71|370:79,1,151.800004632569,10|0,0:1|0:0,0:0:0:0:
390,62,72808,1,8,0:0:0:0:
224,172,72958,2,0,B|187:135|187:135|201:78,1,101.200003088379,2|12,0:0|0:1,0:0:0:0:
269,0,73258,2,0,P|285:47|298:96,1,101.200003088379,2|8,0:0|0:1,0:0:0:0:
56,309,73558,5,8,0:0:0:0:
56,309,73633,1,8,0:0:0:0:
56,309,73708,2,0,P|107:249|186:260,1,151.800004632569,14|0,0:1|0:0,0:0:0:0:
174,252,74008,5,8,0:0:0:0:
456,326,74158,1,8,0:1:0:0:
399,245,74308,5,8,0:0:0:0:
195,384,74458,1,8,0:1:0:0:
420,226,74608,6,0,P|436:169|451:121,1,101.200003088379,2|8,0:3|0:1,0:0:0:0:
324,28,74908,2,0,B|276:19|232:66|287:50|225:93|177:80,1,151.800004632569,2|0,0:3|0:0,0:0:0:0:
189,82,75208,1,2,0:3:0:0:
33,228,75358,2,0,P|89:239|135:256,1,101.200003088379,8|2,0:1|0:3,0:0:0:0:
249,174,75658,1,8,0:1:0:0:
110,24,75808,2,0,P|100:73|83:121,1,101.200003088379,8|0,0:0|0:0,0:0:0:0:
212,323,76108,6,0,B|248:287|298:295|298:295|324:323|371:321,1,151.800004632569,10|0,0:1|0:0,0:0:0:0:
348,320,76408,5,8,0:0:0:0:
509,173,76558,1,8,0:1:0:0:
335,128,76708,5,8,0:0:0:0:
471,269,76858,1,8,0:1:0:0:
512,84,77008,6,0,P|459:72|402:50,1,101.200003088379,2|8,0:3|0:1,0:0:0:0:
270,211,77308,2,0,P|192:228|108:260,1,151.800004632569,2|0,0:3|0:0,0:0:0:0:
124,253,77608,1,2,0:3:0:0:
366,308,77758,2,0,P|382:253|392:189,1,101.200003088379,8|2,0:1|0:3,0:0:0:0:
313,18,78058,2,0,P|296:72|286:136,1,101.200003088379,8|8,0:1|0:0,0:0:0:0:
423,384,78358,5,8,0:1:0:0:
423,384,78433,1,8,0:1:0:0:
423,384,78508,2,0,P|350:335|282:363,1,151.800004632569,14|0,0:1|0:0,0:0:0:0:
294,351,78808,5,8,0:0:0:0:
61,185,78958,1,8,0:1:0:0:
195,373,79108,6,0,P|215:304|233:258,1,101.200003088379,8|8,0:0|0:1,0:0:0:0:
78,173,79408,2,0,P|94:220|108:269,1,101.200003088379,2|8,0:3|0:1,0:0:0:0:
309,151,79708,6,0,P|250:170|202:182,1,101.200003088379,2|8,0:3|0:0,0:0:0:0:
7,77,80008,2,0,P|55:64|103:48,1,101.200003088379,2|8,0:3|0:1,0:0:0:0:
247,265,80308,1,2,0:3:0:0:
78,173,80458,1,8,0:1:0:0:
215,6,80608,2,0,P|228:65|197:103,1,101.200003088379,8|0,0:0|0:0,0:0:0:0:
19,291,80908,6,0,B|70:275|110:319|66:310|126:354|172:340,1,151.800004632569,10|0,0:1|0:0,0:0:0:0:
153,342,81208,5,8,0:0:0:0:
370,220,81358,1,8,0:1:0:0:
431,290,81508,5,8,0:0:0:0:
179,194,81658,1,8,0:1:0:0:
449,284,81808,6,0,P|437:345|433:396,1,101.200003088379,2|8,0:3|0:1,0:0:0:0:
300,147,82108,2,0,P|289:83|366:20,1,151.800004632569,2|0,0:3|0:0,0:0:0:0:
344,23,82408,1,2,0:3:0:0:
503,156,82558,2,0,P|453:168|390:193,1,101.200003088379,8|2,0:1|0:3,0:0:0:0:
195,327,82858,2,0,P|245:339|308:364,1,101.200003088379,8|12,0:1|0:0,0:0:0:0:
447,285,83158,1,8,0:1:0:0:
217,222,83308,6,0,P|171:286|78:276,1,151.800004632569,14|0,0:1|0:0,0:0:0:0:
103,290,83608,5,8,0:0:0:0:
0,110,83758,1,8,0:1:0:0:
266,76,83908,5,8,0:0:0:0:
93,197,84058,1,8,0:1:0:0:
176,36,84208,6,0,P|235:52|289:61,1,101.200003088379,2|8,0:3|0:1,0:0:0:0:
512,176,84508,2,0,B|465:167|432:204|432:204|420:242|383:251,1,151.800004632569,2|0,0:3|0:0,0:0:0:0:
391,248,84808,1,2,0:3:0:0:
232,347,84958,2,0,P|194:303|201:262,1,101.200003088379,8|2,0:1|0:3,0:0:0:0:
321,148,85258,2,0,P|303:225|299:280,1,101.200003088379,8|8,0:1|0:0,0:0:0:0:
126,354,85558,1,8,0:1:0:0:
0,182,85708,6,0,P|49:130|142:146,1,151.800004632569,10|0,0:1|0:0,0:0:0:0:
124,133,86008,5,8,0:0:0:0:
319,26,86158,1,8,0:1:0:0:
386,251,86308,5,8,0:0:0:0:
229,171,86458,1,8,0:1:0:0:
120,338,86608,6,0,P|62:352|13:372,1,101.200003088379,2|8,0:3|0:1,0:0:0:0:
202,269,86908,2,0,P|243:312|284:344,1,101.200003088379,2|8,0:3|0:0,0:0:0:0:
102,233,87208,2,0,P|118:175|126:123,1,101.200003088379,2|8,0:3|0:1,0:0:0:0:
344,49,87508,2,0,P|327:106|319:158,1,101.200003088379,2|8,0:3|0:1,0:0:0:0:
286,353,87808,6,0,P|345:304|422:319,1,151.800004632569,8|0,0:0|0:0,0:0:0:0:
427,327,88108,2,0,P|468:292|460:237,1,101.200003088379,14|0,0:1|0:0,0:0:0:0:
232,154,88408,2,0,P|241:207|293:227,1,101.200003088379,8|0,0:0|0:0,0:0:0:0:
512,149,88708,2,0,P|437:127|392:109,1,101.200003088379,8|8,0:1|0:1,0:0:0:0:
280,227,89008,1,8,0:0:0:0:
236,44,89158,6,0,P|293:48|324:130,1,151.800004632569,8|0,0:1|0:0,0:0:0:0:
324,127,89458,1,8,0:1:0:0:
178,282,89608,1,8,0:0:0:0:
286,353,89758,1,8,0:1:0:0:
160,274,89908,2,0,P|103:293|40:312,1,101.200003088379,2|8,0:3|0:1,0:0:0:0:
297,364,90208,2,0,P|374:338|459:312,1,151.800004632569,8|0,0:0|0:0,0:0:0:0:
456,321,90508,6,0,P|476:267|449:234,1,101.200003088379,10|0,0:1|0:0,0:0:0:0:
356,113,90808,2,0,P|424:89|467:67,1,101.200003088379,8|0,0:0|0:0,0:0:0:0:
345,248,91108,2,0,P|298:227|250:211,1,101.200003088379,8|8,0:1|0:1,0:0:0:0:
51,89,91408,2,0,P|96:26|191:34,1,151.800004632569,8|0,0:0|0:0,0:0:0:0:
187,50,91708,2,0,P|160:121|149:174,1,101.200003088379,8|0,0:1|0:0,0:0:0:0:
59,376,92008,6,0,P|46:329|27:284,1,92,8|0,0:0|0:0,0:0:0:0:
183,254,92308,6,0,P|154:282|130:314,1,73.6,8|0,0:1|0:0,0:0:0:0:
30,200,92608,6,0,P|66:209|103:214,1,55.1999983154297,8|0,0:1|0:0,0:0:0:0:
260,131,92908,5,2,0:0:0:0:
347,280,102508,5,10,0:0:0:0:
365,283,102808,1,8,0:0:0:0:
382,287,103108,1,8,0:0:0:0:
398,294,103408,1,8,0:0:0:0:
269,212,103708,5,10,0:0:0:0:
262,194,104008,1,8,0:0:0:0:
257,178,104308,1,8,0:0:0:0:
255,160,104608,1,8,0:0:0:0:
250,314,104908,5,10,0:0:0:0:
238,328,105208,1,8,0:0:0:0:
226,340,105508,1,8,0:0:0:0:
212,351,105808,1,8,0:0:0:0:
357,207,106108,5,10,0:0:0:0:
373,200,106408,1,8,0:0:0:0:
389,195,106708,1,8,0:0:0:0:
408,192,107008,1,8,0:0:0:0:
178,86,107308,5,10,0:0:0:0:
162,93,107608,1,8,0:0:0:0:
146,98,107908,1,8,0:0:0:0:
127,101,108208,1,8,0:0:0:0:
20,366,108508,6,2,B|22:310|74:289|113:289|101:319|164:312|208:245|207:171|118:109|52:161|31:253|97:277,1,413.999987365723,2|0,0:0|0:0,0:1:0:0:
102,285,109708,6,0,P|170:299|212:313,1,101.200003088379,14|0,0:1|0:0,0:0:0:0:
431,122,110008,2,0,P|382:136|332:145,1,101.200003088379,10|8,0:0|0:1,0:0:0:0:
332,145,110233,1,8,0:1:0:0:
332,145,110308,1,10,0:1:0:0:
200,216,110458,1,8,0:1:0:0:
330,365,110608,2,0,P|342:295|357:254,1,101.200003088379,10|0,0:0|0:0,0:0:0:0:
508,87,110908,6,0,P|445:92|385:20,1,151.800004632569,8|0,0:1|0:0,0:0:0:0:
374,11,111208,2,0,P|324:20|275:34,1,101.200003088379,10|8,0:0|0:1,0:0:0:0:
275,34,111433,1,8,0:1:0:0:
275,34,111508,1,10,0:1:0:0:
97,175,111658,1,8,0:1:0:0:
104,3,111808,2,0,P|146:16|160:80,1,101.200003088379,10|0,0:0|0:0,0:0:0:0:
25,329,112108,6,0,P|84:309|140:297,1,101.200003088379,8|0,0:1|0:0,0:0:0:0:
240,190,112408,1,10,0:0:0:0:
79,150,112558,1,8,0:1:0:0:
79,150,112633,1,8,0:1:0:0:
79,150,112708,1,10,0:1:0:0:
224,347,112858,1,10,0:1:0:0:
318,255,113008,2,0,B|358:219|407:240|407:240|425:268|467:269,1,151.800004632569,10|0,0:0|0:0,0:0:0:0:
471,270,113308,6,0,P|507:225|492:181,1,101.200003088379,8|0,0:1|0:0,0:0:0:0:
388,12,113608,2,0,P|372:67|365:122,1,101.200003088379,10|8,0:0|0:1,0:0:0:0:
365,110,113833,1,8,0:1:0:0:
365,110,113908,1,10,0:1:0:0:
236,220,114058,1,8,0:1:0:0:
134,77,114208,2,0,P|183:69|232:54,1,101.200003088379,10|0,0:0|0:0,0:0:0:0:
506,368,114508,6,0,P|433:346|358:335,1,151.800004632569,14|0,0:1|0:0,0:0:0:0:
340,337,114808,2,0,P|305:295|326:248,1,101.200003088379,10|0,0:0|0:0,0:0:0:0:
420,215,115108,1,10,0:1:0:0:
226,355,115258,1,8,0:1:0:0:
121,193,115408,2,0,P|170:207|221:214,1,101.200003088379,10|0,0:0|0:0,0:0:0:0:
512,56,115708,6,0,P|449:42|383:105,1,151.800004632569,8|0,0:1|0:0,0:0:0:0:
376,114,116008,2,0,P|316:100|270:82,1,101.200003088379,10|0,0:0|0:0,0:0:0:0:
85,296,116308,1,8,0:1:0:0:
22,103,116458,1,8,0:1:0:0:
219,214,116608,2,0,P|205:274|187:320,1,101.200003088379,10|0,0:0|0:0,0:0:0:0:
118,110,116908,2,0,P|132:50|150:4,1,101.200003088379,8|0,0:1|0:0,0:0:0:0:
13,220,117208,5,10,0:0:0:0:
220,116,117358,1,8,0:1:0:0:
220,116,117433,1,8,0:1:0:0:
220,116,117508,1,10,0:1:0:0:
49,16,117658,1,8,0:1:0:0:
9,242,117808,2,0,P|56:224|105:214,1,101.200003088379,10|0,0:0|0:0,0:0:0:0:
273,310,118108,6,0,P|335:362|411:347,1,151.800004632569,8|0,0:1|0:0,0:0:0:0:
414,333,118408,2,0,P|476:343|523:358,1,101.200003088379,10|0,0:0|0:0,0:0:0:0:
325,225,118708,1,14,0:1:0:0:
512,162,118858,1,8,0:1:0:0:
394,36,119008,5,14,0:2:0:0:
402,64,119083,1,8,0:1:0:0:
410,92,119158,1,8,0:0:0:0:
419,120,119233,1,8,0:0:0:0:
429,147,119308,6,0,P|417:213|410:267,1,101.200003088379,14|0,0:1|0:0,0:0:0:0:
200,144,119608,2,0,P|263:121|313:100,1,101.200003088379,10|8,0:0|0:1,0:0:0:0:
294,108,119833,1,8,0:1:0:0:
294,108,119908,1,10,0:1:0:0:
506,247,120058,1,8,0:1:0:0:
327,369,120208,2,0,P|319:318|310:269,1,101.200003088379,10|0,0:0|0:0,0:0:0:0:
184,128,120508,6,0,B|145:105|97:131|97:131|87:172|30:182,1,151.800004632569,8|0,0:1|0:0,0:0:0:0:
32,163,120808,2,0,P|2:117|23:74,1,101.200003088379,10|0,0:0|0:0,0:0:0:0:
204,219,121108,1,10,0:1:0:0:
28,352,121258,1,8,0:1:0:0:
102,254,121408,2,0,P|131:321|141:369,1,101.200003088379,10|0,0:0|0:0,0:0:0:0:
512,244,121708,6,0,P|463:230|417:208,1,101.200003088379,10|0,0:1|0:0,0:0:0:0:
231,326,122008,1,10,0:0:0:0:
280,161,122158,1,8,0:1:0:0:
280,161,122233,1,8,0:1:0:0:
280,161,122308,2,0,P|307:223|320:277,1,101.200003088379,10|10,0:1|0:1,0:0:0:0:
509,79,122608,2,0,P|442:94|378:14,1,151.800004632569,10|0,0:0|0:0,0:0:0:0:
366,17,122908,2,0,B|300:35|347:46|274:69,1,101.200003088379,8|0,0:1|0:0,0:0:0:0:
131,215,123208,6,0,P|60:201|9:189,1,101.200003088379,10|8,0:0|0:1,0:0:0:0:
31,194,123433,1,8,0:1:0:0:
31,194,123508,1,10,0:1:0:0:
197,54,123658,1,8,0:1:0:0:
45,0,123808,2,0,P|68:68|83:118,1,101.200003088379,10|0,0:0|0:0,0:0:0:0:
209,314,124108,6,0,P|224:265|240:217,1,101.200003088379,14|0,0:1|0:0,0:0:0:0:
99,330,124408,1,10,0:0:0:0:
314,289,124558,1,8,0:1:0:0:
314,289,124633,1,8,0:1:0:0:
314,289,124708,2,0,B|362:289|389:323|373:325|402:356|459:357,1,151.800004632569,10|0,0:1|0:0,0:0:0:0:
444,355,125008,1,10,0:0:0:0:
512,177,125158,1,0,0:0:0:0:
329,93,125308,6,0,P|354:164|367:215,1,101.200003088379,10|0,0:1|0:0,0:0:0:0:
222,384,125608,2,0,P|197:313|184:262,1,101.200003088379,10|0,0:0|0:0,0:0:0:0:
257,201,125908,1,10,0:1:0:0:
72,311,126058,6,0,P|101:228|116:169,1,147.2,8|0,0:0|0:0,0:0:0:0:
18,89,126508,6,0,P|50:34|143:38,1,153.333333333333,12|8,0:1|0:0,0:0:0:0:
233,99,127108,6,0,B|324:74|268:52|375:25,1,153.333333333333,12|8,0:1|0:0,0:0:0:0:
463,81,127708,6,0,P|434:196|428:237,1,153.333333333333,12|8,0:1|0:0,0:0:0:0:
366,304,128308,2,0,P|379:355|386:395,2,82.7999974731446,8|8|8,0:1|0:1|0:1,0:0:0:0:
286,246,128908,6,0,B|202:227|137:302|215:283|134:362|69:368|0:328|0:328|8:282|53:254|97:268,1,448.4999794693,12|0,0:1|0:0,0:0:0:0:
89,266,130108,5,12,0:1:0:0:
291,371,130408,1,12,0:1:0:0:
221,39,130708,5,0,0:0:0:0:
221,39,131308,6,0,P|280:60|335:75,1,101.200003088379,14|0,0:1|0:0,0:0:0:0:
509,215,131608,2,0,P|460:229|412:246,1,101.200003088379,10|8,0:0|0:1,0:0:0:0:
412,246,131833,1,8,0:2:0:0:
412,246,131908,1,10,0:1:0:0:
275,175,132058,1,8,0:1:0:0:
429,31,132208,2,0,P|417:80|408:129,1,101.200003088379,10|0,0:0|0:0,0:0:0:0:
240,384,132508,6,0,P|226:309|208:235,1,151.800004632569,10|0,0:1|0:0,0:0:0:0:
193,227,132808,2,0,P|149:261|95:259,1,101.200003088379,8|10,0:0|0:1,0:0:0:0:
105,262,133033,1,8,0:0:0:0:
105,262,133108,1,10,0:1:0:0:
2,154,133258,1,8,0:1:0:0:
136,54,133408,2,0,P|110:126|100:172,1,101.200003088379,8|0,0:0|0:0,0:0:0:0:
320,313,133708,6,0,P|379:262|469:279,1,151.800004632569,10|0,0:1|0:0,0:0:0:0:
463,272,134008,2,0,P|483:201|496:163,1,101.200003088379,8|2,0:0|0:0,0:0:0:0:
370,23,134308,1,10,0:1:0:0:
254,179,134458,1,8,0:1:0:0:
254,179,134533,1,8,0:1:0:0:
254,179,134608,2,0,P|302:163|350:150,1,101.200003088379,8|0,0:0|0:0,0:0:0:0:
177,355,134908,6,0,B|85:337|141:310|27:287,1,151.800004632569,10|0,0:1|0:0,0:0:0:0:
26,301,135208,2,0,B|-2:269|-2:269|18:241|26:212,1,101.200003088379,8|2,0:0|0:0,0:0:0:0:
217,94,135508,1,10,0:1:0:0:
42,43,135658,1,8,0:1:0:0:
131,207,135808,1,8,0:0:0:0:
311,34,135958,5,8,0:1:0:0:
311,34,136033,1,8,0:1:0:0:
311,34,136108,2,0,P|382:96|493:79,2,202.400006176758,14|8|10,0:1|0:0|0:1,0:0:0:0:
493,235,136858,1,8,0:1:0:0:
331,306,137008,2,0,P|348:226|361:183,1,101.200003088379,10|0,0:0|0:0,0:0:0:0:
164,30,137308,6,0,P|184:103|199:177,1,151.800004632569,10|0,0:1|0:0,0:0:0:0:
187,192,137608,2,0,P|109:215|65:237,1,101.200003088379,10|8,0:0|0:1,0:0:0:0:
91,223,137833,1,8,0:2:0:0:
91,223,137908,1,10,0:1:0:0:
27,116,138058,1,8,0:1:0:0:
182,283,138208,2,0,P|163:329|150:378,1,101.200003088379,10|0,0:0|0:0,0:0:0:0:
330,308,138508,6,0,B|372:306|413:271|374:275|428:229|483:239,1,151.800004632569,10|0,0:1|0:0,0:0:0:0:
476,250,138808,2,0,P|510:201|491:162,1,101.200003088379,8|0,0:0|0:0,0:0:0:0:
286,46,139108,1,8,0:1:0:0:
375,180,139258,1,8,0:1:0:0:
512,31,139408,2,0,P|464:48|415:62,1,101.200003088379,10|0,0:0|0:0,0:0:0:0:
266,244,139708,5,10,0:1:0:0:
91,111,139858,1,8,0:0:0:0:
31,336,140008,5,8,0:0:0:0:
179,195,140158,1,8,0:0:0:0:
250,356,140308,5,8,0:1:0:0:
32,241,140458,2,0,P|84:222|103:214,1,55.1999983154297,4|8,0:3|0:3,0:0:0:0:
171,181,140758,1,4,0:3:0:0:
342,349,140908,6,0,P|397:314|398:237,1,147.2,14|2,0:1|0:0,0:0:0:0:
398,237,141358,1,0,0:0:0:0:
440,135,141508,2,0,P|481:142|519:153,1,73.6,10|0,0:0|0:0,0:0:0:0:
422,48,141808,2,0,P|364:63|305:73,1,110.4,10|0,0:1|0:0,0:0:0:0:
314,72,142108,1,2,0:3:0:0:
229,157,142258,6,0,P|214:107|198:77,1,73.6,8|0,0:0|0:0,0:0:0:0:
246,10,142558,1,8,0:1:0:0:
318,195,142708,2,0,P|250:192|197:252,1,147.2,10|8,0:0|0:0,0:0:0:0:
198,246,143158,1,8,0:0:0:0:
142,361,143308,6,0,P|70:362|23:310,1,147.2,10|0,0:1|0:0,0:0:0:0:
22,309,143758,1,0,0:0:0:0:
87,184,143908,2,0,P|103:235|112:280,1,73.6,10|0,0:0|0:0,0:0:0:0:
239,382,144208,2,0,P|247:346|259:311,1,73.6,8|8,0:1|0:1,0:0:0:0:
198,246,144508,1,2,0:3:0:0:
347,354,144658,2,0,P|382:342|418:334,1,73.6,8|0,0:0|0:0,0:0:0:0:
487,272,144958,1,8,0:1:0:0:
347,180,145108,5,10,0:0:0:0:
504,76,145258,1,8,0:1:0:0:
335,193,145408,2,0,P|279:184|249:175,1,73.6,8|0,0:0|0:0,0:0:0:0:
337,24,145708,6,0,P|394:49|397:111,1,110.4,14|0,0:1|0:0,0:0:0:0:
403,91,146008,1,8,0:0:0:0:
335,193,146158,1,8,0:1:0:0:
464,264,146308,2,0,P|455:208|446:178,1,73.6,8|8,0:0|0:1,0:0:0:0:
227,360,146608,6,0,P|283:369|313:378,1,73.6,2|8,0:3|0:1,0:0:0:0:
380,275,146908,2,0,P|344:283|307:288,1,73.6,2|8,0:3|0:0,0:0:0:0:
225,371,147208,2,0,P|281:380|311:389,1,73.6,2|8,0:3|0:1,0:0:0:0:
122,264,147508,6,0,P|137:317|145:361,1,73.6,2|8,0:3|0:1,0:0:0:0:
217,231,147808,2,0,P|202:178|194:134,1,73.6,8|0,0:0|0:0,0:0:0:0:
421,134,148108,6,0,B|507:141|529:46|441:-16|458:-34|213:-10|234:154|319:213|346:204|336:177|413:216|388:332|331:384|243:407|161:290|161:290|195:313|237:284|237:284|244:287|244:287|237:284|237:284|216:238|175:239|175:239|208:214|194:164|194:164|198:159|198:159|194:164|194:164|143:169|132:209|132:209|132:208|132:208|118:169|67:167|67:167|62:162|62:162|67:167|67:167|55:217|90:240|90:240|49:242|32:289|32:289|26:292|26:292|32:289|32:289|76:315|108:289|108:289|96:328|137:360|137:360|137:366|137:366|137:360|137:360|162:335,1,1589.7600388125,2|0,0:0|0:0,0:0:0:0:
