osu file format v14

[General]
AudioFilename: audio.mp3
AudioLeadIn: 0
PreviewTime: 32004
Countdown: 1
SampleSet: None
StackLeniency: 0.3
Mode: 0
LetterboxInBreaks: 0
WidescreenStoryboard: 1

[Editor]
Bookmarks: 80612
DistanceSpacing: 1.8
BeatDivisor: 4
GridSize: 4
TimelineZoom: 1

[Metadata]
Title:shigatsu no ame
TitleUnicode:四月の雨
Artist:cubesato
ArtistUnicode:cubesato
Creator:Telzzxs
Version:Advanced
Source:maimai murasaki
Tags:
BeatmapID:1745441
BeatmapSetID:833273

[Difficulty]
HPDrainRate:5
CircleSize:4
OverallDifficulty:6
ApproachRate:8
SliderMultiplier:1.49999990463257
SliderTickRate:1

[Events]
//Background and Video events
0,0,"bg.jpg",0,0
//Break Periods
//Storyboard Layer 0 (Background)
//Storyboard Layer 1 (Fail)
//Storyboard Layer 2 (Pass)
//Storyboard Layer 3 (Foreground)
//Storyboard Sound Samples

[TimingPoints]
1625,379.746835443038,4,2,1,60,1,0
9979,-83.3333333333333,4,2,1,60,0,0
13776,-125,4,2,1,60,0,0
20232,-74.0740740740741,4,2,1,60,0,0
22890,-100,4,2,1,60,0,0
24219,-66.6666666666667,4,2,1,60,0,0
25169,-111.111111111111,4,2,1,60,0,0
32004,-100,4,2,1,60,0,0
36561,-125,4,2,1,60,0,0
37700,-100,4,2,1,60,0,0
80612,-133.333333333333,4,2,1,60,0,0
86688,-166.666666666667,4,2,1,60,0,0
93903,-100,4,2,1,60,0,0
100359,-138.888888888889,4,2,1,60,0,0
101878,-125,4,2,1,60,0,0
107764,-83.3333333333333,4,2,1,60,0,0
110992,-100,4,2,1,60,0,0
114409,-125,4,2,1,60,0,0
115169,-100,4,2,1,60,0,0

[HitObjects]
146,93,1625,6,0,L|160:248,1,149.999990463257
159,242,2194,1,0,0:0:0:0:
237,215,2384,1,0,0:0:0:0:
314,187,2574,1,0,0:0:0:0:
391,157,2764,1,0,0:0:0:0:
391,157,2954,6,0,L|391:264,1,74.9999952316285
392,333,3523,2,0,B|284:317|284:317|399:143,1,299.999980926514
389,157,4473,2,0,B|429:230|429:230|265:207,1,224.999985694886
92,188,5422,1,0,0:0:0:0:
163,87,5992,6,0,B|225:154|225:154|72:194,1,224.999985694886
160,340,6941,5,0,0:0:0:0:
223,265,7131,1,0,0:0:0:0:
277,184,7321,1,0,0:0:0:0:
351,120,7511,1,0,0:0:0:0:
351,120,7700,6,0,B|278:77|278:77|280:300|280:300|161:202|161:202|160:353,1,599.999961853028
420,322,9979,2,0,B|343:324|343:324|416:230|416:230|336:233,1,269.999974594117
342,232,10738,5,0,0:0:0:0:
171,98,11498,1,0,0:0:0:0:
117,214,12257,2,0,B|302:214|302:214|150:80,1,359.99996612549
309,98,13397,5,0,0:0:0:0:
354,98,13492,1,0,0:0:0:0:
399,99,13587,1,0,0:0:0:0:
443,99,13681,1,0,0:0:0:0:
488,99,13776,6,0,L|436:165,1,59.9999961853028
370,229,14156,2,0,B|411:306|411:306|250:306,1,239.999984741211
122,309,15106,1,0,0:0:0:0:
122,189,15295,2,0,L|122:333,1,119.999992370606
267,309,15865,5,0,0:0:0:0:
266,190,16055,1,0,0:0:0:0:
259,63,16625,5,0,0:0:0:0:
338,196,16814,2,0,B|338:95|338:95|261:64,1,179.999988555908
338,196,17574,1,0,0:0:0:0:
168,288,18143,5,0,0:0:0:0:
336,324,18333,2,0,B|213:324|213:324|150:274,1,179.999988555908
174,80,19093,2,0,L|174:206,1,119.999992370606
469,319,19852,5,0,0:0:0:0:
206,326,20232,2,0,B|243:247|243:247|286:347|286:347|341:247|341:247|389:345|389:345|437:247|437:247|477:336,1,607.499963693619
467,65,22131,5,0,0:0:0:0:
364,67,22321,1,0,0:0:0:0:
262,67,22511,1,0,0:0:0:0:
159,68,22700,1,0,0:0:0:0:
57,69,22890,6,0,L|57:230,1,149.999990463257
204,246,23650,1,0,0:0:0:0:
389,252,24219,6,0,B|389:186|389:186|340:143,1,112.499997138977
144,89,25169,2,0,B|293:88|293:88|343:136,1,202.499980945588
256,192,25928,12,0,31245,0:0:0:0:
181,77,32004,6,0,L|181:171,1,74.9999952316285
398,150,32384,2,0,L|315:150,1,74.9999952316285
112,276,32764,2,0,L|189:276,1,74.9999952316285
346,333,33143,2,0,L|346:248,1,74.9999952316285
165,95,33523,6,0,L|248:95,1,74.9999952316285
216,305,33903,2,0,L|216:219,1,74.9999952316285
405,231,34283,2,0,L|324:231,1,74.9999952316285
305,59,34662,2,0,L|306:151,1,74.9999952316285
190,306,35042,6,0,L|190:217,1,74.9999952316285
106,119,35422,2,0,L|184:119,1,74.9999952316285
345,86,35802,2,0,L|345:174,1,74.9999952316285
407,292,36181,2,0,L|330:292,1,74.9999952316285
165,305,36561,6,0,B|179:253|179:253|220:249|220:249|222:197|222:197|269:200|269:200|267:153|267:153|316:140|316:140|332:90,1,329.999979019165
213,68,37700,1,0,0:0:0:0:
40,74,38080,6,0,L|84:144,1,74.9999952316285
40,74,38460,1,0,0:0:0:0:
134,262,38840,2,0,L|217:262,1,74.9999952316285
134,262,39219,1,0,0:0:0:0:
336,124,39599,6,0,L|336:205,1,74.9999952316285
471,305,39979,2,0,L|382:305,1,74.9999952316285
99,313,40359,2,0,L|99:219,1,74.9999952316285
245,108,40738,2,0,L|157:109,1,74.9999952316285
155,226,41118,6,0,L|201:304,1,74.9999952316285
444,168,41498,2,0,L|389:98,1,74.9999952316285
369,230,41878,2,0,L|294:291,1,74.9999952316285
369,230,42257,1,0,0:0:0:0:
125,93,42637,6,0,L|206:93,1,74.9999952316285
404,70,43017,2,0,B|359:96|359:96|367:115|367:115|326:129|326:129|332:161|332:161|288:169|288:169|289:199|289:199|255:209|255:209|245:232|245:232|224:246,1,299.999980926514
174,317,44156,6,0,L|261:317,1,74.9999952316285
367,238,44536,2,0,L|278:238,1,74.9999952316285
168,133,44916,2,0,L|254:133,1,74.9999952316285
168,133,45295,1,0,0:0:0:0:
395,131,45675,6,0,L|395:213,1,74.9999952316285
128,289,46055,2,0,L|128:202,1,74.9999952316285
256,120,46435,1,0,0:0:0:0:
254,221,46625,1,0,0:0:0:0:
256,120,46814,1,0,0:0:0:0:
147,271,47194,6,0,L|216:336,1,74.9999952316285
409,118,47574,2,0,L|341:57,1,74.9999952316285
219,190,47954,5,0,0:0:0:0:
294,190,48143,1,0,0:0:0:0:
219,190,48333,6,0,L|320:190,1,74.9999952316285
400,83,48713,6,0,L|400:168,1,74.9999952316285
324,288,49093,1,0,0:0:0:0:
80,244,49473,2,0,B|144:202|144:202|175:263|175:263|247:204,1,224.999985694886
299,125,50232,5,0,0:0:0:0:
394,125,50422,1,0,0:0:0:0:
339,328,50612,2,0,L|339:239,1,74.9999952316285
131,296,50992,5,0,0:0:0:0:
132,193,51181,1,0,0:0:0:0:
295,243,51371,2,0,L|380:243,1,74.9999952316285
249,87,51751,6,0,L|249:175,1,74.9999952316285
249,314,52131,1,0,0:0:0:0:
90,209,52511,2,0,L|180:208,1,74.9999952316285
356,207,52890,1,0,0:0:0:0:
126,184,53270,6,0,L|63:248,1,74.9999952316285
338,278,53650,1,0,0:0:0:0:
195,309,54030,2,0,L|257:245,1,74.9999952316285
186,82,54409,1,0,0:0:0:0:
459,182,54789,6,0,L|276:182,1,149.999990463257
177,106,55549,2,0,P|147:171|186:263,1,149.999990463257
320,88,56308,6,0,L|320:175,1,74.9999952316285
320,163,56688,1,0,0:0:0:0:
101,164,57068,2,0,L|181:164,1,74.9999952316285
98,323,57447,5,0,0:0:0:0:
463,324,57827,1,0,0:0:0:0:
399,97,58207,2,0,L|328:177,1,74.9999952316285
148,146,58587,2,0,L|212:224,1,74.9999952316285
231,302,58966,6,0,L|312:302,1,74.9999952316285
431,163,59346,1,0,0:0:0:0:
132,93,59726,1,0,0:0:0:0:
131,242,60106,2,0,L|210:242,1,74.9999952316285
350,88,60485,5,0,0:0:0:0:
352,330,60865,1,0,0:0:0:0:
98,189,61245,1,0,0:0:0:0:
202,190,61625,2,0,B|237:177|237:177|269:197|269:197|296:178|296:178|325:196|325:196|350:180|350:180|377:197|377:197|402:178|402:178,1,224.999985694886
148,301,62384,5,0,0:0:0:0:
244,304,62574,1,0,0:0:0:0:
346,304,62764,2,0,L|346:225,1,74.9999952316285
138,69,63143,6,0,L|138:169,1,74.9999952316285
346,69,63523,1,0,0:0:0:0:
245,69,63903,1,0,0:0:0:0:
70,267,65042,5,0,0:0:0:0:
466,264,65422,1,0,0:0:0:0:
395,339,65802,6,0,B|351:305|351:305|345:263|345:263|299:243|299:243|281:194|281:194|231:183|231:183|217:130|217:130|176:112|176:112|159:68|159:68|124:53|124:53|109:23,2,449.999971389771
149,295,68460,5,0,0:0:0:0:
150,219,68650,1,0,0:0:0:0:
152,143,68840,1,0,0:0:0:0:
419,131,69219,5,0,0:0:0:0:
343,131,69409,1,0,0:0:0:0:
268,133,69599,1,0,0:0:0:0:
386,342,69979,5,0,0:0:0:0:
386,266,70169,1,0,0:0:0:0:
384,190,70359,1,0,0:0:0:0:
153,89,70738,5,0,0:0:0:0:
154,164,70928,1,0,0:0:0:0:
155,239,71118,1,0,0:0:0:0:
408,102,71498,5,0,0:0:0:0:
358,158,71688,1,0,0:0:0:0:
308,214,71878,1,0,0:0:0:0:
89,321,72257,5,0,0:0:0:0:
145,271,72447,1,0,0:0:0:0:
203,224,72637,2,0,L|203:116,1,74.9999952316285
302,65,73017,5,0,0:0:0:0:
358,114,73207,1,0,0:0:0:0:
420,155,73397,1,0,0:0:0:0:
325,271,73776,5,0,0:0:0:0:
268,316,73966,1,0,0:0:0:0:
214,369,74156,1,0,0:0:0:0:
128,169,74536,5,0,0:0:0:0:
182,117,74726,1,0,0:0:0:0:
239,68,74916,1,0,0:0:0:0:
300,185,75295,5,0,0:0:0:0:
357,232,75485,1,0,0:0:0:0:
417,276,75675,1,0,0:0:0:0:
276,328,76055,5,0,0:0:0:0:
200,328,76245,1,0,0:0:0:0:
124,328,76435,1,0,0:0:0:0:
194,82,76814,5,0,0:0:0:0:
194,157,77004,1,0,0:0:0:0:
194,232,77194,1,0,0:0:0:0:
306,157,77574,5,0,0:0:0:0:
381,158,77764,1,0,0:0:0:0:
456,160,77954,1,0,0:0:0:0:
331,308,78713,6,0,B|277:300|277:300|240:313|240:313|203:301|203:301|158:312|158:312,1,149.999990463257
144,115,79473,2,0,B|144:169|144:169|164:203,1,74.9999952316285
256,201,79852,2,0,B|302:185|302:185|345:201|345:201|386:192|386:192|422:210,1,149.999990463257
446,299,80612,6,0,B|370:325|370:325|295:299|295:299|235:326|235:326|172:293|172:293|116:317|116:317|52:301|52:301,2,421.874989271164
423,218,83650,6,0,P|419:137|167:143,1,393.74998998642
58,86,85169,2,0,P|63:157|317:164,1,393.74998998642
419,32,86688,6,0,B|412:81|412:81|431:127|431:127|410:169|410:169|429:227|429:227|409:264|409:264|429:307|429:307|409:349|409:349,2,337.499968242647
224,51,89726,2,0,B|93:165|93:165|250:154|250:154,1,314.999970359804
233,155,91245,2,0,B|403:147|403:147|387:223|387:223|336:279,1,314.999970359804
205,323,92764,5,0,0:0:0:0:
341,273,92954,1,0,0:0:0:0:
229,156,93143,2,0,L|166:156,1,44.9999957656862
224,51,93523,2,0,L|274:51,1,44.9999957656862
390,53,93903,6,0,B|385:98|385:98|400:134|400:134|381:169|381:169|393:203,1,149.999990463257
314,305,94662,2,0,L|208:305,1,74.9999952316285
118,90,95042,5,0,0:0:0:0:
200,154,95232,1,0,0:0:0:0:
297,114,95422,1,0,0:0:0:0:
375,183,95612,1,0,0:0:0:0:
459,120,95802,5,0,0:0:0:0:
459,280,96181,2,0,B|412:319|412:319|305:321,1,149.999990463257
133,312,96941,1,0,0:0:0:0:
132,165,97131,6,0,B|132:116|132:116|163:81,1,74.9999952316285
226,72,97700,1,0,0:0:0:0:
406,118,98080,2,0,B|383:153|383:153|348:172|348:172|339:209|339:209|306:230,1,149.999990463257
101,136,98840,5,0,0:0:0:0:
193,185,99219,1,0,0:0:0:0:
283,237,99599,1,0,0:0:0:0:
376,285,99979,1,0,0:0:0:0:
376,285,100359,6,0,L|276:235,1,107.999995770264
101,136,101118,2,0,L|199:189,1,107.999995770264
277,73,101878,6,0,L|306:136,1,59.9999961853028
277,73,102257,1,0,0:0:0:0:
108,233,102637,2,0,L|176:278,1,59.9999961853028
108,233,103017,1,0,0:0:0:0:
402,198,103397,2,0,L|378:267,1,59.9999961853028
402,198,103776,1,0,0:0:0:0:
257,298,104156,2,0,B|246:265|246:265|265:236|265:236|250:209|250:209|269:176|269:176|261:124|261:124,1,179.999988555908
81,93,104916,5,0,0:0:0:0:
188,61,105295,2,0,B|155:94|155:94|63:93,1,119.999992370606
251,213,106055,1,0,0:0:0:0:
359,136,106245,1,0,0:0:0:0:
380,255,106435,2,0,L|357:123,1,119.999992370606
307,332,107194,1,0,0:0:0:0:
218,318,107384,1,0,0:0:0:0:
160,225,107574,1,0,0:0:0:0:
307,332,107764,6,0,B|335:241|335:241|152:225,1,269.999974594117
123,125,108713,1,0,0:0:0:0:
299,178,109093,1,0,0:0:0:0:
398,117,109283,2,0,L|405:221,1,89.9999915313724
365,307,109852,1,0,0:0:0:0:
177,309,110232,6,0,P|131:253|161:148,1,179.999983062745
335,66,110992,5,0,0:0:0:0:
434,148,111371,2,0,L|362:177,1,74.9999952316285
226,56,111751,2,0,L|255:145,1,74.9999952316285
129,266,112131,2,0,L|224:226,1,74.9999952316285
334,356,112511,2,0,L|303:270,1,74.9999952316285
279,209,112890,1,0,0:0:0:0:
198,140,113080,6,0,B|174:102|174:102|133:113,1,74.9999952316285
131,276,113650,1,0,0:0:0:0:
389,296,114030,5,0,0:0:0:0:
365,88,114409,2,0,L|342:149,1,59.9999961853028
170,93,114979,1,0,0:0:0:0:
182,186,115169,6,0,B|232:120|232:120|143:81,1,149.999990463257
79,126,115928,1,0,0:0:0:0:
129,286,116308,2,0,L|287:288,1,149.999990463257
256,192,117068,12,0,126181,0:0:0:0:
