osu file format v14

[General]
AudioFilename: audio.mp3
AudioLeadIn: 0
PreviewTime: 132949
Countdown: 0
SampleSet: Normal
StackLeniency: 0.7
Mode: 1
LetterboxInBreaks: 0
WidescreenStoryboard: 1

[Editor]
Bookmarks: 77556,93486,112106,130726,132381
DistanceSpacing: 0.8
BeatDivisor: 2
GridSize: 32
TimelineZoom: 2.799999

[Metadata]
Title:Mexico Isnt Real
TitleUnicode:Mexico Isnt Real
Artist:crig
ArtistUnicode:crig
Creator:talia
Version:This Kantan Isnt Real
Source:ゆめ2っき
Tags:yume 2kki nikki ゆめ2っき ゆめにっき dream mexico electronic instrumental idm dnb breakcore intelligent dance music drum and bass d'n'b d&b jr-man-210616215 cryceptio germanium isn't
BeatmapID:3871679
BeatmapSetID:1880596

[Difficulty]
HPDrainRate:8
CircleSize:5
OverallDifficulty:3
ApproachRate:5
SliderMultiplier:1.4
SliderTickRate:1

[Events]
//Background and Video events
0,0,"dream mexico.png",0,-170
//Break Periods
//Storyboard Layer 0 (Background)
//Storyboard Layer 1 (Fail)
//Storyboard Layer 2 (Pass)
//Storyboard Layer 3 (Foreground)
//Storyboard Layer 4 (Overlay)
//Storyboard Sound Samples

[TimingPoints]
536,413.793103448276,4,1,0,70,1,0
132949,-100,4,1,0,80,0,1
159432,-100,4,1,0,70,0,0

[HitObjects]
372,129,27018,1,4,0:0:0:0:
373,332,27432,1,8,0:0:0:0:
332,303,27846,1,8,0:0:0:0:
313,289,28673,1,0,0:0:0:0:
336,311,29087,1,0,0:0:0:0:
320,307,29501,1,0,0:0:0:0:
364,324,30329,1,8,0:0:0:0:
193,295,31156,1,0,0:0:0:0:
226,300,31570,1,8,0:0:0:0:
261,304,31984,1,0,0:0:0:0:
205,309,33639,1,8,0:0:0:0:
259,267,34467,1,8,0:0:0:0:
375,324,34880,1,0,0:0:0:0:
207,312,35294,1,0,0:0:0:0:
290,320,36122,1,0,0:0:0:0:
282,354,36536,1,8,0:0:0:0:
336,336,36949,1,0,0:0:0:0:
314,370,37777,1,0,0:0:0:0:
186,292,38604,1,8,0:0:0:0:
179,260,39432,1,0,0:0:0:0:
279,277,39846,1,8,0:0:0:0:
184,216,40260,1,4,0:0:0:0:
393,136,41087,1,0,0:0:0:0:
213,269,41915,1,0,0:0:0:0:
209,332,42329,1,0,0:0:0:0:
232,296,43156,1,0,0:0:0:0:
254,186,43570,1,0,0:0:0:0:
258,319,43984,1,8,0:0:0:0:
317,290,45225,1,8,0:0:0:0:
259,300,45846,1,8,0:0:0:0:
255,305,46467,1,0,0:0:0:0:
382,280,46880,1,8,0:0:0:0:
300,262,47708,1,8,0:0:0:0:
145,99,48536,1,0,0:0:0:0:
240,308,49156,1,8,0:0:0:0:
267,306,50191,1,8,0:0:0:0:
243,325,50811,1,0,0:0:0:0:
243,321,51225,1,8,0:0:0:0:
255,322,51846,1,0,0:0:0:0:
309,324,52673,1,8,0:0:0:0:
181,313,53087,1,0,0:0:0:0:
248,346,53501,1,12,0:0:0:0:
206,298,54329,1,0,0:0:0:0:
331,343,55156,1,0,0:0:0:0:
196,313,56811,1,8,0:0:0:0:
248,343,57639,1,8,0:0:0:0:
242,336,58053,1,0,0:0:0:0:
227,334,58467,1,8,0:0:0:0:
227,334,58880,1,8,0:0:0:0:
195,333,59294,1,8,0:0:0:0:
212,337,60122,1,0,0:0:0:0:
297,344,60949,1,8,0:0:0:0:
252,346,61363,1,8,0:0:0:0:
279,354,61777,1,0,0:0:0:0:
254,304,62604,1,8,0:0:0:0:
348,313,63018,1,8,0:0:0:0:
257,246,63432,1,0,0:0:0:0:
78,112,64260,1,0,0:0:0:0:
307,328,65087,1,8,0:0:0:0:
342,320,66742,1,4,0:0:0:0:
277,320,67570,1,0,0:0:0:0:
166,301,67984,1,8,0:0:0:0:
187,240,68398,1,0,0:0:0:0:
254,252,69225,1,8,0:0:0:0:
232,276,70053,1,0,0:0:0:0:
138,214,70467,1,0,0:0:0:0:
222,330,70880,1,8,0:0:0:0:
213,315,71708,1,8,0:0:0:0:
185,319,73363,1,8,0:0:0:0:
93,114,74191,1,0,0:0:0:0:
231,300,74604,1,8,0:0:0:0:
231,300,75018,1,8,0:0:0:0:
194,295,75846,1,8,0:0:0:0:
231,341,76260,1,8,0:0:0:0:
249,308,76673,1,0,0:0:0:0:
244,299,77501,1,8,0:0:0:0:
290,322,78122,1,8,0:0:0:0:
290,322,79984,1,4,0:0:0:0:
132,162,80811,1,8,0:0:0:0:
132,162,81225,1,0,0:0:0:0:
255,302,81639,1,0,0:0:0:0:
204,306,82467,1,8,0:0:0:0:
204,306,82880,1,8,0:0:0:0:
209,280,83294,1,0,0:0:0:0:
197,237,84122,1,0,0:0:0:0:
279,303,84536,1,8,0:0:0:0:
216,288,84949,1,8,0:0:0:0:
236,196,86604,1,8,0:0:0:0:
232,302,87432,1,8,0:0:0:0:
233,301,87846,1,0,0:0:0:0:
232,308,88260,1,0,0:0:0:0:
295,313,89087,1,8,0:0:0:0:
277,308,89915,1,8,0:0:0:0:
229,244,90742,1,8,0:0:0:0:
235,293,91156,1,0,0:0:0:0:
281,285,91570,1,8,0:0:0:0:
247,303,93225,1,4,0:0:0:0:
299,364,94053,1,8,0:0:0:0:
320,253,94467,1,0,0:0:0:0:
265,354,94880,1,0,0:0:0:0:
114,187,95708,1,0,0:0:0:0:
251,318,96536,1,8,0:0:0:0:
261,309,96949,1,0,0:0:0:0:
286,331,97363,1,0,0:0:0:0:
298,256,98191,1,0,0:0:0:0:
248,335,99846,1,0,0:0:0:0:
139,138,100673,1,0,0:0:0:0:
294,247,101501,1,0,0:0:0:0:
315,289,101915,1,0,0:0:0:0:
205,321,102329,1,8,0:0:0:0:
294,341,103156,1,0,0:0:0:0:
237,324,103570,1,8,0:0:0:0:
280,353,103984,1,0,0:0:0:0:
218,341,104811,1,0,0:0:0:0:
345,318,106467,1,4,0:0:0:0:
160,190,107294,1,0,0:0:0:0:
254,346,107708,1,0,0:0:0:0:
199,324,108122,1,0,0:0:0:0:
232,331,108949,1,0,0:0:0:0:
312,336,109363,1,8,0:0:0:0:
279,324,109777,1,0,0:0:0:0:
261,326,110604,1,0,0:0:0:0:
215,281,111018,1,0,0:0:0:0:
245,255,111432,1,0,0:0:0:0:
320,193,113087,1,8,0:0:0:0:
219,250,113915,1,0,0:0:0:0:
300,41,114742,1,0,0:0:0:0:
206,102,115156,1,0,0:0:0:0:
212,298,115570,1,8,0:0:0:0:
267,313,116398,1,0,0:0:0:0:
283,270,117225,1,0,0:0:0:0:
289,273,117639,1,0,0:0:0:0:
291,274,118053,1,8,0:0:0:0:
293,339,119708,1,4,0:0:0:0:
263,329,120536,1,0,0:0:0:0:
254,346,121363,1,0,0:0:0:0:
224,336,122191,1,0,0:0:0:0:
224,336,122604,1,8,0:0:0:0:
213,324,123018,1,0,0:0:0:0:
241,333,123846,1,0,0:0:0:0:
241,304,124673,1,0,0:0:0:0:
169,288,126329,1,0,0:0:0:0:
230,314,127156,1,8,0:0:0:0:
230,314,127570,1,0,0:0:0:0:
230,314,127984,1,0,0:0:0:0:
71,156,128811,1,0,0:0:0:0:
292,190,129639,1,0,0:0:0:0:
186,294,130467,1,8,0:0:0:0:
309,333,130880,1,0,0:0:0:0:
222,323,131294,1,8,0:0:0:0:
233,301,132949,1,4,0:0:0:0:
228,322,133363,1,8,0:0:0:0:
254,324,134191,1,8,0:0:0:0:
254,324,134604,1,8,0:0:0:0:
302,306,135018,1,8,0:0:0:0:
109,191,135846,1,0,0:0:0:0:
109,191,136260,1,0,0:0:0:0:
351,299,136673,1,8,0:0:0:0:
218,280,137501,1,8,0:0:0:0:
265,280,137915,1,0,0:0:0:0:
205,297,139156,1,8,0:0:0:0:
298,301,139570,1,0,0:0:0:0:
189,277,139984,1,8,0:0:0:0:
221,298,140811,1,8,0:0:0:0:
207,281,141225,1,0,0:0:0:0:
310,302,141639,1,8,0:0:0:0:
266,325,142467,1,8,0:0:0:0:
179,254,142880,1,0,0:0:0:0:
134,151,143294,1,0,0:0:0:0:
152,296,144122,1,8,0:0:0:0:
303,302,144536,1,0,0:0:0:0:
245,305,145777,1,8,0:0:0:0:
219,277,146191,1,0,0:0:0:0:
386,336,146604,1,8,0:0:0:0:
175,300,147432,1,8,0:0:0:0:
264,305,147846,1,0,0:0:0:0:
283,289,148260,1,8,0:0:0:0:
317,310,149087,1,8,0:0:0:0:
257,297,149501,1,0,0:0:0:0:
261,302,149915,1,8,0:0:0:0:
288,301,150742,1,8,0:0:0:0:
227,321,151156,1,0,0:0:0:0:
238,315,152398,1,8,0:0:0:0:
328,334,152811,1,0,0:0:0:0:
331,320,153225,1,8,0:0:0:0:
323,293,154053,1,8,0:0:0:0:
300,290,154467,1,8,0:0:0:0:
329,259,154880,1,8,0:0:0:0:
300,290,155708,1,0,0:0:0:0:
300,290,156122,1,0,0:0:0:0:
234,280,156536,1,8,0:0:0:0:
298,271,157363,1,8,0:0:0:0:
291,292,157777,1,0,0:0:0:0:
314,285,159018,1,8,0:0:0:0:
232,270,159432,1,4,0:0:0:0:
293,273,159846,1,8,0:0:0:0:
293,273,160467,1,0,0:0:0:0:
285,272,161087,1,0,0:0:0:0:
249,262,162329,1,8,0:0:0:0:
257,343,162742,1,0,0:0:0:0:
230,287,163156,1,8,0:0:0:0:
253,295,163777,1,8,0:0:0:0:
266,285,164398,1,8,0:0:0:0:
257,298,165639,1,8,0:0:0:0:
228,285,166053,1,0,0:0:0:0:
273,278,166467,1,8,0:0:0:0:
273,278,167087,1,8,0:0:0:0:
213,252,167708,1,8,0:0:0:0:
356,298,168949,1,8,0:0:0:0:
260,287,169363,1,0,0:0:0:0:
239,276,169777,1,8,0:0:0:0:
165,292,170398,1,8,0:0:0:0:
258,317,171018,1,0,0:0:0:0:
63,159,172260,1,0,0:0:0:0:
224,268,172673,1,0,0:0:0:0:
225,292,173087,1,8,0:0:0:0:
307,303,173708,1,8,0:0:0:0:
234,292,174329,1,8,0:0:0:0:
243,261,175570,1,8,0:0:0:0:
216,267,175984,1,0,0:0:0:0:
207,265,176398,1,8,0:0:0:0:
346,291,177018,1,8,0:0:0:0:
217,263,177639,1,0,0:0:0:0:
211,262,178880,1,8,0:0:0:0:
217,318,179294,1,0,0:0:0:0:
217,318,179708,1,8,0:0:0:0:
334,304,180329,1,0,0:0:0:0:
224,331,180949,1,0,0:0:0:0:
346,305,182191,1,8,0:0:0:0:
250,247,182604,1,0,0:0:0:0:
280,296,183018,1,8,0:0:0:0:
280,296,183639,1,8,0:0:0:0:
251,279,184260,1,0,0:0:0:0:
322,285,184673,1,8,0:0:0:0:
262,284,185501,1,12,0:0:0:0:
