osu file format v14

[General]
AudioFilename: audio.mp3
AudioLeadIn: 0
PreviewTime: 132949
Countdown: 0
SampleSet: Normal
StackLeniency: 0.7
Mode: 1
LetterboxInBreaks: 0
WidescreenStoryboard: 0

[Editor]
Bookmarks: 77556,93486,112106,130726,132381
DistanceSpacing: 0.8
BeatDivisor: 4
GridSize: 32
TimelineZoom: 2.799999

[Metadata]
Title:Mexico Isnt Real
TitleUnicode:Mexico Isnt Real
Artist:crig
ArtistUnicode:crig
Creator:talia
Version:This Inner Oni Isnt Real
Source:ゆめ2っき
Tags:yume 2kki nikki ゆめ2っき ゆめにっき dream mexico electronic instrumental idm dnb breakcore intelligent dance music drum and bass d'n'b d&b jr-man-210616215 cryceptio germanium isn't
BeatmapID:3871678
BeatmapSetID:1880596

[Difficulty]
HPDrainRate:6
CircleSize:5
OverallDifficulty:6
ApproachRate:5
SliderMultiplier:1.4
SliderTickRate:1

[Events]
//Background and Video events
0,0,"dream mexico.png",0,-170
//Break Periods
//Storyboard Layer 0 (Background)
//Storyboard Layer 1 (Fail)
//Storyboard Layer 2 (Pass)
//Storyboard Layer 3 (Foreground)
//Storyboard Layer 4 (Overlay)
//Storyboard Sound Samples

[TimingPoints]
536,413.793103448276,4,1,0,70,1,0
131912,-104.166666666667,4,1,0,70,0,0
132015,-105.814012999642,4,1,0,72,0,0
132119,-107.531076090914,4,1,0,73,0,0
132326,-111.120068795012,4,1,0,74,0,0
132533,-114.95690853489,4,1,0,76,0,0
132535,-113.636363636364,4,1,0,78,0,0
132739,-119.047619047619,4,1,0,79,0,0
132949,-95.2380952380952,4,1,0,80,0,1
158395,-96.1538461538461,4,1,0,80,0,1
158498,-96.5236548299167,4,1,0,80,0,1
158601,-96.8963190643976,4,1,0,80,0,1
158705,-97.2755324753519,4,1,0,80,0,1
158808,-97.6540364927657,4,1,0,80,0,1
159015,-98.4236978373439,4,1,0,80,0,1
159222,-99.2055877499328,4,1,0,80,0,1
159432,-100,4,1,0,70,0,0

[HitObjects]
372,129,27018,5,4,0:0:0:0:
324,215,27225,1,8,0:0:0:0:
353,275,27329,1,0,0:0:0:0:
323,227,27432,1,8,0:0:0:0:
332,303,27639,1,8,0:0:0:0:
332,303,27846,1,8,0:0:0:0:
332,303,28053,1,0,0:0:0:0:
313,290,28156,1,8,0:0:0:0:
332,303,28260,1,8,0:0:0:0:
313,290,28363,1,0,0:0:0:0:
313,290,28467,1,8,0:0:0:0:
313,289,28570,1,8,0:0:0:0:
313,289,28673,1,0,0:0:0:0:
407,308,28880,1,8,0:0:0:0:
407,308,28984,1,8,0:0:0:0:
336,311,29087,1,0,0:0:0:0:
336,313,29191,1,0,0:0:0:0:
320,307,29294,1,8,0:0:0:0:
320,307,29398,1,8,0:0:0:0:
320,307,29501,1,0,0:0:0:0:
320,307,29708,1,8,0:0:0:0:
280,336,29811,1,8,0:0:0:0:
280,336,29915,1,0,0:0:0:0:
364,324,30122,1,8,0:0:0:0:
364,324,30329,1,8,0:0:0:0:
310,264,30432,1,8,0:0:0:0:
284,263,30536,1,8,0:0:0:0:
310,264,30639,1,0,0:0:0:0:
284,263,30742,1,8,0:0:0:0:
230,290,30846,1,8,0:0:0:0:
230,290,30949,1,0,0:0:0:0:
193,295,31156,1,0,0:0:0:0:
225,320,31260,1,8,0:0:0:0:
219,316,31363,1,0,0:0:0:0:
216,309,31467,1,8,0:0:0:0:
226,300,31570,1,8,0:0:0:0:
229,300,31777,1,8,0:0:0:0:
385,351,31880,1,8,0:0:0:0:
261,304,31984,1,0,0:0:0:0:
225,304,32191,1,8,0:0:0:0:
360,324,32294,1,0,0:0:0:0:
360,324,32398,1,8,0:0:0:0:
202,303,32501,1,8,0:0:0:0:
174,261,32604,1,0,0:0:0:0:
289,253,32811,1,0,0:0:0:0:
329,320,32915,1,0,0:0:0:0:
281,288,33018,1,8,0:0:0:0:
192,316,33122,1,8,0:0:0:0:
187,315,33225,1,0,0:0:0:0:
186,313,33329,1,0,0:0:0:0:
186,313,33432,1,8,0:0:0:0:
210,120,33536,1,0,0:0:0:0:
205,309,33639,1,8,0:0:0:0:
296,321,33846,1,8,0:0:0:0:
296,321,33949,1,8,0:0:0:0:
296,321,34053,1,0,0:0:0:0:
333,271,34260,1,8,0:0:0:0:
259,267,34467,1,8,0:0:0:0:
183,321,34673,1,8,0:0:0:0:
387,233,34777,1,8,0:0:0:0:
375,324,34880,1,0,0:0:0:0:
218,325,34984,1,0,0:0:0:0:
218,325,35087,1,0,0:0:0:0:
207,315,35191,1,8,0:0:0:0:
207,312,35294,1,0,0:0:0:0:
210,315,35501,1,8,0:0:0:0:
210,315,35604,1,8,0:0:0:0:
210,315,35708,1,0,0:0:0:0:
290,320,35915,1,0,0:0:0:0:
290,320,36018,1,8,0:0:0:0:
290,320,36122,1,0,0:0:0:0:
313,329,36225,1,0,0:0:0:0:
313,329,36329,1,0,0:0:0:0:
282,354,36432,1,8,0:0:0:0:
282,354,36536,1,8,0:0:0:0:
318,337,36742,1,0,0:0:0:0:
349,291,36846,1,8,0:0:0:0:
336,336,36949,1,0,0:0:0:0:
265,291,37156,1,8,0:0:0:0:
265,291,37260,1,8,0:0:0:0:
265,291,37363,1,8,0:0:0:0:
314,370,37570,1,8,0:0:0:0:
314,370,37777,1,0,0:0:0:0:
348,348,37880,1,8,0:0:0:0:
245,320,37984,1,0,0:0:0:0:
355,336,38087,1,8,0:0:0:0:
265,291,38191,1,0,0:0:0:0:
186,292,38398,1,0,0:0:0:0:
186,292,38501,1,0,0:0:0:0:
186,292,38604,1,8,0:0:0:0:
328,321,38811,1,8,0:0:0:0:
311,285,38915,1,8,0:0:0:0:
311,285,39018,1,0,0:0:0:0:
166,259,39225,1,0,0:0:0:0:
166,259,39329,1,8,0:0:0:0:
179,260,39432,1,0,0:0:0:0:
279,277,39639,1,8,0:0:0:0:
343,302,39742,1,0,0:0:0:0:
279,277,39846,1,8,0:0:0:0:
343,302,39949,1,8,0:0:0:0:
343,302,40053,1,8,0:0:0:0:
364,222,40260,1,12,0:0:0:0:
339,342,40467,1,0,0:0:0:0:
339,342,40570,1,0,0:0:0:0:
330,316,40673,1,8,0:0:0:0:
335,313,40777,1,0,0:0:0:0:
337,313,40880,1,8,0:0:0:0:
294,331,41087,1,0,0:0:0:0:
294,331,41191,1,8,0:0:0:0:
294,331,41294,1,0,0:0:0:0:
294,331,41398,1,8,0:0:0:0:
294,331,41501,1,8,0:0:0:0:
294,331,41604,1,8,0:0:0:0:
261,223,41708,1,0,0:0:0:0:
309,291,41915,1,0,0:0:0:0:
215,341,42018,1,0,0:0:0:0:
309,291,42122,1,8,0:0:0:0:
209,332,42329,1,0,0:0:0:0:
301,259,42432,1,8,0:0:0:0:
210,310,42536,1,8,0:0:0:0:
258,267,42742,1,0,0:0:0:0:
250,272,42949,1,8,0:0:0:0:
238,295,43053,1,8,0:0:0:0:
232,296,43156,1,0,0:0:0:0:
343,341,43260,1,8,0:0:0:0:
343,341,43363,1,8,0:0:0:0:
335,341,43467,1,8,0:0:0:0:
338,342,43570,1,0,0:0:0:0:
334,341,43777,1,8,0:0:0:0:
283,334,43880,1,0,0:0:0:0:
258,319,43984,1,8,0:0:0:0:
258,312,44191,1,8,0:0:0:0:
312,207,44294,1,0,0:0:0:0:
322,295,44398,1,8,0:0:0:0:
322,295,44501,1,8,0:0:0:0:
312,278,44604,1,8,0:0:0:0:
312,278,44708,1,0,0:0:0:0:
304,285,44811,1,8,0:0:0:0:
302,284,45018,1,0,0:0:0:0:
318,290,45122,1,0,0:0:0:0:
317,290,45225,1,8,0:0:0:0:
274,287,45432,1,8,0:0:0:0:
323,329,45536,1,0,0:0:0:0:
274,287,45639,1,8,0:0:0:0:
340,336,45742,1,0,0:0:0:0:
259,300,45846,1,8,0:0:0:0:
254,318,46053,1,8,0:0:0:0:
255,305,46156,1,8,0:0:0:0:
255,305,46260,1,0,0:0:0:0:
255,305,46363,1,8,0:0:0:0:
255,305,46467,1,0,0:0:0:0:
331,323,46570,1,8,0:0:0:0:
385,276,46673,1,8,0:0:0:0:
382,280,46880,1,8,0:0:0:0:
272,311,47087,1,0,0:0:0:0:
255,305,47191,1,8,0:0:0:0:
231,286,47294,1,8,0:0:0:0:
225,271,47501,1,0,0:0:0:0:
300,262,47708,1,8,0:0:0:0:
300,262,47811,1,8,0:0:0:0:
300,262,47915,1,0,0:0:0:0:
300,262,48122,1,0,0:0:0:0:
302,336,48329,1,0,0:0:0:0:
290,336,48432,1,8,0:0:0:0:
256,320,48536,1,8,0:0:0:0:
242,311,48742,1,0,0:0:0:0:
241,309,48846,1,0,0:0:0:0:
241,309,48949,1,8,0:0:0:0:
240,308,49156,1,8,0:0:0:0:
205,348,49363,1,0,0:0:0:0:
277,348,49467,1,8,0:0:0:0:
277,348,49570,1,0,0:0:0:0:
189,315,49777,1,0,0:0:0:0:
265,258,49984,1,0,0:0:0:0:
267,306,50191,1,8,0:0:0:0:
277,348,50294,1,8,0:0:0:0:
277,348,50398,1,0,0:0:0:0:
228,328,50604,1,0,0:0:0:0:
243,325,50708,1,8,0:0:0:0:
243,325,50811,1,0,0:0:0:0:
243,321,51018,1,8,0:0:0:0:
243,321,51225,1,8,0:0:0:0:
328,299,51329,1,8,0:0:0:0:
164,282,51432,1,0,0:0:0:0:
255,168,51639,1,8,0:0:0:0:
353,292,51742,1,8,0:0:0:0:
255,322,51846,1,0,0:0:0:0:
245,296,52053,1,8,0:0:0:0:
319,323,52156,1,8,0:0:0:0:
243,297,52260,1,0,0:0:0:0:
292,255,52363,1,0,0:0:0:0:
310,323,52467,1,8,0:0:0:0:
309,324,52673,1,8,0:0:0:0:
242,360,52880,1,8,0:0:0:0:
181,313,53087,1,0,0:0:0:0:
303,331,53294,1,0,0:0:0:0:
248,346,53501,1,12,0:0:0:0:
300,302,53708,1,0,0:0:0:0:
79,273,53915,1,8,0:0:0:0:
206,298,54018,1,8,0:0:0:0:
206,298,54122,1,8,0:0:0:0:
206,298,54329,1,0,0:0:0:0:
327,341,54536,1,0,0:0:0:0:
206,298,54639,1,8,0:0:0:0:
327,341,54742,1,0,0:0:0:0:
274,315,54846,1,0,0:0:0:0:
274,315,54949,1,8,0:0:0:0:
341,338,55053,1,8,0:0:0:0:
331,343,55156,1,0,0:0:0:0:
272,307,55363,1,8,0:0:0:0:
199,321,55570,1,0,0:0:0:0:
196,313,55673,1,0,0:0:0:0:
196,313,55777,1,0,0:0:0:0:
196,313,55984,1,8,0:0:0:0:
205,325,56087,1,0,0:0:0:0:
205,325,56191,1,8,0:0:0:0:
218,355,56398,1,8,0:0:0:0:
348,315,56501,1,8,0:0:0:0:
218,355,56604,1,0,0:0:0:0:
190,336,56708,1,8,0:0:0:0:
204,322,56811,1,8,0:0:0:0:
204,321,57018,1,0,0:0:0:0:
203,318,57225,1,0,0:0:0:0:
248,343,57329,1,0,0:0:0:0:
248,343,57432,1,0,0:0:0:0:
248,343,57639,1,8,0:0:0:0:
361,324,57742,1,0,0:0:0:0:
242,336,57846,1,8,0:0:0:0:
242,336,57949,1,8,0:0:0:0:
242,336,58053,1,0,0:0:0:0:
235,329,58156,1,8,0:0:0:0:
231,332,58260,1,8,0:0:0:0:
227,334,58467,1,8,0:0:0:0:
227,334,58673,1,0,0:0:0:0:
227,334,58777,1,8,0:0:0:0:
195,333,58984,1,0,0:0:0:0:
195,333,59087,1,8,0:0:0:0:
195,333,59294,1,8,0:0:0:0:
195,333,59501,1,0,0:0:0:0:
209,339,59604,1,8,0:0:0:0:
203,335,59811,1,0,0:0:0:0:
191,324,59915,1,8,0:0:0:0:
212,337,60122,1,0,0:0:0:0:
315,377,60225,1,8,0:0:0:0:
159,311,60329,1,0,0:0:0:0:
264,362,60432,1,8,0:0:0:0:
238,357,60536,1,8,0:0:0:0:
277,310,60639,1,0,0:0:0:0:
277,310,60742,1,8,0:0:0:0:
297,344,60949,1,8,0:0:0:0:
267,350,61053,1,0,0:0:0:0:
258,349,61156,1,0,0:0:0:0:
254,347,61260,1,8,0:0:0:0:
252,346,61363,1,8,0:0:0:0:
303,366,61570,1,8,0:0:0:0:
279,354,61777,1,0,0:0:0:0:
260,350,61880,1,8,0:0:0:0:
256,352,61984,1,8,0:0:0:0:
197,325,62191,1,8,0:0:0:0:
343,346,62294,1,0,0:0:0:0:
248,304,62398,1,8,0:0:0:0:
246,337,62501,1,0,0:0:0:0:
254,304,62604,1,8,0:0:0:0:
253,178,62708,1,8,0:0:0:0:
232,337,62811,1,8,0:0:0:0:
313,148,62915,1,0,0:0:0:0:
348,313,63018,1,8,0:0:0:0:
246,298,63225,1,8,0:0:0:0:
235,262,63329,1,0,0:0:0:0:
237,254,63432,1,8,0:0:0:0:
202,298,63639,1,0,0:0:0:0:
183,276,63742,1,8,0:0:0:0:
159,223,63846,1,8,0:0:0:0:
198,225,63949,1,0,0:0:0:0:
217,231,64053,1,0,0:0:0:0:
302,344,64156,1,8,0:0:0:0:
302,344,64260,1,0,0:0:0:0:
215,315,64467,1,0,0:0:0:0:
215,315,64570,1,8,0:0:0:0:
217,314,64673,1,8,0:0:0:0:
389,352,64880,1,8,0:0:0:0:
307,328,65087,1,8,0:0:0:0:
321,338,65191,1,0,0:0:0:0:
280,338,65294,1,8,0:0:0:0:
241,321,65398,1,0,0:0:0:0:
237,317,65501,1,0,0:0:0:0:
310,307,65708,1,8,0:0:0:0:
412,348,65915,1,0,0:0:0:0:
412,348,66018,1,0,0:0:0:0:
412,348,66122,1,8,0:0:0:0:
328,335,66329,1,8,0:0:0:0:
342,320,66536,1,8,0:0:0:0:
342,320,66742,1,4,0:0:0:0:
133,303,66949,1,8,0:0:0:0:
166,290,67053,1,0,0:0:0:0:
240,297,67156,1,8,0:0:0:0:
264,340,67260,1,8,0:0:0:0:
264,340,67363,1,0,0:0:0:0:
277,320,67570,1,0,0:0:0:0:
280,350,67673,1,8,0:0:0:0:
182,312,67777,1,8,0:0:0:0:
166,301,67984,1,8,0:0:0:0:
291,339,68087,1,8,0:0:0:0:
291,339,68191,1,8,0:0:0:0:
187,240,68398,1,0,0:0:0:0:
215,310,68501,1,8,0:0:0:0:
207,303,68604,1,0,0:0:0:0:
193,276,68708,1,8,0:0:0:0:
196,250,68811,1,0,0:0:0:0:
254,252,69018,1,0,0:0:0:0:
254,252,69122,1,8,0:0:0:0:
254,252,69225,1,8,0:0:0:0:
235,311,69329,1,0,0:0:0:0:
235,311,69432,1,8,0:0:0:0:
287,305,69536,1,8,0:0:0:0:
206,297,69639,1,8,0:0:0:0:
140,272,69846,1,0,0:0:0:0:
232,276,70053,1,0,0:0:0:0:
224,241,70260,1,8,0:0:0:0:
225,272,70363,1,8,0:0:0:0:
219,298,70467,1,0,0:0:0:0:
220,317,70570,1,8,0:0:0:0:
220,317,70673,1,0,0:0:0:0:
302,303,70777,1,8,0:0:0:0:
302,303,70880,1,0,0:0:0:0:
222,330,71087,1,8,0:0:0:0:
223,316,71294,1,8,0:0:0:0:
223,316,71398,1,0,0:0:0:0:
202,293,71604,1,0,0:0:0:0:
213,315,71708,1,8,0:0:0:0:
182,327,71915,1,8,0:0:0:0:
182,327,72018,1,8,0:0:0:0:
171,300,72122,1,0,0:0:0:0:
243,298,72225,1,0,0:0:0:0:
259,307,72329,1,8,0:0:0:0:
343,103,72432,1,8,0:0:0:0:
260,310,72536,1,8,0:0:0:0:
196,296,72742,1,0,0:0:0:0:
171,228,72949,1,0,0:0:0:0:
308,282,73053,1,8,0:0:0:0:
313,272,73156,1,8,0:0:0:0:
185,319,73363,1,8,0:0:0:0:
287,341,73467,1,0,0:0:0:0:
163,309,73570,1,8,0:0:0:0:
232,338,73673,1,8,0:0:0:0:
263,342,73777,1,0,0:0:0:0:
263,341,73984,1,8,0:0:0:0:
262,337,74087,1,8,0:0:0:0:
262,337,74191,1,0,0:0:0:0:
241,346,74294,1,0,0:0:0:0:
241,346,74398,1,0,0:0:0:0:
231,300,74604,1,8,0:0:0:0:
231,300,74708,1,8,0:0:0:0:
231,300,74811,1,0,0:0:0:0:
231,300,75018,1,8,0:0:0:0:
231,300,75225,1,0,0:0:0:0:
231,300,75432,1,8,0:0:0:0:
197,291,75536,1,0,0:0:0:0:
197,291,75639,1,8,0:0:0:0:
194,295,75846,1,8,0:0:0:0:
285,310,76053,1,0,0:0:0:0:
231,341,76260,1,8,0:0:0:0:
292,335,76363,1,8,0:0:0:0:
282,327,76467,1,8,0:0:0:0:
249,308,76673,1,0,0:0:0:0:
248,274,76880,1,8,0:0:0:0:
262,326,76984,1,0,0:0:0:0:
225,322,77087,1,8,0:0:0:0:
175,286,77191,1,8,0:0:0:0:
175,286,77294,1,0,0:0:0:0:
244,299,77501,1,8,0:0:0:0:
244,305,77708,1,8,0:0:0:0:
195,320,77915,1,0,0:0:0:0:
275,289,78018,1,0,0:0:0:0:
290,322,78122,1,8,0:0:0:0:
290,322,79984,1,4,0:0:0:0:
237,345,80191,1,8,0:0:0:0:
237,345,80294,1,8,0:0:0:0:
217,306,80398,1,0,0:0:0:0:
217,306,80501,1,0,0:0:0:0:
228,299,80604,1,8,0:0:0:0:
244,300,80811,1,0,0:0:0:0:
244,300,80915,1,8,0:0:0:0:
244,300,81018,1,8,0:0:0:0:
244,300,81225,1,0,0:0:0:0:
300,321,81329,1,8,0:0:0:0:
247,300,81432,1,0,0:0:0:0:
254,302,81536,1,8,0:0:0:0:
255,302,81639,1,0,0:0:0:0:
300,321,81846,1,8,0:0:0:0:
291,316,82053,1,0,0:0:0:0:
300,321,82156,1,8,0:0:0:0:
245,293,82260,1,8,0:0:0:0:
204,306,82467,1,8,0:0:0:0:
204,306,82570,1,8,0:0:0:0:
204,306,82673,1,0,0:0:0:0:
204,306,82777,1,0,0:0:0:0:
204,306,82880,1,8,0:0:0:0:
204,300,83087,1,8,0:0:0:0:
209,280,83191,1,0,0:0:0:0:
209,280,83294,1,0,0:0:0:0:
210,277,83501,1,8,0:0:0:0:
337,379,83604,1,0,0:0:0:0:
322,256,83708,1,8,0:0:0:0:
346,315,83915,1,8,0:0:0:0:
197,237,84122,1,0,0:0:0:0:
247,203,84329,1,0,0:0:0:0:
279,303,84432,1,8,0:0:0:0:
279,303,84536,1,8,0:0:0:0:
236,316,84742,1,8,0:0:0:0:
236,316,84846,1,0,0:0:0:0:
216,288,84949,1,8,0:0:0:0:
216,288,85156,1,8,0:0:0:0:
216,288,85363,1,0,0:0:0:0:
216,288,85467,1,0,0:0:0:0:
216,288,85570,1,8,0:0:0:0:
218,292,85673,1,8,0:0:0:0:
218,294,85777,1,0,0:0:0:0:
219,298,85984,1,0,0:0:0:0:
294,154,86087,1,8,0:0:0:0:
219,298,86191,1,0,0:0:0:0:
297,207,86294,1,8,0:0:0:0:
295,213,86398,1,8,0:0:0:0:
292,293,86604,1,8,0:0:0:0:
232,319,86708,1,0,0:0:0:0:
232,319,86811,1,8,0:0:0:0:
255,288,87018,1,0,0:0:0:0:
261,313,87122,1,8,0:0:0:0:
261,313,87225,1,8,0:0:0:0:
247,316,87329,1,0,0:0:0:0:
232,302,87432,1,8,0:0:0:0:
233,301,87639,1,8,0:0:0:0:
233,301,87846,1,0,0:0:0:0:
234,305,87949,1,0,0:0:0:0:
232,308,88053,1,8,0:0:0:0:
232,308,88156,1,8,0:0:0:0:
232,308,88260,1,0,0:0:0:0:
211,220,88467,1,8,0:0:0:0:
217,222,88673,1,8,0:0:0:0:
322,289,88880,1,0,0:0:0:0:
305,305,88984,1,8,0:0:0:0:
295,313,89087,1,8,0:0:0:0:
264,305,89191,1,0,0:0:0:0:
248,299,89294,1,0,0:0:0:0:
304,293,89501,1,8,0:0:0:0:
345,312,89604,1,8,0:0:0:0:
289,307,89708,1,8,0:0:0:0:
289,307,89811,1,0,0:0:0:0:
277,308,89915,1,8,0:0:0:0:
304,266,90122,1,8,0:0:0:0:
345,312,90225,1,8,0:0:0:0:
280,275,90329,1,0,0:0:0:0:
300,253,90432,1,8,0:0:0:0:
300,253,90536,1,0,0:0:0:0:
229,244,90742,1,8,0:0:0:0:
266,300,90949,1,0,0:0:0:0:
264,302,91053,1,8,0:0:0:0:
235,293,91156,1,0,0:0:0:0:
235,293,91260,1,8,0:0:0:0:
260,278,91363,1,8,0:0:0:0:
281,285,91570,1,8,0:0:0:0:
276,300,91777,1,8,0:0:0:0:
273,304,91880,1,8,0:0:0:0:
273,304,91984,1,0,0:0:0:0:
369,336,92087,1,0,0:0:0:0:
369,336,92191,1,8,0:0:0:0:
314,301,92294,1,8,0:0:0:0:
369,336,92398,1,0,0:0:0:0:
251,286,92604,1,8,0:0:0:0:
303,315,92811,1,0,0:0:0:0:
314,328,93018,1,0,0:0:0:0:
247,303,93225,1,4,0:0:0:0:
247,299,93432,1,8,0:0:0:0:
264,270,93536,1,8,0:0:0:0:
264,270,93639,1,0,0:0:0:0:
264,270,93846,1,0,0:0:0:0:
264,270,93949,1,0,0:0:0:0:
299,364,94053,1,8,0:0:0:0:
212,335,94260,1,8,0:0:0:0:
272,359,94467,1,8,0:0:0:0:
272,359,94570,1,8,0:0:0:0:
267,357,94673,1,8,0:0:0:0:
265,354,94880,1,0,0:0:0:0:
230,306,95087,1,8,0:0:0:0:
364,326,95191,1,0,0:0:0:0:
362,331,95294,1,0,0:0:0:0:
324,308,95398,1,8,0:0:0:0:
319,313,95501,1,8,0:0:0:0:
272,310,95708,1,8,0:0:0:0:
272,310,95811,1,0,0:0:0:0:
272,310,96018,1,0,0:0:0:0:
272,310,96122,1,8,0:0:0:0:
251,318,96329,1,0,0:0:0:0:
251,318,96432,1,8,0:0:0:0:
251,318,96536,1,8,0:0:0:0:
253,311,96742,1,8,0:0:0:0:
261,309,96949,1,0,0:0:0:0:
261,309,97156,1,0,0:0:0:0:
286,331,97363,1,0,0:0:0:0:
241,331,97467,1,8,0:0:0:0:
219,331,97570,1,0,0:0:0:0:
378,295,97673,1,8,0:0:0:0:
343,325,97777,1,0,0:0:0:0:
199,282,97984,1,8,0:0:0:0:
298,256,98191,1,0,0:0:0:0:
238,335,98294,1,8,0:0:0:0:
238,335,98398,1,8,0:0:0:0:
235,321,98604,1,0,0:0:0:0:
356,331,98708,1,8,0:0:0:0:
259,318,98811,1,0,0:0:0:0:
356,331,99018,1,0,0:0:0:0:
218,309,99122,1,8,0:0:0:0:
218,309,99225,1,8,0:0:0:0:
249,335,99432,1,0,0:0:0:0:
248,335,99536,1,8,0:0:0:0:
248,335,99639,1,0,0:0:0:0:
248,335,99742,1,8,0:0:0:0:
248,335,99846,1,0,0:0:0:0:
211,304,100053,1,8,0:0:0:0:
209,303,100156,1,8,0:0:0:0:
272,280,100260,1,0,0:0:0:0:
189,335,100467,1,8,0:0:0:0:
189,335,100570,1,8,0:0:0:0:
189,335,100673,1,0,0:0:0:0:
349,323,100777,1,0,0:0:0:0:
319,321,100880,1,8,0:0:0:0:
238,295,101087,1,8,0:0:0:0:
238,295,101294,1,8,0:0:0:0:
294,247,101501,1,0,0:0:0:0:
292,254,101604,1,8,0:0:0:0:
313,214,101708,1,8,0:0:0:0:
359,263,101811,1,8,0:0:0:0:
315,289,101915,1,0,0:0:0:0:
315,289,102018,1,8,0:0:0:0:
315,289,102122,1,0,0:0:0:0:
320,305,102225,1,8,0:0:0:0:
205,321,102329,1,8,0:0:0:0:
237,313,102536,1,0,0:0:0:0:
225,329,102639,1,8,0:0:0:0:
196,321,102742,1,8,0:0:0:0:
370,379,102949,1,8,0:0:0:0:
294,341,103156,1,0,0:0:0:0:
255,351,103363,1,8,0:0:0:0:
237,324,103570,1,8,0:0:0:0:
280,353,103984,1,0,0:0:0:0:
258,312,104191,1,8,0:0:0:0:
235,343,104294,1,8,0:0:0:0:
224,345,104398,1,0,0:0:0:0:
221,342,104501,1,8,0:0:0:0:
220,342,104604,1,8,0:0:0:0:
218,341,104811,1,0,0:0:0:0:
218,341,105018,1,0,0:0:0:0:
218,341,105122,1,8,0:0:0:0:
218,340,105225,1,8,0:0:0:0:
394,361,105329,1,0,0:0:0:0:
234,311,105432,1,8,0:0:0:0:
394,361,105536,1,8,0:0:0:0:
394,361,105639,1,0,0:0:0:0:
215,297,105846,1,0,0:0:0:0:
215,297,105949,1,8,0:0:0:0:
215,297,106053,1,8,0:0:0:0:
345,318,106260,1,8,0:0:0:0:
345,318,106467,1,4,0:0:0:0:
345,318,106673,1,8,0:0:0:0:
345,318,106777,1,0,0:0:0:0:
345,318,106880,1,8,0:0:0:0:
182,325,107087,1,8,0:0:0:0:
292,317,107294,1,0,0:0:0:0:
292,317,107501,1,0,0:0:0:0:
262,344,107604,1,8,0:0:0:0:
254,346,107708,1,0,0:0:0:0:
202,328,107811,1,8,0:0:0:0:
202,328,107915,1,8,0:0:0:0:
223,323,108018,1,8,0:0:0:0:
199,324,108122,1,0,0:0:0:0:
160,335,108329,1,8,0:0:0:0:
160,335,108432,1,8,0:0:0:0:
227,331,108536,1,0,0:0:0:0:
232,331,108742,1,8,0:0:0:0:
363,377,108846,1,8,0:0:0:0:
232,331,108949,1,0,0:0:0:0:
312,336,109156,1,8,0:0:0:0:
312,336,109260,1,8,0:0:0:0:
312,336,109363,1,8,0:0:0:0:
279,324,109570,1,8,0:0:0:0:
279,324,109673,1,8,0:0:0:0:
279,324,109777,1,0,0:0:0:0:
294,212,109984,1,8,0:0:0:0:
297,337,110087,1,0,0:0:0:0:
222,234,110191,1,8,0:0:0:0:
271,338,110398,1,8,0:0:0:0:
261,326,110604,1,0,0:0:0:0:
225,281,110708,1,8,0:0:0:0:
300,238,110811,1,0,0:0:0:0:
215,281,110915,1,8,0:0:0:0:
215,281,111018,1,0,0:0:0:0:
258,353,111122,1,8,0:0:0:0:
323,261,111225,1,8,0:0:0:0:
207,241,111329,1,8,0:0:0:0:
245,255,111432,1,0,0:0:0:0:
160,285,111639,1,8,0:0:0:0:
135,269,111742,1,8,0:0:0:0:
300,282,111846,1,0,0:0:0:0:
278,281,111949,1,8,0:0:0:0:
231,266,112053,1,8,0:0:0:0:
228,264,112156,1,0,0:0:0:0:
228,264,112260,1,0,0:0:0:0:
229,261,112467,1,8,0:0:0:0:
229,261,112570,1,8,0:0:0:0:
335,283,112673,1,0,0:0:0:0:
202,336,112777,1,8,0:0:0:0:
202,336,112880,1,8,0:0:0:0:
289,240,112984,1,8,0:0:0:0:
320,193,113087,1,0,0:0:0:0:
320,193,113294,1,0,0:0:0:0:
284,227,113398,1,8,0:0:0:0:
284,227,113501,1,0,0:0:0:0:
251,261,113708,1,8,0:0:0:0:
219,250,113915,1,0,0:0:0:0:
267,280,114122,1,8,0:0:0:0:
260,286,114225,1,8,0:0:0:0:
247,285,114329,1,0,0:0:0:0:
239,273,114432,1,0,0:0:0:0:
239,273,114536,1,8,0:0:0:0:
296,334,114639,1,8,0:0:0:0:
290,337,114742,1,0,0:0:0:0:
212,339,114949,1,8,0:0:0:0:
105,258,115053,1,8,0:0:0:0:
131,220,115156,1,0,0:0:0:0:
212,261,115260,1,8,0:0:0:0:
212,298,115363,1,0,0:0:0:0:
351,336,115467,1,8,0:0:0:0:
212,298,115570,1,0,0:0:0:0:
351,336,115777,1,0,0:0:0:0:
259,304,115880,1,8,0:0:0:0:
259,304,115984,1,8,0:0:0:0:
268,304,116087,1,0,0:0:0:0:
269,311,116191,1,8,0:0:0:0:
267,314,116294,1,8,0:0:0:0:
287,279,116398,1,0,0:0:0:0:
257,274,116604,1,8,0:0:0:0:
242,253,116708,1,8,0:0:0:0:
274,219,116811,1,0,0:0:0:0:
282,258,116915,1,8,0:0:0:0:
283,269,117018,1,8,0:0:0:0:
283,270,117225,1,0,0:0:0:0:
283,270,117329,1,8,0:0:0:0:
283,270,117432,1,0,0:0:0:0:
283,270,117536,1,8,0:0:0:0:
289,273,117639,1,0,0:0:0:0:
291,274,117846,1,0,0:0:0:0:
291,274,117949,1,0,0:0:0:0:
291,274,118053,1,8,0:0:0:0:
259,362,118260,1,8,0:0:0:0:
222,319,118363,1,8,0:0:0:0:
241,353,118467,1,0,0:0:0:0:
205,272,118570,1,8,0:0:0:0:
205,272,118673,1,0,0:0:0:0:
214,272,118880,1,0,0:0:0:0:
214,272,118984,1,8,0:0:0:0:
214,272,119087,1,8,0:0:0:0:
293,332,119191,1,0,0:0:0:0:
293,332,119294,1,0,0:0:0:0:
293,337,119398,1,8,0:0:0:0:
293,339,119501,1,8,0:0:0:0:
293,339,119708,1,4,0:0:0:0:
150,339,119915,1,8,0:0:0:0:
155,272,120018,1,0,0:0:0:0:
232,257,120122,1,0,0:0:0:0:
257,286,120225,1,8,0:0:0:0:
257,313,120329,1,8,0:0:0:0:
263,329,120536,1,0,0:0:0:0:
225,343,120639,1,8,0:0:0:0:
225,343,120742,1,0,0:0:0:0:
225,343,120846,1,8,0:0:0:0:
235,341,120949,1,0,0:0:0:0:
254,346,121053,1,8,0:0:0:0:
254,346,121156,1,8,0:0:0:0:
254,346,121363,1,0,0:0:0:0:
277,303,121570,1,8,0:0:0:0:
272,312,121673,1,0,0:0:0:0:
270,317,121777,1,0,0:0:0:0:
274,279,121880,1,8,0:0:0:0:
270,317,121984,1,8,0:0:0:0:
274,279,122087,1,8,0:0:0:0:
224,336,122191,1,0,0:0:0:0:
224,336,122294,1,8,0:0:0:0:
224,336,122398,1,8,0:0:0:0:
224,336,122604,1,0,0:0:0:0:
213,324,122811,1,0,0:0:0:0:
213,324,122915,1,8,0:0:0:0:
213,324,123018,1,0,0:0:0:0:
299,295,123225,1,8,0:0:0:0:
299,295,123329,1,8,0:0:0:0:
299,295,123432,1,0,0:0:0:0:
241,333,123639,1,0,0:0:0:0:
303,182,123742,1,8,0:0:0:0:
241,333,123846,1,0,0:0:0:0:
207,316,123949,1,8,0:0:0:0:
207,316,124053,1,8,0:0:0:0:
231,281,124156,1,8,0:0:0:0:
207,316,124260,1,0,0:0:0:0:
220,294,124467,1,8,0:0:0:0:
243,302,124570,1,8,0:0:0:0:
241,304,124673,1,0,0:0:0:0:
231,269,124880,1,8,0:0:0:0:
257,286,124984,1,0,0:0:0:0:
260,292,125087,1,8,0:0:0:0:
260,295,125294,1,8,0:0:0:0:
260,295,125398,1,8,0:0:0:0:
260,295,125501,1,8,0:0:0:0:
260,297,125708,1,0,0:0:0:0:
260,297,125811,1,8,0:0:0:0:
260,297,125915,1,0,0:0:0:0:
260,299,126018,1,8,0:0:0:0:
260,301,126122,1,8,0:0:0:0:
169,288,126329,1,0,0:0:0:0:
169,288,126536,1,8,0:0:0:0:
178,288,126639,1,8,0:0:0:0:
231,296,126742,1,0,0:0:0:0:
242,304,126846,1,8,0:0:0:0:
244,312,126949,1,0,0:0:0:0:
230,314,127156,1,8,0:0:0:0:
230,314,127260,1,8,0:0:0:0:
230,314,127363,1,8,0:0:0:0:
230,314,127467,1,0,0:0:0:0:
230,314,127570,1,0,0:0:0:0:
230,314,127777,1,8,0:0:0:0:
230,314,127880,1,8,0:0:0:0:
230,314,127984,1,0,0:0:0:0:
140,259,128191,1,8,0:0:0:0:
332,343,128294,1,0,0:0:0:0:
229,268,128398,1,0,0:0:0:0:
242,288,128501,1,8,0:0:0:0:
245,300,128604,1,8,0:0:0:0:
168,297,128811,1,0,0:0:0:0:
168,297,128915,1,8,0:0:0:0:
207,284,129018,1,8,0:0:0:0:
240,292,129122,1,0,0:0:0:0:
247,301,129225,1,0,0:0:0:0:
248,301,129432,1,8,0:0:0:0:
248,301,129536,1,0,0:0:0:0:
245,300,129639,1,8,0:0:0:0:
186,294,129846,1,8,0:0:0:0:
186,294,129949,1,0,0:0:0:0:
186,294,130053,1,8,0:0:0:0:
186,294,130156,1,8,0:0:0:0:
186,294,130260,1,0,0:0:0:0:
186,294,130467,1,8,0:0:0:0:
314,304,130673,1,8,0:0:0:0:
313,320,130777,1,8,0:0:0:0:
309,333,130880,1,0,0:0:0:0:
269,337,131087,1,8,0:0:0:0:
245,333,131191,1,8,0:0:0:0:
222,323,131294,1,8,0:0:0:0:
222,323,131501,1,8,0:0:0:0:
249,326,131604,1,8,0:0:0:0:
249,326,131708,1,0,0:0:0:0:
249,326,131915,1,8,0:0:0:0:
249,326,132018,1,0,0:0:0:0:
249,326,132122,1,8,0:0:0:0:
311,334,132329,1,8,0:0:0:0:
311,334,132536,1,8,0:0:0:0:
311,334,132742,1,0,0:0:0:0:
233,301,132949,1,4,0:0:0:0:
280,364,133156,1,8,0:0:0:0:
228,322,133363,1,8,0:0:0:0:
254,324,133570,1,8,0:0:0:0:
254,324,133673,1,0,0:0:0:0:
254,324,133777,1,8,0:0:0:0:
254,324,133880,1,8,0:0:0:0:
254,324,133984,1,0,0:0:0:0:
265,315,134087,1,0,0:0:0:0:
254,324,134191,1,8,0:0:0:0:
254,324,134398,1,8,0:0:0:0:
254,324,134501,1,8,0:0:0:0:
254,324,134604,1,0,0:0:0:0:
195,295,134811,1,8,0:0:0:0:
302,306,135018,1,8,0:0:0:0:
276,348,135225,1,8,0:0:0:0:
276,348,135329,1,8,0:0:0:0:
264,338,135432,1,0,0:0:0:0:
263,336,135536,1,8,0:0:0:0:
263,336,135639,1,0,0:0:0:0:
271,334,135846,1,8,0:0:0:0:
342,337,136053,1,0,0:0:0:0:
342,337,136156,1,8,0:0:0:0:
342,337,136260,1,0,0:0:0:0:
231,307,136467,1,8,0:0:0:0:
351,299,136673,1,8,0:0:0:0:
211,326,136880,1,8,0:0:0:0:
202,293,136984,1,0,0:0:0:0:
256,262,137087,1,8,0:0:0:0:
326,286,137191,1,8,0:0:0:0:
332,308,137294,1,0,0:0:0:0:
218,280,137501,1,8,0:0:0:0:
227,271,137708,1,8,0:0:0:0:
228,271,137811,1,8,0:0:0:0:
265,280,137915,1,0,0:0:0:0:
275,286,138122,1,0,0:0:0:0:
204,284,138329,1,8,0:0:0:0:
278,310,138536,1,8,0:0:0:0:
270,317,138639,1,8,0:0:0:0:
267,318,138742,1,0,0:0:0:0:
267,318,138846,1,8,0:0:0:0:
267,318,138949,1,0,0:0:0:0:
285,302,139053,1,0,0:0:0:0:
205,297,139156,1,8,0:0:0:0:
296,298,139363,1,8,0:0:0:0:
296,298,139467,1,8,0:0:0:0:
298,301,139570,1,0,0:0:0:0:
296,298,139673,1,0,0:0:0:0:
296,298,139777,1,8,0:0:0:0:
189,277,139984,1,8,0:0:0:0:
299,303,140191,1,8,0:0:0:0:
299,303,140294,1,0,0:0:0:0:
297,307,140398,1,8,0:0:0:0:
297,308,140501,1,8,0:0:0:0:
297,308,140604,1,0,0:0:0:0:
221,298,140811,1,8,0:0:0:0:
304,284,141018,1,8,0:0:0:0:
309,296,141122,1,8,0:0:0:0:
310,302,141225,1,0,0:0:0:0:
310,302,141432,1,8,0:0:0:0:
310,302,141536,1,0,0:0:0:0:
310,302,141639,1,8,0:0:0:0:
207,281,141846,1,8,0:0:0:0:
207,281,141949,1,8,0:0:0:0:
207,281,142053,1,0,0:0:0:0:
228,282,142156,1,8,0:0:0:0:
232,283,142260,1,0,0:0:0:0:
232,261,142363,1,0,0:0:0:0:
266,325,142467,1,8,0:0:0:0:
255,326,142673,1,8,0:0:0:0:
255,325,142777,1,8,0:0:0:0:
255,325,142880,1,0,0:0:0:0:
279,326,143087,1,0,0:0:0:0:
280,326,143294,1,8,0:0:0:0:
280,326,143501,1,8,0:0:0:0:
280,326,143604,1,0,0:0:0:0:
280,326,143708,1,8,0:0:0:0:
280,326,143811,1,8,0:0:0:0:
280,326,143915,1,0,0:0:0:0:
273,304,144018,1,0,0:0:0:0:
152,296,144122,1,8,0:0:0:0:
300,286,144329,1,8,0:0:0:0:
302,299,144432,1,8,0:0:0:0:
303,302,144536,1,0,0:0:0:0:
303,305,144742,1,8,0:0:0:0:
298,307,144846,1,0,0:0:0:0:
226,298,144949,1,8,0:0:0:0:
226,298,145156,1,8,0:0:0:0:
226,298,145260,1,8,0:0:0:0:
259,257,145363,1,0,0:0:0:0:
292,254,145467,1,8,0:0:0:0:
310,276,145570,1,0,0:0:0:0:
245,305,145777,1,8,0:0:0:0:
210,285,145984,1,8,0:0:0:0:
219,277,146191,1,0,0:0:0:0:
253,279,146398,1,8,0:0:0:0:
272,288,146501,1,0,0:0:0:0:
276,290,146604,1,8,0:0:0:0:
276,290,146811,1,8,0:0:0:0:
276,290,146915,1,0,0:0:0:0:
276,291,147018,1,8,0:0:0:0:
261,312,147122,1,8,0:0:0:0:
252,318,147225,1,0,0:0:0:0:
249,299,147329,1,0,0:0:0:0:
175,300,147432,1,8,0:0:0:0:
248,271,147639,1,8,0:0:0:0:
259,278,147742,1,8,0:0:0:0:
264,305,147846,1,0,0:0:0:0:
176,291,148053,1,0,0:0:0:0:
283,289,148260,1,8,0:0:0:0:
316,305,148467,1,8,0:0:0:0:
316,305,148570,1,8,0:0:0:0:
316,305,148673,1,0,0:0:0:0:
317,310,148777,1,8,0:0:0:0:
317,310,148880,1,0,0:0:0:0:
317,310,149087,1,8,0:0:0:0:
209,296,149294,1,8,0:0:0:0:
224,292,149398,1,8,0:0:0:0:
257,297,149501,1,0,0:0:0:0:
282,305,149708,1,8,0:0:0:0:
268,325,149915,1,8,0:0:0:0:
238,314,150122,1,8,0:0:0:0:
238,310,150225,1,0,0:0:0:0:
261,302,150329,1,8,0:0:0:0:
287,301,150432,1,8,0:0:0:0:
288,301,150536,1,0,0:0:0:0:
288,301,150742,1,8,0:0:0:0:
221,301,150949,1,8,0:0:0:0:
220,306,151053,1,8,0:0:0:0:
227,321,151156,1,0,0:0:0:0:
293,333,151363,1,0,0:0:0:0:
279,330,151570,1,8,0:0:0:0:
307,307,151777,1,8,0:0:0:0:
333,310,151880,1,8,0:0:0:0:
323,331,151984,1,0,0:0:0:0:
276,332,152087,1,8,0:0:0:0:
243,305,152191,1,0,0:0:0:0:
241,290,152294,1,0,0:0:0:0:
238,315,152398,1,8,0:0:0:0:
334,270,152604,1,8,0:0:0:0:
341,315,152708,1,8,0:0:0:0:
328,334,152811,1,0,0:0:0:0:
248,312,153018,1,0,0:0:0:0:
248,312,153225,1,8,0:0:0:0:
342,268,153432,1,8,0:0:0:0:
349,302,153536,1,0,0:0:0:0:
331,320,153639,1,8,0:0:0:0:
284,312,153742,1,8,0:0:0:0:
276,308,153846,1,0,0:0:0:0:
323,293,154053,1,8,0:0:0:0:
320,302,154260,1,8,0:0:0:0:
320,302,154363,1,8,0:0:0:0:
320,302,154467,1,0,0:0:0:0:
214,256,154673,1,0,0:0:0:0:
329,259,154880,1,8,0:0:0:0:
317,289,155087,1,8,0:0:0:0:
313,291,155191,1,8,0:0:0:0:
300,290,155294,1,0,0:0:0:0:
300,290,155398,1,8,0:0:0:0:
300,290,155501,1,0,0:0:0:0:
297,274,155604,1,0,0:0:0:0:
300,290,155708,1,8,0:0:0:0:
300,290,155915,1,8,0:0:0:0:
300,290,156018,1,8,0:0:0:0:
300,290,156122,1,0,0:0:0:0:
204,244,156329,1,8,0:0:0:0:
247,235,156432,1,0,0:0:0:0:
321,262,156536,1,8,0:0:0:0:
267,302,156742,1,8,0:0:0:0:
252,298,156846,1,0,0:0:0:0:
234,280,156949,1,8,0:0:0:0:
237,270,157053,1,8,0:0:0:0:
241,267,157156,1,0,0:0:0:0:
298,271,157363,1,8,0:0:0:0:
292,292,157570,1,8,0:0:0:0:
291,292,157673,1,8,0:0:0:0:
291,292,157777,1,0,0:0:0:0:
291,292,157880,1,0,0:0:0:0:
291,292,157984,1,8,0:0:0:0:
291,292,158191,1,8,0:0:0:0:
227,267,158398,1,8,0:0:0:0:
249,258,158501,1,0,0:0:0:0:
324,276,158604,1,8,0:0:0:0:
324,276,158708,1,8,0:0:0:0:
324,276,158811,1,0,0:0:0:0:
314,285,159018,1,8,0:0:0:0:
306,286,159225,1,0,0:0:0:0:
232,270,159432,1,4,0:0:0:0:
307,274,159639,1,8,0:0:0:0:
293,273,159846,1,8,0:0:0:0:
307,274,160053,1,0,0:0:0:0:
293,273,160467,1,0,0:0:0:0:
293,273,160673,1,8,0:0:0:0:
285,272,161087,1,0,0:0:0:0:
354,270,161294,1,0,0:0:0:0:
249,262,161501,1,8,0:0:0:0:
354,270,161708,1,0,0:0:0:0:
249,262,162122,1,0,0:0:0:0:
257,343,162329,1,8,0:0:0:0:
257,343,162742,1,8,0:0:0:0:
307,281,162949,1,0,0:0:0:0:
230,287,163156,1,8,0:0:0:0:
338,311,163363,1,0,0:0:0:0:
264,299,163777,1,0,0:0:0:0:
253,295,163984,1,8,0:0:0:0:
228,282,164398,1,0,0:0:0:0:
337,311,164604,1,0,0:0:0:0:
266,285,164811,1,8,0:0:0:0:
361,313,165018,1,0,0:0:0:0:
258,298,165432,1,0,0:0:0:0:
257,298,165639,1,8,0:0:0:0:
228,285,166053,1,8,0:0:0:0:
354,312,166260,1,0,0:0:0:0:
273,278,166467,1,8,0:0:0:0:
354,312,166673,1,0,0:0:0:0:
273,278,167087,1,0,0:0:0:0:
273,278,167294,1,8,0:0:0:0:
177,249,167708,1,0,0:0:0:0:
393,314,167915,1,0,0:0:0:0:
213,252,168122,1,8,0:0:0:0:
393,314,168329,1,0,0:0:0:0:
369,297,168742,1,0,0:0:0:0:
356,298,168949,1,8,0:0:0:0:
260,287,169363,1,8,0:0:0:0:
372,311,169570,1,0,0:0:0:0:
239,276,169777,1,8,0:0:0:0:
368,311,169984,1,0,0:0:0:0:
165,292,170398,1,0,0:0:0:0:
165,292,170604,1,8,0:0:0:0:
280,275,171018,1,0,0:0:0:0:
354,314,171225,1,0,0:0:0:0:
258,317,171432,1,8,0:0:0:0:
354,314,171639,1,0,0:0:0:0:
193,295,172053,1,0,0:0:0:0:
192,289,172260,1,8,0:0:0:0:
224,268,172673,1,8,0:0:0:0:
259,176,172880,1,0,0:0:0:0:
225,292,173087,1,8,0:0:0:0:
319,345,173294,1,0,0:0:0:0:
307,303,173708,1,0,0:0:0:0:
307,303,173915,1,8,0:0:0:0:
234,292,174329,1,0,0:0:0:0:
326,301,174536,1,0,0:0:0:0:
234,292,174742,1,8,0:0:0:0:
326,301,174949,1,0,0:0:0:0:
243,261,175363,1,0,0:0:0:0:
243,261,175570,1,8,0:0:0:0:
216,267,175984,1,8,0:0:0:0:
326,301,176191,1,0,0:0:0:0:
207,265,176398,1,8,0:0:0:0:
326,301,176604,1,0,0:0:0:0:
346,291,177018,1,0,0:0:0:0:
346,291,177225,1,8,0:0:0:0:
271,275,177639,1,0,0:0:0:0:
326,301,177846,1,0,0:0:0:0:
217,263,178053,1,8,0:0:0:0:
326,301,178260,1,0,0:0:0:0:
211,262,178673,1,0,0:0:0:0:
211,262,178880,1,8,0:0:0:0:
217,318,179294,1,8,0:0:0:0:
326,301,179501,1,0,0:0:0:0:
217,318,179708,1,8,0:0:0:0:
373,269,179915,1,0,0:0:0:0:
334,304,180329,1,0,0:0:0:0:
334,304,180536,1,8,0:0:0:0:
224,331,180949,1,0,0:0:0:0:
255,346,181156,1,8,0:0:0:0:
371,270,181363,1,0,0:0:0:0:
249,342,181570,1,0,0:0:0:0:
382,302,181984,1,0,0:0:0:0:
346,305,182191,1,8,0:0:0:0:
280,296,182604,1,0,0:0:0:0:
280,296,182811,1,8,0:0:0:0:
354,268,183018,1,0,0:0:0:0:
280,296,183225,1,0,0:0:0:0:
280,296,183639,1,0,0:0:0:0:
280,296,183846,1,8,0:0:0:0:
251,279,184260,1,0,0:0:0:0:
354,268,184467,1,0,0:0:0:0:
322,285,184673,1,8,0:0:0:0:
322,285,184880,1,0,0:0:0:0:
294,284,185294,1,0,0:0:0:0:
262,284,185501,1,12,0:0:0:0:
