osu file format v14

[General]
AudioFilename: cranky - The Five.mp3
AudioLeadIn: 0
PreviewTime: 35510
Countdown: 0
SampleSet: Normal
StackLeniency: 0.7
Mode: 1
LetterboxInBreaks: 0
WidescreenStoryboard: 0

[Editor]
DistanceSpacing: 1
BeatDivisor: 4
GridSize: 8
TimelineZoom: 0.8999997

[Metadata]
Title:The Five [Short Edit]
TitleUnicode:The Five [Short Edit]
Artist:cranky
ArtistUnicode:cranky
Creator:Nofool
Version:Kantan
Source:BMS
Tags:TimmyAkmed
BeatmapID:666374
BeatmapSetID:296842

[Difficulty]
HPDrainRate:8
CircleSize:2
OverallDifficulty:3.5
ApproachRate:5
SliderMultiplier:1.4
SliderTickRate:1

[Events]
//Background and Video events
0,0,"The Five.jpg",0,0
//Break Periods
//Storyboard Layer 0 (Background)
//Storyboard Layer 1 (Fail)
//Storyboard Layer 2 (Pass)
//Storyboard Layer 3 (Foreground)
//Storyboard Sound Samples

[TimingPoints]
1010,375,4,1,0,80,1,0
37010,-100,4,1,0,80,0,1
49010,-100,4,1,0,80,0,0
61760,-100,4,1,0,50,0,0
73010,-100,4,1,0,80,0,0
109010,-100,4,1,0,80,0,1
121947,-100,4,1,0,80,0,0
123260,-100,4,1,0,70,0,0
124572,-100,4,1,0,60,0,0
125885,-100,4,1,0,50,0,0
127197,-100,4,1,0,40,0,0

[HitObjects]
255,192,1010,5,4,0:0:0:0:
255,192,2510,1,0,0:0:0:0:
255,192,3635,1,8,0:0:0:0:
255,192,4010,1,0,0:0:0:0:
255,192,5510,1,0,0:0:0:0:
255,192,6635,1,8,0:0:0:0:
255,192,7010,1,4,0:0:0:0:
255,192,8510,1,0,0:0:0:0:
255,192,9635,1,8,0:0:0:0:
255,192,10010,1,0,0:0:0:0:
255,192,11510,1,0,0:0:0:0:
255,192,12260,1,0,0:0:0:0:
255,192,12635,1,8,0:0:0:0:
255,192,13010,1,12,0:0:0:0:
255,192,13760,1,0,0:0:0:0:
255,192,14510,1,8,0:0:0:0:
255,192,15635,1,8,0:0:0:0:
255,192,16010,1,8,0:0:0:0:
255,192,16760,1,0,0:0:0:0:
255,192,17510,1,8,0:0:0:0:
255,192,18260,1,8,0:0:0:0:
255,192,18635,1,0,0:0:0:0:
255,192,19010,1,8,0:0:0:0:
255,192,19760,1,0,0:0:0:0:
255,192,20510,1,8,0:0:0:0:
255,192,21635,1,8,0:0:0:0:
255,192,22010,1,8,0:0:0:0:
255,192,22760,1,0,0:0:0:0:
255,192,23510,1,8,0:0:0:0:
255,192,25010,1,12,0:0:0:0:
255,192,25760,1,0,0:0:0:0:
255,192,26510,1,8,0:0:0:0:
255,192,27260,1,0,0:0:0:0:
255,192,27635,1,0,0:0:0:0:
255,192,28010,1,8,0:0:0:0:
255,192,28760,1,0,0:0:0:0:
255,192,29510,1,8,0:0:0:0:
255,192,30260,1,8,0:0:0:0:
255,192,30635,1,0,0:0:0:0:
255,192,31010,1,8,0:0:0:0:
255,192,31760,1,0,0:0:0:0:
255,192,32510,1,8,0:0:0:0:
255,192,33260,1,0,0:0:0:0:
255,192,33635,1,0,0:0:0:0:
255,192,34010,1,8,0:0:0:0:
255,192,34760,1,0,0:0:0:0:
255,192,35510,1,8,0:0:0:0:
255,192,37010,1,4,0:0:0:0:
255,192,37760,1,0,0:0:0:0:
255,192,38135,1,8,0:0:0:0:
255,192,38510,1,0,0:0:0:0:
255,192,39260,1,0,0:0:0:0:
255,192,40010,1,8,0:0:0:0:
255,192,40760,1,0,0:0:0:0:
255,192,41135,1,0,0:0:0:0:
255,192,41510,1,8,0:0:0:0:
255,192,42260,1,8,0:0:0:0:
255,192,42635,1,8,0:0:0:0:
255,192,43010,1,4,0:0:0:0:
255,192,43760,1,0,0:0:0:0:
255,192,44135,1,8,0:0:0:0:
255,192,44510,1,0,0:0:0:0:
255,192,45260,1,0,0:0:0:0:
255,192,46010,1,8,0:0:0:0:
255,192,46760,1,0,0:0:0:0:
255,192,47135,1,0,0:0:0:0:
255,192,47510,1,8,0:0:0:0:
255,192,48260,1,8,0:0:0:0:
255,192,48635,1,8,0:0:0:0:
255,192,49010,1,4,0:0:0:0:
255,192,49760,1,8,0:0:0:0:
255,192,50510,1,0,0:0:0:0:
255,192,52010,1,0,0:0:0:0:
255,192,52760,1,8,0:0:0:0:
255,192,53510,1,0,0:0:0:0:
255,192,53885,1,0,0:0:0:0:
255,192,54260,1,8,0:0:0:0:
255,192,55010,1,4,0:0:0:0:
255,192,55760,1,8,0:0:0:0:
255,192,56510,1,0,0:0:0:0:
255,192,58010,1,0,0:0:0:0:
255,192,58760,1,8,0:0:0:0:
255,192,59510,2,0,L|408:192,3,140
255,192,61010,1,4,0:0:0:0:
255,192,61760,1,8,0:0:0:0:
255,192,62510,1,0,0:0:0:0:
255,192,64010,1,0,0:0:0:0:
255,192,64760,1,8,0:0:0:0:
255,192,65510,1,0,0:0:0:0:
255,192,67010,1,0,0:0:0:0:
255,192,67760,1,8,0:0:0:0:
255,192,68510,1,0,0:0:0:0:
255,192,70010,1,0,0:0:0:0:
255,192,70760,1,8,0:0:0:0:
255,192,71510,1,8,0:0:0:0:
255,192,73010,1,4,0:0:0:0:
255,192,73760,1,0,0:0:0:0:
255,192,74510,1,0,0:0:0:0:
255,192,75260,1,0,0:0:0:0:
255,192,75635,1,8,0:0:0:0:
255,192,76010,1,0,0:0:0:0:
255,192,76760,1,0,0:0:0:0:
255,192,77510,1,0,0:0:0:0:
255,192,78260,1,0,0:0:0:0:
255,192,78635,1,8,0:0:0:0:
255,192,79010,1,8,0:0:0:0:
255,192,79760,1,0,0:0:0:0:
255,192,80510,1,8,0:0:0:0:
255,192,81260,1,0,0:0:0:0:
255,192,81635,1,0,0:0:0:0:
255,192,82010,1,8,0:0:0:0:
255,192,83510,1,4,0:0:0:0:
255,192,83885,1,4,0:0:0:0:
255,192,84260,1,4,0:0:0:0:
255,192,85010,1,8,0:0:0:0:
255,192,85760,1,0,0:0:0:0:
255,192,86510,1,8,0:0:0:0:
255,192,87260,1,0,0:0:0:0:
255,192,87635,1,0,0:0:0:0:
255,192,88010,1,8,0:0:0:0:
255,192,88760,1,0,0:0:0:0:
255,192,89510,1,8,0:0:0:0:
255,192,90260,1,0,0:0:0:0:
255,192,90635,1,8,0:0:0:0:
255,192,91010,1,8,0:0:0:0:
255,192,91760,1,0,0:0:0:0:
255,192,92510,1,8,0:0:0:0:
255,192,93260,1,8,0:0:0:0:
255,192,93635,1,0,0:0:0:0:
255,192,94010,1,8,0:0:0:0:
255,192,94760,1,0,0:0:0:0:
255,192,95510,2,0,L|408:192,3,140
255,192,97010,1,4,0:0:0:0:
255,192,99260,1,8,0:0:0:0:
255,192,99635,1,0,0:0:0:0:
255,192,100010,1,8,0:0:0:0:
255,192,102260,1,0,0:0:0:0:
255,192,102635,1,8,0:0:0:0:
255,192,103010,1,4,0:0:0:0:
255,192,105260,1,8,0:0:0:0:
255,192,105635,1,8,0:0:0:0:
255,192,106010,1,0,0:0:0:0:
255,192,107510,1,0,0:0:0:0:
255,192,108260,1,8,0:0:0:0:
255,192,109010,1,4,0:0:0:0:
255,192,109760,1,0,0:0:0:0:
255,192,110135,1,8,0:0:0:0:
255,192,110510,1,0,0:0:0:0:
255,192,111260,1,0,0:0:0:0:
255,192,112010,1,8,0:0:0:0:
255,192,112760,1,0,0:0:0:0:
255,192,113135,1,0,0:0:0:0:
255,192,113510,1,8,0:0:0:0:
255,192,114260,1,8,0:0:0:0:
255,192,114635,1,8,0:0:0:0:
255,192,115010,1,4,0:0:0:0:
255,192,115760,1,0,0:0:0:0:
255,192,116135,1,8,0:0:0:0:
255,192,116510,1,0,0:0:0:0:
255,192,117260,1,0,0:0:0:0:
255,192,118010,1,8,0:0:0:0:
255,192,118760,1,0,0:0:0:0:
255,192,119135,1,0,0:0:0:0:
255,192,119510,1,8,0:0:0:0:
255,192,120260,1,8,0:0:0:0:
255,192,120635,1,8,0:0:0:0:
255,192,121010,1,4,0:0:0:0:
256,192,121947,12,0,127197,0:0:0:0:
