osu file format v14

[General]
AudioFilename: audio.ogg
AudioLeadIn: 0
PreviewTime: 10833
Countdown: 0
SampleSet: Soft
StackLeniency: 0.7
Mode: 3
LetterboxInBreaks: 0
SpecialStyle: 0
WidescreenStoryboard: 1

[Editor]
DistanceSpacing: 1.5
BeatDivisor: 4
GridSize: 4
TimelineZoom: 2.2

[Metadata]
Title:keep out!
TitleUnicode:keep out!
Artist:crafter2011
ArtistUnicode:crafter2011
Creator:MeWhenYourMom
Version:easy
Source:
Tags:minecraft vol. 1 deskrat edm hyperpop dariacore electronic dance music english experimental instrumental dump sv xxmysteryxx_103
BeatmapID:4328932
BeatmapSetID:2068972

[Difficulty]
HPDrainRate:7
CircleSize:4
OverallDifficulty:7
ApproachRate:5
SliderMultiplier:1.4
SliderTickRate:1

[Events]
//Background and Video events
0,0,"a2560315904_10.png",0,0
//Break Periods
//Storyboard Layer 0 (Background)
//Storyboard Layer 1 (Fail)
//Storyboard Layer 2 (Pass)
//Storyboard Layer 3 (Foreground)
//Storyboard Layer 4 (Overlay)
//Storyboard Sound Samples

[TimingPoints]
1976,285.714285714286,4,2,1,55,1,0
11118,-100,4,2,1,55,0,1
28833,-100,4,2,1,55,0,0
47976,-100,4,2,1,55,0,1
65499,327.868852459016,4,2,1,55,1,0
65499,-87.719298245614,4,2,1,55,0,0
66154,333.333333333333,4,2,1,55,1,0
66154,-86.2068965517241,4,2,1,55,0,0
72820,324.324324324324,4,2,1,55,1,0
72820,-86.2068965517241,4,2,1,55,0,0
74117,315.789473684211,4,2,1,55,1,0
74117,-90.9090909090909,4,2,1,55,0,0
75381,285.714285714286,4,2,1,55,1,0
76484,315.789473684211,4,2,1,55,1,0
76484,-90.9090909090909,4,2,1,55,0,0

[HitObjects]
448,192,1976,5,0,0:0:0:0:
320,192,2547,5,0,0:0:0:0:
192,192,3118,1,0,0:0:0:0:
64,192,3690,1,0,0:0:0:0:
320,192,4261,1,0,0:0:0:0:
448,192,4833,1,0,0:0:0:0:
192,192,5404,1,0,0:0:0:0:
64,192,5976,1,0,0:0:0:0:
320,192,6547,1,0,0:0:0:0:
448,192,7118,1,0,0:0:0:0:
192,192,7690,1,0,0:0:0:0:
64,192,8261,1,0,0:0:0:0:
320,192,8833,1,0,0:0:0:0:
448,192,9404,1,0,0:0:0:0:
192,192,9976,1,0,0:0:0:0:
320,192,10547,1,0,0:0:0:0:
64,192,10547,1,0,0:0:0:0:
192,192,10833,1,0,0:0:0:0:
448,192,11118,1,0,0:0:0:0:
320,192,11118,1,0,0:0:0:0:
192,192,11690,1,0,0:0:0:0:
64,192,11690,1,0,0:0:0:0:
320,192,11976,1,0,0:0:0:0:
64,192,12261,1,0,0:0:0:0:
448,192,12261,1,0,0:0:0:0:
192,192,12547,1,0,0:0:0:0:
320,192,12833,1,0,0:0:0:0:
448,192,12833,1,0,0:0:0:0:
192,192,13118,1,0,0:0:0:0:
64,192,13404,1,0,0:0:0:0:
448,192,13404,1,0,0:0:0:0:
192,192,13976,1,0,0:0:0:0:
64,192,13976,1,0,0:0:0:0:
320,192,14261,1,0,0:0:0:0:
448,192,14547,1,0,0:0:0:0:
192,192,14547,1,0,0:0:0:0:
64,192,14833,1,0,0:0:0:0:
448,192,15118,1,0,0:0:0:0:
320,192,15118,1,0,0:0:0:0:
192,192,15404,1,0,0:0:0:0:
64,192,15690,1,0,0:0:0:0:
320,192,15690,1,0,0:0:0:0:
192,192,16261,1,0,0:0:0:0:
64,192,16261,1,0,0:0:0:0:
320,192,16547,1,0,0:0:0:0:
448,192,16833,1,0,0:0:0:0:
64,192,16833,1,0,0:0:0:0:
192,192,17118,1,0,0:0:0:0:
320,192,17404,1,0,0:0:0:0:
448,192,17404,1,0,0:0:0:0:
192,192,17690,1,0,0:0:0:0:
64,192,17976,1,0,0:0:0:0:
448,192,17976,1,0,0:0:0:0:
320,192,18547,1,0,0:0:0:0:
192,192,18547,1,0,0:0:0:0:
64,192,18833,1,0,0:0:0:0:
448,192,19118,1,0,0:0:0:0:
320,192,19118,1,0,0:0:0:0:
192,192,19404,1,0,0:0:0:0:
64,192,19690,1,0,0:0:0:0:
448,192,19690,1,0,0:0:0:0:
448,192,20261,1,0,0:0:0:0:
320,192,20261,1,0,0:0:0:0:
192,192,20833,1,0,0:0:0:0:
64,192,20833,1,0,0:0:0:0:
320,192,21118,1,0,0:0:0:0:
64,192,21404,1,0,0:0:0:0:
448,192,21404,1,0,0:0:0:0:
192,192,21690,1,0,0:0:0:0:
320,192,21976,1,0,0:0:0:0:
448,192,21976,1,0,0:0:0:0:
192,192,22261,1,0,0:0:0:0:
64,192,22547,1,0,0:0:0:0:
320,192,22547,1,0,0:0:0:0:
448,192,23118,1,0,0:0:0:0:
192,192,23118,1,0,0:0:0:0:
320,192,23404,1,0,0:0:0:0:
64,192,23690,1,0,0:0:0:0:
192,192,23690,1,0,0:0:0:0:
320,192,23976,1,0,0:0:0:0:
448,192,24261,1,0,0:0:0:0:
64,192,24261,1,0,0:0:0:0:
192,192,24547,1,0,0:0:0:0:
448,192,24833,1,0,0:0:0:0:
320,192,24833,1,0,0:0:0:0:
192,192,25404,1,0,0:0:0:0:
64,192,25404,1,0,0:0:0:0:
320,192,25690,1,0,0:0:0:0:
64,192,25976,1,0,0:0:0:0:
448,192,25976,1,0,0:0:0:0:
192,192,26261,1,0,0:0:0:0:
448,192,26547,1,0,0:0:0:0:
320,192,26547,1,0,0:0:0:0:
192,192,26833,1,0,0:0:0:0:
320,192,27118,1,0,0:0:0:0:
64,192,27118,1,0,0:0:0:0:
448,192,27690,1,0,0:0:0:0:
64,192,27690,1,0,0:0:0:0:
192,192,27976,1,0,0:0:0:0:
448,192,28261,1,0,0:0:0:0:
320,192,28261,1,0,0:0:0:0:
64,192,28547,1,0,0:0:0:0:
448,192,28833,1,0,0:0:0:0:
192,192,28833,1,0,0:0:0:0:
320,192,28976,1,0,0:0:0:0:
320,192,29261,1,0,0:0:0:0:
448,192,29404,1,0,0:0:0:0:
64,192,29404,1,0,0:0:0:0:
320,192,29690,1,0,0:0:0:0:
192,192,29976,1,0,0:0:0:0:
64,192,29976,1,0,0:0:0:0:
320,192,30261,1,0,0:0:0:0:
448,192,30547,1,0,0:0:0:0:
192,192,30547,1,0,0:0:0:0:
320,192,30833,1,0,0:0:0:0:
192,192,31118,1,0,0:0:0:0:
64,192,31118,1,0,0:0:0:0:
448,192,31404,1,0,0:0:0:0:
192,192,31690,1,0,0:0:0:0:
64,192,31690,1,0,0:0:0:0:
320,192,31976,1,0,0:0:0:0:
64,192,32261,1,0,0:0:0:0:
448,192,32261,1,0,0:0:0:0:
192,192,32547,1,0,0:0:0:0:
448,192,32833,1,0,0:0:0:0:
320,192,32833,1,0,0:0:0:0:
192,192,33118,1,0,0:0:0:0:
64,192,33404,1,0,0:0:0:0:
448,192,33404,1,0,0:0:0:0:
320,192,33690,1,0,0:0:0:0:
192,192,33976,1,0,0:0:0:0:
64,192,33976,1,0,0:0:0:0:
448,192,34261,1,0,0:0:0:0:
320,192,34547,1,0,0:0:0:0:
192,192,34547,1,0,0:0:0:0:
448,192,34833,1,0,0:0:0:0:
192,192,35118,1,0,0:0:0:0:
64,192,35118,1,0,0:0:0:0:
320,192,35404,1,0,0:0:0:0:
64,192,35690,1,0,0:0:0:0:
448,192,35690,1,0,0:0:0:0:
192,192,35976,1,0,0:0:0:0:
320,192,36261,1,0,0:0:0:0:
448,192,36261,1,0,0:0:0:0:
64,192,36547,1,0,0:0:0:0:
192,192,36833,1,0,0:0:0:0:
448,192,36833,1,0,0:0:0:0:
320,192,37118,1,0,0:0:0:0:
192,192,37404,1,0,0:0:0:0:
64,192,37404,1,0,0:0:0:0:
320,192,37690,1,0,0:0:0:0:
448,192,37976,1,0,0:0:0:0:
64,192,37976,1,0,0:0:0:0:
192,192,38547,1,0,0:0:0:0:
320,192,38547,1,0,0:0:0:0:
64,192,38833,1,0,0:0:0:0:
320,192,39261,1,0,0:0:0:0:
448,192,39261,1,0,0:0:0:0:
192,192,39547,1,0,0:0:0:0:
64,192,39690,1,0,0:0:0:0:
448,192,39976,1,0,0:0:0:0:
320,192,39976,1,0,0:0:0:0:
320,192,40404,1,0,0:0:0:0:
64,192,40404,1,0,0:0:0:0:
192,192,40690,1,0,0:0:0:0:
448,192,40833,1,0,0:0:0:0:
64,192,41118,1,0,0:0:0:0:
320,192,41118,1,0,0:0:0:0:
192,192,41404,1,0,0:0:0:0:
448,192,41547,1,0,0:0:0:0:
320,192,41833,1,0,0:0:0:0:
64,192,41976,1,0,0:0:0:0:
320,192,42261,1,0,0:0:0:0:
192,192,42261,1,0,0:0:0:0:
448,192,42690,1,0,0:0:0:0:
64,192,42690,1,0,0:0:0:0:
192,192,42976,1,0,0:0:0:0:
320,192,43118,1,0,0:0:0:0:
448,192,43404,1,0,0:0:0:0:
64,192,43404,1,0,0:0:0:0:
192,192,43833,1,0,0:0:0:0:
64,192,43833,1,0,0:0:0:0:
320,192,44118,1,0,0:0:0:0:
448,192,44261,1,0,0:0:0:0:
192,192,44547,1,0,0:0:0:0:
64,192,44547,1,0,0:0:0:0:
64,192,44976,1,0,0:0:0:0:
320,192,44976,1,0,0:0:0:0:
192,192,45261,1,0,0:0:0:0:
448,192,45404,1,0,0:0:0:0:
192,192,45690,1,0,0:0:0:0:
64,192,45690,1,0,0:0:0:0:
448,192,45976,1,0,0:0:0:0:
320,192,46118,1,0,0:0:0:0:
64,192,46404,1,0,0:0:0:0:
192,192,46547,1,0,0:0:0:0:
448,192,46833,1,0,0:0:0:0:
320,192,46833,1,0,0:0:0:0:
64,192,47118,1,0,0:0:0:0:
448,192,47404,1,0,0:0:0:0:
320,192,47690,1,0,0:0:0:0:
192,192,47690,1,0,0:0:0:0:
448,192,47976,1,0,0:0:0:0:
64,192,48261,1,0,0:0:0:0:
320,192,48261,1,0,0:0:0:0:
192,192,48547,1,0,0:0:0:0:
320,192,48833,1,0,0:0:0:0:
448,192,48833,1,0,0:0:0:0:
192,192,49404,1,0,0:0:0:0:
64,192,49404,1,0,0:0:0:0:
448,192,49976,1,0,0:0:0:0:
64,192,49976,1,0,0:0:0:0:
192,192,50261,1,0,0:0:0:0:
320,192,50547,1,0,0:0:0:0:
448,192,50547,1,0,0:0:0:0:
192,192,50833,1,0,0:0:0:0:
64,192,51118,1,0,0:0:0:0:
448,192,51118,1,0,0:0:0:0:
320,192,51404,1,0,0:0:0:0:
192,192,51690,1,0,0:0:0:0:
64,192,51690,1,0,0:0:0:0:
320,192,51976,1,0,0:0:0:0:
448,192,52261,1,0,0:0:0:0:
192,192,52261,1,0,0:0:0:0:
64,192,52833,1,0,0:0:0:0:
448,192,52833,1,0,0:0:0:0:
320,192,53118,1,0,0:0:0:0:
64,192,53404,1,0,0:0:0:0:
192,192,53404,1,0,0:0:0:0:
448,192,53976,1,0,0:0:0:0:
320,192,53976,1,0,0:0:0:0:
192,192,54547,1,0,0:0:0:0:
448,192,54547,1,0,0:0:0:0:
64,192,54833,1,0,0:0:0:0:
320,192,55118,1,0,0:0:0:0:
192,192,55118,1,0,0:0:0:0:
448,192,55404,1,0,0:0:0:0:
64,192,55690,1,0,0:0:0:0:
320,192,55690,1,0,0:0:0:0:
192,192,55976,1,0,0:0:0:0:
64,192,56261,1,0,0:0:0:0:
448,192,56261,1,0,0:0:0:0:
320,192,56833,1,0,0:0:0:0:
192,192,56833,1,0,0:0:0:0:
192,192,57404,1,0,0:0:0:0:
448,192,57404,1,0,0:0:0:0:
64,192,57690,1,0,0:0:0:0:
320,192,57976,1,0,0:0:0:0:
448,192,57976,1,0,0:0:0:0:
192,192,58261,1,0,0:0:0:0:
64,192,58547,1,0,0:0:0:0:
320,192,58547,1,0,0:0:0:0:
448,192,58833,1,0,0:0:0:0:
192,192,59118,1,0,0:0:0:0:
64,192,59118,1,0,0:0:0:0:
320,192,59690,1,0,0:0:0:0:
448,192,59690,1,0,0:0:0:0:
192,192,59976,1,0,0:0:0:0:
64,192,60261,1,0,0:0:0:0:
448,192,60261,1,0,0:0:0:0:
320,192,60547,1,0,0:0:0:0:
192,192,60833,1,0,0:0:0:0:
64,192,60833,1,0,0:0:0:0:
320,192,61118,1,0,0:0:0:0:
64,192,61404,1,0,0:0:0:0:
448,192,61404,1,0,0:0:0:0:
192,192,61976,1,0,0:0:0:0:
448,192,61976,1,0,0:0:0:0:
320,192,62261,1,0,0:0:0:0:
64,192,62547,1,0,0:0:0:0:
192,192,62547,1,0,0:0:0:0:
320,192,62833,1,0,0:0:0:0:
64,192,63118,1,0,0:0:0:0:
448,192,63118,1,0,0:0:0:0:
192,192,63404,1,0,0:0:0:0:
320,192,63690,1,0,0:0:0:0:
448,192,63690,1,0,0:0:0:0:
64,192,64261,1,0,0:0:0:0:
448,192,64261,1,0,0:0:0:0:
320,192,64547,1,0,0:0:0:0:
64,192,64868,1,0,0:0:0:0:
192,192,64868,1,0,0:0:0:0:
448,192,65190,1,0,0:0:0:0:
320,192,65499,1,0,0:0:0:0:
192,192,65499,1,0,0:0:0:0:
64,192,65662,1,0,0:0:0:0:
64,192,65990,1,0,0:0:0:0:
448,192,66154,1,0,0:0:0:0:
448,192,66487,1,0,0:0:0:0:
448,192,66820,1,0,0:0:0:0:
64,192,67070,1,0,0:0:0:0:
448,192,67320,1,0,0:0:0:0:
64,192,67487,1,0,0:0:0:0:
64,192,67820,1,0,0:0:0:0:
64,192,68154,1,0,0:0:0:0:
448,192,68404,1,0,0:0:0:0:
320,192,68654,1,0,0:0:0:0:
192,192,68820,1,0,0:0:0:0:
192,192,69154,1,0,0:0:0:0:
192,192,69487,1,0,0:0:0:0:
320,192,69737,1,0,0:0:0:0:
64,192,69987,1,0,0:0:0:0:
320,192,70154,1,0,0:0:0:0:
320,192,70487,1,0,0:0:0:0:
320,192,70820,1,0,0:0:0:0:
448,192,71070,1,0,0:0:0:0:
192,192,71320,1,0,0:0:0:0:
448,192,71487,1,0,0:0:0:0:
448,192,71820,1,0,0:0:0:0:
448,192,72154,1,0,0:0:0:0:
64,192,72404,1,0,0:0:0:0:
448,192,72654,1,0,0:0:0:0:
192,192,72820,1,0,0:0:0:0:
192,192,73144,1,0,0:0:0:0:
192,192,73468,1,0,0:0:0:0:
320,192,73711,1,0,0:0:0:0:
192,192,73955,1,0,0:0:0:0:
64,192,74117,128,0,76484:0:0:0:0:
192,192,75381,128,0,76484:0:0:0:0:
448,192,76484,1,0,0:0:0:0:
320,192,76484,1,0,0:0:0:0:
