osu file format v14

[General]
AudioFilename: audio.mp3
AudioLeadIn: 0
PreviewTime: 82307
Countdown: 0
SampleSet: Normal
StackLeniency: 0.7
Mode: 1
LetterboxInBreaks: 0
WidescreenStoryboard: 1

[Editor]
DistanceSpacing: 0.8
BeatDivisor: 4
GridSize: 32
TimelineZoom: 3.099999

[Metadata]
Title:bozo? bozo!
TitleUnicode:bozo? bozo!
Artist:crafter2011
ArtistUnicode:crafter2011
Creator:maxie
Version:muzukashii
Source:
Tags:deskrat underscores minecraft vol. 1 volume one english electronic hyperpop breakcore dariacore bozo bozo bozo kmoe 2267 ericdoa fishmonger Indian Film Pop Latin Urbano Argentinian Trap
BeatmapID:4097714
BeatmapSetID:1973984

[Difficulty]
HPDrainRate:6
CircleSize:5
OverallDifficulty:5
ApproachRate:5
SliderMultiplier:1.4
SliderTickRate:1

[Events]
//Background and Video events
0,0,"maxresdefault (5).jpg",0,0
//Break Periods
//Storyboard Layer 0 (Background)
//Storyboard Layer 1 (Fail)
//Storyboard Layer 2 (Pass)
//Storyboard Layer 3 (Foreground)
//Storyboard Layer 4 (Overlay)
//Storyboard Sound Samples

[TimingPoints]
274,324.324324324324,4,1,0,50,1,0
274,-111.111111111111,4,1,0,50,0,0
10247,-100,4,1,0,50,0,0
10571,-90.9090909090909,4,1,0,90,0,0
31004,-95.2380952380952,4,1,0,90,0,0
31328,-100,4,1,0,70,0,0
52145,-100,4,1,0,50,0,0
53382,-111.111111111111,4,1,0,50,0,0
62138,-100,4,1,0,90,0,0
72842,-90.9090909090909,4,1,0,90,0,0
72922,-90.9090909090909,4,1,0,90,0,1
82003,-90.9090909090909,4,1,0,90,0,0
83301,-90.9090909090909,4,1,0,90,0,1
92950,-95.2380952380952,4,1,0,90,0,1
93355,-100,4,1,0,90,0,0

[HitObjects]
64,64,274,5,0,0:0:0:0:
64,64,760,1,0,0:0:0:0:
448,64,923,1,8,0:0:0:0:
448,64,1247,1,0,0:0:0:0:
64,64,1409,1,8,0:0:0:0:
448,64,1571,1,0,0:0:0:0:
448,64,2382,1,8,0:0:0:0:
448,64,2544,1,8,0:0:0:0:
64,64,2869,1,0,0:0:0:0:
64,64,2950,1,0,0:0:0:0:
64,64,3031,1,0,0:0:0:0:
64,64,3193,1,0,0:0:0:0:
448,64,3355,1,8,0:0:0:0:
448,64,3517,1,8,0:0:0:0:
448,64,3679,1,8,0:0:0:0:
64,64,3842,1,0,0:0:0:0:
64,64,3923,1,0,0:0:0:0:
64,64,4004,1,0,0:0:0:0:
448,64,4166,1,8,0:0:0:0:
448,64,4652,1,8,0:0:0:0:
448,64,4815,1,8,0:0:0:0:
448,64,5058,1,8,0:0:0:0:
155,159,5138,1,8,0:0:0:0:
64,64,5463,1,0,0:0:0:0:
448,64,5950,1,8,0:0:0:0:
448,64,6112,1,8,0:0:0:0:
448,64,6274,1,8,0:0:0:0:
64,64,6436,1,0,0:0:0:0:
448,64,6598,1,8,0:0:0:0:
64,64,6760,1,0,0:0:0:0:
64,64,7085,1,0,0:0:0:0:
448,64,7409,1,8,0:0:0:0:
448,64,7571,1,0,0:0:0:0:
64,64,7733,1,0,0:0:0:0:
64,64,8382,1,0,0:0:0:0:
448,64,8544,1,8,0:0:0:0:
448,64,8625,1,8,0:0:0:0:
448,64,8706,1,8,0:0:0:0:
64,64,8869,1,0,0:0:0:0:
64,64,8950,1,0,0:0:0:0:
64,64,9031,1,0,0:0:0:0:
448,64,9355,1,8,0:0:0:0:
64,64,9679,1,0,0:0:0:0:
448,64,10004,1,8,0:0:0:0:
64,64,10328,1,0,0:0:0:0:
448,64,10652,1,8,0:0:0:0:
448,64,10977,1,8,0:0:0:0:
64,64,11301,1,0,0:0:0:0:
448,64,11463,1,8,0:0:0:0:
448,64,11625,1,8,0:0:0:0:
448,64,11788,1,8,0:0:0:0:
448,64,11950,1,8,0:0:0:0:
64,64,12112,1,0,0:0:0:0:
448,64,12274,1,8,0:0:0:0:
64,64,12598,1,0,0:0:0:0:
448,64,12760,1,8,0:0:0:0:
448,64,12923,1,8,0:0:0:0:
64,64,13247,1,0,0:0:0:0:
64,64,13328,1,0,0:0:0:0:
64,64,13409,1,0,0:0:0:0:
448,64,13571,1,8,0:0:0:0:
64,64,13733,1,0,0:0:0:0:
64,64,13896,1,0,0:0:0:0:
448,64,14058,1,8,0:0:0:0:
448,64,14220,1,8,0:0:0:0:
448,64,14382,1,8,0:0:0:0:
448,64,14706,1,8,0:0:0:0:
448,64,14788,1,8,0:0:0:0:
448,64,14869,1,8,0:0:0:0:
64,64,15031,1,0,0:0:0:0:
448,64,15193,1,8,0:0:0:0:
64,64,15355,1,0,0:0:0:0:
448,64,15517,1,8,0:0:0:0:
448,64,15842,1,0,0:0:0:0:
448,64,16166,1,0,0:0:0:0:
448,64,16490,1,8,0:0:0:0:
448,64,16652,1,8,0:0:0:0:
448,64,16815,1,8,0:0:0:0:
448,64,16977,1,8,0:0:0:0:
448,64,17139,1,8,0:0:0:0:
64,64,17301,1,0,0:0:0:0:
448,64,17463,1,8,0:0:0:0:
64,64,17625,1,0,0:0:0:0:
64,64,17788,1,0,0:0:0:0:
64,64,17950,1,0,0:0:0:0:
448,64,18112,1,8,0:0:0:0:
64,64,18436,1,0,0:0:0:0:
64,64,18517,1,0,0:0:0:0:
64,64,18598,1,0,0:0:0:0:
448,64,18760,1,8,0:0:0:0:
448,64,18923,1,8,0:0:0:0:
448,64,19004,1,8,0:0:0:0:
448,64,19085,1,8,0:0:0:0:
64,64,19247,1,0,0:0:0:0:
448,64,19409,1,8,0:0:0:0:
448,64,19571,1,8,0:0:0:0:
64,64,19896,1,0,0:0:0:0:
448,64,20058,1,8,0:0:0:0:
64,64,20220,1,0,0:0:0:0:
448,64,20382,1,8,0:0:0:0:
64,64,20544,1,0,0:0:0:0:
64,64,20625,1,0,0:0:0:0:
64,64,20706,1,0,0:0:0:0:
448,64,21031,1,8,0:0:0:0:
448,64,21355,1,8,0:0:0:0:
64,64,21679,1,0,0:0:0:0:
448,64,21842,1,8,0:0:0:0:
64,64,22004,1,0,0:0:0:0:
448,64,22166,1,8,0:0:0:0:
448,64,22247,1,8,0:0:0:0:
448,64,22328,1,8,0:0:0:0:
448,64,22490,1,8,0:0:0:0:
448,64,22652,1,8,0:0:0:0:
448,64,22977,1,8,0:0:0:0:
64,64,23139,1,0,0:0:0:0:
64,64,23301,1,0,0:0:0:0:
64,64,23625,1,0,0:0:0:0:
64,64,23706,1,0,0:0:0:0:
64,64,23788,1,0,0:0:0:0:
448,64,23950,1,8,0:0:0:0:
448,64,24112,1,8,0:0:0:0:
448,64,24274,1,8,0:0:0:0:
64,64,24436,1,0,0:0:0:0:
448,64,24598,1,8,0:0:0:0:
448,64,24679,1,8,0:0:0:0:
448,64,24760,1,8,0:0:0:0:
64,64,25085,1,0,0:0:0:0:
448,64,25247,1,8,0:0:0:0:
64,64,25409,1,0,0:0:0:0:
448,64,25571,1,8,0:0:0:0:
448,64,25733,1,8,0:0:0:0:
448,64,25896,1,8,0:0:0:0:
448,64,26220,1,0,0:0:0:0:
448,64,26544,1,0,0:0:0:0:
448,64,26869,1,8,0:0:0:0:
448,64,27031,1,8,0:0:0:0:
448,64,27193,1,8,0:0:0:0:
64,64,27355,1,0,0:0:0:0:
64,64,27679,1,0,0:0:0:0:
448,64,27842,1,8,0:0:0:0:
448,64,27923,1,8,0:0:0:0:
448,64,28004,1,8,0:0:0:0:
64,64,28166,1,0,0:0:0:0:
448,64,28328,1,8,0:0:0:0:
448,64,28490,1,8,0:0:0:0:
64,64,28815,1,0,0:0:0:0:
64,64,28896,1,0,0:0:0:0:
64,64,28977,1,0,0:0:0:0:
448,64,29139,1,8,0:0:0:0:
448,64,29301,1,8,0:0:0:0:
448,64,29463,1,8,0:0:0:0:
64,64,29625,1,0,0:0:0:0:
448,64,29788,1,8,0:0:0:0:
448,64,29950,1,8,0:0:0:0:
448,64,30031,1,8,0:0:0:0:
448,64,30112,1,8,0:0:0:0:
448,64,30436,1,8,0:0:0:0:
448,64,30760,1,8,0:0:0:0:
448,64,31085,1,0,0:0:0:0:
448,64,31409,1,0,0:0:0:0:
64,64,32058,1,0,0:0:0:0:
64,64,32220,1,0,0:0:0:0:
64,64,32382,1,0,0:0:0:0:
64,64,32706,1,0,0:0:0:0:
448,64,33193,1,8,0:0:0:0:
448,64,33274,1,8,0:0:0:0:
448,64,33355,1,8,0:0:0:0:
64,64,33517,1,0,0:0:0:0:
64,64,33679,1,0,0:0:0:0:
64,64,34004,1,0,0:0:0:0:
64,64,34652,1,0,0:0:0:0:
64,64,34815,1,0,0:0:0:0:
64,64,35301,1,0,0:0:0:0:
448,64,35788,1,8,0:0:0:0:
448,64,35869,1,8,0:0:0:0:
448,64,35950,1,8,0:0:0:0:
64,64,36112,1,0,0:0:0:0:
64,64,36274,1,0,0:0:0:0:
448,64,36598,1,8,0:0:0:0:
64,64,37247,1,0,0:0:0:0:
64,64,37409,1,0,0:0:0:0:
64,64,37896,1,0,0:0:0:0:
448,64,38382,1,8,0:0:0:0:
448,64,38463,1,8,0:0:0:0:
448,64,38544,1,8,0:0:0:0:
64,64,38706,1,0,0:0:0:0:
64,64,38869,1,0,0:0:0:0:
64,64,39193,1,0,0:0:0:0:
64,64,39842,1,0,0:0:0:0:
64,64,40004,1,0,0:0:0:0:
64,64,40490,1,0,0:0:0:0:
448,64,40977,1,8,0:0:0:0:
448,64,41058,1,8,0:0:0:0:
448,64,41139,1,8,0:0:0:0:
64,64,41301,1,0,0:0:0:0:
64,64,41463,1,0,0:0:0:0:
448,64,41788,1,8,0:0:0:0:
448,64,41869,1,8,0:0:0:0:
64,64,42436,1,0,0:0:0:0:
64,64,42598,1,0,0:0:0:0:
448,64,42760,1,8,0:0:0:0:
64,64,42923,1,0,0:0:0:0:
448,64,43085,1,8,0:0:0:0:
448,64,43166,1,8,0:0:0:0:
448,64,43571,1,8,0:0:0:0:
448,64,43652,1,8,0:0:0:0:
448,64,43733,1,8,0:0:0:0:
448,64,43896,1,8,0:0:0:0:
64,64,44058,1,0,0:0:0:0:
448,64,44220,1,8,0:0:0:0:
448,64,44382,1,8,0:0:0:0:
448,64,44463,1,8,0:0:0:0:
64,64,45031,1,0,0:0:0:0:
64,64,45193,1,0,0:0:0:0:
448,64,45355,1,8,0:0:0:0:
448,64,45517,1,8,0:0:0:0:
448,64,45679,1,8,0:0:0:0:
448,64,45760,1,8,0:0:0:0:
448,64,46166,1,8,0:0:0:0:
448,64,46247,1,8,0:0:0:0:
448,64,46328,1,8,0:0:0:0:
64,64,46490,1,0,0:0:0:0:
448,64,46652,1,8,0:0:0:0:
64,64,46815,1,0,0:0:0:0:
448,64,46977,1,8,0:0:0:0:
448,64,47058,1,8,0:0:0:0:
64,64,47625,1,0,0:0:0:0:
64,64,47788,1,0,0:0:0:0:
448,64,47950,1,8,0:0:0:0:
64,64,48112,1,0,0:0:0:0:
448,64,48274,1,8,0:0:0:0:
448,64,48355,1,8,0:0:0:0:
448,64,48760,1,8,0:0:0:0:
448,64,48842,1,8,0:0:0:0:
448,64,48923,1,8,0:0:0:0:
64,64,49085,1,0,0:0:0:0:
448,64,49247,1,8,0:0:0:0:
448,64,49409,1,8,0:0:0:0:
448,64,49571,1,0,0:0:0:0:
448,64,49652,1,0,0:0:0:0:
64,64,50220,1,0,0:0:0:0:
64,64,50382,1,0,0:0:0:0:
448,64,50544,1,8,0:0:0:0:
64,64,50706,1,8,0:0:0:0:
448,64,50869,1,0,0:0:0:0:
448,64,50950,1,0,0:0:0:0:
448,64,51355,1,8,0:0:0:0:
448,64,51436,1,8,0:0:0:0:
448,64,51517,1,8,0:0:0:0:
64,64,51679,1,0,0:0:0:0:
448,64,51842,1,8,0:0:0:0:
448,64,51923,1,8,0:0:0:0:
448,64,52004,1,8,0:0:0:0:
448,320,52166,1,12,0:0:0:0:
64,64,53463,1,0,0:0:0:0:
64,64,54760,1,0,0:0:0:0:
64,64,57355,1,0,0:0:0:0:
64,64,58652,1,0,0:0:0:0:
64,64,59950,1,0,0:0:0:0:
64,64,61247,1,0,0:0:0:0:
448,64,62382,1,8,0:0:0:0:
448,64,62463,1,8,0:0:0:0:
448,64,62544,1,8,0:0:0:0:
64,64,62706,1,0,0:0:0:0:
64,64,62869,1,0,0:0:0:0:
64,64,63031,1,0,0:0:0:0:
64,64,63112,1,0,0:0:0:0:
64,64,63193,1,0,0:0:0:0:
448,64,63355,1,8,0:0:0:0:
64,64,63517,1,0,0:0:0:0:
64,64,63598,1,0,0:0:0:0:
64,64,63679,1,0,0:0:0:0:
448,64,63842,1,8,0:0:0:0:
448,64,64004,1,8,0:0:0:0:
64,64,64166,1,0,0:0:0:0:
448,64,64490,1,8,0:0:0:0:
448,64,64571,1,8,0:0:0:0:
448,64,64652,1,8,0:0:0:0:
448,64,64977,1,8,0:0:0:0:
448,64,65139,1,8,0:0:0:0:
448,64,65463,1,8,0:0:0:0:
64,64,65625,1,0,0:0:0:0:
448,64,65788,1,8,0:0:0:0:
448,64,65869,1,8,0:0:0:0:
448,64,65950,1,8,0:0:0:0:
64,64,66112,1,0,0:0:0:0:
448,64,66436,1,8,0:0:0:0:
448,64,66598,1,8,0:0:0:0:
448,64,67085,1,8,0:0:0:0:
448,64,67247,1,8,0:0:0:0:
64,64,67571,1,0,0:0:0:0:
448,64,67733,1,8,0:0:0:0:
64,64,68058,1,0,0:0:0:0:
64,64,68220,1,0,0:0:0:0:
448,64,68382,1,8,0:0:0:0:
448,64,68544,1,8,0:0:0:0:
64,64,68706,1,0,0:0:0:0:
64,64,68869,1,0,0:0:0:0:
448,64,69031,1,8,0:0:0:0:
448,64,69193,1,8,0:0:0:0:
64,64,69355,1,0,0:0:0:0:
64,64,69517,1,0,0:0:0:0:
448,64,69679,1,8,0:0:0:0:
64,64,69842,1,0,0:0:0:0:
64,64,70004,1,0,0:0:0:0:
448,64,70166,1,8,0:0:0:0:
448,64,70328,1,8,0:0:0:0:
64,64,70490,1,0,0:0:0:0:
448,64,70652,1,8,0:0:0:0:
64,64,70815,1,0,0:0:0:0:
448,64,70977,1,8,0:0:0:0:
64,64,71139,1,0,0:0:0:0:
448,64,71301,1,8,0:0:0:0:
64,64,71463,1,0,0:0:0:0:
448,64,71625,1,8,0:0:0:0:
64,64,71788,1,0,0:0:0:0:
448,64,71950,1,8,0:0:0:0:
64,64,72112,1,0,0:0:0:0:
448,64,72274,1,8,0:0:0:0:
448,320,72923,1,12,0:0:0:0:
448,64,73247,1,8,0:0:0:0:
448,64,73409,1,8,0:0:0:0:
64,320,73571,1,4,0:0:0:0:
64,64,73896,1,0,0:0:0:0:
448,320,74220,1,12,0:0:0:0:
448,64,74544,1,8,0:0:0:0:
448,64,74706,1,8,0:0:0:0:
64,320,74869,1,4,0:0:0:0:
448,64,75193,1,8,0:0:0:0:
448,320,75517,1,12,0:0:0:0:
448,64,75842,1,8,0:0:0:0:
448,64,76004,1,8,0:0:0:0:
64,320,76166,1,4,0:0:0:0:
448,64,76490,1,8,0:0:0:0:
448,320,76815,1,12,0:0:0:0:
448,64,77139,1,8,0:0:0:0:
448,64,77301,1,8,0:0:0:0:
64,320,77463,1,4,0:0:0:0:
64,64,77788,1,0,0:0:0:0:
448,320,78112,1,12,0:0:0:0:
448,64,78436,1,8,0:0:0:0:
448,64,78598,1,8,0:0:0:0:
64,320,78760,1,4,0:0:0:0:
64,64,79085,1,0,0:0:0:0:
448,320,79409,1,12,0:0:0:0:
448,64,79733,1,8,0:0:0:0:
448,64,79896,1,8,0:0:0:0:
64,320,80058,1,4,0:0:0:0:
64,64,80382,1,0,0:0:0:0:
448,320,80706,1,12,0:0:0:0:
448,64,81031,1,8,0:0:0:0:
448,64,81193,1,8,0:0:0:0:
64,320,81355,1,4,0:0:0:0:
448,64,81679,1,8,0:0:0:0:
448,320,82004,1,12,0:0:0:0:
448,320,83301,1,12,0:0:0:0:
448,64,83625,1,8,0:0:0:0:
448,64,83788,1,8,0:0:0:0:
64,320,83950,1,4,0:0:0:0:
448,64,84274,1,8,0:0:0:0:
64,64,84436,1,0,0:0:0:0:
448,320,84598,1,12,0:0:0:0:
64,64,84923,1,0,0:0:0:0:
448,64,85085,1,8,0:0:0:0:
64,320,85247,1,4,0:0:0:0:
448,64,85571,1,8,0:0:0:0:
448,320,85896,1,12,0:0:0:0:
448,64,86220,1,8,0:0:0:0:
448,64,86382,1,8,0:0:0:0:
64,320,86544,1,4,0:0:0:0:
64,64,86869,1,0,0:0:0:0:
64,64,87031,1,0,0:0:0:0:
448,320,87193,1,12,0:0:0:0:
448,64,87517,1,8,0:0:0:0:
448,64,87679,1,8,0:0:0:0:
64,320,87842,1,4,0:0:0:0:
448,64,88166,1,8,0:0:0:0:
448,320,88490,1,12,0:0:0:0:
448,64,88815,1,8,0:0:0:0:
448,64,88977,1,8,0:0:0:0:
64,320,89139,1,4,0:0:0:0:
64,64,89463,1,0,0:0:0:0:
64,64,89625,1,0,0:0:0:0:
448,320,89788,1,12,0:0:0:0:
448,64,90112,1,8,0:0:0:0:
448,64,90274,1,8,0:0:0:0:
64,320,90436,1,4,0:0:0:0:
64,64,90760,1,0,0:0:0:0:
448,320,91085,1,12,0:0:0:0:
448,64,91409,1,8,0:0:0:0:
448,64,91571,1,8,0:0:0:0:
64,320,91733,1,4,0:0:0:0:
64,64,92058,1,0,0:0:0:0:
64,64,92220,1,0,0:0:0:0:
448,320,92382,1,12,0:0:0:0:
64,64,92706,1,0,0:0:0:0:
64,320,93031,1,4,0:0:0:0:
448,64,93355,1,8,0:0:0:0:
