osu file format v14

[General]
AudioFilename: audio.mp3
AudioLeadIn: 0
PreviewTime: 10550
Countdown: 0
SampleSet: Normal
StackLeniency: 0.7
Mode: 1
LetterboxInBreaks: 0
WidescreenStoryboard: 1

[Editor]
DistanceSpacing: 1.3
BeatDivisor: 4
GridSize: 32
TimelineZoom: 4.699997

[Metadata]
Title:ball hard
TitleUnicode:ball hard
Artist:crafter2011
ArtistUnicode:crafter2011
Creator:maxie
Version:muzukashii
Source:
Tags:Minecraft vol. 1 volume one Dariacore Electronic Dance Music EDM English Instrumental Experimental deskrat Lady Gaga Telephone feat. Beyonce Jay-Z & Kanye West Ni**as In Paris Niggas mashup
BeatmapID:4151957
BeatmapSetID:1997604

[Difficulty]
HPDrainRate:7
CircleSize:5
OverallDifficulty:5
ApproachRate:5
SliderMultiplier:1.4
SliderTickRate:1

[Events]
//Background and Video events
0,0,"jVkhbH.jpg",0,0
//Break Periods
//Storyboard Layer 0 (Background)
//Storyboard Layer 1 (Fail)
//Storyboard Layer 2 (Pass)
//Storyboard Layer 3 (Foreground)
//Storyboard Layer 4 (Overlay)
//Storyboard Sound Samples

[TimingPoints]
993,307.692307692308,4,1,0,60,1,0
993,-111.111111111111,4,1,0,60,0,0
5896,-100,4,1,0,60,0,0
6512,-111.111111111111,4,1,0,60,0,0
10204,-107.151149291851,4,1,0,60,0,0
10281,-106.201817972615,4,1,0,60,0,0
10358,-105.269160583942,4,1,0,60,0,0
10512,-103.452140775611,4,1,0,60,0,0
10723,-100,4,1,0,60,0,0
10839,-100,4,1,0,75,0,1
20377,-100,4,1,0,75,0,0
20685,-100,4,1,0,75,0,1
24993,-100,4,1,0,75,0,0
25608,-100,4,1,0,75,0,1
29916,-100,4,1,0,75,0,0
30512,-111.111111111111,4,1,0,60,0,0
40050,-105.28114852162,4,1,0,60,0,0
40127,-103.91363022942,4,1,0,60,0,0
40204,-102.581182348043,4,1,0,60,0,0
40358,-100,4,1,0,75,0,0
49839,-100,4,1,0,60,0,0
61281,-111.111111111111,4,1,0,60,0,0
69281,-100,4,1,0,60,0,0
69896,-111.111111111111,4,1,0,60,0,0
79435,-105.272167066073,4,1,0,60,0,0
79743,-100,4,1,0,60,0,0

[HitObjects]
136,257,993,5,0,1:0:0:0:
166,194,1146,1,8,1:0:0:0:
106,285,1608,1,8,1:0:0:0:
106,285,1762,1,8,1:0:0:0:
120,131,1916,1,0,1:0:0:0:
106,285,2223,1,8,1:0:0:0:
152,298,3454,1,0,1:0:0:0:
153,303,3608,1,8,1:0:0:0:
101,104,3916,1,0,1:0:0:0:
127,303,4069,1,8,1:0:0:0:
129,305,4223,1,8,1:0:0:0:
162,120,4377,1,0,1:0:0:0:
98,208,4685,1,8,1:0:0:0:
113,259,4839,1,8,1:0:0:0:
149,268,5608,1,0,1:0:0:0:
154,247,5916,1,12,1:0:0:0:
152,257,6531,1,0,1:0:0:0:
105,244,6685,1,8,1:0:0:0:
88,141,6839,1,0,1:0:0:0:
146,255,7146,1,0,1:0:0:0:
192,219,7300,1,8,1:0:0:0:
192,219,7762,1,0,1:0:0:0:
186,217,8377,1,0,1:0:0:0:
185,219,8531,1,8,1:0:0:0:
100,160,8839,1,0,1:0:0:0:
186,217,8993,1,8,1:0:0:0:
186,217,9146,1,8,1:0:0:0:
100,160,9300,1,0,1:0:0:0:
185,219,9608,1,0,1:0:0:0:
181,215,9762,1,8,1:0:0:0:
448,64,10223,1,8,1:0:0:0:
448,64,10300,1,8,1:0:0:0:
448,64,10377,1,8,1:0:0:0:
448,64,10531,1,8,1:0:0:0:
448,64,10839,1,8,1:0:0:0:
448,64,10916,1,8,1:0:0:0:
448,64,10993,1,8,1:0:0:0:
64,64,11146,1,0,1:0:0:0:
64,64,11223,1,0,1:0:0:0:
64,64,11300,1,0,1:0:0:0:
448,64,11454,1,8,1:0:0:0:
64,64,11608,1,0,1:0:0:0:
64,64,11916,1,0,1:0:0:0:
64,64,11993,1,0,1:0:0:0:
64,64,12069,1,0,1:0:0:0:
448,64,12223,1,8,1:0:0:0:
448,64,12377,1,0,1:0:0:0:
64,64,12531,1,0,1:0:0:0:
448,64,12685,1,8,1:0:0:0:
64,64,13300,1,0,1:0:0:0:
64,64,13608,1,0,1:0:0:0:
64,64,13685,1,0,1:0:0:0:
64,64,13762,1,0,1:0:0:0:
448,64,13916,1,8,1:0:0:0:
64,64,14069,1,0,1:0:0:0:
64,64,14377,1,0,1:0:0:0:
64,64,14454,1,0,1:0:0:0:
64,64,14531,1,0,1:0:0:0:
448,64,14685,1,8,1:0:0:0:
448,64,14839,1,8,1:0:0:0:
64,64,14993,1,0,1:0:0:0:
448,64,15146,1,8,1:0:0:0:
64,64,15762,1,0,1:0:0:0:
64,64,16069,1,0,1:0:0:0:
64,64,16146,1,0,1:0:0:0:
64,64,16223,1,0,1:0:0:0:
448,64,16377,1,8,1:0:0:0:
64,64,16531,1,0,1:0:0:0:
64,64,16839,1,0,1:0:0:0:
64,64,16916,1,0,1:0:0:0:
64,64,16993,1,0,1:0:0:0:
448,64,17146,1,8,1:0:0:0:
448,64,17300,1,0,1:0:0:0:
64,64,17454,1,0,1:0:0:0:
448,64,17608,1,8,1:0:0:0:
64,64,18223,1,0,1:0:0:0:
64,64,18531,1,0,1:0:0:0:
64,64,18608,1,0,1:0:0:0:
64,64,18685,1,0,1:0:0:0:
448,64,18839,1,8,1:0:0:0:
64,64,18993,1,0,1:0:0:0:
64,64,19300,1,0,1:0:0:0:
64,64,19377,1,0,1:0:0:0:
64,64,19454,1,0,1:0:0:0:
448,64,19608,1,8,1:0:0:0:
448,64,19762,1,8,1:0:0:0:
64,64,19916,1,0,1:0:0:0:
448,64,20069,1,8,1:0:0:0:
448,64,20377,1,12,1:0:0:0:
448,64,20685,1,8,1:0:0:0:
448,64,20762,1,8,1:0:0:0:
448,64,20839,1,8,1:0:0:0:
64,64,20993,1,0,1:0:0:0:
64,64,21069,1,0,1:0:0:0:
64,64,21146,1,0,1:0:0:0:
448,64,21300,1,8,1:0:0:0:
64,64,21454,1,0,1:0:0:0:
448,64,21762,1,8,1:0:0:0:
448,64,21839,1,8,1:0:0:0:
448,64,21916,1,8,1:0:0:0:
64,64,22069,1,0,1:0:0:0:
448,64,22223,1,8,1:0:0:0:
64,64,22377,1,0,1:0:0:0:
448,64,22531,1,8,1:0:0:0:
448,64,23146,1,8,1:0:0:0:
64,64,23454,1,0,1:0:0:0:
64,64,23531,1,0,1:0:0:0:
64,64,23608,1,0,1:0:0:0:
448,64,23762,1,8,1:0:0:0:
64,64,23916,1,0,1:0:0:0:
448,64,24223,1,8,1:0:0:0:
448,64,24300,1,8,1:0:0:0:
448,64,24377,1,8,1:0:0:0:
64,64,24531,1,0,1:0:0:0:
448,64,24685,1,8,1:0:0:0:
64,64,24839,1,0,1:0:0:0:
448,64,24993,1,8,1:0:0:0:
64,64,25223,1,0,1:0:0:0:
64,64,25454,1,0,1:0:0:0:
448,64,25608,1,8,1:0:0:0:
64,64,25916,1,0,1:0:0:0:
64,64,25993,1,0,1:0:0:0:
64,64,26069,1,0,1:0:0:0:
448,64,26223,1,8,1:0:0:0:
64,64,26377,1,0,1:0:0:0:
448,64,26685,1,8,1:0:0:0:
448,64,26762,1,8,1:0:0:0:
448,64,26839,1,8,1:0:0:0:
64,64,26993,1,0,1:0:0:0:
448,64,27146,1,8,1:0:0:0:
64,64,27300,1,0,1:0:0:0:
448,64,27454,1,8,1:0:0:0:
448,64,28069,1,8,1:0:0:0:
64,64,28377,1,0,1:0:0:0:
64,64,28454,1,0,1:0:0:0:
64,64,28531,1,0,1:0:0:0:
448,64,28685,1,8,1:0:0:0:
64,64,28839,1,0,1:0:0:0:
448,64,29146,1,8,1:0:0:0:
448,64,29223,1,8,1:0:0:0:
448,64,29300,1,8,1:0:0:0:
64,64,29454,1,0,1:0:0:0:
448,64,29608,1,8,1:0:0:0:
64,64,29762,1,0,1:0:0:0:
448,64,29916,1,8,1:0:0:0:
64,320,30531,1,4,1:0:0:0:
448,64,30839,1,8,1:0:0:0:
448,64,30993,1,8,1:0:0:0:
64,320,31146,1,4,1:0:0:0:
448,64,31454,1,8,1:0:0:0:
448,64,31608,1,8,1:0:0:0:
64,320,31762,1,4,1:0:0:0:
64,64,32069,1,0,1:0:0:0:
64,320,32377,1,4,1:0:0:0:
64,64,32685,1,0,1:0:0:0:
448,64,32839,1,8,1:0:0:0:
64,320,32993,1,4,1:0:0:0:
448,64,33300,1,8,1:0:0:0:
448,64,33454,1,8,1:0:0:0:
64,320,33608,1,4,1:0:0:0:
448,64,33916,1,8,1:0:0:0:
448,64,34069,1,8,1:0:0:0:
64,320,34223,1,4,1:0:0:0:
64,64,34531,1,0,1:0:0:0:
448,64,34685,1,8,1:0:0:0:
64,320,34839,1,4,1:0:0:0:
448,64,35146,1,8,1:0:0:0:
64,320,35454,1,4,1:0:0:0:
64,64,35762,1,0,1:0:0:0:
217,186,35916,1,8,0:0:0:0:
64,320,36069,1,4,1:0:0:0:
448,64,36377,1,8,1:0:0:0:
96,114,36531,1,8,0:0:0:0:
64,320,36685,1,4,1:0:0:0:
448,64,36993,1,8,1:0:0:0:
64,320,37300,1,4,1:0:0:0:
448,64,37608,1,8,1:0:0:0:
448,64,37762,1,8,1:0:0:0:
64,320,37916,1,4,1:0:0:0:
64,64,38223,1,0,1:0:0:0:
448,64,38377,1,8,1:0:0:0:
64,320,38531,1,4,1:0:0:0:
448,64,38839,1,8,1:0:0:0:
448,64,38993,1,8,1:0:0:0:
64,320,39146,1,4,1:0:0:0:
448,64,39454,1,8,1:0:0:0:
448,64,39608,1,8,1:0:0:0:
64,320,39762,1,4,1:0:0:0:
64,64,40069,1,0,1:0:0:0:
64,64,40146,1,0,1:0:0:0:
64,64,40223,1,0,1:0:0:0:
448,64,40377,1,8,1:0:0:0:
448,64,40685,1,8,1:0:0:0:
64,64,40839,1,0,1:0:0:0:
64,64,40916,1,0,1:0:0:0:
64,64,40993,1,0,1:0:0:0:
448,64,41146,1,8,1:0:0:0:
448,64,41300,1,8,1:0:0:0:
448,64,41377,1,8,1:0:0:0:
448,64,41454,1,8,1:0:0:0:
64,64,41608,1,0,1:0:0:0:
64,64,41762,1,0,1:0:0:0:
448,64,41916,1,8,1:0:0:0:
448,64,42223,1,8,1:0:0:0:
64,64,42531,1,0,1:0:0:0:
448,64,42839,1,8,1:0:0:0:
448,64,42993,1,8,1:0:0:0:
448,64,43146,1,8,1:0:0:0:
64,64,43300,1,0,1:0:0:0:
64,64,43377,1,0,1:0:0:0:
64,64,43454,1,0,1:0:0:0:
448,64,43608,1,8,1:0:0:0:
64,64,43762,1,0,1:0:0:0:
64,64,44069,1,0,1:0:0:0:
64,64,44223,1,0,1:0:0:0:
448,64,44377,1,8,1:0:0:0:
448,64,44454,1,8,1:0:0:0:
448,64,44531,1,8,1:0:0:0:
448,64,44685,1,8,1:0:0:0:
64,64,44839,1,0,1:0:0:0:
64,64,44916,1,0,1:0:0:0:
64,64,44993,1,0,1:0:0:0:
64,64,45146,1,0,1:0:0:0:
64,64,45300,1,0,1:0:0:0:
448,64,45608,1,8,1:0:0:0:
64,64,45762,1,0,1:0:0:0:
64,64,45839,1,0,1:0:0:0:
64,64,45916,1,0,1:0:0:0:
448,64,46069,1,8,1:0:0:0:
448,64,46223,1,8,1:0:0:0:
448,64,46300,1,8,1:0:0:0:
448,64,46377,1,8,1:0:0:0:
64,64,46531,1,0,1:0:0:0:
64,64,46685,1,0,1:0:0:0:
448,64,46839,1,8,1:0:0:0:
448,64,47146,1,8,1:0:0:0:
64,64,47454,1,0,1:0:0:0:
448,64,47762,1,8,1:0:0:0:
448,64,47916,1,8,1:0:0:0:
448,64,48069,1,8,1:0:0:0:
64,64,48223,1,0,1:0:0:0:
64,64,48300,1,0,1:0:0:0:
64,64,48377,1,0,1:0:0:0:
448,64,48531,1,8,1:0:0:0:
64,64,48685,1,0,1:0:0:0:
64,64,48993,1,0,1:0:0:0:
64,64,49146,1,0,1:0:0:0:
448,64,49300,1,8,1:0:0:0:
448,64,49377,1,8,1:0:0:0:
448,64,49454,1,8,1:0:0:0:
64,64,49608,1,0,1:0:0:0:
448,64,49916,1,8,1:0:0:0:
64,320,50223,1,4,1:0:0:0:
448,64,50377,1,8,1:0:0:0:
64,320,50531,1,4,1:0:0:0:
64,320,50839,1,4,1:0:0:0:
64,320,51146,1,4,1:0:0:0:
448,64,51300,1,8,1:0:0:0:
64,320,51454,1,4,1:0:0:0:
448,320,51762,1,12,1:0:0:0:
448,320,52069,1,12,1:0:0:0:
64,64,52223,1,0,1:0:0:0:
448,320,52377,1,12,1:0:0:0:
64,320,52685,1,4,1:0:0:0:
448,64,52839,1,8,1:0:0:0:
64,320,52993,1,4,1:0:0:0:
64,320,53300,1,4,1:0:0:0:
64,320,53608,1,4,1:0:0:0:
448,64,53762,1,8,1:0:0:0:
64,320,53916,1,4,1:0:0:0:
448,320,54223,1,12,1:0:0:0:
448,320,54531,1,12,1:0:0:0:
448,320,54839,1,12,1:0:0:0:
64,320,55146,1,4,1:0:0:0:
448,64,55300,1,8,1:0:0:0:
64,320,55454,1,4,1:0:0:0:
64,320,55762,1,4,1:0:0:0:
64,320,56069,1,4,1:0:0:0:
448,64,56223,1,8,1:0:0:0:
64,320,56377,1,4,1:0:0:0:
448,320,56685,1,12,1:0:0:0:
448,320,56993,1,12,1:0:0:0:
64,64,57146,1,0,1:0:0:0:
448,320,57300,1,12,1:0:0:0:
64,320,57608,1,4,1:0:0:0:
448,64,57762,1,8,1:0:0:0:
64,320,57916,1,4,1:0:0:0:
64,320,58223,1,4,1:0:0:0:
64,320,58531,1,4,1:0:0:0:
448,64,58685,1,8,1:0:0:0:
64,320,58839,1,4,1:0:0:0:
448,320,59146,1,12,1:0:0:0:
448,320,59454,1,12,1:0:0:0:
64,64,59608,1,0,1:0:0:0:
448,320,59762,1,12,1:0:0:0:
448,320,60069,1,12,1:0:0:0:
64,64,61300,1,0,1:0:0:0:
64,64,62531,1,0,1:0:0:0:
64,64,63762,1,0,1:0:0:0:
64,64,64993,1,0,1:0:0:0:
64,64,66223,1,0,1:0:0:0:
64,64,67454,1,0,1:0:0:0:
64,64,68685,1,0,1:0:0:0:
64,64,69300,1,8,1:0:0:0:
64,320,69916,1,4,1:0:0:0:
448,64,70223,1,8,1:0:0:0:
64,64,70377,1,0,1:0:0:0:
448,320,70531,1,12,1:0:0:0:
448,64,70839,1,8,1:0:0:0:
64,320,71300,1,4,1:0:0:0:
64,320,71454,1,4,1:0:0:0:
448,320,71762,1,12,1:0:0:0:
448,64,72069,1,8,1:0:0:0:
448,64,72223,1,8,1:0:0:0:
64,320,72377,1,4,1:0:0:0:
64,64,72685,1,0,1:0:0:0:
448,64,72839,1,8,1:0:0:0:
448,320,72993,1,12,1:0:0:0:
448,64,73300,1,8,1:0:0:0:
64,320,73762,1,4,1:0:0:0:
64,320,73916,1,4,1:0:0:0:
448,320,74223,1,12,1:0:0:0:
448,64,74531,1,8,1:0:0:0:
448,64,74608,1,8,1:0:0:0:
448,64,74685,1,8,1:0:0:0:
64,320,74839,1,4,1:0:0:0:
448,64,75146,1,8,1:0:0:0:
64,64,75300,1,0,1:0:0:0:
448,320,75454,1,12,1:0:0:0:
448,64,75762,1,8,1:0:0:0:
64,320,76223,1,4,1:0:0:0:
64,320,76377,1,4,1:0:0:0:
448,320,76685,1,12,1:0:0:0:
448,64,76993,1,8,1:0:0:0:
448,64,77146,1,8,1:0:0:0:
64,320,77300,1,4,1:0:0:0:
448,64,77608,1,8,1:0:0:0:
64,64,77762,1,0,1:0:0:0:
448,320,77916,1,12,1:0:0:0:
448,64,78223,1,8,1:0:0:0:
64,320,78685,1,4,1:0:0:0:
64,320,78839,1,4,1:0:0:0:
448,320,79146,1,12,1:0:0:0:
64,64,79454,1,0,1:0:0:0:
64,320,79762,1,4,1:0:0:0:
448,64,80069,1,8,1:0:0:0:
220,175,80146,1,8,0:0:0:0:
64,64,80223,1,8,1:0:0:0:
448,320,80377,1,12,1:0:0:0:
448,64,80685,1,8,1:0:0:0:
448,64,80993,1,8,1:0:0:0:
64,320,81146,1,4,1:0:0:0:
64,320,81300,1,4,1:0:0:0:
448,320,81608,1,12,1:0:0:0:
448,64,81916,1,8,1:0:0:0:
64,320,82223,1,4,1:0:0:0:
448,64,82531,1,8,1:0:0:0:
64,64,82685,1,0,1:0:0:0:
448,320,82839,1,12,1:0:0:0:
448,64,83146,1,8,1:0:0:0:
64,320,83454,1,8,1:0:0:0:
64,320,83608,1,4,1:0:0:0:
448,64,83762,1,4,1:0:0:0:
448,320,84069,1,12,1:0:0:0:
448,64,84377,1,8,1:0:0:0:
448,64,84454,1,8,1:0:0:0:
448,64,84531,1,8,1:0:0:0:
64,320,84685,1,4,1:0:0:0:
448,64,84993,1,8,1:0:0:0:
448,320,85300,1,12,1:0:0:0:
448,64,85608,1,8,1:0:0:0:
448,64,85762,1,8,1:0:0:0:
448,64,85916,1,8,1:0:0:0:
64,320,86069,1,4,1:0:0:0:
64,320,86223,1,4,1:0:0:0:
448,320,86531,1,12,1:0:0:0:
448,64,86839,1,8,1:0:0:0:
448,64,86993,1,8,1:0:0:0:
64,320,87146,1,4,1:0:0:0:
448,64,87454,1,8,1:0:0:0:
448,320,87762,1,12,1:0:0:0:
448,64,88069,1,8,1:0:0:0:
448,64,88223,1,8,1:0:0:0:
448,64,88377,1,8,1:0:0:0:
64,320,88531,1,4,1:0:0:0:
64,320,88685,1,4,1:0:0:0:
448,320,88993,1,12,1:0:0:0:
448,64,89300,1,8,1:0:0:0:
448,64,89454,1,8,1:0:0:0:
448,320,89608,1,12,1:0:0:0:
64,64,89916,1,0,1:0:0:0:
448,64,90223,1,8,1:0:0:0:
448,64,90377,1,8,1:0:0:0:
64,64,90531,1,0,1:0:0:0:
448,64,90839,1,8,1:0:0:0:
448,64,90993,1,8,1:0:0:0:
64,64,91146,1,0,1:0:0:0:
64,64,91454,1,0,1:0:0:0:
64,64,91608,1,0,1:0:0:0:
22,175,91762,2,0,L|75:186,31,35,0|0|0|0|0|0|0|0|0|0|0|0|0|0|0|0|0|0|0|0|0|0|0|0|0|0|0|0|0|0|0|0,1:0|1:0|1:0|1:0|1:0|1:0|1:0|1:0|1:0|1:0|1:0|1:0|1:0|1:0|1:0|1:0|1:0|1:0|1:0|1:0|1:0|1:0|1:0|1:0|1:0|1:0|1:0|1:0|1:0|1:0|1:0|1:0,1:0:0:0:
