osu file format v14

[General]
AudioFilename: audio.mp3
AudioLeadIn: 0
PreviewTime: 10550
Countdown: 0
SampleSet: Normal
StackLeniency: 0.7
Mode: 1
LetterboxInBreaks: 0
WidescreenStoryboard: 1

[Editor]
DistanceSpacing: 1.3
BeatDivisor: 16
GridSize: 32
TimelineZoom: 2.499999

[Metadata]
Title:ball hard
TitleUnicode:ball hard
Artist:crafter2011
ArtistUnicode:crafter2011
Creator:maxie
Version:kantan
Source:
Tags:Minecraft vol. 1 volume one Dariacore Electronic Dance Music EDM English Instrumental Experimental deskrat Lady Gaga Telephone feat. Beyonce Jay-Z & Kanye West Ni**as In Paris Niggas mashup
BeatmapID:4156009
BeatmapSetID:1997604

[Difficulty]
HPDrainRate:9
CircleSize:5
OverallDifficulty:3
ApproachRate:5
SliderMultiplier:1.4
SliderTickRate:1

[Events]
//Background and Video events
0,0,"jVkhbH.jpg",0,0
//Break Periods
//Storyboard Layer 0 (Background)
//Storyboard Layer 1 (Fail)
//Storyboard Layer 2 (Pass)
//Storyboard Layer 3 (Foreground)
//Storyboard Layer 4 (Overlay)
//Storyboard Sound Samples

[TimingPoints]
993,307.692307692308,4,1,0,60,1,0
10839,-100,4,1,0,75,0,1
20377,-100,4,1,0,75,0,0
20685,-100,4,1,0,75,0,1
24993,-100,4,1,0,75,0,0
25608,-100,4,1,0,75,0,1
29916,-100,4,1,0,75,0,0
30454,-100,4,1,0,60,0,0
40300,-100,4,1,0,75,0,0
49839,-100,4,1,0,60,0,0

[HitObjects]
64,64,993,5,0,1:0:0:0:
448,64,1608,1,8,1:0:0:0:
448,64,2223,1,8,1:0:0:0:
64,64,3454,1,0,1:0:0:0:
448,64,4069,1,8,1:0:0:0:
448,64,4685,1,8,1:0:0:0:
64,64,5608,1,0,1:0:0:0:
448,320,5916,1,12,1:0:0:0:
64,64,6531,1,0,1:0:0:0:
448,64,7146,1,8,1:0:0:0:
64,64,7762,1,0,1:0:0:0:
64,64,8377,1,0,1:0:0:0:
448,64,8993,1,8,1:0:0:0:
64,64,9608,1,0,1:0:0:0:
64,64,10531,1,0,1:0:0:0:
448,64,10839,1,8,1:0:0:0:
64,64,11146,1,0,1:0:0:0:
448,64,11454,1,8,1:0:0:0:
64,64,12377,1,0,1:0:0:0:
448,64,12685,1,8,1:0:0:0:
64,64,13300,1,0,1:0:0:0:
64,64,13608,1,0,1:0:0:0:
448,64,13916,1,8,1:0:0:0:
448,64,14839,1,8,1:0:0:0:
448,64,15146,1,8,1:0:0:0:
64,64,15762,1,0,1:0:0:0:
64,64,16069,1,0,1:0:0:0:
448,64,16377,1,8,1:0:0:0:
64,64,17300,1,0,1:0:0:0:
448,64,17608,1,8,1:0:0:0:
64,64,18223,1,0,1:0:0:0:
64,64,18531,1,0,1:0:0:0:
448,64,18839,1,8,1:0:0:0:
448,64,19762,1,8,1:0:0:0:
448,64,20069,1,8,1:0:0:0:
64,64,20377,1,4,1:0:0:0:
448,64,20685,1,8,1:0:0:0:
64,64,20993,1,0,1:0:0:0:
448,64,21300,1,8,1:0:0:0:
64,64,22223,1,0,1:0:0:0:
448,64,22531,1,8,1:0:0:0:
64,64,23146,1,0,1:0:0:0:
64,64,23454,1,0,1:0:0:0:
448,64,23762,1,8,1:0:0:0:
448,64,24685,1,8,1:0:0:0:
448,64,24993,1,8,1:0:0:0:
448,64,25608,1,8,1:0:0:0:
64,64,25916,1,0,1:0:0:0:
448,64,26223,1,8,1:0:0:0:
448,64,27146,1,8,1:0:0:0:
448,64,27454,1,8,1:0:0:0:
448,64,28069,1,8,1:0:0:0:
64,64,28377,1,0,1:0:0:0:
448,64,28685,1,8,1:0:0:0:
64,64,29608,1,0,1:0:0:0:
448,64,29916,1,8,1:0:0:0:
64,64,30531,1,0,1:0:0:0:
448,64,31762,1,8,1:0:0:0:
448,64,32377,1,8,1:0:0:0:
64,64,32685,1,0,1:0:0:0:
448,64,32993,1,8,1:0:0:0:
64,64,33608,1,0,1:0:0:0:
448,64,34223,1,8,1:0:0:0:
448,64,34531,1,8,1:0:0:0:
64,64,34839,1,0,1:0:0:0:
64,64,35454,1,0,1:0:0:0:
64,64,36685,1,0,1:0:0:0:
448,64,36993,1,8,1:0:0:0:
64,64,37300,1,0,1:0:0:0:
64,64,37916,1,0,1:0:0:0:
448,64,38531,1,8,1:0:0:0:
448,64,39146,1,8,1:0:0:0:
64,64,39762,1,0,1:0:0:0:
448,64,40377,1,8,1:0:0:0:
64,64,41608,1,0,1:0:0:0:
448,64,41916,1,8,1:0:0:0:
448,64,42223,1,8,1:0:0:0:
448,64,42839,1,8,1:0:0:0:
64,64,44069,1,0,1:0:0:0:
448,64,44377,1,8,1:0:0:0:
448,64,45300,1,8,1:0:0:0:
64,64,46531,1,0,1:0:0:0:
448,64,46839,1,8,1:0:0:0:
96,155,47146,1,0,0:0:0:0:
448,64,47762,1,8,1:0:0:0:
64,64,48993,1,0,1:0:0:0:
64,64,49608,1,0,1:0:0:0:
448,64,49916,1,8,1:0:0:0:
64,64,50223,1,0,1:0:0:0:
64,64,51454,1,0,1:0:0:0:
448,64,51762,1,8,1:0:0:0:
64,64,52069,1,0,1:0:0:0:
64,64,52685,1,0,1:0:0:0:
64,64,53916,1,0,1:0:0:0:
448,64,54223,1,8,1:0:0:0:
448,64,54531,1,8,1:0:0:0:
64,64,55146,1,0,1:0:0:0:
64,64,56377,1,0,1:0:0:0:
448,64,56685,1,8,1:0:0:0:
64,64,56993,1,0,1:0:0:0:
64,64,57608,1,0,1:0:0:0:
64,64,58839,1,0,1:0:0:0:
64,64,59146,1,0,1:0:0:0:
448,64,59454,1,8,1:0:0:0:
448,64,59762,1,8,1:0:0:0:
448,320,60069,1,12,1:0:0:0:
64,64,61300,1,0,1:0:0:0:
64,64,62531,1,0,1:0:0:0:
64,64,63762,1,0,1:0:0:0:
64,64,64993,1,0,1:0:0:0:
64,64,66223,1,0,1:0:0:0:
64,64,67454,1,0,1:0:0:0:
64,64,68685,1,0,1:0:0:0:
64,64,69300,1,8,1:0:0:0:
64,320,69916,1,4,1:0:0:0:
448,320,70531,1,12,1:0:0:0:
64,64,70839,1,0,1:0:0:0:
448,320,71762,1,12,1:0:0:0:
64,320,72377,1,4,1:0:0:0:
448,320,72993,1,12,1:0:0:0:
64,64,73300,1,0,1:0:0:0:
448,320,74223,1,12,1:0:0:0:
64,320,74839,1,4,1:0:0:0:
448,320,75454,1,12,1:0:0:0:
448,64,75762,1,8,1:0:0:0:
448,320,76685,1,12,1:0:0:0:
64,320,77300,1,4,1:0:0:0:
448,320,77916,1,12,1:0:0:0:
64,64,78223,1,0,1:0:0:0:
448,320,79146,1,12,1:0:0:0:
64,64,79454,1,0,1:0:0:0:
64,320,79762,1,4,1:0:0:0:
448,320,80377,1,12,1:0:0:0:
448,64,80685,1,8,1:0:0:0:
448,320,81608,1,12,1:0:0:0:
64,320,82223,1,4,1:0:0:0:
64,64,82531,1,0,1:0:0:0:
448,320,82839,1,12,1:0:0:0:
448,64,83146,1,8,1:0:0:0:
448,320,84069,1,12,1:0:0:0:
448,64,84377,1,8,1:0:0:0:
64,320,84685,1,4,1:0:0:0:
448,320,85300,1,12,1:0:0:0:
448,64,85608,1,8,1:0:0:0:
448,320,86531,1,12,1:0:0:0:
64,320,87146,1,4,1:0:0:0:
64,64,87454,1,0,1:0:0:0:
448,320,87762,1,12,1:0:0:0:
448,64,88069,1,8,1:0:0:0:
448,320,88993,1,12,1:0:0:0:
448,64,89300,1,8,1:0:0:0:
448,320,89608,1,12,1:0:0:0:
448,64,90223,1,8,1:0:0:0:
448,64,90839,1,8,1:0:0:0:
64,64,91454,1,0,1:0:0:0:
0,384,91762,6,0,L|512:384,1,1085,0|0,1:0|1:0,1:0:0:0:
