osu file format v14

[General]
AudioFilename: audio.mp3
AudioLeadIn: 0
PreviewTime: 10550
Countdown: 0
SampleSet: Normal
StackLeniency: 0.7
Mode: 1
LetterboxInBreaks: 0
WidescreenStoryboard: 0

[Editor]
DistanceSpacing: 1.3
BeatDivisor: 3
GridSize: 32
TimelineZoom: 4.699997

[Metadata]
Title:ball hard
TitleUnicode:ball hard
Artist:crafter2011
ArtistUnicode:crafter2011
Creator:maxie
Version:inner oni
Source:
Tags:Minecraft vol. 1 volume one Dariacore Electronic Dance Music EDM English Instrumental Experimental deskrat Lady Gaga Telephone feat. Beyonce Jay-Z & Kanye West Ni**as In Paris Niggas mashup
BeatmapID:4151955
BeatmapSetID:1997604

[Difficulty]
HPDrainRate:7
CircleSize:5
OverallDifficulty:7
ApproachRate:5
SliderMultiplier:1.4
SliderTickRate:1

[Events]
//Background and Video events
0,0,"jVkhbH.jpg",0,0
//Break Periods
//Storyboard Layer 0 (Background)
//Storyboard Layer 1 (Fail)
//Storyboard Layer 2 (Pass)
//Storyboard Layer 3 (Foreground)
//Storyboard Layer 4 (Overlay)
//Storyboard Sound Samples

[TimingPoints]
993,307.692307692308,4,1,0,60,1,0
1141,-106.626245127761,4,1,0,60,0,0
1603,-133.297238765566,4,1,0,60,0,0
1757,-145.42232722977,4,1,0,60,0,0
1911,-159.974009096816,4,1,0,60,0,0
2218,-200,4,1,0,60,0,0
3449,-100,4,1,0,60,0,0
3603,-105.85086042065,4,1,0,60,0,0
3911,-119.982661465106,4,1,0,60,0,0
4064,-128.505106778087,4,1,0,60,0,0
4218,-138.4,4,1,0,60,0,0
4372,-149.945828819068,4,1,0,60,0,0
4680,-179.973992197659,4,1,0,60,0,0
4834,-200,4,1,0,60,0,0
5834,-100,4,1,0,60,0,0
5911,-66.6666666666667,4,1,0,60,0,0
6218,-100,4,1,0,60,0,0
6680,-106.672443674177,4,1,0,60,0,0
6834,-114.298978644383,4,1,0,60,0,0
7141,-133.369447453955,4,1,0,60,0,0
7295,-145.42232722977,4,1,0,60,0,0
7757,-200,4,1,0,60,0,0
8372,-100,4,1,0,60,0,0
8526,-105.85086042065,4,1,0,60,0,0
8834,-119.982661465106,4,1,0,60,0,0
8988,-128.564793311658,4,1,0,60,0,0
9141,-138.4,4,1,0,60,0,0
9295,-149.945828819068,4,1,0,60,0,0
9603,-179.973992197659,4,1,0,60,0,0
9757,-200,4,1,0,60,0,0
10218,-125,4,1,0,60,0,0
10295,-117.71472392638,4,1,0,60,0,0
10372,-111.151339608979,4,1,0,60,0,0
10449,-105.281207133059,4,1,0,60,0,0
10526,-66.6666666666667,4,1,0,60,0,0
10834,-100,4,1,0,60,0,0
10839,-100,4,1,0,60,0,1
10911,-100.841254233585,4,1,0,60,0,1
10988,-101.696782723667,4,1,0,60,0,1
11064,-102.555555555556,4,1,0,60,0,1
11141,-103.440546901266,4,1,0,60,0,1
11218,-104.340945059914,4,1,0,60,0,1
11295,-105.257155890067,4,1,0,60,0,1
11372,-106.189599631845,4,1,0,60,0,1
11449,-107.138711549623,4,1,0,60,0,1
11526,-108.10494260951,4,1,0,60,0,1
11603,-109.08876019383,4,1,0,60,0,1
11680,-110.090648854962,4,1,0,60,0,1
11757,-111.111111111111,4,1,0,60,0,1
11834,-112.150668286756,4,1,0,60,0,1
11911,-113.209861400711,4,1,0,60,0,1
11988,-114.289252105003,4,1,0,60,0,1
12064,-115.375,4,1,0,60,0,1
12065,-115.38942367796,4,1,0,60,0,1
12141,-116.49627666288,4,1,0,60,0,1
12218,-117.639561560031,4,1,0,60,0,1
12295,-118.805509074527,4,1,0,60,0,1
12372,-119.994799791992,4,1,0,60,0,1
12449,-121.208141825345,4,1,0,60,0,1
12526,-122.446272220748,4,1,0,60,0,1
12603,-123.70995845061,4,1,0,60,0,1
12680,-125,4,1,0,60,0,1
12757,-121.212121212121,4,1,0,60,0,1
12834,-117.647058823529,4,1,0,60,0,1
12911,-114.285714285714,4,1,0,60,0,1
12988,-111.111111111111,4,1,0,60,0,1
13064,-108.14606741573,4,1,0,60,0,1
13141,-105.299145299145,4,1,0,60,0,1
13218,-102.598267821452,4,1,0,60,0,1
13295,-100.032478077298,4,1,0,60,0,1
13372,-100.830238147258,4,1,0,60,0,1
13449,-101.685578935772,4,1,0,60,0,1
13526,-102.555555555556,4,1,0,60,0,1
13603,-103.440546901266,4,1,0,60,0,1
13680,-104.340945059914,4,1,0,60,0,1
13757,-105.257155890067,4,1,0,60,0,1
13834,-106.189599631845,4,1,0,60,0,1
13911,-107.138711549623,4,1,0,60,0,1
13988,-108.10494260951,4,1,0,60,0,1
14064,-109.075868588986,4,1,0,60,0,1
14141,-110.077519379845,4,1,0,60,0,1
14218,-111.097737120847,4,1,0,60,0,1
14295,-112.137042886648,4,1,0,60,0,1
14372,-113.195977434388,4,1,0,60,0,1
14449,-114.275102141884,4,1,0,60,0,1
14526,-115.375,4,1,0,60,0,1
14603,-116.49627666288,4,1,0,60,0,1
14680,-117.639561560031,4,1,0,60,0,1
14757,-118.805509074527,4,1,0,60,0,1
14834,-119.994799791992,4,1,0,60,0,1
14911,-121.208141825345,4,1,0,60,0,1
14988,-122.446272220748,4,1,0,60,0,1
15064,-123.693379790941,4,1,0,60,0,1
15141,-125.035172495678,4,1,0,60,0,1
15218,-121.241058964751,4,1,0,60,0,1
15295,-117.670424084208,4,1,0,60,0,1
15372,-114.30408790449,4,1,0,60,0,1
15449,-111.12500424624,4,1,0,60,0,1
15526,-108.117972002192,4,1,0,60,0,1
15603,-105.269392076963,4,1,0,60,0,1
15680,-102.567061763883,4,1,0,60,0,1
15757,-100,4,1,0,60,0,1
15834,-100.841254233585,4,1,0,60,0,1
15911,-101.696782723667,4,1,0,60,0,1
15988,-102.566951883543,4,1,0,60,0,1
16064,-103.440546901266,4,1,0,60,0,1
16141,-104.340945059914,4,1,0,60,0,1
16218,-105.257155890067,4,1,0,60,0,1
16295,-106.189599631845,4,1,0,60,0,1
16372,-107.138711549623,4,1,0,60,0,1
16449,-108.10494260951,4,1,0,60,0,1
16526,-109.08876019383,4,1,0,60,0,1
16603,-110.090648854962,4,1,0,60,0,1
16680,-111.111111111111,4,1,0,60,0,1
16757,-112.150668286756,4,1,0,60,0,1
16834,-113.209861400711,4,1,0,60,0,1
16911,-114.289252105003,4,1,0,60,0,1
16988,-115.38942367796,4,1,0,60,0,1
17064,-116.49627666288,4,1,0,60,0,1
17141,-117.639561560031,4,1,0,60,0,1
17218,-118.805509074527,4,1,0,60,0,1
17295,-119.994799791992,4,1,0,60,0,1
17372,-121.208141825345,4,1,0,60,0,1
17449,-122.446272220748,4,1,0,60,0,1
17526,-123.70995845061,4,1,0,60,0,1
17603,-125,4,1,0,60,0,1
17680,-121.212121212121,4,1,0,60,0,1
17757,-117.647058823529,4,1,0,60,0,1
17834,-114.285714285714,4,1,0,60,0,1
17911,-111.111111111111,4,1,0,60,0,1
17988,-108.108108108108,4,1,0,60,0,1
18064,-105.299145299145,4,1,0,60,0,1
18141,-102.598267821452,4,1,0,60,0,1
18218,-100.032478077298,4,1,0,60,0,1
18295,-100.830238147258,4,1,0,60,0,1
18372,-101.685578935772,4,1,0,60,0,1
18449,-102.555555555556,4,1,0,60,0,1
18526,-103.440546901266,4,1,0,60,0,1
18603,-104.340945059914,4,1,0,60,0,1
18680,-105.257155890067,4,1,0,60,0,1
18757,-106.189599631845,4,1,0,60,0,1
18834,-107.138711549623,4,1,0,60,0,1
18911,-108.10494260951,4,1,0,60,0,1
18988,-109.08876019383,4,1,0,60,0,1
19064,-110.077519379845,4,1,0,60,0,1
19141,-111.097737120847,4,1,0,60,0,1
19218,-112.137042886648,4,1,0,60,0,1
19295,-113.195977434388,4,1,0,60,0,1
19372,-114.275102141884,4,1,0,60,0,1
19449,-115.375,4,1,0,60,0,1
19526,-116.49627666288,4,1,0,60,0,1
19603,-117.639561560031,4,1,0,60,0,1
19680,-118.805509074527,4,1,0,60,0,1
19757,-119.994799791992,4,1,0,60,0,1
19834,-121.208141825345,4,1,0,60,0,1
19911,-122.446272220748,4,1,0,60,0,1
19988,-123.70995845061,4,1,0,60,0,1
20064,-125.035172495678,4,1,0,60,0,1
20141,-121.241058964751,4,1,0,60,0,1
20218,-117.670424084208,4,1,0,60,0,1
20295,-114.30408790449,4,1,0,60,0,1
20372,-111.111111111111,4,1,0,60,0,1
20377,-111.12500424624,4,1,0,60,0,0
20680,-100,4,1,0,60,0,0
20685,-100,4,1,0,60,0,1
20757,-100.841254233585,4,1,0,60,0,1
20834,-101.696782723667,4,1,0,60,0,1
20911,-102.566951883543,4,1,0,60,0,1
20988,-103.452140775611,4,1,0,60,0,1
21064,-104.340945059914,4,1,0,60,0,1
21141,-105.257155890067,4,1,0,60,0,1
21218,-106.189599631845,4,1,0,60,0,1
21295,-107.138711549623,4,1,0,60,0,1
21372,-108.10494260951,4,1,0,60,0,1
21449,-109.08876019383,4,1,0,60,0,1
21526,-110.090648854962,4,1,0,60,0,1
21603,-111.111111111111,4,1,0,60,0,1
21680,-112.150668286756,4,1,0,60,0,1
21757,-113.209861400711,4,1,0,60,0,1
21834,-114.289252105003,4,1,0,60,0,1
21911,-115.38942367796,4,1,0,60,0,1
21988,-116.510982075234,4,1,0,60,0,1
22064,-117.639561560031,4,1,0,60,0,1
22141,-118.805509074527,4,1,0,60,0,1
22218,-119.994799791992,4,1,0,60,0,1
22295,-121.208141825345,4,1,0,60,0,1
22372,-122.446272220748,4,1,0,60,0,1
22449,-123.70995845061,4,1,0,60,0,1
22526,-125,4,1,0,60,0,1
22603,-121.212121212121,4,1,0,60,0,1
22680,-117.647058823529,4,1,0,60,0,1
22757,-114.285714285714,4,1,0,60,0,1
22834,-111.111111111111,4,1,0,60,0,1
22911,-108.108108108108,4,1,0,60,0,1
22988,-105.263157894737,4,1,0,60,0,1
23064,-102.598267821452,4,1,0,60,0,1
23141,-100.032478077298,4,1,0,60,0,1
23218,-100.830238147258,4,1,0,60,0,1
23295,-101.685578935772,4,1,0,60,0,1
23372,-102.555555555556,4,1,0,60,0,1
23449,-103.440546901266,4,1,0,60,0,1
23526,-104.340945059914,4,1,0,60,0,1
23603,-105.257155890067,4,1,0,60,0,1
23680,-106.189599631845,4,1,0,60,0,1
23757,-107.138711549623,4,1,0,60,0,1
23834,-108.10494260951,4,1,0,60,0,1
23911,-109.08876019383,4,1,0,60,0,1
23988,-110.090648854962,4,1,0,60,0,1
24064,-111.097737120847,4,1,0,60,0,1
24141,-112.137042886648,4,1,0,60,0,1
24218,-113.195977434388,4,1,0,60,0,1
24295,-114.275102141884,4,1,0,60,0,1
24372,-115.375,4,1,0,60,0,1
24373,-115.38942367796,4,1,0,60,0,1
24449,-116.49627666288,4,1,0,60,0,1
24526,-117.639561560031,4,1,0,60,0,1
24603,-118.805509074527,4,1,0,60,0,1
24680,-119.994799791992,4,1,0,60,0,1
24757,-121.208141825345,4,1,0,60,0,1
24834,-122.446272220748,4,1,0,60,0,1
24911,-123.70995845061,4,1,0,60,0,1
24988,-125,4,1,0,60,0,1
24993,-125,4,1,0,60,0,0
25064,-113.216263056209,4,1,0,60,0,0
25141,-117.68082663605,4,1,0,60,0,0
25218,-114.312267657993,4,1,0,60,0,0
25295,-107.147318159509,4,1,0,60,0,0
25372,-108.122362869198,4,1,0,60,0,0
25449,-105.272167066073,4,1,0,60,0,0
25526,-101.718323338195,4,1,0,60,0,0
25603,-100,4,1,0,60,0,0
25608,-100,4,1,0,60,0,1
25680,-100.840794933392,4,1,0,60,0,1
25757,-101.695848474838,4,1,0,60,0,1
25834,-102.565526432697,4,1,0,60,0,1
25911,-103.450207236474,4,1,0,60,0,1
25988,-104.350282485876,4,1,0,60,0,1
26064,-105.254160018236,4,1,0,60,0,1
26141,-106.18604116362,4,1,0,60,0,1
26218,-107.134570765661,4,1,0,60,0,1
26295,-108.100198993328,4,1,0,60,0,1
26372,-109.083392393102,4,1,0,60,0,1
26449,-110.084634640601,4,1,0,60,0,1
26526,-111.104427333975,4,1,0,60,0,1
26603,-112.143290831815,4,1,0,60,0,1
26680,-113.201765138514,4,1,0,60,0,1
26757,-114.280410840243,4,1,0,60,0,1
26834,-115.379810094953,4,1,0,60,0,1
26911,-116.500567680081,4,1,0,60,0,1
26988,-117.643312101911,4,1,0,60,0,1
27064,-118.793413943916,4,1,0,60,0,1
27141,-119.981811095232,4,1,0,60,0,1
27218,-121.194225721785,4,1,0,60,0,1
27295,-122.431393344823,4,1,0,60,0,1
27372,-123.694079828556,4,1,0,60,0,1
27449,-125.035172495678,4,1,0,60,0,1
27526,-121.241058964751,4,1,0,60,0,1
27603,-117.670424084208,4,1,0,60,0,1
27680,-114.30408790449,4,1,0,60,0,1
27757,-111.12500424624,4,1,0,60,0,1
27834,-108.117972002192,4,1,0,60,0,1
27911,-105.269392076963,4,1,0,60,0,1
27988,-102.567061763883,4,1,0,60,0,1
28064,-100.032514633618,4,1,0,60,0,1
28141,-100.830238147258,4,1,0,60,0,1
28218,-101.685578935772,4,1,0,60,0,1
28295,-102.555555555556,4,1,0,60,0,1
28372,-103.440546901266,4,1,0,60,0,1
28449,-104.340945059914,4,1,0,60,0,1
28526,-105.257155890067,4,1,0,60,0,1
28603,-106.189599631845,4,1,0,60,0,1
28680,-107.138711549623,4,1,0,60,0,1
28757,-108.10494260951,4,1,0,60,0,1
28834,-109.08876019383,4,1,0,60,0,1
28911,-110.090648854962,4,1,0,60,0,1
28988,-111.111111111111,4,1,0,60,0,1
29064,-112.137042886648,4,1,0,60,0,1
29141,-113.195977434388,4,1,0,60,0,1
29218,-114.275102141884,4,1,0,60,0,1
29295,-115.375,4,1,0,60,0,1
29296,-115.38942367796,4,1,0,60,0,1
29372,-116.49627666288,4,1,0,60,0,1
29449,-117.639561560031,4,1,0,60,0,1
29526,-118.805509074527,4,1,0,60,0,1
29603,-119.994799791992,4,1,0,60,0,1
29680,-121.208141825345,4,1,0,60,0,1
29757,-122.446272220748,4,1,0,60,0,1
29834,-123.70995845061,4,1,0,60,0,1
29911,-115.394963328656,4,1,0,60,0,1
29916,-125,4,1,0,60,0,0
30526,-100,4,1,0,60,0,0
30834,-102.742165242165,4,1,0,60,0,0
30988,-104.170427875068,4,1,0,60,0,0
31141,-100,4,1,0,60,0,0
31449,-108.703843255463,4,1,0,60,0,0
31603,-110.293414890567,4,1,0,60,0,0
31757,-100,4,1,0,60,0,0
31911,-113.638601674052,4,1,0,60,0,0
32064,-115.376924615077,4,1,0,60,0,0
32372,-100,4,1,0,60,0,0
32526,-120.964360587002,4,1,0,60,0,0
32680,-122.949073087577,4,1,0,60,0,0
32834,-125,4,1,0,60,0,0
32988,-100,4,1,0,60,0,0
33141,-129.299719887955,4,1,0,60,0,0
33295,-131.584948688712,4,1,0,60,0,0
33449,-133.936861652739,4,1,0,60,0,0
33603,-100,4,1,0,60,0,0
33911,-141.508277130595,4,1,0,60,0,0
34064,-144.231971003625,4,1,0,60,0,0
34218,-100,4,1,0,60,0,0
34372,-149.987002859371,4,1,0,60,0,0
34526,-153.050397877984,4,1,0,60,0,0
34680,-156.24153804495,4,1,0,60,0,0
34834,-100,4,1,0,60,0,0
34988,-163.040406894603,4,1,0,60,0,0
35141,-166.666666666667,4,1,0,60,0,0
35449,-100,4,1,0,60,0,0
35603,-101.441424466532,4,1,0,60,0,0
35757,-102.934850150566,4,1,0,60,0,0
36064,-100,4,1,0,60,0,0
36218,-107.680384019201,4,1,0,60,0,0
36372,-109.37579359033,4,1,0,60,0,0
36680,-100,4,1,0,60,0,0
36834,-114.749293973464,4,1,0,60,0,0
36988,-116.663957960886,4,1,0,60,0,0
37295,-100,4,1,0,60,0,0
37449,-122.797513827907,4,1,0,60,0,0
37603,-124.99274479076,4,1,0,60,0,0
37757,-127.26789196856,4,1,0,60,0,0
37911,-100,4,1,0,60,0,0
38064,-132.076050291322,4,1,0,60,0,0
38218,-134.602162635165,4,1,0,60,0,0
38372,-137.261775766461,4,1,0,60,0,0
38526,-100,4,1,0,60,0,0
38834,-145.831922529966,4,1,0,60,0,0
38988,-148.938377481154,4,1,0,60,0,0
39141,-100,4,1,0,60,0,0
39295,-155.565990031063,4,1,0,60,0,0
39449,-159.106021425933,4,1,0,60,0,0
39603,-162.786302819563,4,1,0,60,0,0
39757,-100,4,1,0,60,0,0
39911,-125,4,1,0,60,0,0
39988,-120,4,1,0,60,0,0
40064,-115.384615384615,4,1,0,60,0,0
40141,-111.111111111111,4,1,0,60,0,0
40218,-107.142857142857,4,1,0,60,0,0
40295,-103.448275862069,4,1,0,60,0,0
40372,-100,4,1,0,75,0,0
40911,-97.5609756097561,4,1,0,75,0,0
40988,-95.2380952380952,4,1,0,75,0,0
41064,-93.0513595166163,4,1,0,75,0,0
41141,-90.9359315028048,4,1,0,75,0,0
41295,-100,4,1,0,75,0,0
41372,-102.538410153641,4,1,0,75,0,0
41449,-105.245114844018,4,1,0,75,0,0
41526,-108.098591549296,4,1,0,75,0,0
41603,-111.111111111111,4,1,0,75,0,0
42064,-100,4,1,0,75,0,0
42141,-97.5609756097561,4,1,0,75,0,0
42218,-95.2380952380952,4,1,0,75,0,0
42295,-93.0513595166163,4,1,0,75,0,0
42372,-90.9359315028048,4,1,0,75,0,0
42526,-100,4,1,0,75,0,0
42603,-102.538410153641,4,1,0,75,0,0
42680,-105.245114844018,4,1,0,75,0,0
42757,-108.098591549296,4,1,0,75,0,0
42834,-100,4,1,0,75,0,0
43372,-97.5842339478703,4,1,0,75,0,0
43449,-95.2528699968973,4,1,0,75,0,0
43603,-90.9090909090909,4,1,0,75,0,0
43680,-92.3076923076923,4,1,0,75,0,0
43757,-93.75,4,1,0,75,0,0
43834,-95.2380952380952,4,1,0,75,0,0
43911,-96.7741935483871,4,1,0,75,0,0
44064,-99.9674726227909,4,1,0,75,0,0
44218,-105.23912795343,4,1,0,75,0,0
44372,-111.097722617183,4,1,0,75,0,0
44449,-114.278631631135,4,1,0,75,0,0
44526,-117.647058823529,4,1,0,75,0,0
44834,-112.676056338028,4,1,0,75,0,0
44911,-110.344827586207,4,1,0,75,0,0
44988,-108.108108108108,4,1,0,75,0,0
45064,-105.987611837577,4,1,0,75,0,0
45141,-103.922395613665,4,1,0,75,0,0
45295,-100,4,1,0,75,0,0
45834,-97.5609756097561,4,1,0,75,0,0
45911,-95.2380952380952,4,1,0,75,0,0
45988,-93.0513595166163,4,1,0,75,0,0
46064,-90.9359315028048,4,1,0,75,0,0
46218,-100,4,1,0,75,0,0
46295,-102.538410153641,4,1,0,75,0,0
46372,-105.245114844018,4,1,0,75,0,0
46449,-108.098591549296,4,1,0,75,0,0
46526,-111.111111111111,4,1,0,75,0,0
46988,-100,4,1,0,75,0,0
47064,-97.5609756097561,4,1,0,75,0,0
47141,-95.2380952380952,4,1,0,75,0,0
47218,-93.0513595166163,4,1,0,75,0,0
47295,-90.9359315028048,4,1,0,75,0,0
47449,-100,4,1,0,75,0,0
47526,-102.538410153641,4,1,0,75,0,0
47603,-105.245114844018,4,1,0,75,0,0
47680,-108.098591549296,4,1,0,75,0,0
47757,-100,4,1,0,75,0,0
48295,-97.5842339478703,4,1,0,75,0,0
48372,-95.2528699968973,4,1,0,75,0,0
48526,-90.9090909090909,4,1,0,75,0,0
48603,-92.3076923076923,4,1,0,75,0,0
48680,-93.75,4,1,0,75,0,0
48757,-95.2380952380952,4,1,0,75,0,0
48834,-96.7741935483871,4,1,0,75,0,0
48988,-99.9674726227909,4,1,0,75,0,0
49141,-105.23912795343,4,1,0,75,0,0
49295,-111.097722617183,4,1,0,75,0,0
49372,-114.278631631135,4,1,0,75,0,0
49449,-117.647058823529,4,1,0,75,0,0
49603,-100,4,1,0,75,0,0
49911,-66.6666666666667,4,1,0,60,0,0
50218,-100,4,1,0,60,0,0
50372,-95.2233250620347,4,1,0,60,0,0
50449,-93.030303030303,4,1,0,60,0,0
50526,-90.9090909090909,4,1,0,60,0,0
50680,-95.2380952380952,4,1,0,60,0,0
50757,-97.5609756097561,4,1,0,60,0,0
50834,-100,4,1,0,60,0,0
50988,-105.263157894737,4,1,0,60,0,0
51141,-111.111111111111,4,1,0,60,0,0
51295,-105.299145299145,4,1,0,60,0,0
51372,-102.564102564103,4,1,0,60,0,0
51449,-100,4,1,0,60,0,0
51603,-95.2528699968973,4,1,0,60,0,0
51680,-93.030303030303,4,1,0,60,0,0
51757,-90.9090909090909,4,1,0,60,0,0
51911,-95.2380952380952,4,1,0,60,0,0
52064,-99.9675430055177,4,1,0,60,0,0
52218,-105.227195080287,4,1,0,60,0,0
52372,-111.071042192571,4,1,0,60,0,0
52680,-100,4,1,0,60,0,0
52834,-95.2233250620347,4,1,0,60,0,0
52911,-93.030303030303,4,1,0,60,0,0
52988,-90.9090909090909,4,1,0,60,0,0
53141,-95.2380952380952,4,1,0,60,0,0
53218,-97.530082330589,4,1,0,60,0,0
53295,-99.9675430055177,4,1,0,60,0,0
53449,-105.263157894737,4,1,0,60,0,0
53603,-111.111111111111,4,1,0,60,0,0
53757,-105.299145299145,4,1,0,60,0,0
53834,-102.564102564103,4,1,0,60,0,0
53911,-100,4,1,0,60,0,0
54064,-95.2528699968973,4,1,0,60,0,0
54141,-93.030303030303,4,1,0,60,0,0
54218,-90.8822225506133,4,1,0,60,0,0
54372,-95.2159777055272,4,1,0,60,0,0
54526,-99.9837424808974,4,1,0,60,0,0
54680,-105.254150265275,4,1,0,60,0,0
54834,-111.111111111111,4,1,0,60,0,0
55141,-100,4,1,0,60,0,0
55295,-95.2233250620347,4,1,0,60,0,0
55372,-93.030303030303,4,1,0,60,0,0
55449,-90.9090909090909,4,1,0,60,0,0
55603,-95.2380952380952,4,1,0,60,0,0
55680,-97.5609756097561,4,1,0,60,0,0
55757,-100,4,1,0,60,0,0
55911,-105.263157894737,4,1,0,60,0,0
56064,-111.111111111111,4,1,0,60,0,0
56218,-105.299145299145,4,1,0,60,0,0
56295,-102.564102564103,4,1,0,60,0,0
56372,-100,4,1,0,60,0,0
56526,-95.2528699968973,4,1,0,60,0,0
56603,-93.030303030303,4,1,0,60,0,0
56680,-90.9090909090909,4,1,0,60,0,0
56834,-95.2380952380952,4,1,0,60,0,0
56988,-100,4,1,0,60,0,0
57141,-105.227195080287,4,1,0,60,0,0
57295,-111.071042192571,4,1,0,60,0,0
57603,-100,4,1,0,60,0,0
57757,-95.2233250620347,4,1,0,60,0,0
57834,-93.030303030303,4,1,0,60,0,0
57911,-90.9090909090909,4,1,0,60,0,0
58064,-95.2380952380952,4,1,0,60,0,0
58141,-97.530082330589,4,1,0,60,0,0
58218,-99.9675430055177,4,1,0,60,0,0
58372,-105.263157894737,4,1,0,60,0,0
58526,-111.111111111111,4,1,0,60,0,0
58680,-105.299145299145,4,1,0,60,0,0
58757,-102.564102564103,4,1,0,60,0,0
58834,-100,4,1,0,60,0,0
58988,-95.2528699968973,4,1,0,60,0,0
59064,-93.030303030303,4,1,0,60,0,0
59141,-90.8822225506133,4,1,0,60,0,0
59295,-95.2159777055272,4,1,0,60,0,0
59449,-99.9837424808974,4,1,0,60,0,0
59603,-105.254150265275,4,1,0,60,0,0
59757,-111.111111111111,4,1,0,60,0,0
60064,-153.846153846154,4,1,0,60,0,0
61295,-162.792894935752,4,1,0,60,0,0
62526,-172.835790951951,4,1,0,60,0,0
63757,-184.209119580906,4,1,0,60,0,0
64988,-197.18471046006,4,1,0,60,0,0
66218,-212.126808248692,4,1,0,60,0,0
67449,-229.519115492207,4,1,0,60,0,0
68680,-250,4,1,0,60,0,0
69295,-50,4,1,0,60,0,0
69911,-200,4,1,0,60,0,0
69988,-166.666666666667,4,1,0,60,0,0
70526,-200,4,1,0,60,0,0
70603,-166.666666666667,4,1,0,60,0,0
71295,-200,4,1,0,60,0,0
71372,-166.666666666667,4,1,0,60,0,0
71449,-200,4,1,0,60,0,0
71526,-166.666666666667,4,1,0,60,0,0
71757,-200,4,1,0,60,0,0
71834,-166.666666666667,4,1,0,60,0,0
72372,-200,4,1,0,60,0,0
72449,-166.666666666667,4,1,0,60,0,0
72988,-200,4,1,0,60,0,0
73064,-166.666666666667,4,1,0,60,0,0
73757,-200,4,1,0,60,0,0
73834,-166.666666666667,4,1,0,60,0,0
73911,-200,4,1,0,60,0,0
73988,-166.666666666667,4,1,0,60,0,0
74218,-200,4,1,0,60,0,0
74295,-166.666666666667,4,1,0,60,0,0
74834,-200,4,1,0,60,0,0
74911,-166.666666666667,4,1,0,60,0,0
75449,-200,4,1,0,60,0,0
75526,-166.666666666667,4,1,0,60,0,0
76218,-200,4,1,0,60,0,0
76295,-166.666666666667,4,1,0,60,0,0
76372,-200,4,1,0,60,0,0
76449,-166.666666666667,4,1,0,60,0,0
76680,-200,4,1,0,60,0,0
76757,-166.666666666667,4,1,0,60,0,0
77295,-200,4,1,0,60,0,0
77372,-166.666666666667,4,1,0,60,0,0
77911,-200,4,1,0,60,0,0
77988,-166.666666666667,4,1,0,60,0,0
78680,-200,4,1,0,60,0,0
78757,-166.666666666667,4,1,0,60,0,0
78834,-200,4,1,0,60,0,0
78911,-166.666666666667,4,1,0,60,0,0
79141,-200,4,1,0,60,0,0
79218,-166.666666666667,4,1,0,60,0,0
79449,-100,4,1,0,60,0,0
79757,-200,4,1,0,60,0,0
79834,-166.666666666667,4,1,0,60,0,0
80141,-167.818181818182,4,1,0,60,0,0
80218,-169.016663614723,4,1,0,60,0,0
80372,-200,4,1,0,60,0,0
80449,-166.666666666667,4,1,0,60,0,0
80526,-173.904851625059,4,1,0,60,0,0
80680,-176.464965108498,4,1,0,60,0,0
80988,-181.818181818182,4,1,0,60,0,0
81141,-200,4,1,0,60,0,0
81218,-166.666666666667,4,1,0,60,0,0
81295,-200,4,1,0,60,0,0
81372,-166.666666666667,4,1,0,60,0,0
81449,-190.466364011556,4,1,0,60,0,0
81603,-200,4,1,0,60,0,0
81680,-166.666666666667,4,1,0,60,0,0
81911,-181.818181818182,4,1,0,60,0,0
82064,-190.417310664606,4,1,0,60,0,0
82218,-199.935086011035,4,1,0,60,0,0
82219,-200,4,1,0,60,0,0
82295,-166.666666666667,4,1,0,60,0,0
82449,-167.598982927715,4,1,0,60,0,0
82526,-168.529476221784,4,1,0,60,0,0
82680,-170.446989287034,4,1,0,60,0,0
82834,-200,4,1,0,60,0,0
82911,-166.666666666667,4,1,0,60,0,0
82988,-174.415967339533,4,1,0,60,0,0
83141,-176.470588235294,4,1,0,60,0,0
83295,-178.574193048998,4,1,0,60,0,0
83449,-181.818181818182,4,1,0,60,0,0
83526,-166.666666666667,4,1,0,60,0,0
83603,-200,4,1,0,60,0,0
83680,-166.666666666667,4,1,0,60,0,0
83757,-200,4,1,0,60,0,0
83911,-187.5,4,1,0,60,0,0
84064,-200,4,1,0,60,0,0
84141,-166.666666666667,4,1,0,60,0,0
84218,-192.29807451863,4,1,0,60,0,0
84372,-181.764357608052,4,1,0,60,0,0
84449,-186.004241139049,4,1,0,60,0,0
84526,-190.446650124069,4,1,0,60,0,0
84603,-195.106450587861,4,1,0,60,0,0
84680,-200,4,1,0,60,0,0
84757,-166.666666666667,4,1,0,60,0,0
85064,-167.665602864482,4,1,0,60,0,0
85141,-168.663377965703,4,1,0,60,0,0
85295,-200,4,1,0,60,0,0
85372,-166.666666666667,4,1,0,60,0,0
85449,-172.831581481184,4,1,0,60,0,0
85603,-174.993906897392,4,1,0,60,0,0
85757,-177.211024269848,4,1,0,60,0,0
85834,-178.340784898162,4,1,0,60,0,0
85911,-179.485042913091,4,1,0,60,0,0
86064,-200,4,1,0,60,0,0
86141,-166.666666666667,4,1,0,60,0,0
86218,-200,4,1,0,60,0,0
86295,-166.666666666667,4,1,0,60,0,0
86372,-186.655112651647,4,1,0,60,0,0
86526,-200,4,1,0,60,0,0
86603,-166.666666666667,4,1,0,60,0,0
86680,-191.773504273504,4,1,0,60,0,0
86834,-181.818181818182,4,1,0,60,0,0
86988,-190.476190476191,4,1,0,60,0,0
87064,-195.060164661178,4,1,0,60,0,0
87141,-199.935086011035,4,1,0,60,0,0
87142,-200,4,1,0,60,0,0
87218,-166.666666666667,4,1,0,60,0,0
87372,-167.598982927715,4,1,0,60,0,0
87449,-168.54178842782,4,1,0,60,0,0
87603,-170.446989287034,4,1,0,60,0,0
87680,-171.42220240749,4,1,0,60,0,0
87757,-200,4,1,0,60,0,0
87834,-166.666666666667,4,1,0,60,0,0
87911,-174.415967339533,4,1,0,60,0,0
88064,-176.470588235294,4,1,0,60,0,0
88218,-178.574193048998,4,1,0,60,0,0
88295,-179.630927353422,4,1,0,60,0,0
88372,-180.728554641598,4,1,0,60,0,0
88526,-200,4,1,0,60,0,0
88603,-166.666666666667,4,1,0,60,0,0
88680,-200,4,1,0,60,0,0
88757,-166.666666666667,4,1,0,60,0,0
88834,-187.5,4,1,0,60,0,0
88988,-200,4,1,0,60,0,0
89064,-166.666666666667,4,1,0,60,0,0
89141,-192.314104701567,4,1,0,60,0,0
89295,-194.8150650228,4,1,0,60,0,0
89372,-196.073431922489,4,1,0,60,0,0
89449,-197.381930184805,4,1,0,60,0,0
89526,-198.673785738891,4,1,0,60,0,0
89603,-95.2380952380952,4,1,0,60,0,0
89680,-166.666666666667,4,1,0,60,0,0
89911,-96.7775740110034,4,1,0,60,0,0
90218,-103.456001792416,4,1,0,60,0,0
90372,-107.153216917097,4,1,0,60,0,0
90526,-111.097744360902,4,1,0,60,0,0
90834,-119.989605664913,4,1,0,60,0,0
90988,-124.991540908168,4,1,0,60,0,0
91141,-130.391810801271,4,1,0,60,0,0
91449,-143.015797888397,4,1,0,60,0,0
91603,-117.700823675732,4,1,0,60,0,0
91757,-100,4,1,0,60,0,0

[HitObjects]
136,257,993,5,0,1:0:0:0:
166,194,1146,1,8,1:0:0:0:
106,285,1608,1,8,1:0:0:0:
106,285,1762,1,8,1:0:0:0:
120,131,1916,1,0,1:0:0:0:
106,285,2223,1,8,1:0:0:0:
152,298,3454,1,0,1:0:0:0:
153,303,3608,1,8,1:0:0:0:
101,104,3916,1,0,1:0:0:0:
127,303,4069,1,8,1:0:0:0:
129,305,4223,1,8,1:0:0:0:
162,120,4377,1,0,1:0:0:0:
98,208,4685,1,8,1:0:0:0:
113,259,4839,1,8,1:0:0:0:
149,268,5608,1,0,1:0:0:0:
154,247,5916,1,12,1:0:0:0:
152,257,6531,1,0,1:0:0:0:
105,244,6685,1,8,1:0:0:0:
88,141,6839,1,0,1:0:0:0:
146,255,7146,1,0,1:0:0:0:
192,219,7300,1,8,1:0:0:0:
192,219,7762,1,0,1:0:0:0:
186,217,8377,1,0,1:0:0:0:
185,219,8531,1,8,1:0:0:0:
100,160,8839,1,0,1:0:0:0:
186,217,8993,1,8,1:0:0:0:
186,217,9146,1,8,1:0:0:0:
100,160,9300,1,0,1:0:0:0:
185,219,9608,1,0,1:0:0:0:
181,215,9762,1,8,1:0:0:0:
169,201,10223,1,8,1:0:0:0:
332,127,10300,1,8,1:0:0:0:
332,127,10377,1,0,1:0:0:0:
332,127,10454,1,0,1:0:0:0:
395,341,10531,1,8,1:0:0:0:
162,208,10839,1,8,1:0:0:0:
158,167,10916,1,8,1:0:0:0:
158,167,10993,1,0,1:0:0:0:
158,167,11069,1,8,1:0:0:0:
158,167,11146,1,8,1:0:0:0:
158,167,11223,1,0,1:0:0:0:
155,163,11300,1,8,1:0:0:0:
155,163,11377,1,8,1:0:0:0:
147,161,11454,1,0,1:0:0:0:
147,161,11531,1,8,1:0:0:0:
141,158,11608,1,0,1:0:0:0:
141,158,11685,1,0,1:0:0:0:
141,158,11762,1,8,1:0:0:0:
141,158,11839,1,0,1:0:0:0:
141,158,11916,1,8,1:0:0:0:
140,152,11993,1,8,1:0:0:0:
140,152,12069,1,0,1:0:0:0:
314,247,12146,1,8,1:0:0:0:
314,247,12223,1,8,1:0:0:0:
314,247,12300,1,8,1:0:0:0:
314,247,12377,1,0,1:0:0:0:
314,247,12454,1,0,1:0:0:0:
314,247,12531,1,8,1:0:0:0:
314,266,12608,1,8,1:0:0:0:
314,266,12685,1,0,1:0:0:0:
172,169,12762,1,0,1:0:0:0:
314,266,12839,1,8,1:0:0:0:
314,266,12916,1,8,1:0:0:0:
314,266,12993,1,0,1:0:0:0:
314,266,13069,1,0,1:0:0:0:
314,266,13146,1,8,1:0:0:0:
378,298,13223,1,8,1:0:0:0:
378,298,13300,1,0,1:0:0:0:
97,212,13377,1,8,1:0:0:0:
97,212,13454,1,0,1:0:0:0:
97,212,13531,1,0,1:0:0:0:
97,212,13608,1,8,1:0:0:0:
97,212,13685,1,0,1:0:0:0:
97,212,13762,1,0,1:0:0:0:
97,212,13839,1,0,1:0:0:0:
97,212,13916,1,8,1:0:0:0:
97,212,13993,1,0,1:0:0:0:
97,212,14069,1,8,1:0:0:0:
97,206,14146,1,8,1:0:0:0:
99,204,14223,1,0,1:0:0:0:
99,204,14300,1,0,1:0:0:0:
101,203,14377,1,8,1:0:0:0:
102,203,14454,1,0,1:0:0:0:
104,202,14531,1,8,1:0:0:0:
106,200,14608,1,8,1:0:0:0:
110,199,14685,1,0,1:0:0:0:
120,199,14762,1,8,1:0:0:0:
125,192,14839,1,0,1:0:0:0:
126,189,14916,1,8,1:0:0:0:
126,189,14993,1,0,1:0:0:0:
127,183,15069,1,0,1:0:0:0:
126,189,15146,1,8,1:0:0:0:
127,181,15223,1,0,1:0:0:0:
139,186,15300,1,0,1:0:0:0:
139,186,15377,1,8,1:0:0:0:
140,186,15454,1,0,1:0:0:0:
140,186,15531,1,0,1:0:0:0:
144,192,15608,1,8,1:0:0:0:
145,192,15685,1,0,1:0:0:0:
145,192,15762,1,8,1:0:0:0:
145,192,15839,1,0,1:0:0:0:
145,192,15916,1,0,1:0:0:0:
145,192,15993,1,0,1:0:0:0:
145,192,16069,1,8,1:0:0:0:
145,192,16146,1,8,1:0:0:0:
145,192,16223,1,0,1:0:0:0:
145,192,16300,1,0,1:0:0:0:
144,192,16377,1,8,1:0:0:0:
145,192,16454,1,8,1:0:0:0:
145,192,16531,1,8,1:0:0:0:
145,192,16608,1,0,1:0:0:0:
145,192,16685,1,8,1:0:0:0:
149,196,16762,1,0,1:0:0:0:
149,196,16839,1,8,1:0:0:0:
149,196,16916,1,8,1:0:0:0:
149,196,16993,1,8,1:0:0:0:
150,196,17069,1,8,1:0:0:0:
152,193,17146,1,0,1:0:0:0:
152,193,17223,1,8,1:0:0:0:
154,192,17300,1,0,1:0:0:0:
154,192,17377,1,0,1:0:0:0:
154,192,17454,1,8,1:0:0:0:
154,192,17531,1,8,1:0:0:0:
157,193,17608,1,0,1:0:0:0:
160,195,17685,1,8,1:0:0:0:
160,195,17762,1,8,1:0:0:0:
164,195,17839,1,0,1:0:0:0:
164,195,17916,1,8,1:0:0:0:
164,195,17993,1,8,1:0:0:0:
166,195,18069,1,0,1:0:0:0:
166,195,18146,1,0,1:0:0:0:
166,195,18223,1,8,1:0:0:0:
166,195,18300,1,0,1:0:0:0:
166,195,18377,1,0,1:0:0:0:
166,195,18454,1,0,1:0:0:0:
166,195,18531,1,8,1:0:0:0:
164,195,18608,1,8,1:0:0:0:
164,195,18685,1,8,1:0:0:0:
164,195,18762,1,0,1:0:0:0:
166,195,18839,1,8,1:0:0:0:
166,195,18916,1,8,1:0:0:0:
166,195,18993,1,0,1:0:0:0:
166,195,19069,1,8,1:0:0:0:
166,195,19146,1,0,1:0:0:0:
166,195,19223,1,0,1:0:0:0:
166,195,19300,1,8,1:0:0:0:
164,195,19377,1,0,1:0:0:0:
164,195,19454,1,8,1:0:0:0:
164,195,19531,1,8,1:0:0:0:
166,195,19608,1,8,1:0:0:0:
166,195,19685,1,0,1:0:0:0:
166,195,19762,1,8,1:0:0:0:
166,195,19839,1,8,1:0:0:0:
166,195,19916,1,0,1:0:0:0:
166,195,19993,1,0,1:0:0:0:
171,196,20069,1,8,1:0:0:0:
171,196,20146,1,0,1:0:0:0:
171,196,20223,1,0,1:0:0:0:
172,196,20300,1,0,1:0:0:0:
198,201,20377,1,12,1:0:0:0:
319,266,20685,1,8,1:0:0:0:
397,275,20762,1,8,1:0:0:0:
397,275,20839,1,8,1:0:0:0:
397,275,20916,1,0,1:0:0:0:
397,275,20993,1,8,1:0:0:0:
397,275,21069,1,8,1:0:0:0:
467,379,21146,1,8,1:0:0:0:
398,280,21223,1,0,1:0:0:0:
398,280,21300,1,8,1:0:0:0:
372,241,21377,1,8,1:0:0:0:
372,241,21454,1,8,1:0:0:0:
372,241,21531,1,8,1:0:0:0:
372,241,21608,1,0,1:0:0:0:
372,241,21685,1,0,1:0:0:0:
372,241,21762,1,8,1:0:0:0:
372,241,21839,1,8,1:0:0:0:
458,377,21916,1,8,1:0:0:0:
455,370,21993,1,8,1:0:0:0:
453,366,22069,1,0,1:0:0:0:
453,365,22146,1,0,1:0:0:0:
482,370,22223,1,8,1:0:0:0:
319,266,22300,1,8,1:0:0:0:
397,275,22377,1,8,1:0:0:0:
397,275,22454,1,0,1:0:0:0:
397,275,22531,1,8,1:0:0:0:
397,275,22608,1,0,1:0:0:0:
397,275,22685,1,0,1:0:0:0:
467,379,22762,1,8,1:0:0:0:
398,280,22839,1,0,1:0:0:0:
398,280,22916,1,0,1:0:0:0:
372,241,22993,1,8,1:0:0:0:
372,241,23069,1,0,1:0:0:0:
372,241,23146,1,8,1:0:0:0:
372,241,23223,1,8,1:0:0:0:
372,241,23300,1,8,1:0:0:0:
372,241,23377,1,0,1:0:0:0:
372,241,23454,1,8,1:0:0:0:
458,377,23531,1,8,1:0:0:0:
479,384,23608,1,8,1:0:0:0:
453,366,23685,1,0,1:0:0:0:
453,365,23762,1,8,1:0:0:0:
482,370,23839,1,8,1:0:0:0:
156,187,23916,1,8,1:0:0:0:
156,187,23993,1,8,1:0:0:0:
156,187,24069,1,0,1:0:0:0:
156,187,24146,1,0,1:0:0:0:
156,187,24223,1,8,1:0:0:0:
156,187,24300,1,8,1:0:0:0:
156,187,24377,1,0,1:0:0:0:
156,187,24454,1,0,1:0:0:0:
156,187,24531,1,8,1:0:0:0:
132,191,24608,1,0,1:0:0:0:
156,187,24685,1,8,1:0:0:0:
156,187,24762,1,8,1:0:0:0:
156,187,24839,1,0,1:0:0:0:
156,187,24916,1,0,1:0:0:0:
379,299,24993,1,8,1:0:0:0:
201,117,25146,1,0,1:0:0:0:
201,117,25223,1,0,1:0:0:0:
201,117,25377,1,0,1:0:0:0:
201,117,25454,1,0,1:0:0:0:
201,117,25608,1,8,1:0:0:0:
100,170,25685,1,8,1:0:0:0:
103,172,25762,1,8,1:0:0:0:
95,166,25839,1,0,1:0:0:0:
103,169,25916,1,8,1:0:0:0:
345,279,25993,1,8,1:0:0:0:
345,279,26069,1,8,1:0:0:0:
318,253,26146,1,0,1:0:0:0:
318,253,26223,1,8,1:0:0:0:
292,265,26300,1,8,1:0:0:0:
292,265,26377,1,0,1:0:0:0:
292,265,26454,1,0,1:0:0:0:
292,265,26531,1,0,1:0:0:0:
292,265,26608,1,0,1:0:0:0:
292,265,26685,1,8,1:0:0:0:
292,265,26762,1,8,1:0:0:0:
292,265,26839,1,8,1:0:0:0:
292,265,26916,1,8,1:0:0:0:
292,265,26993,1,0,1:0:0:0:
292,265,27069,1,0,1:0:0:0:
292,265,27146,1,8,1:0:0:0:
296,267,27223,1,0,1:0:0:0:
296,267,27300,1,0,1:0:0:0:
296,267,27377,1,0,1:0:0:0:
296,267,27454,1,8,1:0:0:0:
296,267,27531,1,0,1:0:0:0:
296,267,27608,1,0,1:0:0:0:
296,267,27685,1,8,1:0:0:0:
296,267,27762,1,0,1:0:0:0:
296,267,27839,1,0,1:0:0:0:
296,267,27916,1,8,1:0:0:0:
296,267,27993,1,0,1:0:0:0:
296,267,28069,1,8,1:0:0:0:
296,267,28146,1,8,1:0:0:0:
296,267,28223,1,8,1:0:0:0:
296,267,28300,1,0,1:0:0:0:
296,267,28377,1,8,1:0:0:0:
296,267,28454,1,8,1:0:0:0:
296,267,28531,1,8,1:0:0:0:
296,267,28608,1,0,1:0:0:0:
296,267,28685,1,8,1:0:0:0:
296,267,28762,1,8,1:0:0:0:
296,267,28839,1,8,1:0:0:0:
297,257,28916,1,8,1:0:0:0:
296,267,28993,1,0,1:0:0:0:
296,267,29069,1,0,1:0:0:0:
296,267,29146,1,8,1:0:0:0:
297,257,29223,1,8,1:0:0:0:
297,257,29300,1,8,1:0:0:0:
297,257,29377,1,0,1:0:0:0:
297,257,29454,1,8,1:0:0:0:
297,257,29531,1,0,1:0:0:0:
297,257,29608,1,8,1:0:0:0:
297,257,29685,1,8,1:0:0:0:
297,257,29762,1,0,1:0:0:0:
297,257,29839,1,0,1:0:0:0:
421,344,29916,1,8,1:0:0:0:
64,320,30531,1,4,1:0:0:0:
448,64,30839,1,8,1:0:0:0:
448,64,30993,1,8,1:0:0:0:
64,320,31146,1,4,1:0:0:0:
448,64,31454,1,8,1:0:0:0:
138,185,31608,1,0,1:0:0:0:
64,320,31762,1,4,1:0:0:0:
448,64,31916,1,8,1:0:0:0:
144,195,32069,1,0,1:0:0:0:
64,320,32377,1,4,1:0:0:0:
448,64,32531,1,8,1:0:0:0:
122,159,32685,1,0,1:0:0:0:
448,64,32839,1,8,1:0:0:0:
64,320,32993,1,4,1:0:0:0:
144,206,33146,1,0,1:0:0:0:
448,64,33300,1,8,1:0:0:0:
448,64,33454,1,8,1:0:0:0:
64,320,33608,1,4,1:0:0:0:
448,64,33916,1,8,1:0:0:0:
448,64,34069,1,8,1:0:0:0:
64,320,34223,1,4,1:0:0:0:
106,147,34377,1,0,1:0:0:0:
86,185,34531,1,0,1:0:0:0:
448,64,34685,1,8,1:0:0:0:
64,320,34839,1,4,1:0:0:0:
86,185,34993,1,0,1:0:0:0:
448,64,35146,1,8,1:0:0:0:
64,320,35454,1,4,1:0:0:0:
448,64,35608,1,8,1:0:0:0:
448,64,35762,1,8,1:0:0:0:
64,320,36069,1,4,1:0:0:0:
350,191,36223,1,0,1:0:0:0:
448,64,36377,1,8,1:0:0:0:
64,320,36685,1,4,1:0:0:0:
448,64,36839,1,8,1:0:0:0:
448,64,36993,1,8,1:0:0:0:
64,320,37300,1,4,1:0:0:0:
326,166,37454,1,0,1:0:0:0:
448,64,37608,1,8,1:0:0:0:
326,166,37762,1,0,1:0:0:0:
64,320,37916,1,4,1:0:0:0:
448,64,38069,1,8,1:0:0:0:
204,125,38223,1,0,1:0:0:0:
448,64,38377,1,8,1:0:0:0:
64,320,38531,1,4,1:0:0:0:
448,64,38839,1,8,1:0:0:0:
199,121,38993,1,0,1:0:0:0:
64,320,39146,1,4,1:0:0:0:
448,64,39300,1,8,1:0:0:0:
448,64,39454,1,8,1:0:0:0:
64,64,39608,1,0,1:0:0:0:
64,320,39762,1,4,1:0:0:0:
448,64,39916,1,8,1:0:0:0:
448,64,39993,1,8,1:0:0:0:
64,64,40069,1,0,1:0:0:0:
64,64,40146,1,0,1:0:0:0:
64,64,40223,1,0,1:0:0:0:
64,64,40300,1,0,1:0:0:0:
448,64,40377,1,8,1:0:0:0:
448,64,40531,1,8,1:0:0:0:
355,282,40685,1,8,1:0:0:0:
355,282,40839,1,0,1:0:0:0:
355,282,40916,1,8,1:0:0:0:
355,282,40993,1,0,1:0:0:0:
355,282,41069,1,8,1:0:0:0:
355,282,41146,1,8,1:0:0:0:
355,282,41300,1,0,1:0:0:0:
355,282,41377,1,8,1:0:0:0:
355,282,41454,1,0,1:0:0:0:
348,280,41531,1,8,1:0:0:0:
348,280,41608,1,0,1:0:0:0:
348,280,41762,1,0,1:0:0:0:
348,280,41916,1,8,1:0:0:0:
348,280,42069,1,0,1:0:0:0:
348,280,42146,1,8,1:0:0:0:
348,280,42223,1,0,1:0:0:0:
348,280,42300,1,0,1:0:0:0:
348,280,42377,1,8,1:0:0:0:
348,280,42531,1,0,1:0:0:0:
348,280,42608,1,8,1:0:0:0:
348,280,42685,1,0,1:0:0:0:
348,280,42762,1,0,1:0:0:0:
348,280,42839,1,8,1:0:0:0:
348,280,42993,1,8,1:0:0:0:
348,280,43146,1,8,1:0:0:0:
348,280,43300,1,0,1:0:0:0:
348,280,43377,1,8,1:0:0:0:
348,280,43454,1,8,1:0:0:0:
348,280,43608,1,0,1:0:0:0:
340,270,43685,1,8,1:0:0:0:
348,280,43762,1,0,1:0:0:0:
170,172,43839,1,8,1:0:0:0:
170,172,43916,1,8,1:0:0:0:
170,172,44069,1,0,1:0:0:0:
170,172,44223,1,0,1:0:0:0:
170,172,44377,1,8,1:0:0:0:
164,170,44454,1,8,1:0:0:0:
157,173,44531,1,0,1:0:0:0:
156,174,44685,1,8,1:0:0:0:
156,174,44839,1,8,1:0:0:0:
156,174,44916,1,8,1:0:0:0:
156,174,44993,1,8,1:0:0:0:
150,174,45069,1,8,1:0:0:0:
156,174,45146,1,0,1:0:0:0:
151,168,45300,1,0,1:0:0:0:
103,96,45377,1,8,1:0:0:0:
150,165,45454,1,8,1:0:0:0:
150,165,45608,1,8,1:0:0:0:
150,165,45762,1,0,1:0:0:0:
150,165,45839,1,8,1:0:0:0:
150,165,45916,1,0,1:0:0:0:
151,168,45993,1,8,1:0:0:0:
151,168,46069,1,8,1:0:0:0:
150,165,46223,1,0,1:0:0:0:
150,165,46300,1,8,1:0:0:0:
150,165,46377,1,0,1:0:0:0:
150,165,46454,1,8,1:0:0:0:
150,165,46531,1,0,1:0:0:0:
150,165,46685,1,0,1:0:0:0:
151,168,46839,1,8,1:0:0:0:
150,165,46993,1,8,1:0:0:0:
150,165,47069,1,8,1:0:0:0:
150,165,47146,1,0,1:0:0:0:
150,165,47223,1,0,1:0:0:0:
150,165,47300,1,8,1:0:0:0:
150,165,47454,1,0,1:0:0:0:
151,168,47531,1,8,1:0:0:0:
151,168,47608,1,0,1:0:0:0:
150,165,47685,1,0,1:0:0:0:
150,165,47762,1,8,1:0:0:0:
150,158,47916,1,8,1:0:0:0:
151,150,48069,1,8,1:0:0:0:
151,150,48223,1,0,1:0:0:0:
148,154,48300,1,0,1:0:0:0:
147,156,48377,1,8,1:0:0:0:
146,153,48531,1,0,1:0:0:0:
145,155,48608,1,8,1:0:0:0:
145,155,48685,1,0,1:0:0:0:
144,156,48762,1,8,1:0:0:0:
143,157,48839,1,8,1:0:0:0:
143,157,48993,1,0,1:0:0:0:
147,156,49146,1,0,1:0:0:0:
311,143,49300,1,8,1:0:0:0:
317,145,49377,1,8,1:0:0:0:
311,143,49454,1,0,1:0:0:0:
317,141,49608,1,0,1:0:0:0:
193,27,49916,1,8,1:0:0:0:
64,320,50223,1,4,1:0:0:0:
448,64,50377,1,8,1:0:0:0:
398,336,50454,1,0,1:0:0:0:
448,320,50531,1,12,1:0:0:0:
448,64,50685,1,8,1:0:0:0:
448,64,50762,1,8,1:0:0:0:
64,320,50839,1,4,1:0:0:0:
398,336,50993,1,0,1:0:0:0:
448,320,51146,1,12,1:0:0:0:
185,134,51300,1,0,1:0:0:0:
448,64,51377,1,8,1:0:0:0:
64,320,51454,1,4,1:0:0:0:
177,139,51608,1,0,1:0:0:0:
171,138,51685,1,0,1:0:0:0:
448,320,51762,1,12,1:0:0:0:
171,138,51916,1,0,1:0:0:0:
64,320,52069,1,4,1:0:0:0:
448,64,52223,1,8,1:0:0:0:
448,320,52377,1,12,1:0:0:0:
64,320,52685,1,4,1:0:0:0:
152,121,52839,1,0,1:0:0:0:
336,292,52916,1,0,1:0:0:0:
448,320,52993,1,12,1:0:0:0:
448,64,53146,1,8,1:0:0:0:
448,64,53223,1,8,1:0:0:0:
64,320,53300,1,4,1:0:0:0:
403,325,53454,1,0,1:0:0:0:
448,320,53608,1,12,1:0:0:0:
401,320,53762,1,0,1:0:0:0:
448,64,53839,1,8,1:0:0:0:
64,320,53916,1,4,1:0:0:0:
393,310,54069,1,0,1:0:0:0:
385,307,54146,1,0,1:0:0:0:
448,320,54223,1,12,1:0:0:0:
383,304,54377,1,0,1:0:0:0:
64,320,54531,1,4,1:0:0:0:
376,296,54685,1,0,1:0:0:0:
448,320,54839,1,12,1:0:0:0:
64,320,55146,1,4,1:0:0:0:
448,64,55300,1,8,1:0:0:0:
315,233,55377,1,0,1:0:0:0:
448,320,55454,1,12,1:0:0:0:
448,64,55608,1,8,1:0:0:0:
448,64,55685,1,8,1:0:0:0:
64,320,55762,1,4,1:0:0:0:
298,279,55916,1,0,1:0:0:0:
448,320,56069,1,12,1:0:0:0:
265,280,56223,1,0,1:0:0:0:
448,64,56300,1,8,1:0:0:0:
64,320,56377,1,4,1:0:0:0:
248,281,56531,1,0,1:0:0:0:
248,281,56608,1,0,1:0:0:0:
448,320,56685,1,12,1:0:0:0:
259,278,56839,1,0,1:0:0:0:
64,320,56993,1,4,1:0:0:0:
448,64,57146,1,8,1:0:0:0:
448,320,57300,1,12,1:0:0:0:
64,320,57608,1,4,1:0:0:0:
448,64,57762,1,8,1:0:0:0:
396,312,57839,1,0,1:0:0:0:
448,320,57916,1,12,1:0:0:0:
177,161,58069,1,0,1:0:0:0:
448,64,58146,1,8,1:0:0:0:
64,320,58223,1,4,1:0:0:0:
173,166,58377,1,0,1:0:0:0:
448,320,58531,1,12,1:0:0:0:
448,64,58685,1,8,1:0:0:0:
448,64,58762,1,8,1:0:0:0:
64,320,58839,1,4,1:0:0:0:
448,64,58993,1,8,1:0:0:0:
64,64,59069,1,0,1:0:0:0:
448,320,59146,1,12,1:0:0:0:
184,121,59300,1,0,1:0:0:0:
64,320,59454,1,4,1:0:0:0:
184,121,59608,1,0,1:0:0:0:
448,320,59762,1,12,1:0:0:0:
448,320,60069,1,12,1:0:0:0:
222,210,61300,1,0,1:0:0:0:
209,134,62531,1,0,1:0:0:0:
203,123,63762,1,0,1:0:0:0:
203,123,64993,1,0,1:0:0:0:
201,127,66223,1,0,1:0:0:0:
200,128,67454,1,0,1:0:0:0:
195,130,68685,1,0,1:0:0:0:
119,176,69300,2,0,L|256:140,1,140,0|0,1:0|1:0,1:0:0:0:
64,320,69916,1,4,1:0:0:0:
64,64,70069,1,0,1:0:0:0:
448,64,70223,1,8,1:0:0:0:
189,138,70300,1,0,1:0:0:0:
448,64,70377,1,8,1:0:0:0:
448,320,70531,1,12,1:0:0:0:
448,64,70839,1,8,1:0:0:0:
448,64,71146,1,8,1:0:0:0:
64,320,71300,1,4,1:0:0:0:
64,320,71454,1,4,1:0:0:0:
448,64,71608,1,8,1:0:0:0:
448,320,71762,1,12,1:0:0:0:
264,223,71916,1,0,1:0:0:0:
448,64,72069,1,8,1:0:0:0:
448,64,72223,1,8,1:0:0:0:
64,320,72377,1,4,1:0:0:0:
448,64,72531,1,8,1:0:0:0:
448,64,72608,1,8,1:0:0:0:
264,223,72685,1,0,1:0:0:0:
448,64,72839,1,8,1:0:0:0:
448,320,72993,1,12,1:0:0:0:
264,223,73146,1,0,1:0:0:0:
448,64,73300,1,8,1:0:0:0:
448,64,73608,1,8,1:0:0:0:
64,320,73762,1,4,1:0:0:0:
64,320,73916,1,4,1:0:0:0:
360,294,74069,1,0,1:0:0:0:
448,320,74223,1,12,1:0:0:0:
448,64,74531,1,8,1:0:0:0:
448,64,74608,1,8,1:0:0:0:
448,64,74685,1,8,1:0:0:0:
448,64,74762,1,8,1:0:0:0:
64,320,74839,1,4,1:0:0:0:
448,64,74993,1,8,1:0:0:0:
448,64,75146,1,8,1:0:0:0:
64,64,75223,1,0,1:0:0:0:
448,64,75300,1,8,1:0:0:0:
448,320,75454,1,12,1:0:0:0:
447,344,75608,1,0,1:0:0:0:
448,64,75762,1,8,1:0:0:0:
448,64,76069,1,8,1:0:0:0:
64,320,76223,1,4,1:0:0:0:
64,320,76377,1,4,1:0:0:0:
188,138,76531,1,0,1:0:0:0:
448,320,76685,1,12,1:0:0:0:
448,64,76993,1,8,1:0:0:0:
64,64,77146,1,0,1:0:0:0:
64,320,77300,1,4,1:0:0:0:
448,64,77454,1,8,1:0:0:0:
448,64,77531,1,8,1:0:0:0:
130,57,77608,1,0,1:0:0:0:
448,64,77762,1,8,1:0:0:0:
448,320,77916,1,12,1:0:0:0:
130,57,78069,1,0,1:0:0:0:
448,64,78223,1,8,1:0:0:0:
64,64,78377,1,0,1:0:0:0:
64,64,78454,1,0,1:0:0:0:
448,64,78531,1,8,1:0:0:0:
64,320,78685,1,4,1:0:0:0:
64,320,78839,1,4,1:0:0:0:
248,252,78993,1,0,1:0:0:0:
448,320,79146,1,12,1:0:0:0:
310,246,79300,1,0,1:0:0:0:
256,192,79454,12,0,79531,1:0:0:0:
64,320,79762,5,4,1:0:0:0:
448,64,80069,1,8,1:0:0:0:
345,275,80146,1,0,1:0:0:0:
448,64,80223,1,8,1:0:0:0:
448,320,80377,1,12,1:0:0:0:
340,272,80531,1,0,1:0:0:0:
448,64,80685,1,8,1:0:0:0:
448,64,80993,1,8,1:0:0:0:
64,320,81146,1,4,1:0:0:0:
64,320,81300,1,4,1:0:0:0:
416,315,81454,1,0,1:0:0:0:
448,320,81608,1,12,1:0:0:0:
448,64,81916,1,8,1:0:0:0:
448,64,82069,1,8,1:0:0:0:
64,320,82223,1,4,1:0:0:0:
448,64,82377,1,8,1:0:0:0:
448,64,82454,1,8,1:0:0:0:
448,64,82531,1,8,1:0:0:0:
156,157,82685,1,0,1:0:0:0:
448,320,82839,1,12,1:0:0:0:
156,157,82993,1,0,1:0:0:0:
448,64,83146,1,8,1:0:0:0:
448,64,83300,1,8,1:0:0:0:
448,64,83454,1,8,0:0:0:0:
64,320,83608,1,4,1:0:0:0:
64,320,83762,1,4,0:0:0:0:
178,106,83916,1,0,1:0:0:0:
448,320,84069,1,12,1:0:0:0:
178,106,84223,1,0,1:0:0:0:
448,64,84377,1,8,1:0:0:0:
448,64,84454,1,8,1:0:0:0:
448,64,84531,1,8,1:0:0:0:
448,64,84608,1,8,1:0:0:0:
64,320,84685,1,4,1:0:0:0:
448,64,84993,1,8,1:0:0:0:
448,64,85069,1,8,1:0:0:0:
113,88,85146,1,0,1:0:0:0:
448,320,85300,1,12,1:0:0:0:
113,88,85454,1,0,1:0:0:0:
448,64,85608,1,8,1:0:0:0:
448,64,85762,1,8,1:0:0:0:
64,64,85839,1,0,1:0:0:0:
448,64,85916,1,8,1:0:0:0:
64,320,86069,1,4,1:0:0:0:
64,320,86223,1,4,1:0:0:0:
109,93,86377,1,0,1:0:0:0:
448,320,86531,1,12,1:0:0:0:
448,64,86839,1,8,1:0:0:0:
448,64,86993,1,8,1:0:0:0:
448,64,87069,1,8,1:0:0:0:
64,320,87146,1,4,1:0:0:0:
448,64,87300,1,8,1:0:0:0:
448,64,87454,1,8,1:0:0:0:
179,100,87608,1,0,1:0:0:0:
158,160,87685,1,0,1:0:0:0:
448,320,87762,1,12,1:0:0:0:
167,124,87916,1,0,1:0:0:0:
448,64,88069,1,8,1:0:0:0:
448,64,88223,1,8,1:0:0:0:
145,142,88300,1,0,1:0:0:0:
448,64,88377,1,8,1:0:0:0:
64,320,88531,1,4,1:0:0:0:
64,320,88685,1,4,1:0:0:0:
448,64,88839,1,8,1:0:0:0:
448,320,88993,1,12,1:0:0:0:
448,64,89146,1,8,1:0:0:0:
448,64,89300,1,8,1:0:0:0:
134,153,89377,1,0,1:0:0:0:
448,64,89454,1,8,1:0:0:0:
134,153,89531,1,0,1:0:0:0:
448,320,89608,1,12,1:0:0:0:
242,212,89916,1,0,1:0:0:0:
448,64,90223,1,8,1:0:0:0:
448,64,90377,1,8,1:0:0:0:
242,212,90531,1,0,1:0:0:0:
448,64,90839,1,8,1:0:0:0:
448,64,90993,1,8,1:0:0:0:
242,212,91146,1,0,1:0:0:0:
169,261,91454,1,0,1:0:0:0:
169,261,91608,1,0,1:0:0:0:
173,263,91762,1,8,1:0:0:0:
284,303,91839,1,8,1:0:0:0:
284,303,91916,1,8,1:0:0:0:
219,274,91993,1,8,1:0:0:0:
219,274,92069,1,8,1:0:0:0:
290,283,92146,1,8,1:0:0:0:
291,284,92223,1,8,1:0:0:0:
291,284,92300,1,8,1:0:0:0:
291,285,92377,1,8,1:0:0:0:
292,285,92454,1,8,1:0:0:0:
287,286,92531,1,8,1:0:0:0:
287,286,92608,1,8,1:0:0:0:
287,287,92685,1,8,1:0:0:0:
287,288,92762,1,8,1:0:0:0:
286,293,92839,1,8,1:0:0:0:
286,295,92916,1,8,1:0:0:0:
285,296,92993,1,8,1:0:0:0:
285,296,93069,1,8,1:0:0:0:
285,296,93146,1,8,1:0:0:0:
285,296,93223,1,8,1:0:0:0:
283,298,93300,1,8,1:0:0:0:
283,298,93377,1,8,1:0:0:0:
283,298,93454,1,8,1:0:0:0:
283,298,93531,1,8,1:0:0:0:
283,298,93608,1,8,1:0:0:0:
286,295,93685,1,8,1:0:0:0:
285,296,93762,1,8,1:0:0:0:
285,296,93839,1,8,1:0:0:0:
285,296,93916,1,8,1:0:0:0:
285,296,93993,1,8,1:0:0:0:
283,298,94069,1,8,1:0:0:0:
335,306,94146,1,8,1:0:0:0:
