osu file format v14

[General]
AudioFilename: audio.mp3
AudioLeadIn: 0
PreviewTime: 68923
Countdown: 0
SampleSet: Soft
StackLeniency: 0.7
Mode: 3
LetterboxInBreaks: 0
SpecialStyle: 0
WidescreenStoryboard: 1

[Editor]
Bookmarks: 49230,68923,78461,90000
DistanceSpacing: 1.3
BeatDivisor: 4
GridSize: 32
TimelineZoom: 2.599999

[Metadata]
Title:ball hard
TitleUnicode:ball hard
Artist:crafter2011
ArtistUnicode:crafter2011
Creator:Andere
Version:Insane
Source:
Tags:Minecraft vol. 1 Dariacore Electronic Dance Music EDM English Instrumental Experimental 4ndere sv deskrat Lady Gaga Telephone feat. Beyonce Jay-Z & Kanye West Ni**as In Paris Niggas cyranek
BeatmapID:3706310
BeatmapSetID:1775193

[Difficulty]
HPDrainRate:7.7
CircleSize:4
OverallDifficulty:7
ApproachRate:9
SliderMultiplier:1.4
SliderTickRate:1

[Events]
//Background and Video events
0,0,"bg.jpg",0,0
Video,-110,"balling.mp4"
//Break Periods
//Storyboard Layer 0 (Background)
//Storyboard Layer 1 (Fail)
//Storyboard Layer 2 (Pass)
//Storyboard Layer 3 (Foreground)
//Storyboard Layer 4 (Overlay)
//Storyboard Sound Samples

[TimingPoints]
0,307.692307692308,4,2,1,60,1,0
1846,-100,4,2,1,60,0,0
1860.944458,-101.8964076,4,2,1,60,0,0
1875.888916,-103.8661264,4,2,1,60,0,0
1890.833374,-105.9135047,4,2,1,60,0,0
1905.777832,-108.0432136,4,2,1,60,0,0
1920.722168,-110.2603358,4,2,1,60,0,0
1935.666626,-112.5703581,4,2,1,60,0,0
1950.611084,-114.9792366,4,2,1,60,0,0
1965.555542,-117.4934722,4,2,1,60,0,0
1980.5,-120.1201229,4,2,1,60,0,0
1995.444458,-122.8668914,4,2,1,60,0,0
2010.388916,-125.742229,4,2,1,60,0,0
2025.333374,-128.7553591,4,2,1,60,0,0
2040.277832,-131.9164508,4,2,1,60,0,0
2055.222168,-135.236666,4,2,1,60,0,0
2070.166748,-138.7283183,4,2,1,60,0,0
2085.111084,-142.4050621,4,2,1,60,0,0
2100.055664,-146.2820026,4,2,1,60,0,0
2115,-150.375935,4,2,1,60,0,0
2129.944336,-154.7056297,4,2,1,60,0,0
2144.888916,-159.292026,4,2,1,60,0,0
2159.833252,-164.1586827,4,2,1,60,0,0
2174.777832,-169.332081,4,2,1,60,0,0
2189.722168,-174.842147,4,2,1,60,0,0
2204.666748,-180.7228887,4,2,1,60,0,0
2219.611084,-187.0129916,4,2,1,60,0,0
2234.555664,-193.7567185,4,2,1,60,0,0
2249.5,-201.0050242,4,2,1,60,0,0
2264.444336,-208.8167009,4,2,1,60,0,0
2279.388916,-217.2601001,4,2,1,60,0,0
2294.333252,-226.4150964,4,2,1,60,0,0
2309.277832,-236.3755724,4,2,1,60,0,0
2324.222168,-247.2527401,4,2,1,60,0,0
2339.166748,-259.1792526,4,2,1,60,0,0
2354.111084,-272.3146545,4,2,1,60,0,0
2369.055664,-286.8525853,4,2,1,60,0,0
2384,-303.030291,4,2,1,60,0,0
2442,-10,4,2,1,60,0,0
2451,-10000,4,2,1,60,0,0
2461,-100,4,2,1,60,0,0
4923,-1000,4,2,1,60,0,0
4961,-13.3333333333333,4,2,1,60,0,0
4966,-100,4,2,1,60,0,0
5538,-1000,4,2,1,60,0,0
5576,-13.3333333333333,4,2,1,60,0,0
5581,-100,4,2,1,60,0,0
6153,-1000,4,2,1,60,0,0
6191,-13.3333333333333,4,2,1,60,0,0
6196,-100,4,2,1,60,0,0
6769,-100,4,2,1,60,0,0
6783.944336,-101.8964076,4,2,1,60,0,0
6798.888672,-103.8661264,4,2,1,60,0,0
6813.833496,-105.9135047,4,2,1,60,0,0
6828.777832,-108.0432136,4,2,1,60,0,0
6843.722168,-110.2603358,4,2,1,60,0,0
6858.666504,-112.5703581,4,2,1,60,0,0
6873.611328,-114.9792366,4,2,1,60,0,0
6888.555664,-117.4934722,4,2,1,60,0,0
6903.5,-120.1201229,4,2,1,60,0,0
6918.444336,-122.8668914,4,2,1,60,0,0
6933.388672,-125.742229,4,2,1,60,0,0
6948.333496,-128.7553591,4,2,1,60,0,0
6963.277832,-131.9164508,4,2,1,60,0,0
6978.222168,-135.236666,4,2,1,60,0,0
6993.166504,-138.7283183,4,2,1,60,0,0
7008.111328,-142.4050621,4,2,1,60,0,0
7023.055664,-146.2820026,4,2,1,60,0,0
7038,-150.375935,4,2,1,60,0,0
7052.944336,-154.7056297,4,2,1,60,0,0
7067.888672,-159.292026,4,2,1,60,0,0
7082.833496,-164.1586827,4,2,1,60,0,0
7097.777832,-169.332081,4,2,1,60,0,0
7112.722168,-174.842147,4,2,1,60,0,0
7127.666504,-180.7228887,4,2,1,60,0,0
7142.611328,-187.0129916,4,2,1,60,0,0
7157.555664,-193.7567185,4,2,1,60,0,0
7172.5,-201.0050242,4,2,1,60,0,0
7187.444336,-208.8167009,4,2,1,60,0,0
7202.388672,-217.2601001,4,2,1,60,0,0
7217.333496,-226.4150964,4,2,1,60,0,0
7232.277832,-236.3755724,4,2,1,60,0,0
7247.222168,-247.2527401,4,2,1,60,0,0
7262.166504,-259.1792526,4,2,1,60,0,0
7277.111328,-272.3146545,4,2,1,60,0,0
7292.055664,-286.8525853,4,2,1,60,0,0
7307,-303.030291,4,2,1,60,0,0
7365,-10,4,2,1,60,0,0
7374,-10000,4,2,1,60,0,0
7384,-100,4,2,1,60,0,0
8000,-1000,4,2,1,60,0,0
8038,-13.3333333333333,4,2,1,60,0,0
8043,-100,4,2,1,60,0,0
8615,-1000,4,2,1,60,0,0
8653,-13.3333333333333,4,2,1,60,0,0
8658,-100,4,2,1,60,0,0
9211,-33.3333333333333,4,2,1,60,0,0
9220,-10000,4,2,1,60,0,0
9230,-129.87012987013,4,2,1,60,0,0
9269,-33.3333333333333,4,2,1,60,0,0
9278,-10000,4,2,1,60,0,0
9288,-129.87012987013,4,2,1,60,0,0
9326,-33.3333333333333,4,2,1,60,0,0
9335,-10000,4,2,1,60,0,0
9345,-129.87012987013,4,2,1,60,0,0
9384,-33.3333333333333,4,2,1,60,0,0
9393,-10000,4,2,1,60,0,0
9403,-129.87012987013,4,2,1,60,0,0
9442,-33.3333333333333,4,2,1,60,0,0
9451,-10000,4,2,1,60,0,0
9461,-129.87012987013,4,2,1,60,0,0
9500,-33.3333333333333,4,2,1,60,0,0
9509,-10000,4,2,1,60,0,0
9519,-101.010101010101,4,2,1,60,0,0
9538,-100,4,2,1,60,0,0
9554.8125,-104.9180328,4,2,1,60,0,0
9571.625,-110.3448276,4,2,1,60,0,0
9588.4375,-116.3636364,4,2,1,60,0,0
9605.25,-123.0769231,4,2,1,60,0,0
9622.0625,-130.6122449,4,2,1,60,0,0
9638.875,-139.1304348,4,2,1,60,0,0
9655.6875,-148.8372093,4,2,1,60,0,0
9672.5,-160,4,2,1,60,0,0
9689.3125,-172.972973,4,2,1,60,0,0
9706.125,-188.2352941,4,2,1,60,0,0
9722.9375,-206.4516129,4,2,1,60,0,0
9739.75,-228.5714286,4,2,1,60,0,0
9756.5625,-256,4,2,1,60,0,0
9773.375,-290.9090909,4,2,1,60,0,0
9790.1875,-336.8421053,4,2,1,60,0,0
9807,-400,4,2,1,60,0,0
9826,-10,4,2,1,60,0,0
9835,-10000,4,2,1,60,0,0
9845,-105.263157894737,4,2,1,60,0,0
10153,-1000,4,2,1,60,0,0
10191,-13.3333333333333,4,2,1,60,0,0
10196,-100,4,2,1,60,0,0
10615,-1000,4,2,1,60,0,0
10653,-13.3333333333333,4,2,1,60,0,0
10658,-100,4,2,1,60,0,0
10923,-1000,4,2,1,60,0,0
10961,-13.3333333333333,4,2,1,60,0,0
10966,-100,4,2,1,60,0,0
11384,-1000,4,2,1,60,0,0
11422,-13.3333333333333,4,2,1,60,0,0
11427,-100,4,2,1,60,0,0
12307,-1000,4,2,1,60,0,0
12345,-13.3333333333333,4,2,1,60,0,0
12350,-100,4,2,1,60,0,0
12615,-1000,4,2,1,60,0,0
12653,-13.3333333333333,4,2,1,60,0,0
12658,-100,4,2,1,60,0,0
13076,-1000,4,2,1,60,0,0
13114,-13.3333333333333,4,2,1,60,0,0
13119,-100,4,2,1,60,0,0
13384,-1000,4,2,1,60,0,0
13422,-13.3333333333333,4,2,1,60,0,0
13427,-100,4,2,1,60,0,0
13846,-1000,4,2,1,60,0,0
13884,-13.3333333333333,4,2,1,60,0,0
13889,-100,4,2,1,60,0,0
14769,-1000,4,2,1,60,0,0
14807,-13.3333333333333,4,2,1,60,0,0
14812,-100,4,2,1,60,0,0
15076,-1000,4,2,1,60,0,0
15114,-13.3333333333333,4,2,1,60,0,0
15119,-100,4,2,1,60,0,0
15538,-1000,4,2,1,60,0,0
15576,-13.3333333333333,4,2,1,60,0,0
15581,-100,4,2,1,60,0,0
15846,-1000,4,2,1,60,0,0
15884,-13.3333333333333,4,2,1,60,0,0
15889,-100,4,2,1,60,0,0
16307,-1000,4,2,1,60,0,0
16345,-13.3333333333333,4,2,1,60,0,0
16350,-100,4,2,1,60,0,0
17230,-1000,4,2,1,60,0,0
17268,-13.3333333333333,4,2,1,60,0,0
17273,-100,4,2,1,60,0,0
17538,-1000,4,2,1,60,0,0
17576,-13.3333333333333,4,2,1,60,0,0
17581,-100,4,2,1,60,0,0
18000,-1000,4,2,1,60,0,0
18038,-13.3333333333333,4,2,1,60,0,0
18043,-100,4,2,1,60,0,0
18307,-1000,4,2,1,60,0,0
18345,-13.3333333333333,4,2,1,60,0,0
18350,-100,4,2,1,60,0,0
18769,-1000,4,2,1,60,0,0
18807,-13.3333333333333,4,2,1,60,0,0
18812,-100,4,2,1,60,0,0
19692,-1000,4,2,1,60,0,0
19730,-13.3333333333333,4,2,1,60,0,0
19735,-100,4,2,1,60,0,0
20000,-1000,4,2,1,60,0,0
20038,-13.3333333333333,4,2,1,60,0,0
20043,-100,4,2,1,60,0,0
20461,-1000,4,2,1,60,0,0
20499,-13.3333333333333,4,2,1,60,0,0
20504,-100,4,2,1,60,0,0
20769,-1000,4,2,1,60,0,0
20807,-13.3333333333333,4,2,1,60,0,0
20812,-100,4,2,1,60,0,0
21230,-1000,4,2,1,60,0,0
21268,-13.3333333333333,4,2,1,60,0,0
21273,-100,4,2,1,60,0,0
22153,-1000,4,2,1,60,0,0
22191,-13.3333333333333,4,2,1,60,0,0
22196,-100,4,2,1,60,0,0
22461,-1000,4,2,1,60,0,0
22499,-13.3333333333333,4,2,1,60,0,0
22504,-100,4,2,1,60,0,0
22923,-1000,4,2,1,60,0,0
22961,-13.3333333333333,4,2,1,60,0,0
22966,-100,4,2,1,60,0,0
23230,-1000,4,2,1,60,0,0
23268,-13.3333333333333,4,2,1,60,0,0
23273,-100,4,2,1,60,0,0
23692,-1000,4,2,1,60,0,0
23730,-13.3333333333333,4,2,1,60,0,0
23735,-100,4,2,1,60,0,0
24615,-1000,4,2,1,60,0,0
24653,-13.3333333333333,4,2,1,60,0,0
24658,-100,4,2,1,60,0,0
24923,-1000,4,2,1,60,0,0
24961,-13.3333333333333,4,2,1,60,0,0
24966,-100,4,2,1,60,0,0
25384,-1000,4,2,1,60,0,0
25422,-13.3333333333333,4,2,1,60,0,0
25427,-100,4,2,1,60,0,0
25692,-1000,4,2,1,60,0,0
25730,-13.3333333333333,4,2,1,60,0,0
25735,-100,4,2,1,60,0,0
26153,-1000,4,2,1,60,0,0
26191,-13.3333333333333,4,2,1,60,0,0
26196,-100,4,2,1,60,0,0
27076,-1000,4,2,1,60,0,0
27114,-13.3333333333333,4,2,1,60,0,0
27119,-100,4,2,1,60,0,0
27384,-1000,4,2,1,60,0,0
27422,-13.3333333333333,4,2,1,60,0,0
27427,-100,4,2,1,60,0,0
27846,-1000,4,2,1,60,0,0
27884,-13.3333333333333,4,2,1,60,0,0
27889,-100,4,2,1,60,0,0
28153,-1000,4,2,1,60,0,0
28191,-13.3333333333333,4,2,1,60,0,0
28196,-100,4,2,1,60,0,0
28615,-1000,4,2,1,60,0,0
28653,-13.3333333333333,4,2,1,60,0,0
28658,-100,4,2,1,60,0,0
29000,-100,4,2,1,60,0,0
29014.94531,-100.699298,4,2,1,60,0,0
29029.88867,-101.4084514,4,2,1,60,0,0
29044.83398,-102.1276575,4,2,1,60,0,0
29059.77734,-102.8571443,4,2,1,60,0,0
29074.72266,-103.5971209,4,2,1,60,0,0
29089.66602,-104.3478283,4,2,1,60,0,0
29104.61133,-105.1094883,4,2,1,60,0,0
29119.55469,-105.8823559,4,2,1,60,0,0
29134.5,-106.6666667,4,2,1,60,0,0
29149.44531,-107.4626835,4,2,1,60,0,0
29164.38867,-108.2706775,4,2,1,60,0,0
29179.33398,-109.0909067,4,2,1,60,0,0
29194.27734,-109.9236657,4,2,1,60,0,0
29209.22266,-110.7692291,4,2,1,60,0,0
29224.16602,-111.6279095,4,2,1,60,0,0
29239.11133,-112.4999992,4,2,1,60,0,0
29254.05469,-113.3858302,4,2,1,60,0,0
29269,-114.2857143,4,2,1,60,0,0
29283.94531,-115.1999965,4,2,1,60,0,0
29298.88867,-116.1290332,4,2,1,60,0,0
29313.83398,-117.073168,4,2,1,60,0,0
29328.77734,-118.0327887,4,2,1,60,0,0
29343.72266,-119.0082626,4,2,1,60,0,0
29358.66602,-120.0000029,4,2,1,60,0,0
29373.61133,-121.0084024,4,2,1,60,0,0
29388.55469,-122.0339023,4,2,1,60,0,0
29403.5,-123.0769231,4,2,1,60,0,0
29418.44531,-124.137927,4,2,1,60,0,0
29433.38867,-125.2173923,4,2,1,60,0,0
29448.33398,-126.3157863,4,2,1,60,0,0
29463.27734,-127.4336305,4,2,1,60,0,0
29478.22266,-128.5714264,4,2,1,60,0,0
29493.16602,-129.7297331,4,2,1,60,0,0
29508.11133,-130.9090898,4,2,1,60,0,0
29523.05469,-132.1100964,4,2,1,60,0,0
29538,-133.3333333,4,2,1,60,0,0
29674.75,-132.1100964,4,2,1,60,0,0
29811.5,-130.9090898,4,2,1,60,0,0
29948.25,-129.7297331,4,2,1,60,0,0
30085,-128.5714264,4,2,1,60,0,0
30221.75,-127.4336305,4,2,1,60,0,0
30358.5,-126.3157863,4,2,1,60,0,0
30495.25,-125.2173923,4,2,1,60,0,0
30632,-124.137927,4,2,1,60,0,0
30768.75,-123.0769231,4,2,1,60,0,0
30905.5,-122.0339023,4,2,1,60,0,0
31042.25,-121.0084024,4,2,1,60,0,0
31179,-120.0000029,4,2,1,60,0,0
31315.75,-119.0082626,4,2,1,60,0,0
31452.5,-118.0327887,4,2,1,60,0,0
31589.25,-117.073168,4,2,1,60,0,0
31726,-116.1290332,4,2,1,60,0,0
31862.75,-115.1999965,4,2,1,60,0,0
31999.5,-114.2857143,4,2,1,60,0,0
32136.25,-113.3858302,4,2,1,60,0,0
32273,-112.4999992,4,2,1,60,0,0
32409.75,-111.6279095,4,2,1,60,0,0
32546.5,-110.7692291,4,2,1,60,0,0
32683.25,-109.9236657,4,2,1,60,0,0
32820,-109.0909067,4,2,1,60,0,0
32956.75,-108.2706775,4,2,1,60,0,0
33093.5,-107.4626835,4,2,1,60,0,0
33230.25,-106.6666667,4,2,1,60,0,0
33367,-105.8823559,4,2,1,60,0,0
33503.75,-105.1094883,4,2,1,60,0,0
33640.5,-104.3478283,4,2,1,60,0,0
33777.25,-103.5971209,4,2,1,60,0,0
33914,-102.8571443,4,2,1,60,0,0
34050.75,-102.1276575,4,2,1,60,0,0
34187.5,-101.4084514,4,2,1,60,0,0
34324.25,-100.699298,4,2,1,60,0,0
34461,-1000,4,2,1,60,0,0
34499,-13.3333333333333,4,2,1,60,0,0
34504,-133.333333333333,4,2,1,60,0,0
35076,-1000,4,2,1,60,0,0
35114,-13.3333333333333,4,2,1,60,0,0
35119,-133.333333333333,4,2,1,60,0,0
35692,-1000,4,2,1,60,0,0
35730,-13.3333333333333,4,2,1,60,0,0
35735,-133.333333333333,4,2,1,60,0,0
36307,-1000,4,2,1,60,0,0
36345,-13.3333333333333,4,2,1,60,0,0
36350,-133.333333333333,4,2,1,60,0,0
36923,-1000,4,2,1,60,0,0
36961,-13.3333333333333,4,2,1,60,0,0
36966,-133.333333333333,4,2,1,60,0,0
37538,-1000,4,2,1,60,0,0
37576,-13.3333333333333,4,2,1,60,0,0
37581,-133.333333333333,4,2,1,60,0,0
38153,-1000,4,2,1,60,0,0
38191,-13.3333333333333,4,2,1,60,0,0
38196,-133.333333333333,4,2,1,60,0,0
38769,-1000,4,2,1,60,0,0
38807,-13.3333333333333,4,2,1,60,0,0
38812,-133.333333333333,4,2,1,60,0,0
38923,-133.3333333,4,2,1,60,0,0
38942.20703,-131.5068459,4,2,1,60,0,0
38961.41797,-129.7297331,4,2,1,60,0,0
38980.625,-128,4,2,1,60,0,0
38999.83203,-126.3157863,4,2,1,60,0,0
39019.04297,-124.6753278,4,2,1,60,0,0
39038.25,-123.0769231,4,2,1,60,0,0
39057.45703,-121.5189844,4,2,1,60,0,0
39076.66797,-120.0000029,4,2,1,60,0,0
39095.875,-118.5185185,4,2,1,60,0,0
39115.08203,-117.073168,4,2,1,60,0,0
39134.29297,-115.6626533,4,2,1,60,0,0
39153.5,-114.2857143,4,2,1,60,0,0
39172.70703,-112.9411739,4,2,1,60,0,0
39191.91797,-111.6279095,4,2,1,60,0,0
39211.125,-110.3448276,4,2,1,60,0,0
39230.33203,-109.0909067,4,2,1,60,0,0
39249.54297,-107.8651709,4,2,1,60,0,0
39268.75,-106.6666667,4,2,1,60,0,0
39287.95703,-105.4945033,4,2,1,60,0,0
39307.16797,-104.3478283,4,2,1,60,0,0
39326.375,-103.2258065,4,2,1,60,0,0
39345.58203,-102.1276575,4,2,1,60,0,0
39364.79297,-101.0526336,4,2,1,60,0,0
39384,-100,4,2,1,60,0,0
48615,-17.42160279,4,2,1,60,0,0
48616.9,-260.1156069,4,2,1,60,0,0
48634,-17.42160279,4,2,1,60,0,0
48635.9,-260.1156069,4,2,1,60,0,0
48653,-17.42160279,4,2,1,60,0,0
48680,-1184.21052556101,4,2,1,60,0,0
48903,-14.2857142857143,4,2,1,60,0,0
48923,-17.42160279,4,2,1,60,0,0
48924.9,-542.168674540585,4,2,1,60,0,0
48942,-100,4,2,1,60,0,0
48950.79297,-103.8961065,4,2,1,60,0,0
48959.58203,-108.1081067,4,2,1,60,0,0
48968.375,-112.6760579,4,2,1,60,0,0
48977.16797,-117.6470555,4,2,1,60,0,0
48985.95703,-123.0769231,4,2,1,60,0,0
48994.75,-129.032262,4,2,1,60,0,0
49003.54297,-135.5932181,4,2,1,60,0,0
49012.33203,-142.8571453,4,2,1,60,0,0
49021.125,-150.9433908,4,2,1,60,0,0
49029.91797,-160,4,2,1,60,0,0
49038.70703,-170.2127729,4,2,1,60,0,0
49047.5,-181.8181779,4,2,1,60,0,0
49056.29297,-195.1219558,4,2,1,60,0,0
49065.08203,-210.5263184,4,2,1,60,0,0
49073.875,-228.5714286,4,2,1,60,0,0
49082.66797,-249.9999963,4,2,1,60,0,0
49091.45703,-275.8620599,4,2,1,60,0,0
49100.25,-307.692319,4,2,1,60,0,0
49109.04297,-347.8260942,4,2,1,60,0,0
49117.83203,-400,4,2,1,60,0,0
49126.625,-470.5882221,4,2,1,60,0,0
49135.41797,-571.4285812,4,2,1,60,0,0
49144.20703,-727.2727115,4,2,1,60,0,0
49153,-999.9999851,4,2,1,60,0,0
49205,-10,4,2,1,60,0,0
49220,-10000,4,2,1,60,0,0
49230,-1000,4,2,1,60,0,0
49268,-12.8700128700129,4,2,1,60,0,0
49273,-100,4,2,1,60,0,0
49538,-1000,4,2,1,60,0,0
49576,-12.8700128700129,4,2,1,60,0,0
49581,-100,4,2,1,60,0,0
49846,-1000,4,2,1,60,0,0
49884,-12.8700128700129,4,2,1,60,0,0
49889,-100,4,2,1,60,0,0
50153,-1000,4,2,1,60,0,0
50191,-12.8700128700129,4,2,1,60,0,0
50196,-100,4,2,1,60,0,0
50461,-1000,4,2,1,60,0,0
50499,-12.8700128700129,4,2,1,60,0,0
50504,-100,4,2,1,60,0,0
50769,-1000,4,2,1,60,0,0
50807,-12.8700128700129,4,2,1,60,0,0
50812,-100,4,2,1,60,0,0
51076,-1000,4,2,1,60,0,0
51114,-12.8700128700129,4,2,1,60,0,0
51119,-100,4,2,1,60,0,0
51384,-100,4,2,1,60,0,0
51400.8125,-104.9180328,4,2,1,60,0,0
51417.625,-110.3448276,4,2,1,60,0,0
51434.4375,-116.3636364,4,2,1,60,0,0
51451.25,-123.0769231,4,2,1,60,0,0
51468.0625,-130.6122449,4,2,1,60,0,0
51484.875,-139.1304348,4,2,1,60,0,0
51501.6875,-148.8372093,4,2,1,60,0,0
51518.5,-160,4,2,1,60,0,0
51535.3125,-172.972973,4,2,1,60,0,0
51552.125,-188.2352941,4,2,1,60,0,0
51568.9375,-206.4516129,4,2,1,60,0,0
51585.75,-228.5714286,4,2,1,60,0,0
51602.5625,-256,4,2,1,60,0,0
51619.375,-290.9090909,4,2,1,60,0,0
51636.1875,-336.8421053,4,2,1,60,0,0
51653,-400,4,2,1,60,0,0
51672,-10,4,2,1,60,0,0
51681,-10000,4,2,1,60,0,0
51691,-100,4,2,1,60,0,0
52000,-1000,4,2,1,60,0,0
52038,-12.8700128700129,4,2,1,60,0,0
52043,-100,4,2,1,60,0,0
52307,-1000,4,2,1,60,0,0
52345,-12.8700128700129,4,2,1,60,0,0
52350,-100,4,2,1,60,0,0
52615,-1000,4,2,1,60,0,0
52653,-12.8700128700129,4,2,1,60,0,0
52658,-100,4,2,1,60,0,0
52923,-1000,4,2,1,60,0,0
52961,-12.8700128700129,4,2,1,60,0,0
52966,-100,4,2,1,60,0,0
53230,-1000,4,2,1,60,0,0
53268,-12.8700128700129,4,2,1,60,0,0
53273,-100,4,2,1,60,0,0
53538,-1000,4,2,1,60,0,0
53576,-12.8700128700129,4,2,1,60,0,0
53581,-100,4,2,1,60,0,0
53846,-100,4,2,1,60,0,0
53862.8125,-104.9180328,4,2,1,60,0,0
53879.625,-110.3448276,4,2,1,60,0,0
53896.4375,-116.3636364,4,2,1,60,0,0
53913.25,-123.0769231,4,2,1,60,0,0
53930.0625,-130.6122449,4,2,1,60,0,0
53946.875,-139.1304348,4,2,1,60,0,0
53963.6875,-148.8372093,4,2,1,60,0,0
53980.5,-160,4,2,1,60,0,0
53997.3125,-172.972973,4,2,1,60,0,0
54014.125,-188.2352941,4,2,1,60,0,0
54030.9375,-206.4516129,4,2,1,60,0,0
54047.75,-228.5714286,4,2,1,60,0,0
54064.5625,-256,4,2,1,60,0,0
54081.375,-290.9090909,4,2,1,60,0,0
54098.1875,-336.8421053,4,2,1,60,0,0
54115,-400,4,2,1,60,0,0
54134,-10,4,2,1,60,0,0
54143,-10000,4,2,1,60,0,0
54153,-100,4,2,1,60,0,0
54461,-1000,4,2,1,60,0,0
54499,-12.8700128700129,4,2,1,60,0,0
54504,-100,4,2,1,60,0,0
54769,-1000,4,2,1,60,0,0
54807,-12.8700128700129,4,2,1,60,0,0
54812,-100,4,2,1,60,0,0
55076,-1000,4,2,1,60,0,0
55114,-12.8700128700129,4,2,1,60,0,0
55119,-100,4,2,1,60,0,0
55384,-1000,4,2,1,60,0,0
55422,-12.8700128700129,4,2,1,60,0,0
55427,-100,4,2,1,60,0,0
55692,-1000,4,2,1,60,0,0
55730,-12.8700128700129,4,2,1,60,0,0
55735,-100,4,2,1,60,0,0
56000,-1000,4,2,1,60,0,0
56038,-12.8700128700129,4,2,1,60,0,0
56043,-100,4,2,1,60,0,0
56307,-100,4,2,1,60,0,0
56323.8125,-104.9180328,4,2,1,60,0,0
56340.625,-110.3448276,4,2,1,60,0,0
56357.4375,-116.3636364,4,2,1,60,0,0
56374.25,-123.0769231,4,2,1,60,0,0
56391.0625,-130.6122449,4,2,1,60,0,0
56407.875,-139.1304348,4,2,1,60,0,0
56424.6875,-148.8372093,4,2,1,60,0,0
56441.5,-160,4,2,1,60,0,0
56458.3125,-172.972973,4,2,1,60,0,0
56475.125,-188.2352941,4,2,1,60,0,0
56491.9375,-206.4516129,4,2,1,60,0,0
56508.75,-228.5714286,4,2,1,60,0,0
56525.5625,-256,4,2,1,60,0,0
56542.375,-290.9090909,4,2,1,60,0,0
56559.1875,-336.8421053,4,2,1,60,0,0
56576,-400,4,2,1,60,0,0
56595,-10,4,2,1,60,0,0
56604,-10000,4,2,1,60,0,0
56614,-100,4,2,1,60,0,0
56923,-1000,4,2,1,60,0,0
56961,-12.8700128700129,4,2,1,60,0,0
56966,-100,4,2,1,60,0,0
57230,-1000,4,2,1,60,0,0
57268,-12.8700128700129,4,2,1,60,0,0
57273,-100,4,2,1,60,0,0
57538,-1000,4,2,1,60,0,0
57576,-12.8700128700129,4,2,1,60,0,0
57581,-100,4,2,1,60,0,0
57846,-1000,4,2,1,60,0,0
57884,-12.8700128700129,4,2,1,60,0,0
57889,-100,4,2,1,60,0,0
58153,-1000,4,2,1,60,0,0
58191,-12.8700128700129,4,2,1,60,0,0
58196,-100,4,2,1,60,0,0
58461,-1000,4,2,1,60,0,0
58499,-12.8700128700129,4,2,1,60,0,0
58504,-100,4,2,1,60,0,0
58769,-100,4,2,1,60,0,0
58785.8125,-104.9180328,4,2,1,60,0,0
58802.625,-110.3448276,4,2,1,60,0,0
58819.4375,-116.3636364,4,2,1,60,0,0
58836.25,-123.0769231,4,2,1,60,0,0
58853.0625,-130.6122449,4,2,1,60,0,0
58869.875,-139.1304348,4,2,1,60,0,0
58886.6875,-148.8372093,4,2,1,60,0,0
58903.5,-160,4,2,1,60,0,0
58920.3125,-172.972973,4,2,1,60,0,0
58937.125,-188.2352941,4,2,1,60,0,0
58953.9375,-206.4516129,4,2,1,60,0,0
58970.75,-228.5714286,4,2,1,60,0,0
58987.5625,-256,4,2,1,60,0,0
59004.375,-290.9090909,4,2,1,60,0,0
59021.1875,-336.8421053,4,2,1,60,0,0
59038,-400,4,2,1,60,0,0
59057,-10,4,2,1,60,0,0
59066,-10000,4,2,1,60,0,0
59076,-100,4,2,1,60,0,0
59124.45703,-104.3024761,4,2,1,60,0,0
59172.91797,-108.9918233,4,2,1,60,0,0
59221.375,-114.1226782,4,2,1,60,0,0
59269.83203,-119.7604821,4,2,1,60,0,0
59318.29297,-125.9842539,4,2,1,60,0,0
59366.75,-132.8903659,4,2,1,60,0,0
59415.20703,-140.5975381,4,2,1,60,0,0
59463.66797,-149.2537276,4,2,1,60,0,0
59512.125,-159.045719,4,2,1,60,0,0
59560.58203,-170.2127729,4,2,1,60,0,0
59609.04297,-183.0663664,4,2,1,60,0,0
59657.5,-198.0198038,4,2,1,60,0,0
59705.95703,-215.633421,4,2,1,60,0,0
59754.41797,-236.6863825,4,2,1,60,0,0
59802.875,-262.2950861,4,2,1,60,0,0
59851.33203,-294.117644,4,2,1,60,0,0
59899.79297,-334.7280188,4,2,1,60,0,0
59948.25,-388.3495254,4,2,1,60,0,0
59996.70703,-462.4277406,4,2,1,60,0,0
60045.16797,-571.4285812,4,2,1,60,0,0
60093.625,-747.6635148,4,2,1,60,0,0
60142.08203,-1081.081067,4,2,1,60,0,0
60190.54297,-1951.219529,4,2,1,60,0,0
60239,-10000,4,2,1,60,0,0
60288,-10,4,2,1,60,0,0
60307,-10000,4,2,1,60,0,0
60461,-10,4,2,1,60,0,0
60462,-10000,4,2,1,60,0,0
60538,-10,4,2,1,60,0,0
60539,-10000,4,2,1,60,0,0
60615,-10,4,2,1,60,0,0
60616,-10000,4,2,1,60,0,0
60769,-10,4,2,1,60,0,0
60770,-10000,4,2,1,60,0,0
60923,-10,4,2,1,60,0,0
60924,-10000,4,2,1,60,0,0
61076,-10,4,2,1,60,0,0
61077,-10000,4,2,1,60,0,0
61230,-200,4,2,0,25,0,0
61240.38281,-207.8337332,4,2,0,25,0,0
61250.76953,-216.3061567,4,2,0,25,0,0
61261.15234,-225.4986996,4,2,0,25,0,0
61271.53906,-235.5072472,4,2,0,25,0,0
61281.92188,-246.4454987,4,2,0,25,0,0
61292.30859,-258.4493056,4,2,0,25,0,0
61302.69141,-271.6823425,4,2,0,25,0,0
61313.07813,-286.3436147,4,2,0,25,0,0
61323.46094,-302.677535,4,2,0,25,0,0
61333.84766,-320.9876581,4,2,0,25,0,0
61344.23047,-341.6557209,4,2,0,25,0,0
61354.61719,-365.1685452,4,2,0,25,0,0
61365,-392.1568701,4,2,0,25,0,0
61375.38281,-423.4527779,4,2,0,25,0,0
61385.76953,-460.1770028,4,2,0,25,0,0
61396.15234,-503.8759839,4,2,0,25,0,0
61406.53906,-556.7452013,4,2,0,25,0,0
61416.92188,-622.0095949,4,2,0,25,0,0
61427.30859,-704.6070807,4,2,0,25,0,0
61437.69141,-812.4999992,4,2,0,25,0,0
61448.07813,-959.4095964,4,2,0,25,0,0
61458.46094,-1171.17118,4,2,0,25,0,0
61468.84766,-1502.890196,4,2,0,25,0,0
61479.23047,-2096.774253,4,2,0,25,0,0
61489.61719,-3466.666649,4,2,0,25,0,0
61500,-10000,4,2,0,25,0,0
61526,-10,4,2,1,60,0,0
61538,-10000,4,2,1,60,0,0
61615,-100,4,2,1,60,0,0
61659.875,-104.3024761,4,2,1,60,0,0
61704.75,-108.9918233,4,2,1,60,0,0
61749.625,-114.1226782,4,2,1,60,0,0
61794.5,-119.7604821,4,2,1,60,0,0
61839.375,-125.9842539,4,2,1,60,0,0
61884.25,-132.8903659,4,2,1,60,0,0
61929.125,-140.5975381,4,2,1,60,0,0
61974,-149.2537276,4,2,1,60,0,0
62018.875,-159.045719,4,2,1,60,0,0
62063.75,-170.2127729,4,2,1,60,0,0
62108.625,-183.0663664,4,2,1,60,0,0
62153.5,-198.0198038,4,2,1,60,0,0
62198.375,-215.633421,4,2,1,60,0,0
62243.25,-236.6863825,4,2,1,60,0,0
62288.125,-262.2950861,4,2,1,60,0,0
62333,-294.117644,4,2,1,60,0,0
62377.875,-334.7280188,4,2,1,60,0,0
62422.75,-388.3495254,4,2,1,60,0,0
62467.625,-462.4277406,4,2,1,60,0,0
62512.5,-571.4285812,4,2,1,60,0,0
62557.375,-747.6635148,4,2,1,60,0,0
62602.25,-1081.081067,4,2,1,60,0,0
62647.125,-1951.219529,4,2,1,60,0,0
62692,-10000,4,2,1,60,0,0
62750,-10,4,2,1,60,0,0
62769,-10000,4,2,1,60,0,0
62923,-10,4,2,1,60,0,0
62924,-10000,4,2,1,60,0,0
63000,-10,4,2,1,60,0,0
63001,-10000,4,2,1,60,0,0
63076,-10,4,2,1,60,0,0
63077,-10000,4,2,1,60,0,0
63230,-10,4,2,1,60,0,0
63231,-10000,4,2,1,60,0,0
63384,-10,4,2,1,60,0,0
63385,-10000,4,2,1,60,0,0
63538,-10,4,2,1,60,0,0
63539,-10000,4,2,1,60,0,0
63692,-200,4,2,0,25,0,0
63702.38281,-207.8337332,4,2,0,25,0,0
63712.76953,-216.3061567,4,2,0,25,0,0
63723.15234,-225.4986996,4,2,0,25,0,0
63733.53906,-235.5072472,4,2,0,25,0,0
63743.92188,-246.4454987,4,2,0,25,0,0
63754.30859,-258.4493056,4,2,0,25,0,0
63764.69141,-271.6823425,4,2,0,25,0,0
63775.07813,-286.3436147,4,2,0,25,0,0
63785.46094,-302.677535,4,2,0,25,0,0
63795.84766,-320.9876581,4,2,0,25,0,0
63806.23047,-341.6557209,4,2,0,25,0,0
63816.61719,-365.1685452,4,2,0,25,0,0
63827,-392.1568701,4,2,0,25,0,0
63837.38281,-423.4527779,4,2,0,25,0,0
63847.76953,-460.1770028,4,2,0,25,0,0
63858.15234,-503.8759839,4,2,0,25,0,0
63868.53906,-556.7452013,4,2,0,25,0,0
63878.92188,-622.0095949,4,2,0,25,0,0
63889.30859,-704.6070807,4,2,0,25,0,0
63899.69141,-812.4999992,4,2,0,25,0,0
63910.07813,-959.4095964,4,2,0,25,0,0
63920.46094,-1171.17118,4,2,0,25,0,0
63930.84766,-1502.890196,4,2,0,25,0,0
63941.23047,-2096.774253,4,2,0,25,0,0
63951.61719,-3466.666649,4,2,0,25,0,0
63962,-10000,4,2,0,25,0,0
63988,-10,4,2,1,60,0,0
64000,-10000,4,2,1,60,0,0
64076,-100,4,2,1,60,0,0
64120.875,-104.3024761,4,2,1,60,0,0
64165.75,-108.9918233,4,2,1,60,0,0
64210.625,-114.1226782,4,2,1,60,0,0
64255.5,-119.7604821,4,2,1,60,0,0
64300.375,-125.9842539,4,2,1,60,0,0
64345.25,-132.8903659,4,2,1,60,0,0
64390.125,-140.5975381,4,2,1,60,0,0
64435,-149.2537276,4,2,1,60,0,0
64479.875,-159.045719,4,2,1,60,0,0
64524.75,-170.2127729,4,2,1,60,0,0
64569.625,-183.0663664,4,2,1,60,0,0
64614.5,-198.0198038,4,2,1,60,0,0
64659.375,-215.633421,4,2,1,60,0,0
64704.25,-236.6863825,4,2,1,60,0,0
64749.125,-262.2950861,4,2,1,60,0,0
64794,-294.117644,4,2,1,60,0,0
64838.875,-334.7280188,4,2,1,60,0,0
64883.75,-388.3495254,4,2,1,60,0,0
64928.625,-462.4277406,4,2,1,60,0,0
64973.5,-571.4285812,4,2,1,60,0,0
65018.375,-747.6635148,4,2,1,60,0,0
65063.25,-1081.081067,4,2,1,60,0,0
65108.125,-1951.219529,4,2,1,60,0,0
65153,-10000,4,2,1,60,0,0
65211,-10,4,2,1,60,0,0
65230,-10000,4,2,1,60,0,0
65384,-10,4,2,1,60,0,0
65385,-10000,4,2,1,60,0,0
65461,-10,4,2,1,60,0,0
65462,-10000,4,2,1,60,0,0
65538,-10,4,2,1,60,0,0
65539,-10000,4,2,1,60,0,0
65692,-10,4,2,1,60,0,0
65693,-10000,4,2,1,60,0,0
65846,-10,4,2,1,60,0,0
65847,-10000,4,2,1,60,0,0
66000,-10,4,2,1,60,0,0
66001,-10000,4,2,1,60,0,0
66154,-200,4,2,0,25,0,0
66164.38281,-207.8337332,4,2,0,25,0,0
66174.76953,-216.3061567,4,2,0,25,0,0
66185.15234,-225.4986996,4,2,0,25,0,0
66195.53906,-235.5072472,4,2,0,25,0,0
66205.92188,-246.4454987,4,2,0,25,0,0
66216.30859,-258.4493056,4,2,0,25,0,0
66226.69141,-271.6823425,4,2,0,25,0,0
66237.07813,-286.3436147,4,2,0,25,0,0
66247.46094,-302.677535,4,2,0,25,0,0
66257.84766,-320.9876581,4,2,0,25,0,0
66268.23047,-341.6557209,4,2,0,25,0,0
66278.61719,-365.1685452,4,2,0,25,0,0
66289,-392.1568701,4,2,0,25,0,0
66299.38281,-423.4527779,4,2,0,25,0,0
66309.76953,-460.1770028,4,2,0,25,0,0
66320.15234,-503.8759839,4,2,0,25,0,0
66330.53906,-556.7452013,4,2,0,25,0,0
66340.92188,-622.0095949,4,2,0,25,0,0
66351.30859,-704.6070807,4,2,0,25,0,0
66361.69141,-812.4999992,4,2,0,25,0,0
66372.07813,-959.4095964,4,2,0,25,0,0
66382.46094,-1171.17118,4,2,0,25,0,0
66392.84766,-1502.890196,4,2,0,25,0,0
66403.23047,-2096.774253,4,2,0,25,0,0
66413.61719,-3466.666649,4,2,0,25,0,0
66424,-10000,4,2,0,25,0,0
66450,-10,4,2,1,60,0,0
66462,-10000,4,2,1,60,0,0
66538,-100,4,2,1,60,0,0
66582.875,-104.3024761,4,2,1,60,0,0
66627.75,-108.9918233,4,2,1,60,0,0
66672.625,-114.1226782,4,2,1,60,0,0
66717.5,-119.7604821,4,2,1,60,0,0
66762.375,-125.9842539,4,2,1,60,0,0
66807.25,-132.8903659,4,2,1,60,0,0
66852.125,-140.5975381,4,2,1,60,0,0
66897,-149.2537276,4,2,1,60,0,0
66941.875,-159.045719,4,2,1,60,0,0
66986.75,-170.2127729,4,2,1,60,0,0
67031.625,-183.0663664,4,2,1,60,0,0
67076.5,-198.0198038,4,2,1,60,0,0
67121.375,-215.633421,4,2,1,60,0,0
67166.25,-236.6863825,4,2,1,60,0,0
67211.125,-262.2950861,4,2,1,60,0,0
67256,-294.117644,4,2,1,60,0,0
67300.875,-334.7280188,4,2,1,60,0,0
67345.75,-388.3495254,4,2,1,60,0,0
67390.625,-462.4277406,4,2,1,60,0,0
67435.5,-571.4285812,4,2,1,60,0,0
67480.375,-747.6635148,4,2,1,60,0,0
67525.25,-1081.081067,4,2,1,60,0,0
67570.125,-1951.219529,4,2,1,60,0,0
67615,-10000,4,2,1,60,0,0
67673,-10,4,2,1,60,0,0
67692,-10000,4,2,1,60,0,0
67846,-10,4,2,1,60,0,0
67847,-10000,4,2,1,60,0,0
67923,-10,4,2,1,60,0,0
67924,-10000,4,2,1,60,0,0
68000,-10,4,2,1,60,0,0
68001,-10000,4,2,1,60,0,0
68134,-10,4,2,1,60,0,0
68135,-10000,4,2,1,60,0,0
68153,-200,4,2,0,25,0,0
68158.625,-208.5143399,4,2,0,25,0,0
68164.25,-217.7858396,4,2,0,25,0,0
68169.875,-227.9202285,4,2,0,25,0,0
68175.5,-239.0438313,4,2,0,25,0,0
68181.125,-251.3088955,4,2,0,25,0,0
68186.75,-264.9006639,4,2,0,25,0,0
68192.375,-280.0466844,4,2,0,25,0,0
68198,-297.029697,4,2,0,25,0,0
68203.625,-316.2055372,4,2,0,25,0,0
68209.25,-338.0281849,4,2,0,25,0,0
68214.875,-363.0862256,4,2,0,25,0,0
68220.5,-392.1568701,4,2,0,25,0,0
68226.125,-426.2877446,4,2,0,25,0,0
68231.75,-466.9260605,4,2,0,25,0,0
68237.375,-516.1290481,4,2,0,25,0,0
68243,-576.9230816,4,2,0,25,0,0
68248.625,-653.9509401,4,2,0,25,0,0
68254.25,-754.7170219,4,2,0,25,0,0
68259.875,-892.1933291,4,2,0,25,0,0
68265.5,-1090.909067,4,2,0,25,0,0
68271.125,-1403.50879,4,2,0,25,0,0
68276.75,-1967.213117,4,2,0,25,0,0
68282.375,-3287.671348,4,2,0,25,0,0
68288,-10000,4,2,0,25,0,0
68295,-10,4,2,1,60,0,0
68306,-100,4,2,1,60,0,0
68312.5,-101.1645685,4,2,1,60,0,0
68319,-102.3565809,4,2,1,60,0,0
68325.5,-103.5770191,4,2,1,60,0,0
68332,-104.8269119,4,2,1,60,0,0
68338.5,-106.1073389,4,2,1,60,0,0
68345,-107.4194326,4,2,1,60,0,0
68351.5,-108.7643826,4,2,1,60,0,0
68358,-110.1434459,4,2,1,60,0,0
68364.5,-111.5579222,4,2,1,60,0,0
68371,-113.0092009,4,2,1,60,0,0
68377.5,-114.4987372,4,2,1,60,0,0
68384,-116.0280641,4,2,1,60,0,0
68390.5,-117.5987976,4,2,1,60,0,0
68397,-119.2126425,4,2,1,60,0,0
68403.5,-120.8713983,4,2,1,60,0,0
68410,-122.5769662,4,2,1,60,0,0
68416.5,-124.3313561,4,2,1,60,0,0
68423,-126.1366949,4,2,1,60,0,0
68429.5,-127.9952346,4,2,1,60,0,0
68436,-129.909362,4,2,1,60,0,0
68442.5,-131.8816088,4,2,1,60,0,0
68449,-133.914663,4,2,1,60,0,0
68455.5,-136.0113918,4,2,1,60,0,0
68462,-138.1748114,4,2,1,60,0,0
68468.5,-140.4081668,4,2,1,60,0,0
68475,-142.7149049,4,2,1,60,0,0
68481.5,-145.098703,4,2,1,60,0,0
68488,-147.5634879,4,2,1,60,0,0
68494.5,-150.1134583,4,2,1,60,0,0
68501,-152.7531078,4,2,1,60,0,0
68507.5,-155.4872521,4,2,1,60,0,0
68514,-158.3210578,4,2,1,60,0,0
68520.5,-161.260075,4,2,1,60,0,0
68527,-164.310274,4,2,1,60,0,0
68533.5,-167.4780852,4,2,1,60,0,0
68540,-170.770445,4,2,1,60,0,0
68546.5,-174.194864,4,2,1,60,0,0
68553,-177.7594126,4,2,1,60,0,0
68559.5,-181.4728915,4,2,1,60,0,0
68566,-185.3448334,4,2,1,60,0,0
68572.5,-189.3856025,4,2,1,60,0,0
68579,-193.6064869,4,2,1,60,0,0
68585.5,-198.0198038,4,2,1,60,0,0
68592,-202.6390201,4,2,1,60,0,0
68598.5,-207.4788888,4,2,1,60,0,0
68605,-212.5556071,4,2,1,60,0,0
68611.5,-217.8869974,4,2,1,60,0,0
68618,-223.4927307,4,2,1,60,0,0
68624.5,-229.3945106,4,2,1,60,0,0
68631,-235.6164418,4,2,1,60,0,0
68637.5,-242.1853012,4,2,1,60,0,0
68644,-249.1309374,4,2,1,60,0,0
68650.5,-256.4867244,4,2,1,60,0,0
68657,-264.2900975,4,2,1,60,0,0
68663.5,-272.5831909,4,2,1,60,0,0
68670,-281.4136219,4,2,1,60,0,0
68676.5,-290.8353126,4,2,1,60,0,0
68683,-300.9097304,4,2,1,60,0,0
68689.5,-311.7071399,4,2,1,60,0,0
68696,-323.308266,4,2,1,60,0,0
68702.5,-335.8063161,4,2,1,60,0,0
68709,-349.3094892,4,2,1,60,0,0
68715.5,-363.9441563,4,2,1,60,0,0
68722,-379.8586705,4,2,1,60,0,0
68728.5,-397.2286455,4,2,1,60,0,0
68735,-416.2633126,4,2,1,60,0,0
68741.5,-437.2140258,4,2,1,60,0,0
68748,-460.3854241,4,2,1,60,0,0
68754.5,-486.1503765,4,2,1,60,0,0
68761,-514.9700593,4,2,1,60,0,0
68767.5,-547.4220114,4,2,1,60,0,0
68774,-584.239153,4,2,1,60,0,0
68780.5,-626.3656327,4,2,1,60,0,0
68787,-675.0392396,4,2,1,60,0,0
68793.5,-731.9148639,4,2,1,60,0,0
68800,-799.2565395,4,2,1,60,0,0
68806.5,-880.2456597,4,2,1,60,0,0
68813,-979.4988343,4,2,1,60,0,0
68819.5,-1103.979468,4,2,1,60,0,0
68826,-1264.705827,4,2,1,60,0,0
68832.5,-1480.20654,4,2,1,60,0,0
68839,-1784.232354,4,2,1,60,0,0
68845.5,-2245.430776,4,2,1,60,0,0
68852,-3028.168923,4,2,1,60,0,0
68858.5,-4648.648767,4,2,1,60,0,0
68865,-10000,4,2,1,60,0,0
68905,-10,4,2,1,60,0,0
68923,-100,4,2,1,60,0,1
69538,-113.6363636,4,2,1,60,0,1
69557,-100,4,2,1,60,0,1
69567.75781,-103.3057857,4,2,1,60,0,1
69578.52344,-106.837608,4,2,1,60,0,1
69589.28125,-110.619471,4,2,1,60,0,1
69600.03906,-114.6789018,4,2,1,60,0,1
69610.79688,-119.0476228,4,2,1,60,0,1
69621.5625,-123.7623719,4,2,1,60,0,1
69632.32031,-128.8659756,4,2,1,60,0,1
69643.07813,-134.408599,4,2,1,60,0,1
69653.84375,-140.4494358,4,2,1,60,0,1
69664.60156,-147.058822,4,2,1,60,0,1
69675.35938,-154.3209872,4,2,1,60,0,1
69686.11719,-162.3376632,4,2,1,60,0,1
69696.88281,-171.2328792,4,2,1,60,0,1
69707.64063,-181.1594248,4,2,1,60,0,1
69718.39844,-192.3076994,4,2,1,60,0,1
69729.15625,-204.9180305,4,2,1,60,0,1
69739.92188,-219.2982455,4,2,1,60,0,1
69750.67969,-235.8490594,4,2,1,60,0,1
69761.4375,-255.1020475,4,2,1,60,0,1
69772.20313,-277.7777667,4,2,1,60,0,1
69782.96094,-304.8780404,4,2,1,60,0,1
69793.71875,-337.8378335,4,2,1,60,0,1
69804.47656,-378.7878808,4,2,1,60,0,1
69815.24219,-431.0344675,4,2,1,60,0,1
69826,-499.9999925,4,2,1,60,0,1
69838,-10,4,2,1,60,0,1
69845,-100,4,2,1,60,0,1
69875.75781,-103.3057857,4,2,1,60,0,1
69886.52344,-106.837608,4,2,1,60,0,1
69897.28125,-110.619471,4,2,1,60,0,1
69908.03906,-114.6789018,4,2,1,60,0,1
69918.79688,-119.0476228,4,2,1,60,0,1
69929.5625,-123.7623719,4,2,1,60,0,1
69940.32031,-128.8659756,4,2,1,60,0,1
69951.07813,-134.408599,4,2,1,60,0,1
69961.84375,-140.4494358,4,2,1,60,0,1
69972.60156,-147.058822,4,2,1,60,0,1
69983.35938,-154.3209872,4,2,1,60,0,1
69994.11719,-162.3376632,4,2,1,60,0,1
70004.88281,-171.2328792,4,2,1,60,0,1
70015.64063,-181.1594248,4,2,1,60,0,1
70026.39844,-192.3076994,4,2,1,60,0,1
70037.15625,-204.9180305,4,2,1,60,0,1
70047.92188,-219.2982455,4,2,1,60,0,1
70058.67969,-235.8490594,4,2,1,60,0,1
70069.4375,-255.1020475,4,2,1,60,0,1
70080.20313,-277.7777667,4,2,1,60,0,1
70090.96094,-304.8780404,4,2,1,60,0,1
70101.71875,-337.8378335,4,2,1,60,0,1
70112.47656,-378.7878808,4,2,1,60,0,1
70123.24219,-431.0344675,4,2,1,60,0,1
70134,-499.9999925,4,2,1,60,0,1
70142,-10,4,2,1,60,0,1
70153,-100,4,2,1,60,0,1
70307,-1000,4,2,1,60,0,1
70345,-10,4,2,1,60,0,1
70350,-100,4,2,1,60,0,1
70461,-1000,4,2,1,60,0,1
70499,-10,4,2,1,60,0,1
70504,-100,4,2,1,60,0,1
71384,-1000,4,2,1,60,0,1
71422,-10,4,2,1,60,0,1
71427,-100,4,2,1,60,0,1
72769,-1000,4,2,1,60,0,1
72807,-10,4,2,1,60,0,1
72812,-100,4,2,1,60,0,1
72923,-1000,4,2,1,60,0,1
72961,-10,4,2,1,60,0,1
72966,-100,4,2,1,60,0,1
73846,-1000,4,2,1,60,0,1
73884,-10,4,2,1,60,0,1
73889,-100,4,2,1,60,0,1
74461,-113.6363636,4,2,1,60,0,1
74480,-100,4,2,1,60,0,1
74490.75781,-103.3057857,4,2,1,60,0,1
74501.52344,-106.837608,4,2,1,60,0,1
74512.28125,-110.619471,4,2,1,60,0,1
74523.03906,-114.6789018,4,2,1,60,0,1
74533.79688,-119.0476228,4,2,1,60,0,1
74544.5625,-123.7623719,4,2,1,60,0,1
74555.32031,-128.8659756,4,2,1,60,0,1
74566.07813,-134.408599,4,2,1,60,0,1
74576.84375,-140.4494358,4,2,1,60,0,1
74587.60156,-147.058822,4,2,1,60,0,1
74598.35938,-154.3209872,4,2,1,60,0,1
74609.11719,-162.3376632,4,2,1,60,0,1
74619.88281,-171.2328792,4,2,1,60,0,1
74630.64063,-181.1594248,4,2,1,60,0,1
74641.39844,-192.3076994,4,2,1,60,0,1
74652.15625,-204.9180305,4,2,1,60,0,1
74662.92188,-219.2982455,4,2,1,60,0,1
74673.67969,-235.8490594,4,2,1,60,0,1
74684.4375,-255.1020475,4,2,1,60,0,1
74695.20313,-277.7777667,4,2,1,60,0,1
74705.96094,-304.8780404,4,2,1,60,0,1
74716.71875,-337.8378335,4,2,1,60,0,1
74727.47656,-378.7878808,4,2,1,60,0,1
74738.24219,-431.0344675,4,2,1,60,0,1
74749,-499.9999925,4,2,1,60,0,1
74761,-10,4,2,1,60,0,1
74768,-100,4,2,1,60,0,1
74798.75781,-103.3057857,4,2,1,60,0,1
74809.52344,-106.837608,4,2,1,60,0,1
74820.28125,-110.619471,4,2,1,60,0,1
74831.03906,-114.6789018,4,2,1,60,0,1
74841.79688,-119.0476228,4,2,1,60,0,1
74852.5625,-123.7623719,4,2,1,60,0,1
74863.32031,-128.8659756,4,2,1,60,0,1
74874.07813,-134.408599,4,2,1,60,0,1
74884.84375,-140.4494358,4,2,1,60,0,1
74895.60156,-147.058822,4,2,1,60,0,1
74906.35938,-154.3209872,4,2,1,60,0,1
74917.11719,-162.3376632,4,2,1,60,0,1
74927.88281,-171.2328792,4,2,1,60,0,1
74938.64063,-181.1594248,4,2,1,60,0,1
74949.39844,-192.3076994,4,2,1,60,0,1
74960.15625,-204.9180305,4,2,1,60,0,1
74970.92188,-219.2982455,4,2,1,60,0,1
74981.67969,-235.8490594,4,2,1,60,0,1
74992.4375,-255.1020475,4,2,1,60,0,1
75003.20313,-277.7777667,4,2,1,60,0,1
75013.96094,-304.8780404,4,2,1,60,0,1
75024.71875,-337.8378335,4,2,1,60,0,1
75035.47656,-378.7878808,4,2,1,60,0,1
75046.24219,-431.0344675,4,2,1,60,0,1
75057,-499.9999925,4,2,1,60,0,1
75065,-10,4,2,1,60,0,1
75076,-100,4,2,1,60,0,1
75230,-1000,4,2,1,60,0,1
75268,-10,4,2,1,60,0,1
75273,-100,4,2,1,60,0,1
75384,-1000,4,2,1,60,0,1
75422,-10,4,2,1,60,0,1
75427,-100,4,2,1,60,0,1
76307,-1000,4,2,1,60,0,1
76345,-10,4,2,1,60,0,1
76350,-100,4,2,1,60,0,1
77692,-1000,4,2,1,60,0,1
77730,-10,4,2,1,60,0,1
77735,-100,4,2,1,60,0,1
77846,-1000,4,2,1,60,0,1
77884,-10,4,2,1,60,0,1
77889,-100,4,2,1,60,0,1
78461,-100,4,2,1,60,0,0
78477.8125,-104.9180328,4,2,1,60,0,0
78494.625,-110.3448276,4,2,1,60,0,0
78511.4375,-116.3636364,4,2,1,60,0,0
78528.25,-123.0769231,4,2,1,60,0,0
78545.0625,-130.6122449,4,2,1,60,0,0
78561.875,-139.1304348,4,2,1,60,0,0
78578.6875,-148.8372093,4,2,1,60,0,0
78595.5,-160,4,2,1,60,0,0
78612.3125,-172.972973,4,2,1,60,0,0
78629.125,-188.2352941,4,2,1,60,0,0
78645.9375,-206.4516129,4,2,1,60,0,0
78662.75,-228.5714286,4,2,1,60,0,0
78679.5625,-256,4,2,1,60,0,0
78696.375,-290.9090909,4,2,1,60,0,0
78713.1875,-336.8421053,4,2,1,60,0,0
78730,-400,4,2,1,60,0,0
78749,-10,4,2,1,60,0,0
78758,-10000,4,2,1,60,0,0
78768,-105.263157894737,4,2,1,60,0,0
78769,-1000,4,2,1,60,0,1
78807,-10,4,2,1,60,0,1
78812,-100,4,2,1,60,0,1
79384,-113.6363636,4,2,1,60,0,1
79403,-100,4,2,1,60,0,1
79413.75781,-103.3057857,4,2,1,60,0,1
79424.52344,-106.837608,4,2,1,60,0,1
79435.28125,-110.619471,4,2,1,60,0,1
79446.03906,-114.6789018,4,2,1,60,0,1
79456.79688,-119.0476228,4,2,1,60,0,1
79467.5625,-123.7623719,4,2,1,60,0,1
79478.32031,-128.8659756,4,2,1,60,0,1
79489.07813,-134.408599,4,2,1,60,0,1
79499.84375,-140.4494358,4,2,1,60,0,1
79510.60156,-147.058822,4,2,1,60,0,1
79521.35938,-154.3209872,4,2,1,60,0,1
79532.11719,-162.3376632,4,2,1,60,0,1
79542.88281,-171.2328792,4,2,1,60,0,1
79553.64063,-181.1594248,4,2,1,60,0,1
79564.39844,-192.3076994,4,2,1,60,0,1
79575.15625,-204.9180305,4,2,1,60,0,1
79585.92188,-219.2982455,4,2,1,60,0,1
79596.67969,-235.8490594,4,2,1,60,0,1
79607.4375,-255.1020475,4,2,1,60,0,1
79618.20313,-277.7777667,4,2,1,60,0,1
79628.96094,-304.8780404,4,2,1,60,0,1
79639.71875,-337.8378335,4,2,1,60,0,1
79650.47656,-378.7878808,4,2,1,60,0,1
79661.24219,-431.0344675,4,2,1,60,0,1
79672,-499.9999925,4,2,1,60,0,1
79684,-10,4,2,1,60,0,1
79691,-100,4,2,1,60,0,1
79721.75781,-103.3057857,4,2,1,60,0,1
79732.52344,-106.837608,4,2,1,60,0,1
79743.28125,-110.619471,4,2,1,60,0,1
79754.03906,-114.6789018,4,2,1,60,0,1
79764.79688,-119.0476228,4,2,1,60,0,1
79775.5625,-123.7623719,4,2,1,60,0,1
79786.32031,-128.8659756,4,2,1,60,0,1
79797.07813,-134.408599,4,2,1,60,0,1
79807.84375,-140.4494358,4,2,1,60,0,1
79818.60156,-147.058822,4,2,1,60,0,1
79829.35938,-154.3209872,4,2,1,60,0,1
79840.11719,-162.3376632,4,2,1,60,0,1
79850.88281,-171.2328792,4,2,1,60,0,1
79861.64063,-181.1594248,4,2,1,60,0,1
79872.39844,-192.3076994,4,2,1,60,0,1
79883.15625,-204.9180305,4,2,1,60,0,1
79893.92188,-219.2982455,4,2,1,60,0,1
79904.67969,-235.8490594,4,2,1,60,0,1
79915.4375,-255.1020475,4,2,1,60,0,1
79926.20313,-277.7777667,4,2,1,60,0,1
79936.96094,-304.8780404,4,2,1,60,0,1
79947.71875,-337.8378335,4,2,1,60,0,1
79958.47656,-378.7878808,4,2,1,60,0,1
79969.24219,-431.0344675,4,2,1,60,0,1
79980,-499.9999925,4,2,1,60,0,1
79988,-10,4,2,1,60,0,1
79999,-100,4,2,1,60,0,1
80153,-1000,4,2,1,60,0,1
80191,-10,4,2,1,60,0,1
80196,-100,4,2,1,60,0,1
80307,-1000,4,2,1,60,0,1
80345,-10,4,2,1,60,0,1
80350,-100,4,2,1,60,0,1
81230,-1000,4,2,1,60,0,1
81268,-10,4,2,1,60,0,1
81273,-100,4,2,1,60,0,1
82615,-1000,4,2,1,60,0,1
82653,-10,4,2,1,60,0,1
82658,-100,4,2,1,60,0,1
82769,-1000,4,2,1,60,0,1
82807,-10,4,2,1,60,0,1
82812,-100,4,2,1,60,0,1
83692,-1000,4,2,1,60,0,1
83730,-10,4,2,1,60,0,1
83735,-100,4,2,1,60,0,1
84307,-113.6363636,4,2,1,60,0,1
84326,-100,4,2,1,60,0,1
84336.75781,-103.3057857,4,2,1,60,0,1
84347.52344,-106.837608,4,2,1,60,0,1
84358.28125,-110.619471,4,2,1,60,0,1
84369.03906,-114.6789018,4,2,1,60,0,1
84379.79688,-119.0476228,4,2,1,60,0,1
84390.5625,-123.7623719,4,2,1,60,0,1
84401.32031,-128.8659756,4,2,1,60,0,1
84412.07813,-134.408599,4,2,1,60,0,1
84422.84375,-140.4494358,4,2,1,60,0,1
84433.60156,-147.058822,4,2,1,60,0,1
84444.35938,-154.3209872,4,2,1,60,0,1
84455.11719,-162.3376632,4,2,1,60,0,1
84465.88281,-171.2328792,4,2,1,60,0,1
84476.64063,-181.1594248,4,2,1,60,0,1
84487.39844,-192.3076994,4,2,1,60,0,1
84498.15625,-204.9180305,4,2,1,60,0,1
84508.92188,-219.2982455,4,2,1,60,0,1
84519.67969,-235.8490594,4,2,1,60,0,1
84530.4375,-255.1020475,4,2,1,60,0,1
84541.20313,-277.7777667,4,2,1,60,0,1
84551.96094,-304.8780404,4,2,1,60,0,1
84562.71875,-337.8378335,4,2,1,60,0,1
84573.47656,-378.7878808,4,2,1,60,0,1
84584.24219,-431.0344675,4,2,1,60,0,1
84595,-499.9999925,4,2,1,60,0,1
84607,-10,4,2,1,60,0,1
84614,-100,4,2,1,60,0,1
85076,-1000,4,2,1,60,0,1
85114,-10,4,2,1,60,0,1
85119,-100,4,2,1,60,0,1
85230,-1000,4,2,1,60,0,1
85268,-10,4,2,1,60,0,1
85273,-100,4,2,1,60,0,1
86153,-1000,4,2,1,60,0,1
86191,-10,4,2,1,60,0,1
86196,-100,4,2,1,60,0,1
87538,-1000,4,2,1,60,0,1
87576,-10,4,2,1,60,0,1
87581,-100,4,2,1,60,0,1
87673,-1000,4,2,1,60,0,1
87711,-10,4,2,1,60,0,1
87716,-100,4,2,1,60,0,1
88615,-1000,4,2,1,60,0,0
88653,-10,4,2,1,60,0,0
88658,-100,4,2,1,60,0,0
89230,-1000,4,2,1,60,0,0
89268,-10,4,2,1,60,0,0
89273,-100,4,2,1,60,0,0
89846,-1000,4,2,1,60,0,0
89884,-10,4,2,1,60,0,0
89889,-100,4,2,1,60,0,0
90461,-1000,4,2,1,60,0,0
90499,-10,4,2,1,60,0,0
90504,-100,4,2,1,60,0,0
90769,-100,4,2,0,25,0,0
90843.5,-101.7811688,4,2,0,25,0,0
90918,-103.6269458,4,2,0,25,0,0
90992.5,-105.5408982,4,2,0,25,0,0
91067,-107.5268809,4,2,0,25,0,0
91141.5,-109.5890382,4,2,0,25,0,0
91216,-111.731846,4,2,0,25,0,0
91290.5,-113.9601143,4,2,0,25,0,0
91365,-116.2790678,4,2,0,25,0,0
91439.5,-118.694366,4,2,0,25,0,0
91514,-121.212123,4,2,0,25,0,0
91588.5,-123.8390086,4,2,0,25,0,0
91663,-126.582275,4,2,0,25,0,0
91737.5,-129.4498418,4,2,0,25,0,0
91812,-132.450332,4,2,0,25,0,0
91886.5,-135.5932181,4,2,0,25,0,0
91961,-138.8888834,4,2,0,25,0,0
92035.5,-142.3487573,4,2,0,25,0,0
92110,-145.985401,4,2,0,25,0,0
92184.5,-149.8127298,4,2,0,25,0,0
92259,-153.8461595,4,2,0,25,0,0
92333.5,-158.1027686,4,2,0,25,0,0
92408,-162.6016235,4,2,0,25,0,0
92482.5,-167.3640094,4,2,0,25,0,0
92557,-172.4137981,4,2,0,25,0,0
92631.5,-177.7777778,4,2,0,25,0,0
92706,-183.4862329,4,2,0,25,0,0
92780.5,-189.5734691,4,2,0,25,0,0
92855,-196.078435,4,2,0,25,0,0
92929.5,-203.0456823,4,2,0,25,0,0
93004,-210.5263184,4,2,0,25,0,0
93078.5,-218.5792298,4,2,0,25,0,0
93153,-227.2727285,4,2,0,25,0,0

[HitObjects]
320,192,0,5,0,0:0:0:0:
448,192,0,128,0,76:0:0:0:0:
64,192,153,128,0,230:0:0:0:0:
320,192,307,128,0,615:0:0:0:0:
448,192,307,1,0,0:0:0:0:
64,192,615,128,0,692:0:0:0:0:
192,192,615,1,0,0:0:0:0:
448,192,769,128,0,846:0:0:0:0:
192,192,923,1,0,0:0:0:0:
320,192,923,1,0,0:0:0:0:
448,192,1076,1,0,0:0:0:0:
64,192,1230,1,0,0:0:0:0:
320,192,1230,128,0,1307:0:0:0:0:
448,192,1384,1,0,0:0:0:0:
64,192,1538,1,0,0:0:0:0:
192,192,1692,1,0,0:0:0:0:
448,192,1846,128,0,2461:0:0:0:0:
320,192,1846,128,0,2461:0:0:0:0:
192,192,2461,1,0,0:0:0:0:
64,192,2461,128,0,2538:0:0:0:0:
448,192,2615,128,0,2692:0:0:0:0:
192,192,2769,1,0,0:0:0:0:
320,192,2769,128,0,3076:0:0:0:0:
64,192,2923,1,0,0:0:0:0:
448,192,2923,1,0,0:0:0:0:
64,192,3076,1,0,0:0:0:0:
192,192,3076,128,0,3153:0:0:0:0:
448,192,3230,128,0,3307:0:0:0:0:
64,192,3384,1,0,0:0:0:0:
192,192,3384,1,0,0:0:0:0:
320,192,3538,1,0,0:0:0:0:
448,192,3692,128,0,3769:0:0:0:0:
192,192,3692,128,0,4000:0:0:0:0:
320,192,3846,128,0,3923:0:0:0:0:
64,192,4000,1,0,0:0:0:0:
320,192,4153,1,0,0:0:0:0:
192,192,4307,128,0,4615:0:0:0:0:
320,192,4615,1,0,0:0:0:0:
192,192,4769,1,0,0:0:0:0:
64,192,4923,1,0,0:0:0:0:
448,192,4923,1,0,0:0:0:0:
320,192,4923,1,0,0:0:0:0:
192,192,5230,1,0,0:0:0:0:
320,192,5384,1,0,0:0:0:0:
448,192,5538,1,0,0:0:0:0:
192,192,5538,1,0,0:0:0:0:
64,192,5538,128,0,5615:0:0:0:0:
448,192,5692,128,0,5769:0:0:0:0:
320,192,5846,1,0,0:0:0:0:
192,192,5846,1,0,0:0:0:0:
64,192,6000,1,0,0:0:0:0:
320,192,6153,1,0,0:0:0:0:
192,192,6153,1,0,0:0:0:0:
64,192,6153,128,0,6230:0:0:0:0:
448,192,6307,128,0,6384:0:0:0:0:
320,192,6461,1,0,0:0:0:0:
192,192,6615,1,0,0:0:0:0:
64,192,6769,128,0,7384:0:0:0:0:
448,192,6769,1,0,0:0:0:0:
320,192,6769,1,0,0:0:0:0:
192,192,7384,1,0,0:0:0:0:
320,192,7384,1,0,0:0:0:0:
448,192,7384,128,0,7461:0:0:0:0:
192,192,7538,128,0,7615:0:0:0:0:
448,192,7692,1,0,0:0:0:0:
320,192,7846,1,0,0:0:0:0:
192,192,7846,1,0,0:0:0:0:
192,192,8000,1,0,0:0:0:0:
448,192,8000,1,0,0:0:0:0:
64,192,8000,128,0,8076:0:0:0:0:
320,192,8153,128,0,8230:0:0:0:0:
192,192,8307,1,0,0:0:0:0:
64,192,8307,1,0,0:0:0:0:
448,192,8461,1,0,0:0:0:0:
64,192,8615,1,0,0:0:0:0:
192,192,8615,1,0,0:0:0:0:
320,192,8615,128,0,8692:0:0:0:0:
192,192,8769,128,0,8846:0:0:0:0:
448,192,8923,1,0,0:0:0:0:
320,192,9076,1,0,0:0:0:0:
448,192,9230,128,0,9384:0:0:0:0:
64,192,9230,128,0,9538:0:0:0:0:
192,192,9384,128,0,9461:0:0:0:0:
448,192,9461,128,0,9538:0:0:0:0:
320,192,9538,128,0,9846:0:0:0:0:
192,192,9846,1,0,0:0:0:0:
64,192,9846,1,0,0:0:0:0:
448,192,9846,1,0,0:0:0:0:
320,192,10000,128,0,10076:0:0:0:0:
192,192,10153,1,0,0:0:0:0:
64,192,10153,1,0,0:0:0:0:
448,192,10153,1,0,0:0:0:0:
448,192,10307,128,0,10384:0:0:0:0:
320,192,10384,128,0,10461:0:0:0:0:
64,192,10461,1,0,0:0:0:0:
192,192,10461,1,0,0:0:0:0:
320,192,10615,1,0,0:0:0:0:
448,192,10615,1,0,0:0:0:0:
192,192,10615,1,0,0:0:0:0:
64,192,10769,128,0,10846:0:0:0:0:
320,192,10923,1,0,0:0:0:0:
448,192,10923,1,0,0:0:0:0:
64,192,10923,1,0,0:0:0:0:
320,192,11076,128,0,11153:0:0:0:0:
192,192,11230,1,0,0:0:0:0:
448,192,11307,1,0,0:0:0:0:
64,192,11384,1,0,0:0:0:0:
192,192,11384,1,0,0:0:0:0:
320,192,11384,1,0,0:0:0:0:
320,192,11538,128,0,11615:0:0:0:0:
192,192,11692,1,0,0:0:0:0:
64,192,11692,128,0,11769:0:0:0:0:
320,192,11846,128,0,11923:0:0:0:0:
192,192,11923,128,0,12000:0:0:0:0:
448,192,12076,128,0,12153:0:0:0:0:
320,192,12153,128,0,12230:0:0:0:0:
64,192,12307,1,0,0:0:0:0:
448,192,12307,1,0,0:0:0:0:
192,192,12307,1,0,0:0:0:0:
192,192,12461,128,0,12538:0:0:0:0:
320,192,12615,1,0,0:0:0:0:
448,192,12615,1,0,0:0:0:0:
64,192,12615,1,0,0:0:0:0:
192,192,12769,128,0,12846:0:0:0:0:
448,192,12846,128,0,12923:0:0:0:0:
64,192,12923,1,0,0:0:0:0:
192,192,12923,1,0,0:0:0:0:
192,192,13076,1,0,0:0:0:0:
448,192,13076,1,0,0:0:0:0:
320,192,13076,1,0,0:0:0:0:
64,192,13230,128,0,13307:0:0:0:0:
192,192,13384,1,0,0:0:0:0:
320,192,13384,1,0,0:0:0:0:
64,192,13384,1,0,0:0:0:0:
448,192,13538,128,0,13615:0:0:0:0:
64,192,13692,1,0,0:0:0:0:
192,192,13769,1,0,0:0:0:0:
448,192,13846,1,0,0:0:0:0:
320,192,13846,1,0,0:0:0:0:
64,192,13846,1,0,0:0:0:0:
192,192,13923,128,0,14000:0:0:0:0:
320,192,14000,128,0,14076:0:0:0:0:
192,192,14153,1,0,0:0:0:0:
448,192,14153,128,0,14230:0:0:0:0:
64,192,14307,128,0,14384:0:0:0:0:
192,192,14384,128,0,14461:0:0:0:0:
320,192,14538,128,0,14615:0:0:0:0:
448,192,14615,128,0,14692:0:0:0:0:
64,192,14769,1,0,0:0:0:0:
192,192,14769,1,0,0:0:0:0:
320,192,14769,1,0,0:0:0:0:
448,192,14923,128,0,15000:0:0:0:0:
64,192,15076,1,0,0:0:0:0:
192,192,15076,1,0,0:0:0:0:
448,192,15076,1,0,0:0:0:0:
320,192,15230,128,0,15307:0:0:0:0:
64,192,15307,128,0,15384:0:0:0:0:
448,192,15384,1,0,0:0:0:0:
320,192,15384,1,0,0:0:0:0:
64,192,15538,1,0,0:0:0:0:
192,192,15538,1,0,0:0:0:0:
448,192,15538,1,0,0:0:0:0:
320,192,15692,128,0,15769:0:0:0:0:
320,192,15846,1,0,0:0:0:0:
448,192,15846,1,0,0:0:0:0:
64,192,15846,1,0,0:0:0:0:
192,192,16000,128,0,16076:0:0:0:0:
448,192,16153,1,0,0:0:0:0:
64,192,16230,1,0,0:0:0:0:
192,192,16307,1,0,0:0:0:0:
320,192,16307,1,0,0:0:0:0:
448,192,16307,1,0,0:0:0:0:
64,192,16384,128,0,16461:0:0:0:0:
320,192,16461,128,0,16538:0:0:0:0:
448,192,16615,128,0,16692:0:0:0:0:
64,192,16615,1,0,0:0:0:0:
320,192,16769,128,0,16846:0:0:0:0:
64,192,16846,128,0,16923:0:0:0:0:
64,192,17000,128,0,17076:0:0:0:0:
320,192,17076,128,0,17153:0:0:0:0:
64,192,17230,1,0,0:0:0:0:
448,192,17230,1,0,0:0:0:0:
192,192,17230,1,0,0:0:0:0:
192,192,17384,128,0,17461:0:0:0:0:
320,192,17538,1,0,0:0:0:0:
448,192,17538,1,0,0:0:0:0:
64,192,17538,1,0,0:0:0:0:
192,192,17692,128,0,17769:0:0:0:0:
320,192,17769,128,0,17846:0:0:0:0:
448,192,17846,1,0,0:0:0:0:
64,192,17846,1,0,0:0:0:0:
192,192,18000,1,0,0:0:0:0:
64,192,18000,1,0,0:0:0:0:
320,192,18000,1,0,0:0:0:0:
448,192,18153,128,0,18230:0:0:0:0:
192,192,18307,1,0,0:0:0:0:
64,192,18307,1,0,0:0:0:0:
320,192,18307,1,0,0:0:0:0:
448,192,18384,128,0,18461:0:0:0:0:
192,192,18461,128,0,18538:0:0:0:0:
320,192,18615,1,0,0:0:0:0:
192,192,18692,1,0,0:0:0:0:
448,192,18769,1,0,0:0:0:0:
64,192,18769,1,0,0:0:0:0:
320,192,18769,1,0,0:0:0:0:
192,192,18846,128,0,18923:0:0:0:0:
64,192,18923,128,0,19000:0:0:0:0:
192,192,19076,1,0,0:0:0:0:
448,192,19076,128,0,19153:0:0:0:0:
320,192,19230,1,0,0:0:0:0:
192,192,19307,1,0,0:0:0:0:
448,192,19384,1,0,0:0:0:0:
64,192,19487,1,0,0:0:0:0:
64,192,19692,1,0,0:0:0:0:
448,192,19692,128,0,19769:0:0:0:0:
320,192,19692,1,0,0:0:0:0:
320,192,19846,1,0,0:0:0:0:
64,192,19923,1,0,0:0:0:0:
320,192,20000,1,0,0:0:0:0:
448,192,20000,128,0,20076:0:0:0:0:
192,192,20000,1,0,0:0:0:0:
64,192,20076,1,0,0:0:0:0:
448,192,20153,1,0,0:0:0:0:
192,192,20230,1,0,0:0:0:0:
320,192,20307,1,0,0:0:0:0:
448,192,20307,128,0,20384:0:0:0:0:
64,192,20461,1,0,0:0:0:0:
192,192,20461,1,0,0:0:0:0:
320,192,20461,128,0,20538:0:0:0:0:
448,192,20615,1,0,0:0:0:0:
192,192,20769,1,0,0:0:0:0:
64,192,20769,128,0,20846:0:0:0:0:
448,192,20769,1,0,0:0:0:0:
320,192,20923,1,0,0:0:0:0:
192,192,21000,1,0,0:0:0:0:
64,192,21076,1,0,0:0:0:0:
192,192,21230,128,0,21307:0:0:0:0:
320,192,21230,1,0,0:0:0:0:
64,192,21230,1,0,0:0:0:0:
64,192,21384,1,0,0:0:0:0:
192,192,21538,1,0,0:0:0:0:
320,192,21538,128,0,21615:0:0:0:0:
448,192,21692,1,0,0:0:0:0:
192,192,21769,128,0,21846:0:0:0:0:
320,192,21846,1,0,0:0:0:0:
64,192,21923,1,0,0:0:0:0:
192,192,22000,128,0,22076:0:0:0:0:
320,192,22076,1,0,0:0:0:0:
192,192,22153,1,0,0:0:0:0:
64,192,22153,128,0,22230:0:0:0:0:
448,192,22153,1,0,0:0:0:0:
192,192,22307,1,0,0:0:0:0:
448,192,22384,1,0,0:0:0:0:
64,192,22461,128,0,22538:0:0:0:0:
192,192,22461,1,0,0:0:0:0:
320,192,22461,1,0,0:0:0:0:
448,192,22538,1,0,0:0:0:0:
320,192,22615,1,0,0:0:0:0:
192,192,22692,1,0,0:0:0:0:
64,192,22769,128,0,22846:0:0:0:0:
448,192,22769,1,0,0:0:0:0:
192,192,22923,128,0,23000:0:0:0:0:
320,192,22923,1,0,0:0:0:0:
448,192,22923,1,0,0:0:0:0:
64,192,23076,1,0,0:0:0:0:
64,192,23230,1,0,0:0:0:0:
448,192,23230,128,0,23307:0:0:0:0:
320,192,23230,1,0,0:0:0:0:
192,192,23384,1,0,0:0:0:0:
320,192,23461,1,0,0:0:0:0:
448,192,23538,1,0,0:0:0:0:
448,192,23692,1,0,0:0:0:0:
192,192,23692,1,0,0:0:0:0:
320,192,23692,128,0,23769:0:0:0:0:
448,192,23846,1,0,0:0:0:0:
192,192,24000,128,0,24076:0:0:0:0:
320,192,24000,1,0,0:0:0:0:
64,192,24153,128,0,24230:0:0:0:0:
192,192,24230,128,0,24307:0:0:0:0:
320,192,24384,128,0,24461:0:0:0:0:
448,192,24461,128,0,24538:0:0:0:0:
64,192,24615,128,0,24692:0:0:0:0:
192,192,24615,1,0,0:0:0:0:
320,192,24615,1,0,0:0:0:0:
448,192,24769,1,0,0:0:0:0:
320,192,24846,1,0,0:0:0:0:
192,192,24923,1,0,0:0:0:0:
64,192,24923,128,0,25000:0:0:0:0:
448,192,24923,1,0,0:0:0:0:
320,192,25000,1,0,0:0:0:0:
192,192,25076,1,0,0:0:0:0:
448,192,25153,1,0,0:0:0:0:
192,192,25230,1,0,0:0:0:0:
64,192,25230,128,0,25307:0:0:0:0:
448,192,25384,1,0,0:0:0:0:
320,192,25384,1,0,0:0:0:0:
192,192,25384,128,0,25461:0:0:0:0:
64,192,25538,1,0,0:0:0:0:
320,192,25692,1,0,0:0:0:0:
448,192,25692,128,0,25769:0:0:0:0:
64,192,25692,1,0,0:0:0:0:
192,192,25846,1,0,0:0:0:0:
320,192,25923,1,0,0:0:0:0:
448,192,26000,1,0,0:0:0:0:
320,192,26153,128,0,26230:0:0:0:0:
192,192,26153,1,0,0:0:0:0:
448,192,26153,1,0,0:0:0:0:
448,192,26307,1,0,0:0:0:0:
320,192,26461,1,0,0:0:0:0:
192,192,26461,128,0,26538:0:0:0:0:
64,192,26615,1,0,0:0:0:0:
320,192,26692,128,0,26769:0:0:0:0:
192,192,26769,1,0,0:0:0:0:
448,192,26846,1,0,0:0:0:0:
320,192,26923,128,0,27000:0:0:0:0:
192,192,27000,1,0,0:0:0:0:
320,192,27076,1,0,0:0:0:0:
448,192,27076,128,0,27153:0:0:0:0:
64,192,27076,1,0,0:0:0:0:
320,192,27230,1,0,0:0:0:0:
64,192,27307,1,0,0:0:0:0:
448,192,27384,128,0,27461:0:0:0:0:
320,192,27384,1,0,0:0:0:0:
192,192,27384,1,0,0:0:0:0:
64,192,27461,1,0,0:0:0:0:
320,192,27538,1,0,0:0:0:0:
192,192,27615,1,0,0:0:0:0:
448,192,27692,128,0,27769:0:0:0:0:
64,192,27692,1,0,0:0:0:0:
320,192,27846,128,0,27923:0:0:0:0:
192,192,27846,1,0,0:0:0:0:
64,192,27846,1,0,0:0:0:0:
448,192,28000,1,0,0:0:0:0:
448,192,28153,1,0,0:0:0:0:
64,192,28153,128,0,28230:0:0:0:0:
192,192,28153,1,0,0:0:0:0:
320,192,28307,1,0,0:0:0:0:
192,192,28384,1,0,0:0:0:0:
64,192,28461,1,0,0:0:0:0:
64,192,28615,1,0,0:0:0:0:
320,192,28615,1,0,0:0:0:0:
192,192,28615,128,0,28692:0:0:0:0:
448,192,28769,1,0,0:0:0:0:
192,192,28923,1,0,0:0:0:0:
320,192,28923,128,0,29538:0:0:0:0:
64,192,29076,128,0,29153:0:0:0:0:
448,192,29153,128,0,29230:0:0:0:0:
64,192,29538,5,0,0:0:0:0:
448,192,29538,128,0,29615:0:0:0:0:
192,192,29538,1,0,0:0:0:0:
192,192,29692,128,0,29769:0:0:0:0:
320,192,29846,1,0,0:0:0:0:
64,192,30000,1,0,0:0:0:0:
448,192,30153,1,0,0:0:0:0:
192,192,30153,1,0,0:0:0:0:
320,192,30153,128,0,30230:0:0:0:0:
64,192,30307,128,0,30384:0:0:0:0:
320,192,30461,1,0,0:0:0:0:
192,192,30615,1,0,0:0:0:0:
320,192,30769,1,0,0:0:0:0:
64,192,30769,1,0,0:0:0:0:
448,192,30769,128,0,30846:0:0:0:0:
64,192,30923,128,0,31000:0:0:0:0:
448,192,31076,1,0,0:0:0:0:
320,192,31230,1,0,0:0:0:0:
64,192,31384,1,0,0:0:0:0:
320,192,31384,1,0,0:0:0:0:
192,192,31384,128,0,31461:0:0:0:0:
448,192,31538,128,0,31615:0:0:0:0:
192,192,31692,1,0,0:0:0:0:
320,192,31846,1,0,0:0:0:0:
448,192,32000,1,0,0:0:0:0:
64,192,32000,1,0,0:0:0:0:
192,192,32000,128,0,32076:0:0:0:0:
320,192,32153,128,0,32230:0:0:0:0:
64,192,32307,1,0,0:0:0:0:
448,192,32461,1,0,0:0:0:0:
64,192,32615,1,0,0:0:0:0:
192,192,32615,1,0,0:0:0:0:
320,192,32615,128,0,32692:0:0:0:0:
448,192,32769,128,0,32846:0:0:0:0:
192,192,32923,1,0,0:0:0:0:
64,192,33076,1,0,0:0:0:0:
448,192,33230,1,0,0:0:0:0:
192,192,33230,1,0,0:0:0:0:
320,192,33230,128,0,33307:0:0:0:0:
64,192,33384,128,0,33461:0:0:0:0:
192,192,33538,1,0,0:0:0:0:
320,192,33692,1,0,0:0:0:0:
64,192,33846,1,0,0:0:0:0:
448,192,33846,1,0,0:0:0:0:
192,192,33846,128,0,33923:0:0:0:0:
320,192,34000,128,0,34076:0:0:0:0:
192,192,34153,1,0,0:0:0:0:
64,192,34307,1,0,0:0:0:0:
320,192,34461,1,0,0:0:0:0:
192,192,34461,1,0,0:0:0:0:
448,192,34461,128,0,34538:0:0:0:0:
64,192,34615,128,0,34692:0:0:0:0:
320,192,34769,1,0,0:0:0:0:
64,192,34923,1,0,0:0:0:0:
320,192,35076,1,0,0:0:0:0:
448,192,35076,1,0,0:0:0:0:
192,192,35076,128,0,35153:0:0:0:0:
320,192,35230,128,0,35307:0:0:0:0:
448,192,35384,1,0,0:0:0:0:
320,192,35538,1,0,0:0:0:0:
448,192,35692,1,0,0:0:0:0:
64,192,35692,1,0,0:0:0:0:
192,192,35692,128,0,35769:0:0:0:0:
64,192,35846,128,0,35923:0:0:0:0:
320,192,36000,1,0,0:0:0:0:
64,192,36153,1,0,0:0:0:0:
448,192,36307,1,0,0:0:0:0:
192,192,36307,1,0,0:0:0:0:
320,192,36307,128,0,36384:0:0:0:0:
192,192,36461,128,0,36538:0:0:0:0:
320,192,36615,1,0,0:0:0:0:
64,192,36769,1,0,0:0:0:0:
448,192,36923,1,0,0:0:0:0:
320,192,36923,1,0,0:0:0:0:
192,192,36923,128,0,37000:0:0:0:0:
320,192,37076,128,0,37153:0:0:0:0:
192,192,37230,1,0,0:0:0:0:
64,192,37384,1,0,0:0:0:0:
448,192,37538,1,0,0:0:0:0:
192,192,37538,1,0,0:0:0:0:
320,192,37538,128,0,37615:0:0:0:0:
192,192,37692,128,0,37769:0:0:0:0:
64,192,37846,1,0,0:0:0:0:
320,192,38000,1,0,0:0:0:0:
448,192,38153,1,0,0:0:0:0:
320,192,38153,1,0,0:0:0:0:
64,192,38153,128,0,38230:0:0:0:0:
448,192,38307,128,0,38384:0:0:0:0:
192,192,38461,1,0,0:0:0:0:
64,192,38615,1,0,0:0:0:0:
448,192,38769,1,0,0:0:0:0:
192,192,38769,1,0,0:0:0:0:
320,192,38769,128,0,38846:0:0:0:0:
64,192,38923,128,0,39000:0:0:0:0:
320,192,39076,1,0,0:0:0:0:
448,192,39076,1,0,0:0:0:0:
64,192,39153,1,0,0:0:0:0:
192,192,39230,1,0,0:0:0:0:
320,192,39307,1,0,0:0:0:0:
448,192,39384,128,0,39461:0:0:0:0:
64,192,39384,1,0,0:0:0:0:
320,192,39538,128,0,39615:0:0:0:0:
192,192,39692,128,0,39769:0:0:0:0:
448,192,39692,1,0,0:0:0:0:
64,192,39846,128,0,39923:0:0:0:0:
192,192,39923,1,0,0:0:0:0:
448,192,40000,128,0,40076:0:0:0:0:
320,192,40076,1,0,0:0:0:0:
64,192,40153,128,0,40230:0:0:0:0:
192,192,40153,1,0,0:0:0:0:
448,192,40307,128,0,40384:0:0:0:0:
320,192,40384,1,0,0:0:0:0:
64,192,40461,128,0,40538:0:0:0:0:
192,192,40538,1,0,0:0:0:0:
448,192,40615,128,0,40692:0:0:0:0:
320,192,40615,1,0,0:0:0:0:
320,192,40769,128,0,40846:0:0:0:0:
192,192,40769,1,0,0:0:0:0:
192,192,40923,128,0,41076:0:0:0:0:
448,192,40923,1,0,0:0:0:0:
64,192,41076,128,0,41230:0:0:0:0:
320,192,41076,1,0,0:0:0:0:
192,192,41153,1,0,0:0:0:0:
320,192,41230,128,0,41538:0:0:0:0:
448,192,41230,1,0,0:0:0:0:
192,192,41307,1,0,0:0:0:0:
64,192,41384,1,0,0:0:0:0:
448,192,41384,1,0,0:0:0:0:
192,192,41538,128,0,41692:0:0:0:0:
64,192,41615,1,0,0:0:0:0:
448,192,41692,128,0,41846:0:0:0:0:
320,192,41692,1,0,0:0:0:0:
192,192,41769,1,0,0:0:0:0:
64,192,41846,1,0,0:0:0:0:
320,192,41846,128,0,41923:0:0:0:0:
192,192,42000,128,0,42076:0:0:0:0:
320,192,42153,128,0,42230:0:0:0:0:
64,192,42153,1,0,0:0:0:0:
64,192,42307,128,0,42384:0:0:0:0:
192,192,42384,1,0,0:0:0:0:
320,192,42461,128,0,42538:0:0:0:0:
448,192,42461,1,0,0:0:0:0:
192,192,42615,128,0,42692:0:0:0:0:
64,192,42615,1,0,0:0:0:0:
448,192,42692,1,0,0:0:0:0:
64,192,42769,128,0,42846:0:0:0:0:
192,192,42846,1,0,0:0:0:0:
320,192,42923,128,0,43000:0:0:0:0:
448,192,42923,1,0,0:0:0:0:
448,192,43076,1,0,0:0:0:0:
64,192,43076,128,0,43384:0:0:0:0:
320,192,43230,1,0,0:0:0:0:
192,192,43230,1,0,0:0:0:0:
320,192,43384,128,0,43538:0:0:0:0:
448,192,43384,1,0,0:0:0:0:
192,192,43461,1,0,0:0:0:0:
64,192,43538,1,0,0:0:0:0:
448,192,43538,128,0,43846:0:0:0:0:
64,192,43692,1,0,0:0:0:0:
192,192,43692,1,0,0:0:0:0:
192,192,43846,128,0,44000:0:0:0:0:
64,192,43923,1,0,0:0:0:0:
448,192,44000,128,0,44307:0:0:0:0:
64,192,44076,1,0,0:0:0:0:
192,192,44153,1,0,0:0:0:0:
320,192,44153,1,0,0:0:0:0:
320,192,44307,128,0,44615:0:0:0:0:
64,192,44307,1,0,0:0:0:0:
192,192,44461,1,0,0:0:0:0:
64,192,44615,128,0,44692:0:0:0:0:
192,192,44615,1,0,0:0:0:0:
448,192,44769,128,0,44846:0:0:0:0:
320,192,44769,1,0,0:0:0:0:
192,192,44846,1,0,0:0:0:0:
64,192,44923,128,0,45000:0:0:0:0:
448,192,44923,1,0,0:0:0:0:
320,192,45000,1,0,0:0:0:0:
448,192,45076,128,0,45153:0:0:0:0:
192,192,45076,1,0,0:0:0:0:
64,192,45230,128,0,45307:0:0:0:0:
192,192,45230,1,0,0:0:0:0:
320,192,45307,1,0,0:0:0:0:
448,192,45384,128,0,45461:0:0:0:0:
64,192,45384,1,0,0:0:0:0:
320,192,45461,1,0,0:0:0:0:
64,192,45538,128,0,45615:0:0:0:0:
192,192,45538,1,0,0:0:0:0:
448,192,45692,128,0,45769:0:0:0:0:
320,192,45692,1,0,0:0:0:0:
64,192,45846,128,0,45923:0:0:0:0:
320,192,45846,1,0,0:0:0:0:
448,192,46000,128,0,46153:0:0:0:0:
192,192,46076,1,0,0:0:0:0:
64,192,46153,128,0,46461:0:0:0:0:
320,192,46153,1,0,0:0:0:0:
192,192,46230,1,0,0:0:0:0:
448,192,46307,1,0,0:0:0:0:
320,192,46307,1,0,0:0:0:0:
192,192,46461,128,0,46615:0:0:0:0:
320,192,46538,1,0,0:0:0:0:
448,192,46615,128,0,46769:0:0:0:0:
64,192,46615,1,0,0:0:0:0:
192,192,46692,1,0,0:0:0:0:
320,192,46769,128,0,46846:0:0:0:0:
64,192,46769,1,0,0:0:0:0:
64,192,46923,128,0,47000:0:0:0:0:
320,192,47076,128,0,47153:0:0:0:0:
448,192,47076,1,0,0:0:0:0:
64,192,47230,128,0,47307:0:0:0:0:
192,192,47230,1,0,0:0:0:0:
448,192,47307,1,0,0:0:0:0:
320,192,47384,128,0,47461:0:0:0:0:
192,192,47384,1,0,0:0:0:0:
64,192,47538,128,0,47615:0:0:0:0:
448,192,47615,1,0,0:0:0:0:
320,192,47692,128,0,47769:0:0:0:0:
64,192,47692,1,0,0:0:0:0:
192,192,47769,1,0,0:0:0:0:
64,192,47846,128,0,47923:0:0:0:0:
448,192,47846,1,0,0:0:0:0:
320,192,48000,128,0,48076:0:0:0:0:
448,192,48000,1,0,0:0:0:0:
64,192,48153,128,0,48230:0:0:0:0:
192,192,48153,1,0,0:0:0:0:
320,192,48307,1,0,0:0:0:0:
448,192,48307,1,0,0:0:0:0:
192,192,48384,1,0,0:0:0:0:
64,192,48384,1,0,0:0:0:0:
320,192,48461,1,0,0:0:0:0:
448,192,48461,1,0,0:0:0:0:
64,192,48615,1,0,0:0:0:0:
192,192,48634,1,0,0:0:0:0:
320,192,48653,1,0,0:0:0:0:
320,192,48923,1,0,0:0:0:0:
320,192,49230,1,0,0:0:0:0:
64,192,49230,1,0,0:0:0:0:
448,192,49230,128,0,49307:0:0:0:0:
192,192,49384,128,0,49461:0:0:0:0:
64,192,49538,1,0,0:0:0:0:
320,192,49538,1,0,0:0:0:0:
448,192,49538,1,0,0:0:0:0:
192,192,49692,1,0,0:0:0:0:
448,192,49846,1,0,0:0:0:0:
192,192,49846,1,0,0:0:0:0:
320,192,49846,128,0,49923:0:0:0:0:
64,192,50000,128,0,50076:0:0:0:0:
192,192,50153,1,0,0:0:0:0:
448,192,50153,1,0,0:0:0:0:
320,192,50153,1,0,0:0:0:0:
320,192,50307,1,0,0:0:0:0:
448,192,50461,1,0,0:0:0:0:
192,192,50461,1,0,0:0:0:0:
64,192,50461,128,0,50538:0:0:0:0:
192,192,50615,128,0,50692:0:0:0:0:
64,192,50769,1,0,0:0:0:0:
448,192,50769,1,0,0:0:0:0:
320,192,50769,1,0,0:0:0:0:
320,192,50923,1,0,0:0:0:0:
448,192,51076,1,0,0:0:0:0:
64,192,51076,1,0,0:0:0:0:
192,192,51076,128,0,51153:0:0:0:0:
320,192,51230,128,0,51307:0:0:0:0:
64,192,51384,1,0,0:0:0:0:
320,192,51384,1,0,0:0:0:0:
192,192,51384,128,0,51692:0:0:0:0:
64,192,51692,1,0,0:0:0:0:
320,192,51692,1,0,0:0:0:0:
448,192,51692,128,0,51769:0:0:0:0:
192,192,51846,128,0,51923:0:0:0:0:
448,192,52000,1,0,0:0:0:0:
64,192,52000,1,0,0:0:0:0:
192,192,52000,1,0,0:0:0:0:
320,192,52153,1,0,0:0:0:0:
192,192,52307,1,0,0:0:0:0:
320,192,52307,1,0,0:0:0:0:
64,192,52307,128,0,52384:0:0:0:0:
448,192,52461,128,0,52538:0:0:0:0:
320,192,52615,1,0,0:0:0:0:
192,192,52615,1,0,0:0:0:0:
448,192,52615,1,0,0:0:0:0:
64,192,52769,1,0,0:0:0:0:
320,192,52923,1,0,0:0:0:0:
64,192,52923,1,0,0:0:0:0:
448,192,52923,128,0,53000:0:0:0:0:
192,192,53076,128,0,53153:0:0:0:0:
320,192,53230,1,0,0:0:0:0:
192,192,53230,1,0,0:0:0:0:
64,192,53230,1,0,0:0:0:0:
448,192,53384,1,0,0:0:0:0:
64,192,53538,1,0,0:0:0:0:
448,192,53538,1,0,0:0:0:0:
192,192,53538,128,0,53615:0:0:0:0:
320,192,53692,128,0,53769:0:0:0:0:
320,192,53846,1,0,0:0:0:0:
448,192,53846,1,0,0:0:0:0:
192,192,53846,128,0,54153:0:0:0:0:
448,192,54153,1,0,0:0:0:0:
320,192,54153,1,0,0:0:0:0:
64,192,54153,128,0,54230:0:0:0:0:
192,192,54307,128,0,54384:0:0:0:0:
320,192,54461,1,0,0:0:0:0:
448,192,54461,1,0,0:0:0:0:
64,192,54461,1,0,0:0:0:0:
64,192,54615,1,0,0:0:0:0:
192,192,54769,1,0,0:0:0:0:
320,192,54769,1,0,0:0:0:0:
448,192,54769,128,0,54846:0:0:0:0:
320,192,54923,128,0,55000:0:0:0:0:
64,192,55076,1,0,0:0:0:0:
192,192,55076,1,0,0:0:0:0:
448,192,55076,1,0,0:0:0:0:
448,192,55230,1,0,0:0:0:0:
320,192,55384,1,0,0:0:0:0:
64,192,55384,1,0,0:0:0:0:
192,192,55384,128,0,55461:0:0:0:0:
64,192,55538,128,0,55615:0:0:0:0:
320,192,55692,1,0,0:0:0:0:
448,192,55692,1,0,0:0:0:0:
192,192,55692,1,0,0:0:0:0:
64,192,55846,1,0,0:0:0:0:
448,192,56000,1,0,0:0:0:0:
320,192,56000,1,0,0:0:0:0:
192,192,56000,128,0,56076:0:0:0:0:
320,192,56153,128,0,56230:0:0:0:0:
64,192,56307,1,0,0:0:0:0:
192,192,56307,1,0,0:0:0:0:
448,192,56307,128,0,56615:0:0:0:0:
192,192,56615,1,0,0:0:0:0:
320,192,56615,1,0,0:0:0:0:
64,192,56615,128,0,56692:0:0:0:0:
448,192,56769,128,0,56846:0:0:0:0:
320,192,56923,1,0,0:0:0:0:
192,192,56923,1,0,0:0:0:0:
64,192,56923,1,0,0:0:0:0:
448,192,57076,1,0,0:0:0:0:
320,192,57230,1,0,0:0:0:0:
192,192,57230,1,0,0:0:0:0:
448,192,57230,128,0,57307:0:0:0:0:
64,192,57384,128,0,57461:0:0:0:0:
320,192,57538,1,0,0:0:0:0:
192,192,57538,1,0,0:0:0:0:
448,192,57538,1,0,0:0:0:0:
192,192,57692,1,0,0:0:0:0:
64,192,57846,1,0,0:0:0:0:
448,192,57846,1,0,0:0:0:0:
320,192,57846,128,0,57923:0:0:0:0:
192,192,58000,128,0,58076:0:0:0:0:
320,192,58153,1,0,0:0:0:0:
192,192,58153,1,0,0:0:0:0:
64,192,58153,1,0,0:0:0:0:
64,192,58307,1,0,0:0:0:0:
448,192,58461,1,0,0:0:0:0:
320,192,58461,1,0,0:0:0:0:
192,192,58461,128,0,58538:0:0:0:0:
320,192,58615,128,0,58692:0:0:0:0:
64,192,58769,128,0,59076:0:0:0:0:
192,192,58769,1,0,0:0:0:0:
448,192,59076,1,0,0:0:0:0:
320,192,59076,1,0,0:0:0:0:
192,192,59076,1,0,0:0:0:0:
320,192,60307,1,0,0:0:0:0:
192,192,60307,1,0,0:0:0:0:
320,192,61538,1,0,0:0:0:0:
64,192,61538,1,0,0:0:0:0:
192,192,62769,1,0,0:0:0:0:
448,192,62769,1,0,0:0:0:0:
192,192,64000,1,0,0:0:0:0:
320,192,64000,1,0,0:0:0:0:
192,192,65230,1,0,0:0:0:0:
64,192,65230,1,0,0:0:0:0:
320,192,66461,1,0,0:0:0:0:
448,192,66461,1,0,0:0:0:0:
320,192,67692,1,0,0:0:0:0:
192,192,67692,1,0,0:0:0:0:
64,192,68307,1,0,0:0:0:0:
448,192,68307,1,0,0:0:0:0:
320,192,68923,5,0,0:0:0:0:
448,192,68923,1,0,0:0:0:0:
64,192,68923,1,0,0:0:0:0:
192,192,69076,1,0,0:0:0:0:
320,192,69230,1,0,0:0:0:0:
64,192,69307,1,0,0:0:0:0:
192,192,69384,1,0,0:0:0:0:
448,192,69384,128,0,69538:0:0:0:0:
320,192,69538,1,0,0:0:0:0:
64,192,69538,128,0,69615:0:0:0:0:
64,192,69846,128,0,69923:0:0:0:0:
448,192,70153,1,0,0:0:0:0:
64,192,70307,1,0,0:0:0:0:
192,192,70307,1,0,0:0:0:0:
320,192,70307,1,0,0:0:0:0:
320,192,70461,1,0,0:0:0:0:
192,192,70461,1,0,0:0:0:0:
448,192,70461,1,0,0:0:0:0:
448,192,70615,128,0,70769:0:0:0:0:
320,192,70769,1,0,0:0:0:0:
64,192,70769,128,0,70846:0:0:0:0:
448,192,70923,128,0,71000:0:0:0:0:
192,192,71076,128,0,71153:0:0:0:0:
192,192,71230,128,0,71307:0:0:0:0:
64,192,71307,128,0,71384:0:0:0:0:
448,192,71384,1,0,0:0:0:0:
320,192,71384,1,0,0:0:0:0:
192,192,71384,1,0,0:0:0:0:
320,192,71538,128,0,71615:0:0:0:0:
64,192,71615,128,0,71692:0:0:0:0:
448,192,71692,128,0,71769:0:0:0:0:
192,192,71846,128,0,72000:0:0:0:0:
320,192,72000,1,0,0:0:0:0:
64,192,72000,128,0,72076:0:0:0:0:
448,192,72153,128,0,72230:0:0:0:0:
192,192,72307,128,0,72384:0:0:0:0:
320,192,72461,128,0,72538:0:0:0:0:
448,192,72538,128,0,72615:0:0:0:0:
192,192,72615,128,0,72692:0:0:0:0:
448,192,72769,1,0,0:0:0:0:
64,192,72769,1,0,0:0:0:0:
320,192,72769,1,0,0:0:0:0:
192,192,72923,1,0,0:0:0:0:
64,192,72923,1,0,0:0:0:0:
448,192,72923,1,0,0:0:0:0:
320,192,73076,128,0,73230:0:0:0:0:
64,192,73230,1,0,0:0:0:0:
448,192,73230,128,0,73307:0:0:0:0:
192,192,73384,128,0,73461:0:0:0:0:
448,192,73538,128,0,73615:0:0:0:0:
192,192,73615,128,0,73692:0:0:0:0:
320,192,73692,128,0,73769:0:0:0:0:
64,192,73769,128,0,73846:0:0:0:0:
448,192,73846,1,0,0:0:0:0:
320,192,73846,1,0,0:0:0:0:
192,192,73846,1,0,0:0:0:0:
320,192,74000,128,0,74076:0:0:0:0:
448,192,74153,128,0,74230:0:0:0:0:
320,192,74230,128,0,74307:0:0:0:0:
192,192,74307,128,0,74461:0:0:0:0:
64,192,74461,1,0,0:0:0:0:
448,192,74461,128,0,74538:0:0:0:0:
448,192,74769,128,0,74846:0:0:0:0:
320,192,75076,1,0,0:0:0:0:
448,192,75230,1,0,0:0:0:0:
64,192,75230,1,0,0:0:0:0:
192,192,75230,1,0,0:0:0:0:
320,192,75384,1,0,0:0:0:0:
192,192,75384,1,0,0:0:0:0:
64,192,75384,1,0,0:0:0:0:
448,192,75538,128,0,75692:0:0:0:0:
64,192,75692,1,0,0:0:0:0:
192,192,75692,128,0,75769:0:0:0:0:
320,192,75846,128,0,75923:0:0:0:0:
64,192,76000,128,0,76076:0:0:0:0:
320,192,76153,128,0,76230:0:0:0:0:
192,192,76230,128,0,76307:0:0:0:0:
448,192,76307,1,0,0:0:0:0:
320,192,76307,1,0,0:0:0:0:
64,192,76307,1,0,0:0:0:0:
64,192,76461,128,0,76538:0:0:0:0:
448,192,76615,128,0,76692:0:0:0:0:
192,192,76769,128,0,76923:0:0:0:0:
448,192,76923,1,0,0:0:0:0:
320,192,76923,128,0,77000:0:0:0:0:
64,192,77076,128,0,77153:0:0:0:0:
320,192,77230,128,0,77307:0:0:0:0:
192,192,77384,128,0,77461:0:0:0:0:
448,192,77461,128,0,77538:0:0:0:0:
320,192,77538,128,0,77615:0:0:0:0:
192,192,77692,1,0,0:0:0:0:
64,192,77692,1,0,0:0:0:0:
448,192,77692,1,0,0:0:0:0:
320,192,77846,1,0,0:0:0:0:
448,192,77846,1,0,0:0:0:0:
64,192,77846,1,0,0:0:0:0:
192,192,78000,128,0,78153:0:0:0:0:
64,192,78153,1,0,0:0:0:0:
448,192,78153,128,0,78230:0:0:0:0:
192,192,78461,128,0,78692:0:0:0:0:
320,192,78461,128,0,78692:0:0:0:0:
64,192,78769,1,0,0:0:0:0:
448,192,78769,1,0,0:0:0:0:
192,192,78769,1,0,0:0:0:0:
448,192,78923,128,0,79000:0:0:0:0:
64,192,79076,128,0,79153:0:0:0:0:
192,192,79153,1,0,0:0:0:0:
448,192,79230,128,0,79384:0:0:0:0:
320,192,79384,128,0,79461:0:0:0:0:
64,192,79384,1,0,0:0:0:0:
320,192,79692,128,0,79769:0:0:0:0:
192,192,80000,1,0,0:0:0:0:
320,192,80153,1,0,0:0:0:0:
448,192,80153,1,0,0:0:0:0:
64,192,80153,1,0,0:0:0:0:
64,192,80307,1,0,0:0:0:0:
192,192,80307,1,0,0:0:0:0:
448,192,80307,1,0,0:0:0:0:
320,192,80461,128,0,80615:0:0:0:0:
64,192,80615,1,0,0:0:0:0:
448,192,80615,128,0,80692:0:0:0:0:
192,192,80769,128,0,80846:0:0:0:0:
320,192,80923,128,0,81000:0:0:0:0:
320,192,81076,128,0,81153:0:0:0:0:
192,192,81153,128,0,81230:0:0:0:0:
320,192,81230,1,0,0:0:0:0:
64,192,81230,1,0,0:0:0:0:
448,192,81230,1,0,0:0:0:0:
64,192,81384,128,0,81461:0:0:0:0:
192,192,81538,128,0,81615:0:0:0:0:
320,192,81692,128,0,81846:0:0:0:0:
64,192,81846,1,0,0:0:0:0:
192,192,81846,128,0,81923:0:0:0:0:
448,192,82000,128,0,82076:0:0:0:0:
192,192,82153,128,0,82230:0:0:0:0:
64,192,82307,128,0,82384:0:0:0:0:
320,192,82384,128,0,82461:0:0:0:0:
192,192,82461,128,0,82538:0:0:0:0:
192,192,82615,1,0,0:0:0:0:
64,192,82615,1,0,0:0:0:0:
320,192,82615,1,0,0:0:0:0:
448,192,82769,1,0,0:0:0:0:
320,192,82769,1,0,0:0:0:0:
192,192,82769,1,0,0:0:0:0:
64,192,82923,128,0,83076:0:0:0:0:
192,192,83076,1,0,0:0:0:0:
320,192,83076,128,0,83153:0:0:0:0:
448,192,83230,128,0,83307:0:0:0:0:
192,192,83384,128,0,83461:0:0:0:0:
448,192,83461,128,0,83538:0:0:0:0:
64,192,83538,128,0,83615:0:0:0:0:
320,192,83615,128,0,83692:0:0:0:0:
192,192,83692,1,0,0:0:0:0:
64,192,83692,1,0,0:0:0:0:
448,192,83692,1,0,0:0:0:0:
320,192,83846,128,0,83923:0:0:0:0:
192,192,84000,128,0,84076:0:0:0:0:
64,192,84076,128,0,84153:0:0:0:0:
320,192,84153,128,0,84307:0:0:0:0:
448,192,84307,1,0,0:0:0:0:
192,192,84307,128,0,84384:0:0:0:0:
192,192,84615,128,0,84692:0:0:0:0:
448,192,84769,1,0,0:0:0:0:
320,192,84846,1,0,0:0:0:0:
64,192,84923,128,0,85000:0:0:0:0:
320,192,85076,1,0,0:0:0:0:
192,192,85076,1,0,0:0:0:0:
448,192,85076,128,0,85153:0:0:0:0:
64,192,85230,1,0,0:0:0:0:
192,192,85230,1,0,0:0:0:0:
320,192,85230,1,0,0:0:0:0:
320,192,85384,128,0,85538:0:0:0:0:
448,192,85538,1,0,0:0:0:0:
64,192,85538,128,0,85615:0:0:0:0:
320,192,85846,128,0,85923:0:0:0:0:
192,192,86000,128,0,86076:0:0:0:0:
320,192,86076,128,0,86153:0:0:0:0:
64,192,86153,1,0,0:0:0:0:
448,192,86153,1,0,0:0:0:0:
192,192,86153,1,0,0:0:0:0:
448,192,86307,128,0,86384:0:0:0:0:
192,192,86461,128,0,86538:0:0:0:0:
192,192,86615,128,0,86769:0:0:0:0:
448,192,86692,1,0,0:0:0:0:
64,192,86769,128,0,86846:0:0:0:0:
320,192,86769,1,0,0:0:0:0:
320,192,86923,128,0,87000:0:0:0:0:
64,192,87076,128,0,87153:0:0:0:0:
320,192,87230,128,0,87307:0:0:0:0:
192,192,87307,128,0,87384:0:0:0:0:
64,192,87384,128,0,87461:0:0:0:0:
448,192,87538,1,0,0:0:0:0:
320,192,87538,1,0,0:0:0:0:
64,192,87538,1,0,0:0:0:0:
64,192,87692,1,0,0:0:0:0:
192,192,87692,1,0,0:0:0:0:
320,192,87692,1,0,0:0:0:0:
448,192,87846,128,0,88000:0:0:0:0:
320,192,88000,1,0,0:0:0:0:
64,192,88000,128,0,88076:0:0:0:0:
448,192,88153,128,0,88230:0:0:0:0:
64,192,88307,1,0,0:0:0:0:
320,192,88384,1,0,0:0:0:0:
64,192,88461,1,0,0:0:0:0:
320,192,88538,1,0,0:0:0:0:
448,192,88615,128,0,88692:0:0:0:0:
64,192,88615,1,0,0:0:0:0:
320,192,88769,128,0,88846:0:0:0:0:
64,192,88923,1,0,0:0:0:0:
448,192,88923,1,0,0:0:0:0:
448,192,89230,128,0,89307:0:0:0:0:
192,192,89230,1,0,0:0:0:0:
192,192,89384,128,0,89461:0:0:0:0:
64,192,89538,1,0,0:0:0:0:
448,192,89538,1,0,0:0:0:0:
448,192,89846,128,0,89923:0:0:0:0:
320,192,89846,1,0,0:0:0:0:
64,192,90000,128,0,90076:0:0:0:0:
64,192,90153,1,0,0:0:0:0:
320,192,90153,1,0,0:0:0:0:
64,192,90461,128,0,90538:0:0:0:0:
448,192,90461,1,0,0:0:0:0:
448,192,90615,128,0,90692:0:0:0:0:
192,192,90769,1,0,0:0:0:0:
448,192,90846,1,0,0:0:0:0:
192,192,90923,1,0,0:0:0:0:
448,192,91000,1,0,0:0:0:0:
192,192,91076,1,0,0:0:0:0:
448,192,91153,1,0,0:0:0:0:
192,192,91230,1,0,0:0:0:0:
448,192,91307,1,0,0:0:0:0:
192,192,91384,1,0,0:0:0:0:
448,192,91461,1,0,0:0:0:0:
192,192,91538,1,0,0:0:0:0:
448,192,91615,1,0,0:0:0:0:
192,192,91692,1,0,0:0:0:0:
448,192,91769,1,0,0:0:0:0:
192,192,91846,1,0,0:0:0:0:
448,192,91923,1,0,0:0:0:0:
192,192,92000,1,0,0:0:0:0:
448,192,92076,1,0,0:0:0:0:
192,192,92153,1,0,0:0:0:0:
448,192,92230,1,0,0:0:0:0:
192,192,92307,1,0,0:0:0:0:
448,192,92384,1,0,0:0:0:0:
192,192,92461,1,0,0:0:0:0:
448,192,92538,1,0,0:0:0:0:
192,192,92615,1,0,0:0:0:0:
448,192,92692,1,0,0:0:0:0:
192,192,92769,1,0,0:0:0:0:
448,192,92846,1,0,0:0:0:0:
192,192,92923,1,0,0:0:0:0:
448,192,93000,1,0,0:0:0:0:
192,192,93076,1,0,0:0:0:0:
448,192,93153,1,0,0:0:0:0:
