osu file format v14

[General]
AudioFilename: audio.mp3
AudioLeadIn: 0
PreviewTime: 68923
Countdown: 0
SampleSet: Soft
StackLeniency: 0.7
Mode: 3
LetterboxInBreaks: 0
SpecialStyle: 0
WidescreenStoryboard: 1

[Editor]
Bookmarks: 49230,68923,78461
DistanceSpacing: 1.3
BeatDivisor: 4
GridSize: 32
TimelineZoom: 2.799999

[Metadata]
Title:ball hard
TitleUnicode:ball hard
Artist:crafter2011
ArtistUnicode:crafter2011
Creator:Andere
Version:Hard
Source:
Tags:Minecraft vol. 1 Dariacore Electronic Dance Music EDM English Instrumental Experimental 4ndere sv deskrat Lady Gaga Telephone feat. Beyonce Jay-Z & Kanye West Ni**as In Paris Niggas cyranek
BeatmapID:3658616
BeatmapSetID:1775193

[Difficulty]
HPDrainRate:7.7
CircleSize:4
OverallDifficulty:7.7
ApproachRate:9
SliderMultiplier:1.4
SliderTickRate:1

[Events]
//Background and Video events
0,0,"bg.jpg",0,0
Video,-110,"balling.mp4"
//Break Periods
//Storyboard Layer 0 (Background)
//Storyboard Layer 1 (Fail)
//Storyboard Layer 2 (Pass)
//Storyboard Layer 3 (Foreground)
//Storyboard Layer 4 (Overlay)
//Storyboard Sound Samples

[TimingPoints]
0,307.692307692308,4,2,1,60,1,0
68923,-100,4,2,1,60,0,1
78461,-100,4,2,1,60,0,0
78769,-100,4,2,1,60,0,1
88615,-100,4,2,1,60,0,0

[HitObjects]
64,192,0,5,0,0:0:0:0:
192,192,0,1,0,0:0:0:0:
448,192,153,1,0,0:0:0:0:
192,192,307,128,0,615:0:0:0:0:
448,192,615,1,0,0:0:0:0:
320,192,615,1,0,0:0:0:0:
64,192,769,1,0,0:0:0:0:
320,192,923,1,0,0:0:0:0:
64,192,1076,1,0,0:0:0:0:
192,192,1230,1,0,0:0:0:0:
448,192,1230,1,0,0:0:0:0:
64,192,1384,1,0,0:0:0:0:
448,192,1538,1,0,0:0:0:0:
192,192,1692,1,0,0:0:0:0:
64,192,1846,128,0,2461:0:0:0:0:
320,192,1846,128,0,2461:0:0:0:0:
448,192,2461,1,0,0:0:0:0:
192,192,2461,1,0,0:0:0:0:
64,192,2615,1,0,0:0:0:0:
320,192,2769,1,0,0:0:0:0:
448,192,2923,1,0,0:0:0:0:
192,192,3076,1,0,0:0:0:0:
320,192,3076,1,0,0:0:0:0:
64,192,3230,1,0,0:0:0:0:
448,192,3384,1,0,0:0:0:0:
192,192,3538,1,0,0:0:0:0:
64,192,3692,1,0,0:0:0:0:
448,192,3692,1,0,0:0:0:0:
192,192,3846,1,0,0:0:0:0:
448,192,4000,1,0,0:0:0:0:
192,192,4153,1,0,0:0:0:0:
320,192,4307,128,0,4615:0:0:0:0:
64,192,4615,1,0,0:0:0:0:
448,192,4615,1,0,0:0:0:0:
192,192,4769,1,0,0:0:0:0:
320,192,4923,1,0,0:0:0:0:
448,192,4923,1,0,0:0:0:0:
64,192,4923,1,0,0:0:0:0:
320,192,5230,1,0,0:0:0:0:
192,192,5384,1,0,0:0:0:0:
64,192,5538,1,0,0:0:0:0:
448,192,5538,1,0,0:0:0:0:
320,192,5538,1,0,0:0:0:0:
448,192,5692,1,0,0:0:0:0:
192,192,5846,1,0,0:0:0:0:
448,192,6000,1,0,0:0:0:0:
192,192,6153,1,0,0:0:0:0:
64,192,6153,1,0,0:0:0:0:
320,192,6153,1,0,0:0:0:0:
448,192,6307,1,0,0:0:0:0:
192,192,6461,1,0,0:0:0:0:
320,192,6615,1,0,0:0:0:0:
448,192,6769,128,0,7384:0:0:0:0:
64,192,6769,1,0,0:0:0:0:
192,192,6769,1,0,0:0:0:0:
192,192,7384,1,0,0:0:0:0:
64,192,7384,1,0,0:0:0:0:
320,192,7384,1,0,0:0:0:0:
320,192,7538,1,0,0:0:0:0:
64,192,7692,1,0,0:0:0:0:
192,192,7846,1,0,0:0:0:0:
320,192,8000,1,0,0:0:0:0:
448,192,8000,1,0,0:0:0:0:
64,192,8000,1,0,0:0:0:0:
192,192,8153,1,0,0:0:0:0:
320,192,8307,1,0,0:0:0:0:
64,192,8461,1,0,0:0:0:0:
192,192,8615,1,0,0:0:0:0:
448,192,8615,1,0,0:0:0:0:
320,192,8615,1,0,0:0:0:0:
320,192,8769,1,0,0:0:0:0:
64,192,8923,1,0,0:0:0:0:
192,192,9076,1,0,0:0:0:0:
448,192,9230,128,0,9538:0:0:0:0:
192,192,9538,128,0,9846:0:0:0:0:
64,192,9846,1,0,0:0:0:0:
320,192,9846,1,0,0:0:0:0:
448,192,9846,1,0,0:0:0:0:
192,192,10000,1,0,0:0:0:0:
320,192,10153,1,0,0:0:0:0:
448,192,10153,1,0,0:0:0:0:
64,192,10153,1,0,0:0:0:0:
192,192,10307,1,0,0:0:0:0:
64,192,10384,1,0,0:0:0:0:
448,192,10461,1,0,0:0:0:0:
320,192,10461,1,0,0:0:0:0:
192,192,10615,1,0,0:0:0:0:
64,192,10615,1,0,0:0:0:0:
448,192,10615,1,0,0:0:0:0:
320,192,10769,1,0,0:0:0:0:
192,192,10923,1,0,0:0:0:0:
64,192,10923,1,0,0:0:0:0:
448,192,10923,1,0,0:0:0:0:
192,192,11076,1,0,0:0:0:0:
320,192,11230,1,0,0:0:0:0:
192,192,11307,1,0,0:0:0:0:
448,192,11384,1,0,0:0:0:0:
64,192,11384,1,0,0:0:0:0:
320,192,11384,1,0,0:0:0:0:
192,192,11538,1,0,0:0:0:0:
448,192,11692,1,0,0:0:0:0:
320,192,11692,1,0,0:0:0:0:
192,192,11846,1,0,0:0:0:0:
320,192,11923,1,0,0:0:0:0:
64,192,12076,1,0,0:0:0:0:
192,192,12153,1,0,0:0:0:0:
448,192,12307,1,0,0:0:0:0:
64,192,12307,1,0,0:0:0:0:
320,192,12307,1,0,0:0:0:0:
320,192,12461,1,0,0:0:0:0:
192,192,12615,1,0,0:0:0:0:
64,192,12615,1,0,0:0:0:0:
448,192,12615,1,0,0:0:0:0:
320,192,12769,1,0,0:0:0:0:
64,192,12846,1,0,0:0:0:0:
448,192,12923,1,0,0:0:0:0:
192,192,12923,1,0,0:0:0:0:
320,192,13076,1,0,0:0:0:0:
64,192,13076,1,0,0:0:0:0:
192,192,13076,1,0,0:0:0:0:
448,192,13230,1,0,0:0:0:0:
320,192,13384,1,0,0:0:0:0:
192,192,13384,1,0,0:0:0:0:
448,192,13384,1,0,0:0:0:0:
64,192,13538,1,0,0:0:0:0:
448,192,13692,1,0,0:0:0:0:
320,192,13769,1,0,0:0:0:0:
64,192,13846,1,0,0:0:0:0:
192,192,13846,1,0,0:0:0:0:
448,192,13846,1,0,0:0:0:0:
320,192,14000,1,0,0:0:0:0:
64,192,14153,1,0,0:0:0:0:
192,192,14153,1,0,0:0:0:0:
448,192,14307,1,0,0:0:0:0:
320,192,14384,1,0,0:0:0:0:
64,192,14538,1,0,0:0:0:0:
192,192,14615,1,0,0:0:0:0:
448,192,14769,1,0,0:0:0:0:
320,192,14769,1,0,0:0:0:0:
192,192,14769,1,0,0:0:0:0:
64,192,14923,1,0,0:0:0:0:
448,192,15076,1,0,0:0:0:0:
320,192,15076,1,0,0:0:0:0:
64,192,15076,1,0,0:0:0:0:
192,192,15230,1,0,0:0:0:0:
448,192,15307,1,0,0:0:0:0:
64,192,15384,1,0,0:0:0:0:
192,192,15384,1,0,0:0:0:0:
448,192,15538,1,0,0:0:0:0:
320,192,15538,1,0,0:0:0:0:
64,192,15538,1,0,0:0:0:0:
320,192,15692,1,0,0:0:0:0:
192,192,15846,1,0,0:0:0:0:
64,192,15846,1,0,0:0:0:0:
448,192,15846,1,0,0:0:0:0:
320,192,16000,1,0,0:0:0:0:
64,192,16153,1,0,0:0:0:0:
448,192,16230,1,0,0:0:0:0:
320,192,16307,1,0,0:0:0:0:
192,192,16307,1,0,0:0:0:0:
64,192,16307,1,0,0:0:0:0:
192,192,16461,1,0,0:0:0:0:
64,192,16615,1,0,0:0:0:0:
448,192,16615,1,0,0:0:0:0:
192,192,16769,1,0,0:0:0:0:
448,192,16846,1,0,0:0:0:0:
448,192,17000,1,0,0:0:0:0:
192,192,17076,1,0,0:0:0:0:
448,192,17230,1,0,0:0:0:0:
64,192,17230,1,0,0:0:0:0:
320,192,17230,1,0,0:0:0:0:
320,192,17384,1,0,0:0:0:0:
192,192,17538,1,0,0:0:0:0:
64,192,17538,1,0,0:0:0:0:
448,192,17538,1,0,0:0:0:0:
320,192,17692,1,0,0:0:0:0:
192,192,17769,1,0,0:0:0:0:
64,192,17846,1,0,0:0:0:0:
448,192,17846,1,0,0:0:0:0:
320,192,18000,1,0,0:0:0:0:
448,192,18000,1,0,0:0:0:0:
192,192,18000,1,0,0:0:0:0:
64,192,18153,1,0,0:0:0:0:
320,192,18307,1,0,0:0:0:0:
448,192,18307,1,0,0:0:0:0:
192,192,18307,1,0,0:0:0:0:
64,192,18461,1,0,0:0:0:0:
192,192,18615,1,0,0:0:0:0:
320,192,18692,1,0,0:0:0:0:
64,192,18769,1,0,0:0:0:0:
448,192,18769,1,0,0:0:0:0:
192,192,18769,1,0,0:0:0:0:
448,192,18923,1,0,0:0:0:0:
64,192,19076,1,0,0:0:0:0:
320,192,19076,1,0,0:0:0:0:
320,192,19230,1,0,0:0:0:0:
192,192,19307,1,0,0:0:0:0:
64,192,19384,1,0,0:0:0:0:
448,192,19384,1,0,0:0:0:0:
192,192,19487,1,0,0:0:0:0:
320,192,19487,1,0,0:0:0:0:
192,192,19692,1,0,0:0:0:0:
448,192,19692,1,0,0:0:0:0:
64,192,19692,1,0,0:0:0:0:
320,192,19846,1,0,0:0:0:0:
64,192,20000,1,0,0:0:0:0:
192,192,20000,1,0,0:0:0:0:
320,192,20000,1,0,0:0:0:0:
448,192,20076,1,0,0:0:0:0:
192,192,20153,1,0,0:0:0:0:
448,192,20230,1,0,0:0:0:0:
320,192,20307,1,0,0:0:0:0:
64,192,20307,1,0,0:0:0:0:
192,192,20461,1,0,0:0:0:0:
320,192,20461,1,0,0:0:0:0:
448,192,20461,1,0,0:0:0:0:
320,192,20615,1,0,0:0:0:0:
64,192,20769,1,0,0:0:0:0:
448,192,20769,1,0,0:0:0:0:
192,192,20769,1,0,0:0:0:0:
64,192,20923,1,0,0:0:0:0:
192,192,21000,1,0,0:0:0:0:
448,192,21076,1,0,0:0:0:0:
320,192,21153,1,0,0:0:0:0:
192,192,21230,1,0,0:0:0:0:
64,192,21230,1,0,0:0:0:0:
448,192,21230,1,0,0:0:0:0:
320,192,21384,1,0,0:0:0:0:
448,192,21538,1,0,0:0:0:0:
64,192,21538,1,0,0:0:0:0:
192,192,21692,1,0,0:0:0:0:
64,192,21769,1,0,0:0:0:0:
448,192,21846,1,0,0:0:0:0:
64,192,21923,1,0,0:0:0:0:
192,192,22000,1,0,0:0:0:0:
320,192,22076,1,0,0:0:0:0:
448,192,22153,1,0,0:0:0:0:
64,192,22153,1,0,0:0:0:0:
192,192,22153,1,0,0:0:0:0:
64,192,22307,1,0,0:0:0:0:
448,192,22461,1,0,0:0:0:0:
320,192,22461,1,0,0:0:0:0:
192,192,22461,1,0,0:0:0:0:
448,192,22615,1,0,0:0:0:0:
192,192,22692,1,0,0:0:0:0:
320,192,22769,1,0,0:0:0:0:
64,192,22769,1,0,0:0:0:0:
448,192,22923,1,0,0:0:0:0:
192,192,22923,1,0,0:0:0:0:
320,192,22923,1,0,0:0:0:0:
64,192,23076,1,0,0:0:0:0:
320,192,23230,1,0,0:0:0:0:
192,192,23230,1,0,0:0:0:0:
448,192,23230,1,0,0:0:0:0:
448,192,23384,1,0,0:0:0:0:
320,192,23461,1,0,0:0:0:0:
192,192,23538,1,0,0:0:0:0:
320,192,23692,1,0,0:0:0:0:
448,192,23692,1,0,0:0:0:0:
64,192,23692,1,0,0:0:0:0:
192,192,23846,1,0,0:0:0:0:
64,192,24000,1,0,0:0:0:0:
448,192,24000,1,0,0:0:0:0:
320,192,24153,1,0,0:0:0:0:
192,192,24230,1,0,0:0:0:0:
320,192,24384,1,0,0:0:0:0:
192,192,24461,1,0,0:0:0:0:
448,192,24615,1,0,0:0:0:0:
64,192,24615,1,0,0:0:0:0:
320,192,24615,1,0,0:0:0:0:
320,192,24769,1,0,0:0:0:0:
192,192,24923,1,0,0:0:0:0:
64,192,24923,1,0,0:0:0:0:
448,192,24923,1,0,0:0:0:0:
320,192,25000,1,0,0:0:0:0:
64,192,25076,1,0,0:0:0:0:
192,192,25153,1,0,0:0:0:0:
448,192,25230,1,0,0:0:0:0:
320,192,25230,1,0,0:0:0:0:
64,192,25384,1,0,0:0:0:0:
320,192,25384,1,0,0:0:0:0:
448,192,25384,1,0,0:0:0:0:
192,192,25538,1,0,0:0:0:0:
448,192,25692,1,0,0:0:0:0:
320,192,25692,1,0,0:0:0:0:
64,192,25692,1,0,0:0:0:0:
192,192,25846,1,0,0:0:0:0:
448,192,25923,1,0,0:0:0:0:
320,192,26000,1,0,0:0:0:0:
448,192,26153,1,0,0:0:0:0:
64,192,26153,1,0,0:0:0:0:
320,192,26153,1,0,0:0:0:0:
192,192,26307,1,0,0:0:0:0:
64,192,26461,1,0,0:0:0:0:
448,192,26461,1,0,0:0:0:0:
320,192,26615,1,0,0:0:0:0:
64,192,26692,1,0,0:0:0:0:
192,192,26769,1,0,0:0:0:0:
64,192,26846,1,0,0:0:0:0:
320,192,26923,1,0,0:0:0:0:
192,192,27000,1,0,0:0:0:0:
448,192,27076,1,0,0:0:0:0:
64,192,27076,1,0,0:0:0:0:
320,192,27076,1,0,0:0:0:0:
192,192,27230,1,0,0:0:0:0:
448,192,27384,1,0,0:0:0:0:
320,192,27384,1,0,0:0:0:0:
192,192,27384,1,0,0:0:0:0:
64,192,27538,1,0,0:0:0:0:
192,192,27615,1,0,0:0:0:0:
320,192,27692,1,0,0:0:0:0:
448,192,27692,1,0,0:0:0:0:
64,192,27846,1,0,0:0:0:0:
192,192,27846,1,0,0:0:0:0:
448,192,27846,1,0,0:0:0:0:
320,192,28000,1,0,0:0:0:0:
64,192,28153,1,0,0:0:0:0:
192,192,28153,1,0,0:0:0:0:
448,192,28153,1,0,0:0:0:0:
320,192,28307,1,0,0:0:0:0:
64,192,28384,1,0,0:0:0:0:
320,192,28461,1,0,0:0:0:0:
64,192,28615,1,0,0:0:0:0:
448,192,28615,1,0,0:0:0:0:
320,192,28615,1,0,0:0:0:0:
192,192,28769,1,0,0:0:0:0:
448,192,28923,1,0,0:0:0:0:
320,192,28923,1,0,0:0:0:0:
64,192,29076,1,0,0:0:0:0:
448,192,29153,1,0,0:0:0:0:
64,192,29538,1,0,0:0:0:0:
320,192,29538,1,0,0:0:0:0:
192,192,29538,1,0,0:0:0:0:
192,192,29692,1,0,0:0:0:0:
320,192,29846,1,0,0:0:0:0:
192,192,30000,1,0,0:0:0:0:
192,192,30153,1,0,0:0:0:0:
448,192,30153,1,0,0:0:0:0:
320,192,30153,1,0,0:0:0:0:
448,192,30307,1,0,0:0:0:0:
64,192,30461,1,0,0:0:0:0:
448,192,30615,1,0,0:0:0:0:
192,192,30769,1,0,0:0:0:0:
64,192,30769,1,0,0:0:0:0:
320,192,30769,1,0,0:0:0:0:
192,192,30923,1,0,0:0:0:0:
448,192,31076,1,0,0:0:0:0:
192,192,31230,1,0,0:0:0:0:
64,192,31384,1,0,0:0:0:0:
320,192,31384,1,0,0:0:0:0:
192,192,31384,1,0,0:0:0:0:
64,192,31538,1,0,0:0:0:0:
320,192,31692,1,0,0:0:0:0:
64,192,31846,1,0,0:0:0:0:
320,192,32000,1,0,0:0:0:0:
192,192,32000,1,0,0:0:0:0:
448,192,32000,1,0,0:0:0:0:
448,192,32153,1,0,0:0:0:0:
64,192,32307,1,0,0:0:0:0:
448,192,32461,1,0,0:0:0:0:
64,192,32615,1,0,0:0:0:0:
192,192,32615,1,0,0:0:0:0:
320,192,32615,1,0,0:0:0:0:
64,192,32769,1,0,0:0:0:0:
192,192,32923,1,0,0:0:0:0:
64,192,33076,1,0,0:0:0:0:
192,192,33230,1,0,0:0:0:0:
448,192,33230,1,0,0:0:0:0:
320,192,33230,1,0,0:0:0:0:
448,192,33384,1,0,0:0:0:0:
320,192,33538,1,0,0:0:0:0:
448,192,33692,1,0,0:0:0:0:
192,192,33846,1,0,0:0:0:0:
64,192,33846,1,0,0:0:0:0:
320,192,33846,1,0,0:0:0:0:
192,192,34000,1,0,0:0:0:0:
320,192,34153,1,0,0:0:0:0:
192,192,34307,1,0,0:0:0:0:
192,192,34461,1,0,0:0:0:0:
64,192,34461,1,0,0:0:0:0:
448,192,34461,1,0,0:0:0:0:
320,192,34615,1,0,0:0:0:0:
64,192,34769,1,0,0:0:0:0:
448,192,34923,1,0,0:0:0:0:
320,192,35076,1,0,0:0:0:0:
448,192,35076,1,0,0:0:0:0:
64,192,35076,1,0,0:0:0:0:
192,192,35230,1,0,0:0:0:0:
448,192,35384,1,0,0:0:0:0:
64,192,35538,1,0,0:0:0:0:
64,192,35692,1,0,0:0:0:0:
192,192,35692,1,0,0:0:0:0:
448,192,35692,1,0,0:0:0:0:
448,192,35846,1,0,0:0:0:0:
192,192,36000,1,0,0:0:0:0:
448,192,36153,1,0,0:0:0:0:
320,192,36307,1,0,0:0:0:0:
64,192,36307,1,0,0:0:0:0:
448,192,36307,1,0,0:0:0:0:
320,192,36461,1,0,0:0:0:0:
64,192,36615,1,0,0:0:0:0:
320,192,36769,1,0,0:0:0:0:
64,192,36923,1,0,0:0:0:0:
448,192,36923,1,0,0:0:0:0:
192,192,36923,1,0,0:0:0:0:
192,192,37076,1,0,0:0:0:0:
320,192,37230,1,0,0:0:0:0:
192,192,37384,1,0,0:0:0:0:
448,192,37538,1,0,0:0:0:0:
64,192,37538,1,0,0:0:0:0:
320,192,37538,1,0,0:0:0:0:
64,192,37692,1,0,0:0:0:0:
448,192,37846,1,0,0:0:0:0:
64,192,38000,1,0,0:0:0:0:
64,192,38153,1,0,0:0:0:0:
448,192,38153,1,0,0:0:0:0:
192,192,38153,1,0,0:0:0:0:
192,192,38307,1,0,0:0:0:0:
448,192,38461,1,0,0:0:0:0:
192,192,38615,1,0,0:0:0:0:
320,192,38769,1,0,0:0:0:0:
64,192,38769,1,0,0:0:0:0:
448,192,38769,1,0,0:0:0:0:
64,192,38923,1,0,0:0:0:0:
320,192,39076,1,0,0:0:0:0:
64,192,39153,1,0,0:0:0:0:
192,192,39230,1,0,0:0:0:0:
448,192,39307,1,0,0:0:0:0:
64,192,39384,1,0,0:0:0:0:
320,192,39384,1,0,0:0:0:0:
320,192,39538,1,0,0:0:0:0:
448,192,39692,1,0,0:0:0:0:
192,192,39692,1,0,0:0:0:0:
320,192,39846,1,0,0:0:0:0:
64,192,39923,1,0,0:0:0:0:
192,192,40000,1,0,0:0:0:0:
448,192,40076,1,0,0:0:0:0:
320,192,40153,1,0,0:0:0:0:
64,192,40153,1,0,0:0:0:0:
192,192,40307,1,0,0:0:0:0:
448,192,40384,1,0,0:0:0:0:
320,192,40461,1,0,0:0:0:0:
192,192,40538,1,0,0:0:0:0:
448,192,40615,1,0,0:0:0:0:
320,192,40615,1,0,0:0:0:0:
192,192,40769,1,0,0:0:0:0:
64,192,40769,1,0,0:0:0:0:
320,192,40923,1,0,0:0:0:0:
448,192,40923,1,0,0:0:0:0:
64,192,41076,1,0,0:0:0:0:
192,192,41153,1,0,0:0:0:0:
448,192,41230,1,0,0:0:0:0:
64,192,41230,1,0,0:0:0:0:
320,192,41307,1,0,0:0:0:0:
192,192,41384,1,0,0:0:0:0:
64,192,41384,1,0,0:0:0:0:
192,192,41538,1,0,0:0:0:0:
320,192,41615,1,0,0:0:0:0:
64,192,41692,1,0,0:0:0:0:
448,192,41692,1,0,0:0:0:0:
320,192,41769,1,0,0:0:0:0:
192,192,41846,1,0,0:0:0:0:
64,192,41846,1,0,0:0:0:0:
320,192,42000,1,0,0:0:0:0:
192,192,42153,1,0,0:0:0:0:
64,192,42153,1,0,0:0:0:0:
320,192,42307,1,0,0:0:0:0:
64,192,42384,1,0,0:0:0:0:
192,192,42461,1,0,0:0:0:0:
448,192,42461,1,0,0:0:0:0:
320,192,42615,1,0,0:0:0:0:
64,192,42692,1,0,0:0:0:0:
192,192,42769,1,0,0:0:0:0:
64,192,42846,1,0,0:0:0:0:
320,192,42923,1,0,0:0:0:0:
448,192,42923,1,0,0:0:0:0:
448,192,43076,1,0,0:0:0:0:
192,192,43076,1,0,0:0:0:0:
64,192,43230,1,0,0:0:0:0:
320,192,43230,1,0,0:0:0:0:
448,192,43384,1,0,0:0:0:0:
320,192,43384,1,0,0:0:0:0:
192,192,43461,1,0,0:0:0:0:
64,192,43538,1,0,0:0:0:0:
320,192,43538,1,0,0:0:0:0:
448,192,43692,1,0,0:0:0:0:
192,192,43692,1,0,0:0:0:0:
64,192,43846,1,0,0:0:0:0:
320,192,43846,1,0,0:0:0:0:
448,192,43923,1,0,0:0:0:0:
320,192,44000,1,0,0:0:0:0:
192,192,44000,1,0,0:0:0:0:
64,192,44076,1,0,0:0:0:0:
448,192,44153,1,0,0:0:0:0:
192,192,44153,1,0,0:0:0:0:
448,192,44307,1,0,0:0:0:0:
64,192,44307,1,0,0:0:0:0:
192,192,44461,1,0,0:0:0:0:
320,192,44615,1,0,0:0:0:0:
448,192,44615,1,0,0:0:0:0:
192,192,44769,1,0,0:0:0:0:
320,192,44846,1,0,0:0:0:0:
64,192,44923,1,0,0:0:0:0:
320,192,45000,1,0,0:0:0:0:
192,192,45076,1,0,0:0:0:0:
64,192,45076,1,0,0:0:0:0:
320,192,45230,1,0,0:0:0:0:
64,192,45307,1,0,0:0:0:0:
448,192,45384,1,0,0:0:0:0:
192,192,45461,1,0,0:0:0:0:
320,192,45538,1,0,0:0:0:0:
448,192,45538,1,0,0:0:0:0:
192,192,45692,1,0,0:0:0:0:
64,192,45692,1,0,0:0:0:0:
192,192,45846,1,0,0:0:0:0:
448,192,45846,1,0,0:0:0:0:
448,192,46000,1,0,0:0:0:0:
320,192,46076,1,0,0:0:0:0:
64,192,46153,1,0,0:0:0:0:
192,192,46153,1,0,0:0:0:0:
448,192,46230,1,0,0:0:0:0:
64,192,46307,1,0,0:0:0:0:
320,192,46307,1,0,0:0:0:0:
192,192,46461,1,0,0:0:0:0:
320,192,46538,1,0,0:0:0:0:
64,192,46615,1,0,0:0:0:0:
192,192,46615,1,0,0:0:0:0:
448,192,46692,1,0,0:0:0:0:
320,192,46692,1,0,0:0:0:0:
64,192,46769,1,0,0:0:0:0:
192,192,46769,1,0,0:0:0:0:
320,192,46923,1,0,0:0:0:0:
192,192,47076,1,0,0:0:0:0:
64,192,47076,1,0,0:0:0:0:
448,192,47230,1,0,0:0:0:0:
192,192,47307,1,0,0:0:0:0:
64,192,47384,1,0,0:0:0:0:
320,192,47384,1,0,0:0:0:0:
320,192,47538,1,0,0:0:0:0:
64,192,47615,1,0,0:0:0:0:
192,192,47692,1,0,0:0:0:0:
448,192,47692,1,0,0:0:0:0:
320,192,47769,1,0,0:0:0:0:
448,192,47846,1,0,0:0:0:0:
64,192,47846,1,0,0:0:0:0:
64,192,48000,1,0,0:0:0:0:
320,192,48000,1,0,0:0:0:0:
192,192,48153,1,0,0:0:0:0:
448,192,48153,1,0,0:0:0:0:
320,192,48307,1,0,0:0:0:0:
448,192,48307,1,0,0:0:0:0:
192,192,48384,1,0,0:0:0:0:
64,192,48384,1,0,0:0:0:0:
320,192,48461,1,0,0:0:0:0:
448,192,48461,1,0,0:0:0:0:
64,192,48615,128,0,48692:0:0:0:0:
448,192,48615,128,0,48692:0:0:0:0:
192,192,48923,128,0,49000:0:0:0:0:
320,192,48923,128,0,49000:0:0:0:0:
64,192,49230,1,0,0:0:0:0:
192,192,49230,1,0,0:0:0:0:
448,192,49230,1,0,0:0:0:0:
64,192,49384,1,0,0:0:0:0:
448,192,49538,1,0,0:0:0:0:
192,192,49538,1,0,0:0:0:0:
320,192,49538,1,0,0:0:0:0:
192,192,49692,1,0,0:0:0:0:
64,192,49846,1,0,0:0:0:0:
448,192,49846,1,0,0:0:0:0:
320,192,49846,1,0,0:0:0:0:
320,192,50000,1,0,0:0:0:0:
448,192,50153,1,0,0:0:0:0:
64,192,50153,1,0,0:0:0:0:
192,192,50153,1,0,0:0:0:0:
192,192,50307,1,0,0:0:0:0:
64,192,50461,1,0,0:0:0:0:
448,192,50461,1,0,0:0:0:0:
320,192,50461,1,0,0:0:0:0:
320,192,50615,1,0,0:0:0:0:
448,192,50769,1,0,0:0:0:0:
64,192,50769,1,0,0:0:0:0:
192,192,50769,1,0,0:0:0:0:
448,192,50923,1,0,0:0:0:0:
64,192,51076,1,0,0:0:0:0:
320,192,51076,1,0,0:0:0:0:
448,192,51076,1,0,0:0:0:0:
64,192,51230,1,0,0:0:0:0:
320,192,51384,1,0,0:0:0:0:
448,192,51384,1,0,0:0:0:0:
64,192,51384,1,0,0:0:0:0:
448,192,51692,1,0,0:0:0:0:
320,192,51692,1,0,0:0:0:0:
64,192,51692,1,0,0:0:0:0:
448,192,51846,1,0,0:0:0:0:
64,192,52000,1,0,0:0:0:0:
320,192,52000,1,0,0:0:0:0:
192,192,52000,1,0,0:0:0:0:
320,192,52153,1,0,0:0:0:0:
448,192,52307,1,0,0:0:0:0:
64,192,52307,1,0,0:0:0:0:
192,192,52307,1,0,0:0:0:0:
192,192,52461,1,0,0:0:0:0:
64,192,52615,1,0,0:0:0:0:
448,192,52615,1,0,0:0:0:0:
320,192,52615,1,0,0:0:0:0:
320,192,52769,1,0,0:0:0:0:
448,192,52923,1,0,0:0:0:0:
64,192,52923,1,0,0:0:0:0:
192,192,52923,1,0,0:0:0:0:
192,192,53076,1,0,0:0:0:0:
64,192,53230,1,0,0:0:0:0:
448,192,53230,1,0,0:0:0:0:
320,192,53230,1,0,0:0:0:0:
64,192,53384,1,0,0:0:0:0:
448,192,53538,1,0,0:0:0:0:
192,192,53538,1,0,0:0:0:0:
64,192,53538,1,0,0:0:0:0:
448,192,53692,1,0,0:0:0:0:
192,192,53846,1,0,0:0:0:0:
64,192,53846,1,0,0:0:0:0:
448,192,53846,1,0,0:0:0:0:
448,192,54153,1,0,0:0:0:0:
320,192,54153,1,0,0:0:0:0:
64,192,54153,1,0,0:0:0:0:
448,192,54307,1,0,0:0:0:0:
64,192,54461,1,0,0:0:0:0:
320,192,54461,1,0,0:0:0:0:
192,192,54461,1,0,0:0:0:0:
320,192,54615,1,0,0:0:0:0:
448,192,54769,1,0,0:0:0:0:
64,192,54769,1,0,0:0:0:0:
192,192,54769,1,0,0:0:0:0:
192,192,54923,1,0,0:0:0:0:
64,192,55076,1,0,0:0:0:0:
448,192,55076,1,0,0:0:0:0:
320,192,55076,1,0,0:0:0:0:
320,192,55230,1,0,0:0:0:0:
448,192,55384,1,0,0:0:0:0:
64,192,55384,1,0,0:0:0:0:
192,192,55384,1,0,0:0:0:0:
192,192,55538,1,0,0:0:0:0:
64,192,55692,1,0,0:0:0:0:
448,192,55692,1,0,0:0:0:0:
320,192,55692,1,0,0:0:0:0:
64,192,55846,1,0,0:0:0:0:
448,192,56000,1,0,0:0:0:0:
192,192,56000,1,0,0:0:0:0:
64,192,56000,1,0,0:0:0:0:
448,192,56153,1,0,0:0:0:0:
192,192,56307,1,0,0:0:0:0:
64,192,56307,1,0,0:0:0:0:
448,192,56307,1,0,0:0:0:0:
320,192,56615,1,0,0:0:0:0:
64,192,56615,1,0,0:0:0:0:
192,192,56615,1,0,0:0:0:0:
64,192,56769,1,0,0:0:0:0:
192,192,56923,1,0,0:0:0:0:
320,192,56923,1,0,0:0:0:0:
448,192,56923,1,0,0:0:0:0:
192,192,57076,1,0,0:0:0:0:
320,192,57230,1,0,0:0:0:0:
64,192,57230,1,0,0:0:0:0:
448,192,57230,1,0,0:0:0:0:
320,192,57384,1,0,0:0:0:0:
448,192,57538,1,0,0:0:0:0:
320,192,57538,1,0,0:0:0:0:
64,192,57538,1,0,0:0:0:0:
192,192,57692,1,0,0:0:0:0:
448,192,57846,1,0,0:0:0:0:
192,192,57846,1,0,0:0:0:0:
64,192,57846,1,0,0:0:0:0:
448,192,58000,1,0,0:0:0:0:
192,192,58153,1,0,0:0:0:0:
64,192,58153,1,0,0:0:0:0:
448,192,58153,1,0,0:0:0:0:
64,192,58307,1,0,0:0:0:0:
64,192,58461,1,0,0:0:0:0:
448,192,58461,1,0,0:0:0:0:
320,192,58461,1,0,0:0:0:0:
320,192,58615,1,0,0:0:0:0:
448,192,58769,1,0,0:0:0:0:
64,192,58769,1,0,0:0:0:0:
192,192,58769,1,0,0:0:0:0:
320,192,59076,1,0,0:0:0:0:
448,192,59076,1,0,0:0:0:0:
192,192,59076,1,0,0:0:0:0:
64,192,59230,1,0,0:0:0:0:
320,192,59384,1,0,0:0:0:0:
192,192,59538,1,0,0:0:0:0:
448,192,59692,1,0,0:0:0:0:
320,192,59846,1,0,0:0:0:0:
64,192,60000,1,0,0:0:0:0:
320,192,60153,1,0,0:0:0:0:
192,192,60307,1,0,0:0:0:0:
448,192,60307,1,0,0:0:0:0:
64,192,60461,1,0,0:0:0:0:
320,192,60615,1,0,0:0:0:0:
192,192,60769,1,0,0:0:0:0:
448,192,60923,1,0,0:0:0:0:
192,192,61076,1,0,0:0:0:0:
448,192,61230,1,0,0:0:0:0:
192,192,61538,1,0,0:0:0:0:
448,192,61538,1,0,0:0:0:0:
64,192,61692,1,0,0:0:0:0:
320,192,61846,1,0,0:0:0:0:
192,192,62000,1,0,0:0:0:0:
64,192,62153,1,0,0:0:0:0:
448,192,62307,1,0,0:0:0:0:
192,192,62461,1,0,0:0:0:0:
64,192,62615,1,0,0:0:0:0:
448,192,62769,1,0,0:0:0:0:
320,192,62769,1,0,0:0:0:0:
64,192,62923,1,0,0:0:0:0:
320,192,63076,1,0,0:0:0:0:
448,192,63230,1,0,0:0:0:0:
64,192,63384,1,0,0:0:0:0:
320,192,63538,1,0,0:0:0:0:
192,192,63692,1,0,0:0:0:0:
320,192,64000,1,0,0:0:0:0:
64,192,64000,1,0,0:0:0:0:
448,192,64153,1,0,0:0:0:0:
192,192,64307,1,0,0:0:0:0:
320,192,64461,1,0,0:0:0:0:
64,192,64615,1,0,0:0:0:0:
448,192,64769,1,0,0:0:0:0:
192,192,64923,1,0,0:0:0:0:
320,192,65076,1,0,0:0:0:0:
192,192,65230,1,0,0:0:0:0:
64,192,65230,1,0,0:0:0:0:
448,192,65384,1,0,0:0:0:0:
64,192,65538,1,0,0:0:0:0:
320,192,65692,1,0,0:0:0:0:
448,192,65846,1,0,0:0:0:0:
192,192,66000,1,0,0:0:0:0:
320,192,66153,1,0,0:0:0:0:
192,192,66461,1,0,0:0:0:0:
64,192,66461,1,0,0:0:0:0:
448,192,66615,1,0,0:0:0:0:
192,192,66769,1,0,0:0:0:0:
320,192,66923,1,0,0:0:0:0:
64,192,67076,1,0,0:0:0:0:
320,192,67230,1,0,0:0:0:0:
192,192,67384,1,0,0:0:0:0:
448,192,67538,1,0,0:0:0:0:
64,192,67692,1,0,0:0:0:0:
320,192,67692,1,0,0:0:0:0:
192,192,67846,1,0,0:0:0:0:
448,192,68000,1,0,0:0:0:0:
64,192,68153,1,0,0:0:0:0:
192,192,68307,1,0,0:0:0:0:
320,192,68307,1,0,0:0:0:0:
192,192,68923,5,0,0:0:0:0:
64,192,68923,1,0,0:0:0:0:
448,192,68923,1,0,0:0:0:0:
320,192,69076,1,0,0:0:0:0:
192,192,69230,1,0,0:0:0:0:
448,192,69307,1,0,0:0:0:0:
320,192,69384,1,0,0:0:0:0:
448,192,69538,1,0,0:0:0:0:
192,192,69538,1,0,0:0:0:0:
64,192,69846,1,0,0:0:0:0:
64,192,70153,1,0,0:0:0:0:
448,192,70307,1,0,0:0:0:0:
320,192,70307,1,0,0:0:0:0:
192,192,70307,1,0,0:0:0:0:
192,192,70461,1,0,0:0:0:0:
64,192,70461,1,0,0:0:0:0:
448,192,70461,1,0,0:0:0:0:
320,192,70615,1,0,0:0:0:0:
448,192,70769,1,0,0:0:0:0:
192,192,70769,1,0,0:0:0:0:
64,192,70923,1,0,0:0:0:0:
320,192,71076,1,0,0:0:0:0:
320,192,71230,1,0,0:0:0:0:
448,192,71307,1,0,0:0:0:0:
64,192,71384,1,0,0:0:0:0:
192,192,71384,1,0,0:0:0:0:
320,192,71384,1,0,0:0:0:0:
448,192,71538,1,0,0:0:0:0:
64,192,71692,1,0,0:0:0:0:
320,192,71846,1,0,0:0:0:0:
448,192,72000,1,0,0:0:0:0:
192,192,72000,1,0,0:0:0:0:
64,192,72153,1,0,0:0:0:0:
320,192,72307,1,0,0:0:0:0:
192,192,72461,1,0,0:0:0:0:
448,192,72538,1,0,0:0:0:0:
320,192,72615,1,0,0:0:0:0:
64,192,72769,1,0,0:0:0:0:
192,192,72769,1,0,0:0:0:0:
448,192,72769,1,0,0:0:0:0:
320,192,72923,1,0,0:0:0:0:
448,192,72923,1,0,0:0:0:0:
64,192,72923,1,0,0:0:0:0:
192,192,73076,1,0,0:0:0:0:
64,192,73230,1,0,0:0:0:0:
448,192,73230,1,0,0:0:0:0:
320,192,73384,1,0,0:0:0:0:
64,192,73538,1,0,0:0:0:0:
448,192,73615,1,0,0:0:0:0:
64,192,73692,1,0,0:0:0:0:
448,192,73769,1,0,0:0:0:0:
64,192,73846,1,0,0:0:0:0:
192,192,73846,1,0,0:0:0:0:
320,192,73846,1,0,0:0:0:0:
320,192,74000,1,0,0:0:0:0:
448,192,74153,1,0,0:0:0:0:
320,192,74230,1,0,0:0:0:0:
192,192,74307,1,0,0:0:0:0:
64,192,74461,1,0,0:0:0:0:
448,192,74461,1,0,0:0:0:0:
320,192,74769,1,0,0:0:0:0:
192,192,75076,1,0,0:0:0:0:
64,192,75230,1,0,0:0:0:0:
448,192,75230,1,0,0:0:0:0:
320,192,75230,1,0,0:0:0:0:
192,192,75384,1,0,0:0:0:0:
320,192,75384,1,0,0:0:0:0:
448,192,75384,1,0,0:0:0:0:
64,192,75538,1,0,0:0:0:0:
320,192,75692,1,0,0:0:0:0:
448,192,75692,1,0,0:0:0:0:
64,192,75846,1,0,0:0:0:0:
192,192,76000,1,0,0:0:0:0:
192,192,76153,1,0,0:0:0:0:
320,192,76230,1,0,0:0:0:0:
64,192,76307,1,0,0:0:0:0:
192,192,76307,1,0,0:0:0:0:
448,192,76307,1,0,0:0:0:0:
448,192,76461,1,0,0:0:0:0:
64,192,76615,1,0,0:0:0:0:
320,192,76769,1,0,0:0:0:0:
192,192,76923,1,0,0:0:0:0:
64,192,76923,1,0,0:0:0:0:
448,192,77076,1,0,0:0:0:0:
64,192,77230,1,0,0:0:0:0:
320,192,77384,1,0,0:0:0:0:
448,192,77461,1,0,0:0:0:0:
192,192,77538,1,0,0:0:0:0:
320,192,77692,1,0,0:0:0:0:
448,192,77692,1,0,0:0:0:0:
64,192,77692,1,0,0:0:0:0:
192,192,77846,1,0,0:0:0:0:
64,192,77846,1,0,0:0:0:0:
448,192,77846,1,0,0:0:0:0:
320,192,78000,1,0,0:0:0:0:
192,192,78076,1,0,0:0:0:0:
64,192,78153,1,0,0:0:0:0:
448,192,78153,1,0,0:0:0:0:
192,192,78461,128,0,78769:0:0:0:0:
320,192,78769,1,0,0:0:0:0:
448,192,78769,1,0,0:0:0:0:
64,192,78769,1,0,0:0:0:0:
64,192,78923,1,0,0:0:0:0:
320,192,79076,1,0,0:0:0:0:
448,192,79153,1,0,0:0:0:0:
64,192,79230,1,0,0:0:0:0:
192,192,79384,1,0,0:0:0:0:
448,192,79384,1,0,0:0:0:0:
192,192,79692,1,0,0:0:0:0:
320,192,80000,1,0,0:0:0:0:
192,192,80153,1,0,0:0:0:0:
64,192,80153,1,0,0:0:0:0:
448,192,80153,1,0,0:0:0:0:
448,192,80307,1,0,0:0:0:0:
320,192,80307,1,0,0:0:0:0:
64,192,80307,1,0,0:0:0:0:
192,192,80461,1,0,0:0:0:0:
64,192,80615,1,0,0:0:0:0:
448,192,80615,1,0,0:0:0:0:
320,192,80769,1,0,0:0:0:0:
192,192,80923,1,0,0:0:0:0:
192,192,81076,1,0,0:0:0:0:
320,192,81153,1,0,0:0:0:0:
192,192,81230,1,0,0:0:0:0:
448,192,81230,1,0,0:0:0:0:
64,192,81230,1,0,0:0:0:0:
448,192,81384,1,0,0:0:0:0:
192,192,81538,1,0,0:0:0:0:
448,192,81692,1,0,0:0:0:0:
64,192,81846,1,0,0:0:0:0:
192,192,81846,1,0,0:0:0:0:
320,192,82000,1,0,0:0:0:0:
64,192,82153,1,0,0:0:0:0:
448,192,82307,1,0,0:0:0:0:
192,192,82384,1,0,0:0:0:0:
320,192,82461,1,0,0:0:0:0:
320,192,82615,1,0,0:0:0:0:
448,192,82615,1,0,0:0:0:0:
192,192,82615,1,0,0:0:0:0:
64,192,82769,1,0,0:0:0:0:
192,192,82769,1,0,0:0:0:0:
320,192,82769,1,0,0:0:0:0:
448,192,82923,1,0,0:0:0:0:
192,192,83076,1,0,0:0:0:0:
320,192,83076,1,0,0:0:0:0:
64,192,83230,1,0,0:0:0:0:
320,192,83384,1,0,0:0:0:0:
192,192,83461,1,0,0:0:0:0:
320,192,83538,1,0,0:0:0:0:
192,192,83615,1,0,0:0:0:0:
320,192,83692,1,0,0:0:0:0:
448,192,83692,1,0,0:0:0:0:
64,192,83692,1,0,0:0:0:0:
192,192,83846,1,0,0:0:0:0:
320,192,84000,1,0,0:0:0:0:
192,192,84153,1,0,0:0:0:0:
64,192,84307,1,0,0:0:0:0:
448,192,84307,1,0,0:0:0:0:
320,192,84615,1,0,0:0:0:0:
64,192,84769,1,0,0:0:0:0:
192,192,84846,1,0,0:0:0:0:
320,192,84923,1,0,0:0:0:0:
64,192,85076,1,0,0:0:0:0:
192,192,85076,1,0,0:0:0:0:
448,192,85076,1,0,0:0:0:0:
448,192,85230,1,0,0:0:0:0:
320,192,85230,1,0,0:0:0:0:
64,192,85230,1,0,0:0:0:0:
192,192,85384,1,0,0:0:0:0:
64,192,85538,1,0,0:0:0:0:
448,192,85538,1,0,0:0:0:0:
448,192,85846,1,0,0:0:0:0:
320,192,86000,1,0,0:0:0:0:
192,192,86076,1,0,0:0:0:0:
448,192,86153,1,0,0:0:0:0:
64,192,86153,1,0,0:0:0:0:
320,192,86153,1,0,0:0:0:0:
64,192,86307,1,0,0:0:0:0:
320,192,86461,1,0,0:0:0:0:
320,192,86615,1,0,0:0:0:0:
192,192,86692,1,0,0:0:0:0:
448,192,86769,1,0,0:0:0:0:
64,192,86769,1,0,0:0:0:0:
192,192,86923,1,0,0:0:0:0:
448,192,87076,1,0,0:0:0:0:
192,192,87230,1,0,0:0:0:0:
320,192,87307,1,0,0:0:0:0:
448,192,87384,1,0,0:0:0:0:
64,192,87538,1,0,0:0:0:0:
192,192,87538,1,0,0:0:0:0:
448,192,87538,1,0,0:0:0:0:
448,192,87692,1,0,0:0:0:0:
320,192,87692,1,0,0:0:0:0:
192,192,87692,1,0,0:0:0:0:
64,192,87846,1,0,0:0:0:0:
448,192,88000,1,0,0:0:0:0:
192,192,88000,1,0,0:0:0:0:
64,192,88153,1,0,0:0:0:0:
448,192,88307,1,0,0:0:0:0:
192,192,88384,1,0,0:0:0:0:
448,192,88461,1,0,0:0:0:0:
192,192,88538,1,0,0:0:0:0:
448,192,88615,1,0,0:0:0:0:
320,192,88615,1,0,0:0:0:0:
64,192,88769,1,0,0:0:0:0:
320,192,88923,1,0,0:0:0:0:
448,192,88923,1,0,0:0:0:0:
192,192,89230,1,0,0:0:0:0:
64,192,89230,1,0,0:0:0:0:
64,192,89384,1,0,0:0:0:0:
320,192,89538,1,0,0:0:0:0:
448,192,89538,1,0,0:0:0:0:
192,192,89846,1,0,0:0:0:0:
320,192,89846,1,0,0:0:0:0:
192,192,90000,1,0,0:0:0:0:
320,192,90153,1,0,0:0:0:0:
64,192,90153,1,0,0:0:0:0:
320,192,90461,1,0,0:0:0:0:
448,192,90461,1,0,0:0:0:0:
320,192,90615,1,0,0:0:0:0:
448,192,90769,1,0,0:0:0:0:
320,192,90846,1,0,0:0:0:0:
192,192,90923,1,0,0:0:0:0:
64,192,91000,1,0,0:0:0:0:
448,192,91076,1,0,0:0:0:0:
320,192,91153,1,0,0:0:0:0:
192,192,91230,1,0,0:0:0:0:
64,192,91307,1,0,0:0:0:0:
448,192,91384,1,0,0:0:0:0:
320,192,91461,1,0,0:0:0:0:
192,192,91538,1,0,0:0:0:0:
64,192,91615,1,0,0:0:0:0:
448,192,91692,1,0,0:0:0:0:
320,192,91769,1,0,0:0:0:0:
192,192,91846,1,0,0:0:0:0:
64,192,91923,1,0,0:0:0:0:
448,192,92000,1,0,0:0:0:0:
320,192,92076,1,0,0:0:0:0:
192,192,92153,1,0,0:0:0:0:
64,192,92230,1,0,0:0:0:0:
448,192,92307,1,0,0:0:0:0:
320,192,92384,1,0,0:0:0:0:
192,192,92461,1,0,0:0:0:0:
64,192,92538,1,0,0:0:0:0:
448,192,92615,1,0,0:0:0:0:
320,192,92692,1,0,0:0:0:0:
192,192,92769,1,0,0:0:0:0:
64,192,92846,1,0,0:0:0:0:
448,192,92923,1,0,0:0:0:0:
320,192,93000,1,0,0:0:0:0:
192,192,93076,1,0,0:0:0:0:
64,192,93153,1,0,0:0:0:0:
