osu file format v14

[General]
AudioFilename: audio.mp3
AudioLeadIn: 0
PreviewTime: 68923
Countdown: 0
SampleSet: Soft
StackLeniency: 0.7
Mode: 3
LetterboxInBreaks: 0
SpecialStyle: 0
WidescreenStoryboard: 1

[Editor]
Bookmarks: 68923,78461
DistanceSpacing: 1.3
BeatDivisor: 4
GridSize: 32
TimelineZoom: 2.3

[Metadata]
Title:ball hard
TitleUnicode:ball hard
Artist:crafter2011
ArtistUnicode:crafter2011
Creator:Andere
Version:Easy
Source:
Tags:Minecraft vol. 1 Dariacore Electronic Dance Music EDM English Instrumental Experimental 4ndere sv deskrat Lady Gaga Telephone feat. Beyonce Jay-Z & Kanye West Ni**as In Paris Niggas cyranek
BeatmapID:3651814
BeatmapSetID:1775193

[Difficulty]
HPDrainRate:6
CircleSize:4
OverallDifficulty:6
ApproachRate:9
SliderMultiplier:1.4
SliderTickRate:1

[Events]
//Background and Video events
0,0,"bg.jpg",0,0
Video,-110,"balling.mp4"
//Break Periods
//Storyboard Layer 0 (Background)
//Storyboard Layer 1 (Fail)
//Storyboard Layer 2 (Pass)
//Storyboard Layer 3 (Foreground)
//Storyboard Layer 4 (Overlay)
//Storyboard Sound Samples

[TimingPoints]
0,307.692307692308,4,2,1,60,1,0
68923,-100,4,2,1,60,0,1
78461,-100,4,2,1,60,0,0
78769,-100,4,2,1,60,0,1
88615,-100,4,2,1,60,0,0

[HitObjects]
64,192,0,5,0,0:0:0:0:
448,192,615,1,0,0:0:0:0:
64,192,923,1,0,0:0:0:0:
320,192,1230,1,0,0:0:0:0:
448,192,1538,1,0,0:0:0:0:
64,192,1846,128,0,2461:0:0:0:0:
320,192,2461,1,0,0:0:0:0:
192,192,3076,1,0,0:0:0:0:
320,192,3384,1,0,0:0:0:0:
64,192,3692,1,0,0:0:0:0:
320,192,4000,1,0,0:0:0:0:
448,192,4307,1,0,0:0:0:0:
320,192,4923,1,0,0:0:0:0:
448,192,4923,1,0,0:0:0:0:
64,192,5538,1,0,0:0:0:0:
320,192,5846,1,0,0:0:0:0:
192,192,6153,1,0,0:0:0:0:
320,192,6461,1,0,0:0:0:0:
448,192,6769,128,0,7384:0:0:0:0:
192,192,7384,1,0,0:0:0:0:
320,192,8000,1,0,0:0:0:0:
64,192,8307,1,0,0:0:0:0:
192,192,8615,1,0,0:0:0:0:
320,192,8923,1,0,0:0:0:0:
448,192,9230,1,0,0:0:0:0:
64,192,9846,1,0,0:0:0:0:
320,192,10153,1,0,0:0:0:0:
64,192,10461,1,0,0:0:0:0:
192,192,10461,1,0,0:0:0:0:
448,192,10769,1,0,0:0:0:0:
320,192,11076,1,0,0:0:0:0:
64,192,11230,1,0,0:0:0:0:
192,192,11384,1,0,0:0:0:0:
64,192,11692,128,0,12307:0:0:0:0:
448,192,11692,1,0,0:0:0:0:
320,192,12307,1,0,0:0:0:0:
448,192,12615,1,0,0:0:0:0:
192,192,12923,1,0,0:0:0:0:
64,192,12923,1,0,0:0:0:0:
448,192,13230,1,0,0:0:0:0:
64,192,13538,1,0,0:0:0:0:
192,192,13692,1,0,0:0:0:0:
320,192,13846,1,0,0:0:0:0:
64,192,14153,1,0,0:0:0:0:
192,192,14153,128,0,14769:0:0:0:0:
448,192,14769,1,0,0:0:0:0:
64,192,15076,1,0,0:0:0:0:
448,192,15384,1,0,0:0:0:0:
192,192,15384,1,0,0:0:0:0:
320,192,15692,1,0,0:0:0:0:
64,192,16000,1,0,0:0:0:0:
448,192,16153,1,0,0:0:0:0:
192,192,16307,1,0,0:0:0:0:
448,192,16615,128,0,17230:0:0:0:0:
320,192,16615,1,0,0:0:0:0:
64,192,17230,1,0,0:0:0:0:
320,192,17538,1,0,0:0:0:0:
192,192,17846,1,0,0:0:0:0:
64,192,17846,1,0,0:0:0:0:
448,192,18153,1,0,0:0:0:0:
64,192,18461,1,0,0:0:0:0:
320,192,18615,1,0,0:0:0:0:
192,192,18769,1,0,0:0:0:0:
320,192,19076,1,0,0:0:0:0:
448,192,19076,1,0,0:0:0:0:
64,192,19384,1,0,0:0:0:0:
448,192,19692,1,0,0:0:0:0:
192,192,20000,1,0,0:0:0:0:
448,192,20307,1,0,0:0:0:0:
320,192,20307,1,0,0:0:0:0:
64,192,20615,1,0,0:0:0:0:
192,192,20923,1,0,0:0:0:0:
448,192,21076,1,0,0:0:0:0:
320,192,21230,1,0,0:0:0:0:
448,192,21538,128,0,22153:0:0:0:0:
64,192,21538,1,0,0:0:0:0:
192,192,22153,1,0,0:0:0:0:
64,192,22461,1,0,0:0:0:0:
320,192,22769,1,0,0:0:0:0:
448,192,22769,1,0,0:0:0:0:
64,192,23076,1,0,0:0:0:0:
448,192,23384,1,0,0:0:0:0:
192,192,23538,1,0,0:0:0:0:
64,192,23692,1,0,0:0:0:0:
448,192,24000,1,0,0:0:0:0:
320,192,24000,128,0,24615:0:0:0:0:
64,192,24615,1,0,0:0:0:0:
448,192,24923,1,0,0:0:0:0:
64,192,25230,1,0,0:0:0:0:
320,192,25230,1,0,0:0:0:0:
192,192,25538,1,0,0:0:0:0:
448,192,25846,1,0,0:0:0:0:
192,192,26000,1,0,0:0:0:0:
320,192,26153,1,0,0:0:0:0:
64,192,26461,128,0,27076:0:0:0:0:
192,192,26461,1,0,0:0:0:0:
448,192,27076,1,0,0:0:0:0:
192,192,27384,1,0,0:0:0:0:
320,192,27692,1,0,0:0:0:0:
448,192,27692,1,0,0:0:0:0:
64,192,28000,1,0,0:0:0:0:
448,192,28307,1,0,0:0:0:0:
192,192,28461,1,0,0:0:0:0:
320,192,28615,1,0,0:0:0:0:
64,192,28923,1,0,0:0:0:0:
192,192,28923,128,0,29538:0:0:0:0:
448,192,29538,1,0,0:0:0:0:
64,192,29692,1,0,0:0:0:0:
320,192,29846,1,0,0:0:0:0:
192,192,30153,1,0,0:0:0:0:
448,192,30307,1,0,0:0:0:0:
64,192,30461,1,0,0:0:0:0:
192,192,30769,1,0,0:0:0:0:
448,192,30923,1,0,0:0:0:0:
320,192,31076,1,0,0:0:0:0:
448,192,31384,1,0,0:0:0:0:
64,192,31538,1,0,0:0:0:0:
320,192,31692,1,0,0:0:0:0:
192,192,32000,1,0,0:0:0:0:
448,192,32153,1,0,0:0:0:0:
320,192,32307,1,0,0:0:0:0:
448,192,32615,1,0,0:0:0:0:
192,192,32769,1,0,0:0:0:0:
320,192,32923,1,0,0:0:0:0:
192,192,33230,1,0,0:0:0:0:
64,192,33384,1,0,0:0:0:0:
320,192,33538,1,0,0:0:0:0:
448,192,33846,1,0,0:0:0:0:
192,192,34000,1,0,0:0:0:0:
320,192,34153,1,0,0:0:0:0:
192,192,34461,1,0,0:0:0:0:
448,192,34615,1,0,0:0:0:0:
64,192,34769,1,0,0:0:0:0:
320,192,35076,1,0,0:0:0:0:
192,192,35230,1,0,0:0:0:0:
448,192,35384,1,0,0:0:0:0:
64,192,35692,1,0,0:0:0:0:
320,192,35846,1,0,0:0:0:0:
448,192,36000,1,0,0:0:0:0:
192,192,36307,1,0,0:0:0:0:
320,192,36461,1,0,0:0:0:0:
64,192,36615,1,0,0:0:0:0:
320,192,36923,1,0,0:0:0:0:
192,192,37076,1,0,0:0:0:0:
64,192,37230,1,0,0:0:0:0:
192,192,37538,1,0,0:0:0:0:
320,192,37692,1,0,0:0:0:0:
448,192,37846,1,0,0:0:0:0:
64,192,38153,1,0,0:0:0:0:
192,192,38307,1,0,0:0:0:0:
320,192,38461,1,0,0:0:0:0:
192,192,38769,1,0,0:0:0:0:
448,192,38923,1,0,0:0:0:0:
320,192,39076,1,0,0:0:0:0:
64,192,39384,1,0,0:0:0:0:
64,192,39692,1,0,0:0:0:0:
64,192,40000,1,0,0:0:0:0:
64,192,40307,1,0,0:0:0:0:
448,192,40615,1,0,0:0:0:0:
192,192,40769,1,0,0:0:0:0:
320,192,40923,1,0,0:0:0:0:
320,192,41230,1,0,0:0:0:0:
64,192,41538,1,0,0:0:0:0:
448,192,41846,1,0,0:0:0:0:
448,192,42153,1,0,0:0:0:0:
448,192,42461,1,0,0:0:0:0:
448,192,42769,1,0,0:0:0:0:
192,192,43076,1,0,0:0:0:0:
64,192,43230,1,0,0:0:0:0:
320,192,43384,1,0,0:0:0:0:
192,192,43692,1,0,0:0:0:0:
320,192,44000,1,0,0:0:0:0:
192,192,44307,1,0,0:0:0:0:
320,192,44615,1,0,0:0:0:0:
320,192,44923,1,0,0:0:0:0:
320,192,45230,1,0,0:0:0:0:
320,192,45538,1,0,0:0:0:0:
448,192,45692,1,0,0:0:0:0:
192,192,45846,1,0,0:0:0:0:
64,192,46153,1,0,0:0:0:0:
320,192,46461,1,0,0:0:0:0:
448,192,46769,1,0,0:0:0:0:
448,192,47076,1,0,0:0:0:0:
448,192,47384,1,0,0:0:0:0:
448,192,47692,1,0,0:0:0:0:
320,192,48000,1,0,0:0:0:0:
64,192,48153,1,0,0:0:0:0:
192,192,48307,1,0,0:0:0:0:
448,192,48615,1,0,0:0:0:0:
320,192,48923,1,0,0:0:0:0:
192,192,49230,1,0,0:0:0:0:
64,192,49230,1,0,0:0:0:0:
448,192,49538,1,0,0:0:0:0:
64,192,49846,1,0,0:0:0:0:
192,192,50153,1,0,0:0:0:0:
320,192,50461,1,0,0:0:0:0:
64,192,50769,1,0,0:0:0:0:
320,192,51076,1,0,0:0:0:0:
448,192,51076,1,0,0:0:0:0:
192,192,51384,1,0,0:0:0:0:
64,192,51384,1,0,0:0:0:0:
448,192,51692,1,0,0:0:0:0:
320,192,51692,1,0,0:0:0:0:
64,192,52000,1,0,0:0:0:0:
448,192,52307,1,0,0:0:0:0:
64,192,52615,1,0,0:0:0:0:
320,192,52923,1,0,0:0:0:0:
448,192,53230,1,0,0:0:0:0:
192,192,53538,1,0,0:0:0:0:
64,192,53538,1,0,0:0:0:0:
448,192,53846,1,0,0:0:0:0:
320,192,53846,1,0,0:0:0:0:
192,192,54153,1,0,0:0:0:0:
64,192,54153,1,0,0:0:0:0:
448,192,54461,1,0,0:0:0:0:
320,192,54769,1,0,0:0:0:0:
64,192,55076,1,0,0:0:0:0:
448,192,55384,1,0,0:0:0:0:
64,192,55692,1,0,0:0:0:0:
320,192,56000,1,0,0:0:0:0:
448,192,56000,1,0,0:0:0:0:
64,192,56307,1,0,0:0:0:0:
192,192,56307,1,0,0:0:0:0:
448,192,56615,1,0,0:0:0:0:
320,192,56615,1,0,0:0:0:0:
192,192,56923,1,0,0:0:0:0:
64,192,57230,1,0,0:0:0:0:
192,192,57538,1,0,0:0:0:0:
320,192,57846,1,0,0:0:0:0:
448,192,58153,1,0,0:0:0:0:
64,192,58461,1,0,0:0:0:0:
448,192,58461,1,0,0:0:0:0:
192,192,58769,1,0,0:0:0:0:
320,192,58769,1,0,0:0:0:0:
64,192,59076,1,0,0:0:0:0:
448,192,59076,1,0,0:0:0:0:
320,192,59692,1,0,0:0:0:0:
320,192,60307,1,0,0:0:0:0:
448,192,60307,1,0,0:0:0:0:
192,192,60923,1,0,0:0:0:0:
64,192,61538,1,0,0:0:0:0:
320,192,61538,1,0,0:0:0:0:
192,192,62153,1,0,0:0:0:0:
448,192,62769,1,0,0:0:0:0:
192,192,62769,1,0,0:0:0:0:
320,192,63384,1,0,0:0:0:0:
192,192,64000,1,0,0:0:0:0:
64,192,64000,1,0,0:0:0:0:
192,192,64615,1,0,0:0:0:0:
320,192,65230,1,0,0:0:0:0:
448,192,65230,1,0,0:0:0:0:
320,192,65846,1,0,0:0:0:0:
64,192,66461,1,0,0:0:0:0:
448,192,66461,1,0,0:0:0:0:
192,192,67076,1,0,0:0:0:0:
320,192,67692,1,0,0:0:0:0:
64,192,67692,1,0,0:0:0:0:
64,192,68307,1,0,0:0:0:0:
192,192,68307,1,0,0:0:0:0:
448,192,68923,1,0,0:0:0:0:
192,192,68923,1,0,0:0:0:0:
64,192,69538,1,0,0:0:0:0:
320,192,69538,1,0,0:0:0:0:
448,192,70307,1,0,0:0:0:0:
320,192,70307,1,0,0:0:0:0:
192,192,70461,1,0,0:0:0:0:
64,192,70461,1,0,0:0:0:0:
320,192,70769,1,0,0:0:0:0:
448,192,70769,1,0,0:0:0:0:
64,192,71384,1,0,0:0:0:0:
320,192,71384,1,0,0:0:0:0:
448,192,72000,1,0,0:0:0:0:
192,192,72000,1,0,0:0:0:0:
64,192,72769,1,0,0:0:0:0:
192,192,72769,1,0,0:0:0:0:
320,192,72923,1,0,0:0:0:0:
448,192,72923,1,0,0:0:0:0:
192,192,73230,1,0,0:0:0:0:
320,192,73230,1,0,0:0:0:0:
64,192,73538,128,0,73846:0:0:0:0:
448,192,73846,1,0,0:0:0:0:
320,192,73846,1,0,0:0:0:0:
64,192,74461,1,0,0:0:0:0:
448,192,74461,1,0,0:0:0:0:
320,192,75230,1,0,0:0:0:0:
192,192,75230,1,0,0:0:0:0:
64,192,75384,1,0,0:0:0:0:
448,192,75384,1,0,0:0:0:0:
320,192,75692,1,0,0:0:0:0:
448,192,75692,1,0,0:0:0:0:
64,192,76307,1,0,0:0:0:0:
320,192,76307,1,0,0:0:0:0:
192,192,76923,1,0,0:0:0:0:
64,192,76923,1,0,0:0:0:0:
192,192,77692,1,0,0:0:0:0:
64,192,77692,1,0,0:0:0:0:
320,192,77846,1,0,0:0:0:0:
448,192,77846,1,0,0:0:0:0:
64,192,78153,1,0,0:0:0:0:
192,192,78153,1,0,0:0:0:0:
320,192,78461,128,0,78769:0:0:0:0:
64,192,78769,1,0,0:0:0:0:
192,192,78769,1,0,0:0:0:0:
320,192,79076,1,0,0:0:0:0:
64,192,79384,1,0,0:0:0:0:
448,192,79384,1,0,0:0:0:0:
192,192,79692,1,0,0:0:0:0:
320,192,80000,1,0,0:0:0:0:
192,192,80153,1,0,0:0:0:0:
64,192,80153,1,0,0:0:0:0:
320,192,80307,1,0,0:0:0:0:
448,192,80307,1,0,0:0:0:0:
64,192,80615,1,0,0:0:0:0:
448,192,80615,1,0,0:0:0:0:
320,192,80923,1,0,0:0:0:0:
192,192,81230,1,0,0:0:0:0:
64,192,81230,1,0,0:0:0:0:
320,192,81538,1,0,0:0:0:0:
64,192,81846,1,0,0:0:0:0:
448,192,81846,1,0,0:0:0:0:
320,192,82153,1,0,0:0:0:0:
192,192,82461,1,0,0:0:0:0:
320,192,82615,1,0,0:0:0:0:
448,192,82615,1,0,0:0:0:0:
192,192,82769,1,0,0:0:0:0:
64,192,82769,1,0,0:0:0:0:
448,192,83076,1,0,0:0:0:0:
64,192,83076,1,0,0:0:0:0:
320,192,83384,128,0,83692:0:0:0:0:
64,192,83692,1,0,0:0:0:0:
192,192,83692,1,0,0:0:0:0:
320,192,84000,1,0,0:0:0:0:
64,192,84307,1,0,0:0:0:0:
448,192,84307,1,0,0:0:0:0:
320,192,84615,1,0,0:0:0:0:
192,192,84769,1,0,0:0:0:0:
64,192,84923,1,0,0:0:0:0:
448,192,85076,1,0,0:0:0:0:
320,192,85076,1,0,0:0:0:0:
64,192,85230,1,0,0:0:0:0:
192,192,85230,1,0,0:0:0:0:
192,192,85538,1,0,0:0:0:0:
320,192,85538,1,0,0:0:0:0:
448,192,85846,1,0,0:0:0:0:
192,192,86000,1,0,0:0:0:0:
64,192,86153,1,0,0:0:0:0:
320,192,86153,1,0,0:0:0:0:
448,192,86461,1,0,0:0:0:0:
192,192,86769,1,0,0:0:0:0:
320,192,86769,1,0,0:0:0:0:
64,192,87076,1,0,0:0:0:0:
448,192,87230,1,0,0:0:0:0:
320,192,87384,1,0,0:0:0:0:
192,192,87538,1,0,0:0:0:0:
64,192,87538,1,0,0:0:0:0:
320,192,87692,1,0,0:0:0:0:
448,192,87692,1,0,0:0:0:0:
192,192,88000,1,0,0:0:0:0:
320,192,88153,1,0,0:0:0:0:
448,192,88307,128,0,88615:0:0:0:0:
64,192,88615,1,0,0:0:0:0:
320,192,88769,1,0,0:0:0:0:
192,192,88923,1,0,0:0:0:0:
320,192,89230,1,0,0:0:0:0:
64,192,89384,1,0,0:0:0:0:
192,192,89538,1,0,0:0:0:0:
448,192,89846,1,0,0:0:0:0:
64,192,90000,1,0,0:0:0:0:
320,192,90153,1,0,0:0:0:0:
192,192,90461,1,0,0:0:0:0:
448,192,90615,1,0,0:0:0:0:
64,192,90769,128,0,93230:0:0:0:0:
