osu file format v14

[General]
AudioFilename: What the word crab means to me.mov.mp3
AudioLeadIn: 0
PreviewTime: -1
Countdown: 1
SampleSet: None
StackLeniency: 0.7
Mode: 0
LetterboxInBreaks: 1
WidescreenStoryboard: 0

[Editor]
DistanceSpacing: 1
BeatDivisor: 4
GridSize: 4
TimelineZoom: 1

[Metadata]
Title:what the word crab means to me
TitleUnicode:what the word crab means to me
Artist:crab lady
ArtistUnicode:crab lady
Creator:IDAN
Version:alejandro and niche
Source:macwooky
Tags:bill cosby, bill, cosby, trap
BeatmapID:661926
BeatmapSetID:294416

[Difficulty]
HPDrainRate:1
CircleSize:4
OverallDifficulty:7
ApproachRate:9
SliderMultiplier:0.400000005960464
SliderTickRate:1

[Events]
//Background and Video events
0,0,"crab.jpg",0,0
//Break Periods
//Storyboard Layer 0 (Background)
//Storyboard Layer 1 (Fail)
//Storyboard Layer 2 (Pass)
//Storyboard Layer 3 (Foreground)
//Storyboard Sound Samples

[TimingPoints]
1244.94082840237,333.333333333333,4,1,0,100,1,0

[HitObjects]
52,56,8244,5,0,0:0:0:0:
120,56,8411,1,0,0:0:0:0:
160,56,8494,1,0,0:0:0:0:
200,56,8578,1,0,0:0:0:0:
240,56,8661,1,0,0:0:0:0:
280,56,8744,1,0,0:0:0:0:
320,60,8828,1,0,0:0:0:0:
360,60,8911,1,0,0:0:0:0:
360,96,8994,1,0,0:0:0:0:
360,144,9078,1,0,0:0:0:0:
328,148,9161,1,0,0:0:0:0:
288,148,9244,1,0,0:0:0:0:
252,148,9328,1,0,0:0:0:0:
252,188,9411,1,0,0:0:0:0:
292,192,9494,1,0,0:0:0:0:
332,192,9578,1,0,0:0:0:0:
336,160,9661,1,0,0:0:0:0:
336,116,9744,1,0,0:0:0:0:
296,120,9828,1,0,0:0:0:0:
256,124,9911,1,0,0:0:0:0:
216,124,9994,1,0,0:0:0:0:
180,128,10078,1,0,0:0:0:0:
140,128,10161,1,0,0:0:0:0:
120,324,10328,1,0,0:0:0:0:
384,320,10494,1,0,0:0:0:0:
256,40,10661,1,0,0:0:0:0:
88,100,10828,1,0,0:0:0:0:
400,92,10994,1,0,0:0:0:0:
256,344,11161,1,0,0:0:0:0:
204,148,11328,1,0,0:0:0:0:
304,148,11494,1,0,0:0:0:0:
256,244,11661,1,0,0:0:0:0:
384,232,11828,1,0,0:0:0:0:
304,328,11994,1,0,0:0:0:0:
448,324,12161,1,0,0:0:0:0:
372,156,12328,1,0,0:0:0:0:
464,36,12494,1,0,0:0:0:0:
296,40,12661,1,0,0:0:0:0:
144,192,12828,1,0,0:0:0:0:
408,188,12994,1,0,0:0:0:0:
304,80,13161,1,0,0:0:0:0:
160,304,13328,1,0,0:0:0:0:
412,164,13494,1,0,0:0:0:0:
112,80,13744,1,0,0:0:0:0:
256,280,13994,1,0,0:0:0:0:
432,176,14161,1,0,0:0:0:0:
344,128,14328,1,0,0:0:0:0:
156,140,14744,1,0,0:0:0:0:
192,252,14994,1,0,0:0:0:0:
336,268,15244,1,0,0:0:0:0:
376,124,15494,1,0,0:0:0:0:
368,120,15578,1,0,0:0:0:0:
344,104,15661,1,0,0:0:0:0:
256,112,15828,1,0,0:0:0:0:
200,168,15994,1,0,0:0:0:0:
188,248,16244,1,0,0:0:0:0:
212,268,16328,1,0,0:0:0:0:
240,280,16411,1,0,0:0:0:0:
264,284,16494,1,0,0:0:0:0:
296,288,16578,1,0,0:0:0:0:
328,272,16661,1,0,0:0:0:0:
360,200,16744,1,0,0:0:0:0:
352,176,16828,1,0,0:0:0:0:
332,160,16911,1,0,0:0:0:0:
304,148,16994,1,0,0:0:0:0:
268,144,17078,1,0,0:0:0:0:
248,152,17161,1,0,0:0:0:0:
224,160,17244,1,0,0:0:0:0:
208,176,17328,1,0,0:0:0:0:
200,196,17411,1,0,0:0:0:0:
200,216,17494,1,0,0:0:0:0:
216,240,17578,1,0,0:0:0:0:
236,256,17661,1,0,0:0:0:0:
264,264,17744,1,0,0:0:0:0:
292,268,17828,1,0,0:0:0:0:
320,256,17911,1,0,0:0:0:0:
340,240,17994,1,0,0:0:0:0:
360,200,18078,1,0,0:0:0:0:
356,188,18161,1,0,0:0:0:0:
352,160,18244,1,0,0:0:0:0:
336,148,18328,1,0,0:0:0:0:
328,144,18411,1,0,0:0:0:0:
300,136,18494,1,0,0:0:0:0:
264,136,18578,1,0,0:0:0:0:
232,136,18661,1,0,0:0:0:0:
216,152,18744,1,0,0:0:0:0:
204,168,18828,1,0,0:0:0:0:
192,188,18911,1,0,0:0:0:0:
184,208,18994,1,0,0:0:0:0:
184,232,19078,1,0,0:0:0:0:
184,252,19161,1,0,0:0:0:0:
200,264,19244,1,0,0:0:0:0:
220,280,19328,1,0,0:0:0:0:
272,296,19411,1,0,0:0:0:0:
320,288,19494,1,0,0:0:0:0:
344,276,19578,1,0,0:0:0:0:
360,248,19661,1,0,0:0:0:0:
364,208,19744,1,0,0:0:0:0:
360,176,19828,1,0,0:0:0:0:
340,156,19911,1,0,0:0:0:0:
316,144,19994,1,0,0:0:0:0:
288,136,20078,1,0,0:0:0:0:
264,136,20161,1,0,0:0:0:0:
232,136,20244,1,0,0:0:0:0:
212,144,20328,1,0,0:0:0:0:
184,160,20411,1,0,0:0:0:0:
160,176,20494,1,0,0:0:0:0:
152,196,20578,1,0,0:0:0:0:
152,224,20661,1,0,0:0:0:0:
168,268,20744,1,0,0:0:0:0:
188,288,20828,1,0,0:0:0:0:
212,304,20911,1,0,0:0:0:0:
240,308,20994,1,0,0:0:0:0:
272,312,21078,1,0,0:0:0:0:
304,312,21161,1,0,0:0:0:0:
336,304,21244,1,0,0:0:0:0:
356,280,21328,1,0,0:0:0:0:
360,248,21411,1,0,0:0:0:0:
364,200,21494,1,0,0:0:0:0:
360,188,21578,1,0,0:0:0:0:
336,176,21661,1,0,0:0:0:0:
312,168,21744,1,0,0:0:0:0:
272,164,21828,1,0,0:0:0:0:
244,168,21911,1,0,0:0:0:0:
228,172,21994,1,0,0:0:0:0:
204,184,22078,1,0,0:0:0:0:
180,200,22161,1,0,0:0:0:0:
176,224,22244,1,0,0:0:0:0:
184,252,22328,1,0,0:0:0:0:
196,272,22411,1,0,0:0:0:0:
220,288,22494,1,0,0:0:0:0:
252,296,22578,1,0,0:0:0:0:
276,296,22661,1,0,0:0:0:0:
312,288,22744,1,0,0:0:0:0:
324,264,22828,1,0,0:0:0:0:
328,244,22911,1,0,0:0:0:0:
320,228,22994,1,0,0:0:0:0:
316,212,23078,1,0,0:0:0:0:
300,200,23161,1,0,0:0:0:0:
280,188,23244,1,0,0:0:0:0:
252,176,23328,1,0,0:0:0:0:
220,164,23411,1,0,0:0:0:0:
180,160,23494,1,0,0:0:0:0:
144,124,23578,1,0,0:0:0:0:
168,84,23661,1,0,0:0:0:0:
228,64,23828,1,0,0:0:0:0:
256,64,23911,1,0,0:0:0:0:
332,96,24078,1,0,0:0:0:0:
340,128,24161,1,0,0:0:0:0:
340,156,24244,1,0,0:0:0:0:
328,188,24328,1,0,0:0:0:0:
280,216,24411,1,0,0:0:0:0:
252,232,24494,1,0,0:0:0:0:
192,256,24578,1,0,0:0:0:0:
136,204,24994,1,0,0:0:0:0:
168,224,25078,1,0,0:0:0:0:
200,248,25161,1,0,0:0:0:0:
220,252,25244,1,0,0:0:0:0:
276,240,25328,1,0,0:0:0:0:
296,216,25411,1,0,0:0:0:0:
300,192,25494,1,0,0:0:0:0:
308,172,25578,1,0,0:0:0:0:
328,160,25661,1,0,0:0:0:0:
356,152,25744,1,0,0:0:0:0:
360,100,25828,1,0,0:0:0:0:
328,88,25911,1,0,0:0:0:0:
296,80,25994,1,0,0:0:0:0:
268,80,26078,1,0,0:0:0:0:
228,84,26161,1,0,0:0:0:0:
200,96,26244,1,0,0:0:0:0:
184,104,26328,1,0,0:0:0:0:
168,128,26411,1,0,0:0:0:0:
160,144,26494,1,0,0:0:0:0:
168,184,26578,1,0,0:0:0:0:
176,208,26661,1,0,0:0:0:0:
184,224,26744,1,0,0:0:0:0:
228,256,26828,1,0,0:0:0:0:
244,264,26911,1,0,0:0:0:0:
264,276,26994,1,0,0:0:0:0:
288,284,27078,1,0,0:0:0:0:
304,292,27161,1,0,0:0:0:0:
336,296,27244,1,0,0:0:0:0:
356,292,27328,1,0,0:0:0:0:
372,284,27411,1,0,0:0:0:0:
376,264,27494,1,0,0:0:0:0:
384,248,27578,1,0,0:0:0:0:
400,224,27661,1,0,0:0:0:0:
408,216,27744,1,0,0:0:0:0:
420,196,27828,1,0,0:0:0:0:
416,176,27911,1,0,0:0:0:0:
404,160,27994,1,0,0:0:0:0:
360,136,28078,1,0,0:0:0:0:
344,120,28161,1,0,0:0:0:0:
344,108,28244,1,0,0:0:0:0:
364,104,28328,1,0,0:0:0:0:
380,104,28411,1,0,0:0:0:0:
400,136,28494,1,0,0:0:0:0:
400,164,28578,1,0,0:0:0:0:
384,188,28661,1,0,0:0:0:0:
344,196,28744,1,0,0:0:0:0:
320,192,28828,1,0,0:0:0:0:
272,164,28911,1,0,0:0:0:0:
260,144,28994,1,0,0:0:0:0:
236,132,29078,1,0,0:0:0:0:
216,128,29161,1,0,0:0:0:0:
184,136,29244,1,0,0:0:0:0:
168,148,29328,1,0,0:0:0:0:
156,164,29411,1,0,0:0:0:0:
152,180,29494,1,0,0:0:0:0:
148,212,29578,1,0,0:0:0:0:
156,232,29661,1,0,0:0:0:0:
184,256,29744,1,0,0:0:0:0:
208,272,29828,1,0,0:0:0:0:
228,280,29911,1,0,0:0:0:0:
256,284,29994,1,0,0:0:0:0:
280,288,30078,1,0,0:0:0:0:
340,284,30161,1,0,0:0:0:0:
368,276,30244,1,0,0:0:0:0:
384,256,30328,1,0,0:0:0:0:
392,236,30411,1,0,0:0:0:0:
400,208,30494,1,0,0:0:0:0:
396,188,30578,1,0,0:0:0:0:
388,168,30661,1,0,0:0:0:0:
380,156,30744,1,0,0:0:0:0:
360,132,30828,1,0,0:0:0:0:
344,112,30911,1,0,0:0:0:0:
320,92,30994,1,0,0:0:0:0:
300,84,31078,1,0,0:0:0:0:
284,84,31161,1,0,0:0:0:0:
264,84,31244,1,0,0:0:0:0:
248,84,31328,1,0,0:0:0:0:
224,88,31411,1,0,0:0:0:0:
208,92,31494,1,0,0:0:0:0:
184,104,31578,1,0,0:0:0:0:
172,116,31661,1,0,0:0:0:0:
164,132,31744,1,0,0:0:0:0:
152,152,31828,1,0,0:0:0:0:
152,172,31911,1,0,0:0:0:0:
152,192,31994,1,0,0:0:0:0:
156,216,32078,1,0,0:0:0:0:
168,232,32161,1,0,0:0:0:0:
208,268,32244,1,0,0:0:0:0:
176,128,32578,1,0,0:0:0:0:
192,136,32661,1,0,0:0:0:0:
224,168,32744,1,0,0:0:0:0:
232,204,32828,1,0,0:0:0:0:
208,224,32911,1,0,0:0:0:0:
156,160,32994,1,0,0:0:0:0:
164,128,33078,1,0,0:0:0:0:
228,108,33411,1,0,0:0:0:0:
248,108,33494,1,0,0:0:0:0:
272,116,33578,1,0,0:0:0:0:
320,160,33661,1,0,0:0:0:0:
328,184,33744,1,0,0:0:0:0:
332,208,33828,1,0,0:0:0:0:
336,224,33911,1,0,0:0:0:0:
360,240,33994,1,0,0:0:0:0:
384,232,34078,1,0,0:0:0:0:
400,176,34161,1,0,0:0:0:0:
400,152,34244,1,0,0:0:0:0:
392,128,34328,1,0,0:0:0:0:
380,104,34411,1,0,0:0:0:0:
360,84,34494,1,0,0:0:0:0:
336,72,34578,1,0,0:0:0:0:
304,72,34661,1,0,0:0:0:0:
248,80,34744,1,0,0:0:0:0:
232,88,34828,1,0,0:0:0:0:
212,96,34911,1,0,0:0:0:0:
192,108,34994,1,0,0:0:0:0:
172,124,35078,1,0,0:0:0:0:
156,144,35161,1,0,0:0:0:0:
152,156,35244,1,0,0:0:0:0:
152,204,35328,1,0,0:0:0:0:
160,224,35411,1,0,0:0:0:0:
176,240,35494,1,0,0:0:0:0:
196,256,35578,1,0,0:0:0:0:
228,264,35661,1,0,0:0:0:0:
260,272,35744,1,0,0:0:0:0:
288,280,35828,1,0,0:0:0:0:
320,272,35911,1,0,0:0:0:0:
344,260,35994,1,0,0:0:0:0:
376,212,36078,1,0,0:0:0:0:
376,184,36161,1,0,0:0:0:0:
372,164,36244,1,0,0:0:0:0:
356,136,36328,1,0,0:0:0:0:
344,116,36411,1,0,0:0:0:0:
320,100,36494,1,0,0:0:0:0:
292,96,36578,1,0,0:0:0:0:
260,96,36661,1,0,0:0:0:0:
232,96,36744,1,0,0:0:0:0:
204,100,36828,1,0,0:0:0:0:
184,112,36911,1,0,0:0:0:0:
168,136,36994,1,0,0:0:0:0:
160,168,37078,1,0,0:0:0:0:
168,196,37161,1,0,0:0:0:0:
184,220,37244,1,0,0:0:0:0:
204,248,37328,1,0,0:0:0:0:
232,284,37411,1,0,0:0:0:0:
248,304,37494,1,0,0:0:0:0:
272,324,37578,1,0,0:0:0:0:
372,340,37661,1,0,0:0:0:0:
400,324,37744,1,0,0:0:0:0:
420,304,37828,1,0,0:0:0:0:
440,272,37911,1,0,0:0:0:0:
444,216,37994,1,0,0:0:0:0:
428,160,38078,1,0,0:0:0:0:
352,140,38328,1,0,0:0:0:0:
332,128,38411,1,0,0:0:0:0:
284,104,38494,1,0,0:0:0:0:
240,92,38578,1,0,0:0:0:0:
184,96,38661,1,0,0:0:0:0:
152,104,38744,1,0,0:0:0:0:
120,132,38828,1,0,0:0:0:0:
116,160,38911,1,0,0:0:0:0:
112,200,38994,1,0,0:0:0:0:
116,236,39078,1,0,0:0:0:0:
136,268,39161,1,0,0:0:0:0:
180,280,39244,1,0,0:0:0:0:
196,268,39328,1,0,0:0:0:0:
184,236,39411,1,0,0:0:0:0:
164,188,39494,1,0,0:0:0:0:
196,168,39578,1,0,0:0:0:0:
228,160,39661,1,0,0:0:0:0:
264,160,39744,1,0,0:0:0:0:
296,180,39828,1,0,0:0:0:0:
312,204,39911,1,0,0:0:0:0:
332,232,39994,1,0,0:0:0:0:
360,252,40078,1,0,0:0:0:0:
408,240,40161,1,0,0:0:0:0:
408,204,40244,1,0,0:0:0:0:
400,180,40328,1,0,0:0:0:0:
384,160,40411,1,0,0:0:0:0:
364,128,40494,1,0,0:0:0:0:
336,104,40578,1,0,0:0:0:0:
308,88,40661,1,0,0:0:0:0:
284,84,40744,1,0,0:0:0:0:
264,88,40828,1,0,0:0:0:0:
208,104,40994,1,0,0:0:0:0:
184,124,41078,1,0,0:0:0:0:
176,148,41161,1,0,0:0:0:0:
176,176,41244,1,0,0:0:0:0:
180,204,41328,1,0,0:0:0:0:
208,232,41411,1,0,0:0:0:0:
240,256,41494,1,0,0:0:0:0:
268,264,41578,1,0,0:0:0:0:
308,272,41661,1,0,0:0:0:0:
320,264,41744,1,0,0:0:0:0:
300,256,41828,1,0,0:0:0:0:
264,208,41911,1,0,0:0:0:0:
256,184,41994,1,0,0:0:0:0:
252,156,42078,1,0,0:0:0:0:
264,132,42161,1,0,0:0:0:0:
300,116,42244,1,0,0:0:0:0:
340,136,42328,1,0,0:0:0:0:
352,176,42411,1,0,0:0:0:0:
356,208,42494,1,0,0:0:0:0:
392,260,42661,1,0,0:0:0:0:
412,284,42744,1,0,0:0:0:0:
448,276,42828,1,0,0:0:0:0:
464,244,42911,1,0,0:0:0:0:
464,208,42994,1,0,0:0:0:0:
456,168,43078,1,0,0:0:0:0:
444,144,43161,1,0,0:0:0:0:
412,120,43244,1,0,0:0:0:0:
380,100,43328,1,0,0:0:0:0:
344,92,43411,1,0,0:0:0:0:
280,88,43494,1,0,0:0:0:0:
260,92,43578,1,0,0:0:0:0:
232,92,43661,1,0,0:0:0:0:
192,96,43744,1,0,0:0:0:0:
152,112,43828,1,0,0:0:0:0:
116,136,43911,1,0,0:0:0:0:
108,156,43994,1,0,0:0:0:0:
104,188,44078,1,0,0:0:0:0:
112,232,44244,1,0,0:0:0:0:
136,264,44328,1,0,0:0:0:0:
160,284,44411,1,0,0:0:0:0:
200,308,44494,1,0,0:0:0:0:
240,324,44578,1,0,0:0:0:0:
276,340,44661,1,0,0:0:0:0:
312,336,44744,1,0,0:0:0:0:
360,328,44828,1,0,0:0:0:0:
384,312,44911,1,0,0:0:0:0:
408,264,44994,1,0,0:0:0:0:
408,236,45078,1,0,0:0:0:0:
400,216,45161,1,0,0:0:0:0:
388,192,45244,1,0,0:0:0:0:
360,156,45328,1,0,0:0:0:0:
336,140,45411,1,0,0:0:0:0:
300,120,45494,1,0,0:0:0:0:
264,104,45578,1,0,0:0:0:0:
224,100,45661,1,0,0:0:0:0:
208,96,45744,1,0,0:0:0:0:
184,84,45828,1,0,0:0:0:0:
272,40,45994,1,0,0:0:0:0:
336,56,46161,1,0,0:0:0:0:
224,140,46328,1,0,0:0:0:0:
244,172,46411,1,0,0:0:0:0:
252,224,46494,1,0,0:0:0:0:
232,256,46578,1,0,0:0:0:0:
184,268,46661,1,0,0:0:0:0:
144,256,46744,1,0,0:0:0:0:
84,196,46828,1,0,0:0:0:0:
80,160,46911,1,0,0:0:0:0:
116,128,46994,1,0,0:0:0:0:
156,104,47078,1,0,0:0:0:0:
192,100,47161,1,0,0:0:0:0:
240,112,47244,1,0,0:0:0:0:
268,132,47328,1,0,0:0:0:0:
288,160,47411,1,0,0:0:0:0:
332,192,47494,1,0,0:0:0:0:
364,212,47578,1,0,0:0:0:0:
368,248,47661,1,0,0:0:0:0:
336,268,47744,1,0,0:0:0:0:
280,284,47828,1,0,0:0:0:0:
224,296,47911,1,0,0:0:0:0:
172,276,47994,1,0,0:0:0:0:
156,252,48078,1,0,0:0:0:0:
148,208,48161,1,0,0:0:0:0:
160,160,48244,1,0,0:0:0:0:
184,136,48328,1,0,0:0:0:0:
244,120,48411,1,0,0:0:0:0:
280,120,48494,1,0,0:0:0:0:
308,140,48578,1,0,0:0:0:0:
336,172,48661,1,0,0:0:0:0:
344,200,48744,1,0,0:0:0:0:
364,232,48828,1,0,0:0:0:0:
392,244,48911,1,0,0:0:0:0:
424,224,48994,1,0,0:0:0:0:
440,192,49078,1,0,0:0:0:0:
444,160,49161,1,0,0:0:0:0:
448,120,49244,1,0,0:0:0:0:
432,104,49328,1,0,0:0:0:0:
404,84,49411,1,0,0:0:0:0:
364,72,49494,1,0,0:0:0:0:
336,72,49578,1,0,0:0:0:0:
308,76,49661,1,0,0:0:0:0:
272,80,49744,1,0,0:0:0:0:
236,80,49828,1,0,0:0:0:0:
208,76,49911,1,0,0:0:0:0:
168,80,49994,1,0,0:0:0:0:
116,100,50078,1,0,0:0:0:0:
96,120,50161,1,0,0:0:0:0:
80,152,50244,1,0,0:0:0:0:
72,176,50328,1,0,0:0:0:0:
68,208,50411,1,0,0:0:0:0:
76,240,50494,1,0,0:0:0:0:
104,276,50578,1,0,0:0:0:0:
152,296,50661,1,0,0:0:0:0:
188,308,50744,1,0,0:0:0:0:
240,316,50828,1,0,0:0:0:0:
288,324,50911,1,0,0:0:0:0:
332,320,50994,1,0,0:0:0:0:
348,312,51078,1,0,0:0:0:0:
364,296,51161,1,0,0:0:0:0:
376,272,51244,1,0,0:0:0:0:
388,236,51328,1,0,0:0:0:0:
392,204,51411,1,0,0:0:0:0:
392,180,51494,1,0,0:0:0:0:
392,140,51578,1,0,0:0:0:0:
360,88,51661,1,0,0:0:0:0:
332,76,51744,1,0,0:0:0:0:
304,76,51828,1,0,0:0:0:0:
264,76,51911,1,0,0:0:0:0:
220,80,51994,1,0,0:0:0:0:
188,96,52078,1,0,0:0:0:0:
160,112,52161,1,0,0:0:0:0:
136,136,52244,1,0,0:0:0:0:
124,184,52411,1,0,0:0:0:0:
128,208,52494,1,0,0:0:0:0:
144,240,52578,1,0,0:0:0:0:
172,272,52661,1,0,0:0:0:0:
216,312,52744,1,0,0:0:0:0:
264,320,52828,1,0,0:0:0:0:
312,320,52911,1,0,0:0:0:0:
364,296,52994,1,0,0:0:0:0:
384,268,53078,1,0,0:0:0:0:
396,224,53161,1,0,0:0:0:0:
412,192,53244,1,0,0:0:0:0:
404,152,53328,1,0,0:0:0:0:
364,124,53411,1,0,0:0:0:0:
336,116,53494,1,0,0:0:0:0:
304,116,53578,1,0,0:0:0:0:
252,120,53661,1,0,0:0:0:0:
220,132,53744,1,0,0:0:0:0:
164,192,53911,1,0,0:0:0:0:
156,220,53994,1,0,0:0:0:0:
168,256,54078,1,0,0:0:0:0:
192,280,54161,1,0,0:0:0:0:
264,276,54244,1,0,0:0:0:0:
312,192,54328,1,0,0:0:0:0:
344,144,54411,1,0,0:0:0:0:
368,120,54494,1,0,0:0:0:0:
416,136,54578,1,0,0:0:0:0:
440,212,54661,1,0,0:0:0:0:
376,260,54744,1,0,0:0:0:0:
296,280,54828,1,0,0:0:0:0:
48,124,55078,2,0,B|488:340|444:44|40:332|496:16|44:28|484:364|220:124|200:64|356:176|404:144|372:120|352:96|296:112|52:124|404:60|180:64|128:24|72:32|56:76|156:120|224:128|204:144|120:128|48:128|260:296|364:332|448:352|316:364|180:360|104:352|108:288|128:248|160:220|176:200|296:188|496:224|480:264|440:280|368:316|408:280,1,1140.00001698732
432,72,59078,2,0,B|464:112|472:152|460:184|416:224|352:236|316:200|296:160|296:120|312:92|336:72|372:64|416:68|432:68|436:72|424:64,1,410.000006109476
280,40,59161,2,0,B|320:84|316:136|280:180|224:192|176:144|132:112|144:72|176:48|224:32|260:36|260:36,1,360.000005364418
304,152,59244,2,0,L|156:372,1,260.000003874302
104,100,60661,1,0,0:0:0:0:
180,100,60828,1,0,0:0:0:0:
208,104,60994,1,0,0:0:0:0:
232,112,61161,1,0,0:0:0:0:
288,128,61328,1,0,0:0:0:0:
324,164,61411,1,0,0:0:0:0:
332,204,61494,1,0,0:0:0:0:
304,240,61578,1,0,0:0:0:0:
232,268,61661,1,0,0:0:0:0:
184,276,61744,1,0,0:0:0:0:
132,244,61828,1,0,0:0:0:0:
136,184,61911,1,0,0:0:0:0:
156,148,61994,1,0,0:0:0:0:
192,124,62078,1,0,0:0:0:0:
232,112,62161,1,0,0:0:0:0:
268,100,62244,1,0,0:0:0:0:
296,96,62328,1,0,0:0:0:0:
352,144,62411,1,0,0:0:0:0:
376,172,62494,1,0,0:0:0:0:
404,188,62578,1,0,0:0:0:0:
420,164,62661,1,0,0:0:0:0:
432,136,62744,1,0,0:0:0:0:
428,116,62828,1,0,0:0:0:0:
392,96,62911,1,0,0:0:0:0:
356,92,62994,1,0,0:0:0:0:
296,96,63078,1,0,0:0:0:0:
268,100,63161,1,0,0:0:0:0:
224,128,63244,1,0,0:0:0:0:
212,160,63328,1,0,0:0:0:0:
200,200,63411,1,0,0:0:0:0:
136,220,63494,1,0,0:0:0:0:
112,192,63578,1,0,0:0:0:0:
116,152,63661,1,0,0:0:0:0:
148,120,63744,1,0,0:0:0:0:
200,112,63828,1,0,0:0:0:0:
256,128,63911,1,0,0:0:0:0:
280,160,63994,1,0,0:0:0:0:
312,196,64078,1,0,0:0:0:0:
352,220,64161,1,0,0:0:0:0:
384,228,64244,1,0,0:0:0:0:
416,192,64328,1,0,0:0:0:0:
420,140,64411,1,0,0:0:0:0:
396,112,64494,1,0,0:0:0:0:
364,96,64578,1,0,0:0:0:0:
320,96,64661,1,0,0:0:0:0:
288,96,64744,1,0,0:0:0:0:
260,104,64828,1,0,0:0:0:0:
232,120,64911,1,0,0:0:0:0:
188,168,64994,1,0,0:0:0:0:
184,208,65078,1,0,0:0:0:0:
208,248,65161,1,0,0:0:0:0:
224,256,65244,1,0,0:0:0:0:
276,268,65328,1,0,0:0:0:0:
324,260,65411,1,0,0:0:0:0:
348,228,65494,1,0,0:0:0:0:
356,192,65578,1,0,0:0:0:0:
352,164,65661,1,0,0:0:0:0:
336,132,65744,1,0,0:0:0:0:
312,120,65828,1,0,0:0:0:0:
260,112,65911,1,0,0:0:0:0:
216,116,65994,1,0,0:0:0:0:
184,128,66078,1,0,0:0:0:0:
164,148,66161,1,0,0:0:0:0:
144,192,66244,1,0,0:0:0:0:
156,232,66328,1,0,0:0:0:0:
184,248,66411,1,0,0:0:0:0:
232,264,66494,1,0,0:0:0:0:
280,264,66578,1,0,0:0:0:0:
312,232,66661,1,0,0:0:0:0:
320,208,66744,1,0,0:0:0:0:
320,188,66828,1,0,0:0:0:0:
340,156,66911,1,0,0:0:0:0:
372,140,66994,1,0,0:0:0:0:
384,112,67078,1,0,0:0:0:0:
372,88,67161,1,0,0:0:0:0:
316,72,67244,1,0,0:0:0:0:
252,76,67328,1,0,0:0:0:0:
216,88,67411,1,0,0:0:0:0:
192,104,67494,1,0,0:0:0:0:
176,120,67578,1,0,0:0:0:0:
156,200,67661,1,0,0:0:0:0:
180,232,67744,1,0,0:0:0:0:
248,264,67828,1,0,0:0:0:0:
280,264,67911,1,0,0:0:0:0:
312,256,67994,1,0,0:0:0:0:
340,208,68078,1,0,0:0:0:0:
344,176,68161,1,0,0:0:0:0:
328,152,68244,1,0,0:0:0:0:
312,140,68328,1,0,0:0:0:0:
276,128,68411,1,0,0:0:0:0:
220,136,68578,1,0,0:0:0:0:
192,156,68661,1,0,0:0:0:0:
176,180,68744,1,0,0:0:0:0:
168,216,68828,1,0,0:0:0:0:
168,248,68911,1,0,0:0:0:0:
184,268,68994,1,0,0:0:0:0:
240,284,69161,1,0,0:0:0:0:
264,280,69244,1,0,0:0:0:0:
288,272,69328,1,0,0:0:0:0:
312,224,69411,1,0,0:0:0:0:
312,200,69494,1,0,0:0:0:0:
304,176,69578,1,0,0:0:0:0:
300,152,69661,1,0,0:0:0:0:
292,136,69744,1,0,0:0:0:0:
276,112,69828,1,0,0:0:0:0:
248,96,69911,1,0,0:0:0:0:
208,96,69994,1,0,0:0:0:0:
196,108,70078,1,0,0:0:0:0:
180,132,70161,1,0,0:0:0:0:
168,168,70244,1,0,0:0:0:0:
176,200,70328,1,0,0:0:0:0:
196,228,70411,1,0,0:0:0:0:
232,244,70494,1,0,0:0:0:0:
252,248,70578,1,0,0:0:0:0:
328,248,70828,1,0,0:0:0:0:
356,216,70911,1,0,0:0:0:0:
316,152,71244,1,0,0:0:0:0:
252,168,71578,1,0,0:0:0:0:
216,184,71661,1,0,0:0:0:0:
204,192,71744,1,0,0:0:0:0:
168,216,71828,1,0,0:0:0:0:
168,240,71911,1,0,0:0:0:0:
172,276,71994,1,0,0:0:0:0:
208,296,72078,1,0,0:0:0:0:
232,304,72161,1,0,0:0:0:0:
300,260,72328,1,0,0:0:0:0:
312,244,72411,1,0,0:0:0:0:
324,228,72494,1,0,0:0:0:0:
336,208,72578,1,0,0:0:0:0:
352,160,72828,5,0,0:0:0:0:
360,136,72911,1,0,0:0:0:0:
280,120,73244,1,0,0:0:0:0:
264,120,73328,1,0,0:0:0:0:
248,128,73411,1,0,0:0:0:0:
236,144,73494,1,0,0:0:0:0:
192,204,73911,1,0,0:0:0:0:
200,240,73994,1,0,0:0:0:0:
252,280,74078,1,0,0:0:0:0:
288,280,74161,1,0,0:0:0:0:
316,272,74244,1,0,0:0:0:0:
344,264,74328,1,0,0:0:0:0:
376,176,74494,1,0,0:0:0:0:
388,144,74578,1,0,0:0:0:0:
320,112,74828,1,0,0:0:0:0:
312,116,74911,1,0,0:0:0:0:
296,112,74994,1,0,0:0:0:0:
272,108,75078,1,0,0:0:0:0:
244,112,75161,1,0,0:0:0:0:
148,128,75328,1,0,0:0:0:0:
128,132,75411,1,0,0:0:0:0:
112,144,75494,1,0,0:0:0:0:
96,172,75578,1,0,0:0:0:0:
80,196,75661,1,0,0:0:0:0:
72,232,75744,1,0,0:0:0:0:
192,280,75911,5,0,0:0:0:0:
316,284,75994,1,0,0:0:0:0:
368,280,76078,1,0,0:0:0:0:
404,240,76161,1,0,0:0:0:0:
404,216,76244,1,0,0:0:0:0:
400,188,76328,1,0,0:0:0:0:
296,96,76411,1,0,0:0:0:0:
268,96,76494,1,0,0:0:0:0:
224,112,76578,1,0,0:0:0:0:
208,112,76661,1,0,0:0:0:0:
168,120,76744,1,0,0:0:0:0:
144,128,76828,1,0,0:0:0:0:
136,132,76911,1,0,0:0:0:0:
224,272,76994,1,0,0:0:0:0:
340,292,77078,1,0,0:0:0:0:
360,288,77161,1,0,0:0:0:0:
384,280,77244,1,0,0:0:0:0:
412,212,77328,1,0,0:0:0:0:
408,188,77411,1,0,0:0:0:0:
400,168,77494,1,0,0:0:0:0:
396,152,77578,1,0,0:0:0:0:
376,132,77661,1,0,0:0:0:0:
328,100,77744,1,0,0:0:0:0:
36,168,77911,1,0,0:0:0:0:
144,192,77994,1,0,0:0:0:0:
164,192,78078,1,0,0:0:0:0:
168,196,78161,1,0,0:0:0:0:
184,200,78244,1,0,0:0:0:0:
212,200,78328,1,0,0:0:0:0:
240,184,78411,1,0,0:0:0:0:
272,152,78494,1,0,0:0:0:0:
296,120,78578,1,0,0:0:0:0:
312,108,78661,1,0,0:0:0:0:
340,104,78744,1,0,0:0:0:0:
360,124,78828,1,0,0:0:0:0:
360,196,78911,1,0,0:0:0:0:
348,216,78994,1,0,0:0:0:0:
340,240,79078,1,0,0:0:0:0:
368,256,79161,1,0,0:0:0:0:
396,260,79244,1,0,0:0:0:0:
412,212,79328,1,0,0:0:0:0:
388,144,79494,1,0,0:0:0:0:
360,124,79578,1,0,0:0:0:0:
316,108,79661,1,0,0:0:0:0:
280,100,79744,1,0,0:0:0:0:
248,108,79828,1,0,0:0:0:0:
220,120,79911,1,0,0:0:0:0:
200,144,79994,1,0,0:0:0:0:
188,180,80078,1,0,0:0:0:0:
192,216,80161,1,0,0:0:0:0:
208,240,80244,1,0,0:0:0:0:
240,256,80328,1,0,0:0:0:0:
272,268,80411,1,0,0:0:0:0:
312,264,80494,1,0,0:0:0:0:
336,232,80578,1,0,0:0:0:0:
344,204,80661,1,0,0:0:0:0:
336,176,80828,1,0,0:0:0:0:
312,152,80911,1,0,0:0:0:0:
120,160,81078,1,0,0:0:0:0:
184,232,81244,1,0,0:0:0:0:
236,248,81328,1,0,0:0:0:0:
296,236,81411,1,0,0:0:0:0:
328,200,81494,1,0,0:0:0:0:
332,156,81578,1,0,0:0:0:0:
324,128,81661,1,0,0:0:0:0:
304,100,81744,1,0,0:0:0:0:
328,72,81828,1,0,0:0:0:0:
368,72,81911,1,0,0:0:0:0:
400,96,81994,1,0,0:0:0:0:
404,136,82078,1,0,0:0:0:0:
376,196,82161,1,0,0:0:0:0:
336,224,82244,1,0,0:0:0:0:
288,228,82328,1,0,0:0:0:0:
248,204,82411,1,0,0:0:0:0:
236,168,82494,1,0,0:0:0:0:
268,144,82578,1,0,0:0:0:0:
300,136,82661,1,0,0:0:0:0:
308,144,82744,1,0,0:0:0:0:
324,176,82828,1,0,0:0:0:0:
336,208,82911,1,0,0:0:0:0:
364,224,82994,1,0,0:0:0:0:
384,204,83078,1,0,0:0:0:0:
392,168,83161,1,0,0:0:0:0:
376,136,83244,1,0,0:0:0:0:
328,120,83328,1,0,0:0:0:0:
280,128,83411,1,0,0:0:0:0:
248,140,83494,1,0,0:0:0:0:
192,208,83661,1,0,0:0:0:0:
180,232,83744,1,0,0:0:0:0:
120,216,83828,1,0,0:0:0:0:
144,168,83911,1,0,0:0:0:0:
168,140,83994,1,0,0:0:0:0:
208,128,84078,1,0,0:0:0:0:
244,128,84161,1,0,0:0:0:0:
268,144,84244,1,0,0:0:0:0:
284,164,84328,1,0,0:0:0:0:
288,188,84411,1,0,0:0:0:0:
336,220,84494,1,0,0:0:0:0:
364,208,84578,1,0,0:0:0:0:
372,176,84661,1,0,0:0:0:0:
364,148,84744,1,0,0:0:0:0:
336,120,84828,1,0,0:0:0:0:
292,120,84911,1,0,0:0:0:0:
256,128,84994,1,0,0:0:0:0:
232,160,85078,1,0,0:0:0:0:
212,192,85161,1,0,0:0:0:0:
164,216,85244,1,0,0:0:0:0:
136,172,85328,1,0,0:0:0:0:
140,140,85411,1,0,0:0:0:0:
172,112,85494,1,0,0:0:0:0:
216,100,85578,1,0,0:0:0:0:
252,108,85744,1,0,0:0:0:0:
288,168,85828,1,0,0:0:0:0:
304,192,85911,1,0,0:0:0:0:
320,216,85994,1,0,0:0:0:0:
340,228,86078,1,0,0:0:0:0:
364,232,86161,1,0,0:0:0:0:
388,188,86244,1,0,0:0:0:0:
380,160,86328,1,0,0:0:0:0:
372,148,86411,1,0,0:0:0:0:
344,132,86494,1,0,0:0:0:0:
316,128,86578,1,0,0:0:0:0:
276,128,86661,1,0,0:0:0:0:
248,132,86744,1,0,0:0:0:0:
216,148,86828,1,0,0:0:0:0:
196,156,86911,1,0,0:0:0:0:
172,184,86994,1,0,0:0:0:0:
172,204,87078,1,0,0:0:0:0:
176,224,87161,1,0,0:0:0:0:
200,244,87244,1,0,0:0:0:0:
232,260,87328,1,0,0:0:0:0:
268,264,87411,1,0,0:0:0:0:
308,256,87494,1,0,0:0:0:0:
332,240,87578,1,0,0:0:0:0:
344,216,87661,1,0,0:0:0:0:
348,192,87744,1,0,0:0:0:0:
320,156,87828,1,0,0:0:0:0:
140,192,88078,1,0,0:0:0:0:
168,236,88161,1,0,0:0:0:0:
220,260,88244,1,0,0:0:0:0:
260,260,88328,1,0,0:0:0:0:
276,236,88411,1,0,0:0:0:0:
304,208,88494,1,0,0:0:0:0:
316,192,88578,1,0,0:0:0:0:
344,188,88661,1,0,0:0:0:0:
368,216,88744,1,0,0:0:0:0:
368,256,88828,1,0,0:0:0:0:
340,276,88911,1,0,0:0:0:0:
284,268,88994,1,0,0:0:0:0:
260,216,89078,1,0,0:0:0:0:
260,196,89161,1,0,0:0:0:0:
256,160,89244,1,0,0:0:0:0:
256,136,89328,1,0,0:0:0:0:
248,112,89411,1,0,0:0:0:0:
224,96,89494,1,0,0:0:0:0:
168,96,89578,1,0,0:0:0:0:
148,112,89661,1,0,0:0:0:0:
136,152,89744,1,0,0:0:0:0:
140,180,89828,1,0,0:0:0:0:
160,216,89911,1,0,0:0:0:0:
200,240,89994,1,0,0:0:0:0:
236,252,90078,1,0,0:0:0:0:
280,252,90161,1,0,0:0:0:0:
316,248,90244,1,0,0:0:0:0:
344,240,90328,1,0,0:0:0:0:
352,216,90411,1,0,0:0:0:0:
336,188,90494,1,0,0:0:0:0:
300,160,90578,1,0,0:0:0:0:
260,144,90661,1,0,0:0:0:0:
236,144,90744,1,0,0:0:0:0:
200,144,90828,1,0,0:0:0:0:
164,160,90911,1,0,0:0:0:0:
148,192,90994,1,0,0:0:0:0:
144,216,91078,1,0,0:0:0:0:
148,240,91161,1,0,0:0:0:0:
180,256,91244,1,0,0:0:0:0:
228,264,91328,1,0,0:0:0:0:
272,260,91411,1,0,0:0:0:0:
312,240,91494,1,0,0:0:0:0:
320,208,91578,1,0,0:0:0:0:
312,180,91661,1,0,0:0:0:0:
292,156,91744,1,0,0:0:0:0:
252,128,91828,1,0,0:0:0:0:
220,124,91911,1,0,0:0:0:0:
184,128,91994,1,0,0:0:0:0:
148,144,92078,1,0,0:0:0:0:
124,176,92161,1,0,0:0:0:0:
112,212,92244,1,0,0:0:0:0:
120,240,92328,1,0,0:0:0:0:
228,280,92411,1,0,0:0:0:0:
272,272,92494,1,0,0:0:0:0:
304,248,92578,1,0,0:0:0:0:
312,208,92661,1,0,0:0:0:0:
308,192,92744,1,0,0:0:0:0:
292,164,92828,1,0,0:0:0:0:
268,148,92911,1,0,0:0:0:0:
236,136,92994,1,0,0:0:0:0:
200,132,93078,1,0,0:0:0:0:
172,136,93161,1,0,0:0:0:0:
156,148,93244,1,0,0:0:0:0:
140,172,93328,1,0,0:0:0:0:
132,208,93411,1,0,0:0:0:0:
140,232,93494,1,0,0:0:0:0:
156,256,93578,1,0,0:0:0:0:
196,268,93661,1,0,0:0:0:0:
236,272,93744,1,0,0:0:0:0:
264,272,93828,1,0,0:0:0:0:
288,264,93911,1,0,0:0:0:0:
304,256,93994,1,0,0:0:0:0:
316,232,94078,1,0,0:0:0:0:
308,200,94161,1,0,0:0:0:0:
288,176,94244,1,0,0:0:0:0:
244,160,94328,1,0,0:0:0:0:
212,152,94411,1,0,0:0:0:0:
188,152,94494,1,0,0:0:0:0:
164,160,94578,1,0,0:0:0:0:
144,172,94661,1,0,0:0:0:0:
120,192,94744,1,0,0:0:0:0:
100,224,94828,1,0,0:0:0:0:
104,256,94911,1,0,0:0:0:0:
120,276,94994,1,0,0:0:0:0:
136,288,95078,1,0,0:0:0:0:
176,300,95161,1,0,0:0:0:0:
200,300,95244,1,0,0:0:0:0:
272,288,95411,1,0,0:0:0:0:
296,272,95494,1,0,0:0:0:0:
320,252,95578,1,0,0:0:0:0:
344,228,95661,1,0,0:0:0:0:
376,208,95744,1,0,0:0:0:0:
392,184,95828,1,0,0:0:0:0:
392,168,95911,1,0,0:0:0:0:
364,144,95994,1,0,0:0:0:0:
344,132,96078,1,0,0:0:0:0:
320,128,96161,1,0,0:0:0:0:
296,128,96244,1,0,0:0:0:0:
260,128,96328,1,0,0:0:0:0:
236,136,96411,1,0,0:0:0:0:
200,144,96494,1,0,0:0:0:0:
160,160,96578,1,0,0:0:0:0:
144,172,96661,1,0,0:0:0:0:
132,200,96744,1,0,0:0:0:0:
132,220,96828,1,0,0:0:0:0:
148,252,96911,1,0,0:0:0:0:
172,268,96994,1,0,0:0:0:0:
200,280,97078,1,0,0:0:0:0:
224,284,97161,1,0,0:0:0:0:
84,148,97328,1,0,0:0:0:0:
92,140,97411,1,0,0:0:0:0:
101,134,97494,1,0,0:0:0:0:
109,127,97577,1,0,0:0:0:0:
119,121,97661,1,0,0:0:0:0:
128,115,97744,1,0,0:0:0:0:
137,110,97827,1,0,0:0:0:0:
147,105,97911,1,0,0:0:0:0:
157,100,97994,1,0,0:0:0:0:
167,95,98077,1,0,0:0:0:0:
177,92,98161,1,0,0:0:0:0:
188,88,98244,1,0,0:0:0:0:
198,85,98327,1,0,0:0:0:0:
209,82,98411,1,0,0:0:0:0:
220,80,98494,1,0,0:0:0:0:
231,79,98577,1,0,0:0:0:0:
242,78,98661,1,0,0:0:0:0:
253,77,98744,1,0,0:0:0:0:
264,77,98827,1,0,0:0:0:0:
275,78,98911,1,0,0:0:0:0:
286,79,98994,1,0,0:0:0:0:
297,80,99077,1,0,0:0:0:0:
307,83,99161,1,0,0:0:0:0:
318,86,99244,1,0,0:0:0:0:
328,90,99327,1,0,0:0:0:0:
338,94,99411,1,0,0:0:0:0:
348,100,99494,1,0,0:0:0:0:
357,106,99577,1,0,0:0:0:0:
365,113,99661,1,0,0:0:0:0:
373,120,99744,1,0,0:0:0:0:
381,129,99827,1,0,0:0:0:0:
387,138,99911,1,0,0:0:0:0:
392,147,99994,1,0,0:0:0:0:
396,158,100077,1,0,0:0:0:0:
399,168,100161,1,0,0:0:0:0:
400,179,100244,1,0,0:0:0:0:
400,190,100327,1,0,0:0:0:0:
399,201,100411,1,0,0:0:0:0:
396,212,100494,1,0,0:0:0:0:
391,222,100577,1,0,0:0:0:0:
385,231,100661,1,0,0:0:0:0:
378,239,100744,1,0,0:0:0:0:
370,247,100827,1,0,0:0:0:0:
362,253,100911,1,0,0:0:0:0:
352,259,100994,1,0,0:0:0:0:
342,264,101077,1,0,0:0:0:0:
332,268,101161,1,0,0:0:0:0:
321,271,101244,1,0,0:0:0:0:
311,273,101327,1,0,0:0:0:0:
300,275,101411,1,0,0:0:0:0:
289,275,101494,1,0,0:0:0:0:
278,275,101577,1,0,0:0:0:0:
267,275,101661,1,0,0:0:0:0:
256,274,101744,1,0,0:0:0:0:
245,271,101827,1,0,0:0:0:0:
234,269,101911,1,0,0:0:0:0:
224,265,101994,1,0,0:0:0:0:
214,261,102077,1,0,0:0:0:0:
204,256,102161,1,0,0:0:0:0:
195,251,102244,1,0,0:0:0:0:
186,244,102327,1,0,0:0:0:0:
178,237,102411,1,0,0:0:0:0:
170,228,102494,1,0,0:0:0:0:
164,219,102577,1,0,0:0:0:0:
159,210,102661,1,0,0:0:0:0:
156,199,102744,1,0,0:0:0:0:
155,188,102827,1,0,0:0:0:0:
156,177,102911,1,0,0:0:0:0:
160,167,102994,1,0,0:0:0:0:
165,157,103077,1,0,0:0:0:0:
173,149,103161,1,0,0:0:0:0:
181,142,103244,1,0,0:0:0:0:
191,137,103327,1,0,0:0:0:0:
201,133,103411,1,0,0:0:0:0:
212,131,103494,1,0,0:0:0:0:
223,130,103577,1,0,0:0:0:0:
234,131,103661,1,0,0:0:0:0:
245,133,103744,1,0,0:0:0:0:
255,137,103827,1,0,0:0:0:0:
265,142,103911,1,0,0:0:0:0:
273,149,103994,1,0,0:0:0:0:
280,157,104077,1,0,0:0:0:0:
285,167,104161,1,0,0:0:0:0:
288,178,104244,1,0,0:0:0:0:
290,189,104327,1,0,0:0:0:0:
299,194,104411,1,0,0:0:0:0:
310,195,104494,1,0,0:0:0:0:
321,195,104577,1,0,0:0:0:0:
328,197,104661,1,0,0:0:0:0:
317,195,104744,1,0,0:0:0:0:
307,192,104827,1,0,0:0:0:0:
296,188,104911,1,0,0:0:0:0:
286,183,104994,1,0,0:0:0:0:
277,178,105077,1,0,0:0:0:0:
268,172,105161,1,0,0:0:0:0:
260,164,105244,1,0,0:0:0:0:
254,155,105327,1,0,0:0:0:0:
250,144,105411,1,0,0:0:0:0:
250,133,105494,1,0,0:0:0:0:
253,123,105577,1,0,0:0:0:0:
258,113,105661,1,0,0:0:0:0:
265,104,105744,1,0,0:0:0:0:
273,97,105827,1,0,0:0:0:0:
281,89,105911,1,0,0:0:0:0:
290,83,105994,1,0,0:0:0:0:
299,77,106077,1,0,0:0:0:0:
309,72,106161,1,0,0:0:0:0:
319,67,106244,1,0,0:0:0:0:
329,62,106327,1,0,0:0:0:0:
339,58,106411,1,0,0:0:0:0:
349,54,106494,1,0,0:0:0:0:
359,50,106577,1,0,0:0:0:0:
370,46,106661,1,0,0:0:0:0:
380,43,106744,1,0,0:0:0:0:
391,40,106827,1,0,0:0:0:0:
402,37,106911,1,0,0:0:0:0:
412,35,106994,1,0,0:0:0:0:
423,32,107077,1,0,0:0:0:0:
332,152,107328,1,0,0:0:0:0:
332,151,107411,1,0,0:0:0:0:
333,150,107494,1,0,0:0:0:0:
334,149,107577,1,0,0:0:0:0:
334,149,107661,1,0,0:0:0:0:
335,148,107744,1,0,0:0:0:0:
336,147,107827,1,0,0:0:0:0:
336,147,107911,1,0,0:0:0:0:
337,146,107994,1,0,0:0:0:0:
338,145,108077,1,0,0:0:0:0:
339,144,108161,1,0,0:0:0:0:
339,144,108244,1,0,0:0:0:0:
340,143,108327,1,0,0:0:0:0:
341,142,108411,1,0,0:0:0:0:
341,142,108494,1,0,0:0:0:0:
342,141,108577,1,0,0:0:0:0:
343,140,108661,1,0,0:0:0:0:
343,139,108744,1,0,0:0:0:0:
344,139,108827,1,0,0:0:0:0:
345,138,108911,1,0,0:0:0:0:
346,137,108994,1,0,0:0:0:0:
346,136,109077,1,0,0:0:0:0:
347,136,109161,1,0,0:0:0:0:
348,135,109244,1,0,0:0:0:0:
348,134,109327,1,0,0:0:0:0:
349,134,109411,1,0,0:0:0:0:
350,133,109494,1,0,0:0:0:0:
350,132,109577,1,0,0:0:0:0:
351,131,109661,1,0,0:0:0:0:
351,130,109744,1,0,0:0:0:0:
352,130,109827,1,0,0:0:0:0:
353,129,109911,1,0,0:0:0:0:
353,128,109994,1,0,0:0:0:0:
354,127,110077,1,0,0:0:0:0:
355,127,110161,1,0,0:0:0:0:
355,126,110244,1,0,0:0:0:0:
356,125,110327,1,0,0:0:0:0:
356,124,110411,1,0,0:0:0:0:
357,123,110494,1,0,0:0:0:0:
358,123,110577,1,0,0:0:0:0:
358,122,110661,1,0,0:0:0:0:
359,121,110744,1,0,0:0:0:0:
359,120,110827,1,0,0:0:0:0:
360,119,110911,1,0,0:0:0:0:
360,119,110994,1,0,0:0:0:0:
361,118,111077,1,0,0:0:0:0:
362,117,111161,1,0,0:0:0:0:
362,116,111244,1,0,0:0:0:0:
363,115,111327,1,0,0:0:0:0:
363,114,111411,1,0,0:0:0:0:
364,113,111494,1,0,0:0:0:0:
364,112,111577,1,0,0:0:0:0:
364,112,111661,1,0,0:0:0:0:
365,111,111744,1,0,0:0:0:0:
365,110,111827,1,0,0:0:0:0:
366,109,111911,1,0,0:0:0:0:
366,108,111994,1,0,0:0:0:0:
366,107,112077,1,0,0:0:0:0:
367,106,112161,1,0,0:0:0:0:
367,105,112244,1,0,0:0:0:0:
367,104,112327,1,0,0:0:0:0:
367,103,112411,1,0,0:0:0:0:
367,102,112494,1,0,0:0:0:0:
367,101,112577,1,0,0:0:0:0:
367,100,112661,1,0,0:0:0:0:
367,99,112744,1,0,0:0:0:0:
367,98,112827,1,0,0:0:0:0:
367,97,112911,1,0,0:0:0:0:
367,96,112994,1,0,0:0:0:0:
367,95,113077,1,0,0:0:0:0:
366,94,113161,1,0,0:0:0:0:
366,93,113244,1,0,0:0:0:0:
365,92,113327,1,0,0:0:0:0:
365,92,113411,1,0,0:0:0:0:
364,91,113494,1,0,0:0:0:0:
363,90,113577,1,0,0:0:0:0:
363,89,113661,1,0,0:0:0:0:
362,89,113744,1,0,0:0:0:0:
361,88,113827,1,0,0:0:0:0:
360,88,113911,1,0,0:0:0:0:
359,87,113994,1,0,0:0:0:0:
359,87,114077,1,0,0:0:0:0:
358,86,114161,1,0,0:0:0:0:
357,86,114244,1,0,0:0:0:0:
356,85,114327,1,0,0:0:0:0:
355,85,114411,1,0,0:0:0:0:
354,85,114494,1,0,0:0:0:0:
353,84,114577,1,0,0:0:0:0:
352,84,114661,1,0,0:0:0:0:
351,84,114744,1,0,0:0:0:0:
350,84,114827,1,0,0:0:0:0:
349,83,114911,1,0,0:0:0:0:
348,83,114994,1,0,0:0:0:0:
347,83,115077,1,0,0:0:0:0:
346,83,115161,1,0,0:0:0:0:
345,83,115244,1,0,0:0:0:0:
344,83,115327,1,0,0:0:0:0:
343,82,115411,1,0,0:0:0:0:
342,82,115494,1,0,0:0:0:0:
341,82,115577,1,0,0:0:0:0:
340,82,115661,1,0,0:0:0:0:
339,82,115744,1,0,0:0:0:0:
338,82,115827,1,0,0:0:0:0:
337,82,115911,1,0,0:0:0:0:
336,82,115994,1,0,0:0:0:0:
335,82,116077,1,0,0:0:0:0:
334,82,116161,1,0,0:0:0:0:
333,82,116244,1,0,0:0:0:0:
332,82,116327,1,0,0:0:0:0:
331,82,116411,1,0,0:0:0:0:
330,82,116494,1,0,0:0:0:0:
329,82,116577,1,0,0:0:0:0:
328,82,116661,1,0,0:0:0:0:
327,82,116744,1,0,0:0:0:0:
326,82,116827,1,0,0:0:0:0:
325,82,116911,1,0,0:0:0:0:
324,82,116994,1,0,0:0:0:0:
323,82,117077,1,0,0:0:0:0:
322,82,117161,1,0,0:0:0:0:
321,82,117244,1,0,0:0:0:0:
320,83,117327,1,0,0:0:0:0:
319,83,117411,1,0,0:0:0:0:
318,83,117494,1,0,0:0:0:0:
317,83,117577,1,0,0:0:0:0:
316,83,117661,1,0,0:0:0:0:
315,83,117744,1,0,0:0:0:0:
314,83,117827,1,0,0:0:0:0:
313,83,117911,1,0,0:0:0:0:
312,84,117994,1,0,0:0:0:0:
311,84,118077,1,0,0:0:0:0:
310,84,118161,1,0,0:0:0:0:
309,84,118244,1,0,0:0:0:0:
308,84,118327,1,0,0:0:0:0:
307,84,118411,1,0,0:0:0:0:
306,85,118494,1,0,0:0:0:0:
306,85,118577,1,0,0:0:0:0:
305,85,118661,1,0,0:0:0:0:
304,85,118744,1,0,0:0:0:0:
303,85,118827,1,0,0:0:0:0:
302,86,118911,1,0,0:0:0:0:
301,86,118994,1,0,0:0:0:0:
300,86,119077,1,0,0:0:0:0:
299,86,119161,1,0,0:0:0:0:
298,87,119244,1,0,0:0:0:0:
297,87,119327,1,0,0:0:0:0:
296,87,119411,1,0,0:0:0:0:
295,87,119494,1,0,0:0:0:0:
294,88,119577,1,0,0:0:0:0:
293,88,119661,1,0,0:0:0:0:
292,88,119744,1,0,0:0:0:0:
291,88,119827,1,0,0:0:0:0:
290,89,119911,1,0,0:0:0:0:
289,89,119994,1,0,0:0:0:0:
288,89,120077,1,0,0:0:0:0:
287,90,120161,1,0,0:0:0:0:
286,90,120244,1,0,0:0:0:0:
285,90,120327,1,0,0:0:0:0:
284,90,120411,1,0,0:0:0:0:
283,91,120494,1,0,0:0:0:0:
282,91,120577,1,0,0:0:0:0:
281,91,120661,1,0,0:0:0:0:
280,92,120744,1,0,0:0:0:0:
280,92,120827,1,0,0:0:0:0:
279,92,120911,1,0,0:0:0:0:
278,93,120994,1,0,0:0:0:0:
277,93,121077,1,0,0:0:0:0:
276,93,121161,1,0,0:0:0:0:
275,94,121244,1,0,0:0:0:0:
274,94,121327,1,0,0:0:0:0:
273,95,121411,1,0,0:0:0:0:
272,95,121494,1,0,0:0:0:0:
271,95,121577,1,0,0:0:0:0:
270,96,121661,1,0,0:0:0:0:
269,96,121744,1,0,0:0:0:0:
268,96,121827,1,0,0:0:0:0:
267,97,121911,1,0,0:0:0:0:
266,97,121994,1,0,0:0:0:0:
266,98,122077,1,0,0:0:0:0:
265,98,122161,1,0,0:0:0:0:
264,98,122244,1,0,0:0:0:0:
263,99,122327,1,0,0:0:0:0:
262,99,122411,1,0,0:0:0:0:
261,100,122494,1,0,0:0:0:0:
260,100,122577,1,0,0:0:0:0:
259,101,122661,1,0,0:0:0:0:
258,101,122744,1,0,0:0:0:0:
257,101,122827,1,0,0:0:0:0:
257,102,122911,1,0,0:0:0:0:
256,102,122994,1,0,0:0:0:0:
255,103,123077,1,0,0:0:0:0:
254,103,123161,1,0,0:0:0:0:
253,104,123244,1,0,0:0:0:0:
252,104,123327,1,0,0:0:0:0:
251,105,123411,1,0,0:0:0:0:
250,105,123494,1,0,0:0:0:0:
249,106,123577,1,0,0:0:0:0:
249,106,123661,1,0,0:0:0:0:
248,107,123744,1,0,0:0:0:0:
247,107,123827,1,0,0:0:0:0:
246,108,123911,1,0,0:0:0:0:
245,108,123994,1,0,0:0:0:0:
244,109,124077,1,0,0:0:0:0:
243,109,124161,1,0,0:0:0:0:
243,110,124244,1,0,0:0:0:0:
242,110,124327,1,0,0:0:0:0:
241,111,124411,1,0,0:0:0:0:
240,111,124494,1,0,0:0:0:0:
239,112,124577,1,0,0:0:0:0:
238,112,124661,1,0,0:0:0:0:
237,113,124744,1,0,0:0:0:0:
237,113,124827,1,0,0:0:0:0:
236,114,124911,1,0,0:0:0:0:
235,115,124994,1,0,0:0:0:0:
234,115,125077,1,0,0:0:0:0:
233,116,125161,1,0,0:0:0:0:
233,116,125244,1,0,0:0:0:0:
232,117,125327,1,0,0:0:0:0:
231,117,125411,1,0,0:0:0:0:
230,118,125494,1,0,0:0:0:0:
229,119,125577,1,0,0:0:0:0:
229,119,125661,1,0,0:0:0:0:
228,120,125744,1,0,0:0:0:0:
227,120,125827,1,0,0:0:0:0:
226,121,125911,1,0,0:0:0:0:
225,122,125994,1,0,0:0:0:0:
225,122,126077,1,0,0:0:0:0:
224,123,126161,1,0,0:0:0:0:
223,124,126244,1,0,0:0:0:0:
222,124,126327,1,0,0:0:0:0:
221,125,126411,1,0,0:0:0:0:
221,125,126494,1,0,0:0:0:0:
220,126,126577,1,0,0:0:0:0:
219,127,126661,1,0,0:0:0:0:
218,127,126744,1,0,0:0:0:0:
218,128,126827,1,0,0:0:0:0:
217,129,126911,1,0,0:0:0:0:
216,129,126994,1,0,0:0:0:0:
215,130,127077,1,0,0:0:0:0:
215,131,127161,1,0,0:0:0:0:
214,131,127244,1,0,0:0:0:0:
213,132,127327,1,0,0:0:0:0:
213,133,127411,1,0,0:0:0:0:
212,134,127494,1,0,0:0:0:0:
211,134,127577,1,0,0:0:0:0:
210,135,127661,1,0,0:0:0:0:
210,136,127744,1,0,0:0:0:0:
209,136,127827,1,0,0:0:0:0:
208,137,127911,1,0,0:0:0:0:
208,138,127994,1,0,0:0:0:0:
207,139,128077,1,0,0:0:0:0:
206,139,128161,1,0,0:0:0:0:
206,140,128244,1,0,0:0:0:0:
205,141,128327,1,0,0:0:0:0:
204,142,128411,1,0,0:0:0:0:
204,142,128494,1,0,0:0:0:0:
203,143,128577,1,0,0:0:0:0:
202,144,128661,1,0,0:0:0:0:
202,145,128744,1,0,0:0:0:0:
201,145,128827,1,0,0:0:0:0:
201,146,128911,1,0,0:0:0:0:
200,147,128994,1,0,0:0:0:0:
199,148,129077,1,0,0:0:0:0:
199,149,129161,1,0,0:0:0:0:
198,149,129244,1,0,0:0:0:0:
197,150,129327,1,0,0:0:0:0:
197,151,129411,1,0,0:0:0:0:
196,152,129494,1,0,0:0:0:0:
196,153,129577,1,0,0:0:0:0:
195,153,129661,1,0,0:0:0:0:
195,154,129744,1,0,0:0:0:0:
194,155,129827,1,0,0:0:0:0:
193,156,129911,1,0,0:0:0:0:
193,157,129994,1,0,0:0:0:0:
192,158,130077,1,0,0:0:0:0:
192,158,130161,1,0,0:0:0:0:
191,159,130244,1,0,0:0:0:0:
191,160,130327,1,0,0:0:0:0:
190,161,130411,1,0,0:0:0:0:
190,162,130494,1,0,0:0:0:0:
189,163,130577,1,0,0:0:0:0:
189,164,130661,1,0,0:0:0:0:
188,164,130744,1,0,0:0:0:0:
188,165,130827,1,0,0:0:0:0:
187,166,130911,1,0,0:0:0:0:
187,167,130994,1,0,0:0:0:0:
186,168,131077,1,0,0:0:0:0:
186,169,131161,1,0,0:0:0:0:
186,170,131244,1,0,0:0:0:0:
185,171,131327,1,0,0:0:0:0:
185,172,131411,1,0,0:0:0:0:
184,173,131494,1,0,0:0:0:0:
184,173,131577,1,0,0:0:0:0:
183,174,131661,1,0,0:0:0:0:
183,175,131744,1,0,0:0:0:0:
183,176,131827,1,0,0:0:0:0:
182,177,131911,1,0,0:0:0:0:
182,178,131994,1,0,0:0:0:0:
182,179,132077,1,0,0:0:0:0:
181,180,132161,1,0,0:0:0:0:
181,181,132244,1,0,0:0:0:0:
181,182,132327,1,0,0:0:0:0:
180,183,132411,1,0,0:0:0:0:
180,184,132494,1,0,0:0:0:0:
180,185,132577,1,0,0:0:0:0:
179,186,132661,1,0,0:0:0:0:
179,187,132744,1,0,0:0:0:0:
179,188,132827,1,0,0:0:0:0:
178,188,132911,1,0,0:0:0:0:
178,189,132994,1,0,0:0:0:0:
178,190,133077,1,0,0:0:0:0:
178,191,133161,1,0,0:0:0:0:
178,192,133244,1,0,0:0:0:0:
177,193,133327,1,0,0:0:0:0:
177,194,133411,1,0,0:0:0:0:
177,195,133494,1,0,0:0:0:0:
177,196,133577,1,0,0:0:0:0:
177,197,133661,1,0,0:0:0:0:
176,198,133744,1,0,0:0:0:0:
176,199,133827,1,0,0:0:0:0:
176,200,133911,1,0,0:0:0:0:
176,201,133994,1,0,0:0:0:0:
176,202,134077,1,0,0:0:0:0:
176,203,134161,1,0,0:0:0:0:
176,204,134244,1,0,0:0:0:0:
175,205,134327,1,0,0:0:0:0:
175,206,134411,1,0,0:0:0:0:
175,207,134494,1,0,0:0:0:0:
175,208,134577,1,0,0:0:0:0:
175,209,134661,1,0,0:0:0:0:
175,210,134744,1,0,0:0:0:0:
175,211,134827,1,0,0:0:0:0:
175,212,134911,1,0,0:0:0:0:
175,213,134994,1,0,0:0:0:0:
175,214,135077,1,0,0:0:0:0:
175,215,135161,1,0,0:0:0:0:
175,216,135244,1,0,0:0:0:0:
175,217,135327,1,0,0:0:0:0:
175,218,135411,1,0,0:0:0:0:
175,219,135494,1,0,0:0:0:0:
176,220,135577,1,0,0:0:0:0:
176,221,135661,1,0,0:0:0:0:
176,222,135744,1,0,0:0:0:0:
176,223,135827,1,0,0:0:0:0:
176,224,135911,1,0,0:0:0:0:
176,225,135994,1,0,0:0:0:0:
176,226,136077,1,0,0:0:0:0:
176,227,136161,1,0,0:0:0:0:
177,228,136244,1,0,0:0:0:0:
177,229,136327,1,0,0:0:0:0:
177,230,136411,1,0,0:0:0:0:
177,231,136494,1,0,0:0:0:0:
178,232,136577,1,0,0:0:0:0:
178,233,136661,1,0,0:0:0:0:
178,234,136744,1,0,0:0:0:0:
178,235,136827,1,0,0:0:0:0:
179,236,136911,1,0,0:0:0:0:
179,237,136994,1,0,0:0:0:0:
179,238,137077,1,0,0:0:0:0:
180,239,137161,1,0,0:0:0:0:
180,240,137244,1,0,0:0:0:0:
180,241,137327,1,0,0:0:0:0:
181,242,137411,1,0,0:0:0:0:
181,242,137494,1,0,0:0:0:0:
181,243,137577,1,0,0:0:0:0:
182,244,137661,1,0,0:0:0:0:
182,245,137744,1,0,0:0:0:0:
183,246,137827,1,0,0:0:0:0:
183,247,137911,1,0,0:0:0:0:
184,248,137994,1,0,0:0:0:0:
184,249,138077,1,0,0:0:0:0:
184,250,138161,1,0,0:0:0:0:
185,250,138244,1,0,0:0:0:0:
185,251,138327,1,0,0:0:0:0:
186,252,138411,1,0,0:0:0:0:
187,253,138494,1,0,0:0:0:0:
187,254,138577,1,0,0:0:0:0:
188,255,138661,1,0,0:0:0:0:
188,256,138744,1,0,0:0:0:0:
189,256,138827,1,0,0:0:0:0:
189,257,138911,1,0,0:0:0:0:
190,258,138994,1,0,0:0:0:0:
191,259,139077,1,0,0:0:0:0:
191,260,139161,1,0,0:0:0:0:
192,260,139244,1,0,0:0:0:0:
192,261,139327,1,0,0:0:0:0:
193,262,139411,1,0,0:0:0:0:
194,263,139494,1,0,0:0:0:0:
194,263,139577,1,0,0:0:0:0:
195,264,139661,1,0,0:0:0:0:
196,265,139744,1,0,0:0:0:0:
197,266,139827,1,0,0:0:0:0:
197,266,139911,1,0,0:0:0:0:
198,267,139994,1,0,0:0:0:0:
199,268,140077,1,0,0:0:0:0:
199,268,140161,1,0,0:0:0:0:
200,269,140244,1,0,0:0:0:0:
201,270,140327,1,0,0:0:0:0:
202,270,140411,1,0,0:0:0:0:
202,271,140494,1,0,0:0:0:0:
203,271,140577,1,0,0:0:0:0:
204,272,140661,1,0,0:0:0:0:
205,273,140744,1,0,0:0:0:0:
206,273,140827,1,0,0:0:0:0:
206,274,140911,1,0,0:0:0:0:
207,274,140994,1,0,0:0:0:0:
208,275,141077,1,0,0:0:0:0:
209,276,141161,1,0,0:0:0:0:
210,276,141244,1,0,0:0:0:0:
211,277,141327,1,0,0:0:0:0:
211,277,141411,1,0,0:0:0:0:
212,278,141494,1,0,0:0:0:0:
213,278,141577,1,0,0:0:0:0:
214,279,141661,1,0,0:0:0:0:
215,279,141744,1,0,0:0:0:0:
216,280,141827,1,0,0:0:0:0:
217,280,141911,1,0,0:0:0:0:
218,280,141994,1,0,0:0:0:0:
219,281,142077,1,0,0:0:0:0:
219,281,142161,1,0,0:0:0:0:
220,282,142244,1,0,0:0:0:0:
221,282,142327,1,0,0:0:0:0:
222,283,142411,1,0,0:0:0:0:
223,283,142494,1,0,0:0:0:0:
224,283,142577,1,0,0:0:0:0:
225,284,142661,1,0,0:0:0:0:
226,284,142744,1,0,0:0:0:0:
227,284,142828,1,0,0:0:0:0:
228,285,142911,1,0,0:0:0:0:
229,285,142994,1,0,0:0:0:0:
230,285,143078,1,0,0:0:0:0:
231,286,143161,1,0,0:0:0:0:
232,286,143244,1,0,0:0:0:0:
233,286,143328,1,0,0:0:0:0:
233,287,143411,1,0,0:0:0:0:
234,287,143494,1,0,0:0:0:0:
235,287,143578,1,0,0:0:0:0:
236,287,143661,1,0,0:0:0:0:
237,288,143744,1,0,0:0:0:0:
238,288,143828,1,0,0:0:0:0:
239,288,143911,1,0,0:0:0:0:
240,288,143994,1,0,0:0:0:0:
241,288,144078,1,0,0:0:0:0:
242,289,144161,1,0,0:0:0:0:
243,289,144244,1,0,0:0:0:0:
244,289,144328,1,0,0:0:0:0:
245,289,144411,1,0,0:0:0:0:
246,289,144494,1,0,0:0:0:0:
247,290,144578,1,0,0:0:0:0:
248,290,144661,1,0,0:0:0:0:
249,290,144744,1,0,0:0:0:0:
250,290,144828,1,0,0:0:0:0:
251,290,144911,1,0,0:0:0:0:
252,290,144994,1,0,0:0:0:0:
253,290,145078,1,0,0:0:0:0:
254,290,145161,1,0,0:0:0:0:
255,290,145244,1,0,0:0:0:0:
256,290,145328,1,0,0:0:0:0:
257,291,145411,1,0,0:0:0:0:
258,291,145494,1,0,0:0:0:0:
259,291,145578,1,0,0:0:0:0:
260,291,145661,1,0,0:0:0:0:
261,291,145744,1,0,0:0:0:0:
262,291,145828,1,0,0:0:0:0:
263,291,145911,1,0,0:0:0:0:
264,291,145994,1,0,0:0:0:0:
265,291,146078,1,0,0:0:0:0:
266,291,146161,1,0,0:0:0:0:
267,291,146244,1,0,0:0:0:0:
268,291,146328,1,0,0:0:0:0:
269,291,146411,1,0,0:0:0:0:
270,291,146494,1,0,0:0:0:0:
271,291,146578,1,0,0:0:0:0:
272,291,146661,1,0,0:0:0:0:
273,291,146744,1,0,0:0:0:0:
274,290,146828,1,0,0:0:0:0:
275,290,146911,1,0,0:0:0:0:
276,290,146994,1,0,0:0:0:0:
277,290,147078,1,0,0:0:0:0:
278,290,147161,1,0,0:0:0:0:
279,290,147244,1,0,0:0:0:0:
280,290,147328,1,0,0:0:0:0:
281,290,147411,1,0,0:0:0:0:
282,290,147494,1,0,0:0:0:0:
283,290,147578,1,0,0:0:0:0:
284,289,147661,1,0,0:0:0:0:
285,289,147744,1,0,0:0:0:0:
286,289,147828,1,0,0:0:0:0:
287,289,147911,1,0,0:0:0:0:
288,289,147994,1,0,0:0:0:0:
289,289,148078,1,0,0:0:0:0:
290,288,148161,1,0,0:0:0:0:
291,288,148244,1,0,0:0:0:0:
292,288,148328,1,0,0:0:0:0:
293,288,148411,1,0,0:0:0:0:
294,288,148494,1,0,0:0:0:0:
295,287,148578,1,0,0:0:0:0:
296,287,148661,1,0,0:0:0:0:
297,287,148744,1,0,0:0:0:0:
298,287,148828,1,0,0:0:0:0:
299,287,148911,1,0,0:0:0:0:
300,286,148994,1,0,0:0:0:0:
301,286,149078,1,0,0:0:0:0:
302,286,149161,1,0,0:0:0:0:
303,286,149244,1,0,0:0:0:0:
304,285,149328,1,0,0:0:0:0:
305,285,149411,1,0,0:0:0:0:
305,285,149494,1,0,0:0:0:0:
306,284,149578,1,0,0:0:0:0:
307,284,149661,1,0,0:0:0:0:
308,284,149744,1,0,0:0:0:0:
309,284,149828,1,0,0:0:0:0:
310,283,149911,1,0,0:0:0:0:
311,283,149994,1,0,0:0:0:0:
312,283,150078,1,0,0:0:0:0:
313,282,150161,1,0,0:0:0:0:
314,282,150244,1,0,0:0:0:0:
315,282,150328,1,0,0:0:0:0:
316,281,150411,1,0,0:0:0:0:
317,281,150494,1,0,0:0:0:0:
318,281,150578,1,0,0:0:0:0:
319,280,150661,1,0,0:0:0:0:
320,280,150744,1,0,0:0:0:0:
321,279,150828,1,0,0:0:0:0:
322,279,150911,1,0,0:0:0:0:
322,279,150994,1,0,0:0:0:0:
323,278,151078,1,0,0:0:0:0:
324,278,151161,1,0,0:0:0:0:
325,278,151244,1,0,0:0:0:0:
326,277,151328,1,0,0:0:0:0:
327,277,151411,1,0,0:0:0:0:
328,276,151494,1,0,0:0:0:0:
329,276,151578,1,0,0:0:0:0:
330,275,151661,1,0,0:0:0:0:
331,275,151744,1,0,0:0:0:0:
332,275,151828,1,0,0:0:0:0:
332,274,151911,1,0,0:0:0:0:
333,274,151994,1,0,0:0:0:0:
334,273,152078,1,0,0:0:0:0:
335,273,152161,1,0,0:0:0:0:
336,272,152244,1,0,0:0:0:0:
337,272,152328,1,0,0:0:0:0:
338,271,152411,1,0,0:0:0:0:
339,271,152494,1,0,0:0:0:0:
339,270,152578,1,0,0:0:0:0:
340,270,152661,1,0,0:0:0:0:
341,269,152744,1,0,0:0:0:0:
342,269,152828,1,0,0:0:0:0:
343,268,152911,1,0,0:0:0:0:
344,268,152994,1,0,0:0:0:0:
345,267,153078,1,0,0:0:0:0:
345,267,153161,1,0,0:0:0:0:
346,266,153244,1,0,0:0:0:0:
347,266,153328,1,0,0:0:0:0:
348,265,153411,1,0,0:0:0:0:
349,265,153494,1,0,0:0:0:0:
350,264,153578,1,0,0:0:0:0:
350,263,153661,1,0,0:0:0:0:
351,263,153744,1,0,0:0:0:0:
352,262,153828,1,0,0:0:0:0:
353,262,153911,1,0,0:0:0:0:
354,261,153994,1,0,0:0:0:0:
355,260,154078,1,0,0:0:0:0:
355,260,154161,1,0,0:0:0:0:
356,259,154244,1,0,0:0:0:0:
357,259,154328,1,0,0:0:0:0:
358,258,154411,1,0,0:0:0:0:
359,257,154494,1,0,0:0:0:0:
359,257,154578,1,0,0:0:0:0:
360,256,154661,1,0,0:0:0:0:
361,256,154744,1,0,0:0:0:0:
362,255,154828,1,0,0:0:0:0:
362,254,154911,1,0,0:0:0:0:
363,254,154994,1,0,0:0:0:0:
364,253,155078,1,0,0:0:0:0:
365,252,155161,1,0,0:0:0:0:
365,252,155244,1,0,0:0:0:0:
366,251,155328,1,0,0:0:0:0:
367,250,155411,1,0,0:0:0:0:
368,250,155494,1,0,0:0:0:0:
368,249,155578,1,0,0:0:0:0:
369,248,155661,1,0,0:0:0:0:
370,248,155744,1,0,0:0:0:0:
371,247,155828,1,0,0:0:0:0:
371,246,155911,1,0,0:0:0:0:
372,245,155994,1,0,0:0:0:0:
373,245,156078,1,0,0:0:0:0:
373,244,156161,1,0,0:0:0:0:
374,243,156244,1,0,0:0:0:0:
375,243,156328,1,0,0:0:0:0:
375,242,156411,1,0,0:0:0:0:
376,241,156494,1,0,0:0:0:0:
377,240,156578,1,0,0:0:0:0:
377,240,156661,1,0,0:0:0:0:
378,239,156744,1,0,0:0:0:0:
379,238,156828,1,0,0:0:0:0:
379,237,156911,1,0,0:0:0:0:
380,237,156994,1,0,0:0:0:0:
381,236,157078,1,0,0:0:0:0:
381,235,157161,1,0,0:0:0:0:
382,234,157244,1,0,0:0:0:0:
382,233,157328,1,0,0:0:0:0:
383,233,157411,1,0,0:0:0:0:
384,232,157494,1,0,0:0:0:0:
384,231,157578,1,0,0:0:0:0:
385,230,157661,1,0,0:0:0:0:
385,229,157744,1,0,0:0:0:0:
386,229,157828,1,0,0:0:0:0:
387,228,157911,1,0,0:0:0:0:
387,227,157994,1,0,0:0:0:0:
388,226,158078,1,0,0:0:0:0:
388,225,158161,1,0,0:0:0:0:
389,224,158244,1,0,0:0:0:0:
389,224,158328,1,0,0:0:0:0:
390,223,158411,1,0,0:0:0:0:
390,222,158494,1,0,0:0:0:0:
391,221,158578,1,0,0:0:0:0:
391,220,158661,1,0,0:0:0:0:
392,219,158744,1,0,0:0:0:0:
392,218,158828,1,0,0:0:0:0:
393,218,158911,1,0,0:0:0:0:
393,217,158994,1,0,0:0:0:0:
394,216,159078,1,0,0:0:0:0:
394,215,159161,1,0,0:0:0:0:
395,214,159244,1,0,0:0:0:0:
395,213,159328,1,0,0:0:0:0:
396,212,159411,1,0,0:0:0:0:
396,211,159494,1,0,0:0:0:0:
396,210,159578,1,0,0:0:0:0:
397,209,159661,1,0,0:0:0:0:
397,209,159744,1,0,0:0:0:0:
398,208,159828,1,0,0:0:0:0:
398,207,159911,1,0,0:0:0:0:
398,206,159994,1,0,0:0:0:0:
399,205,160078,1,0,0:0:0:0:
399,204,160161,1,0,0:0:0:0:
399,203,160244,1,0,0:0:0:0:
400,202,160328,1,0,0:0:0:0:
400,201,160411,1,0,0:0:0:0:
400,200,160494,1,0,0:0:0:0:
401,199,160578,1,0,0:0:0:0:
401,198,160661,1,0,0:0:0:0:
401,197,160744,1,0,0:0:0:0:
402,196,160828,1,0,0:0:0:0:
402,195,160911,1,0,0:0:0:0:
402,194,160994,1,0,0:0:0:0:
402,193,161078,1,0,0:0:0:0:
403,192,161161,1,0,0:0:0:0:
403,191,161244,1,0,0:0:0:0:
403,190,161328,1,0,0:0:0:0:
403,190,161411,1,0,0:0:0:0:
403,189,161494,1,0,0:0:0:0:
404,188,161578,1,0,0:0:0:0:
404,187,161661,1,0,0:0:0:0:
404,186,161744,1,0,0:0:0:0:
404,185,161828,1,0,0:0:0:0:
404,184,161911,1,0,0:0:0:0:
404,183,161994,1,0,0:0:0:0:
404,182,162078,1,0,0:0:0:0:
404,181,162161,1,0,0:0:0:0:
404,180,162244,1,0,0:0:0:0:
405,179,162328,1,0,0:0:0:0:
405,178,162411,1,0,0:0:0:0:
405,177,162494,1,0,0:0:0:0:
405,176,162578,1,0,0:0:0:0:
405,175,162661,1,0,0:0:0:0:
405,174,162744,1,0,0:0:0:0:
405,173,162828,1,0,0:0:0:0:
405,172,162911,1,0,0:0:0:0:
405,171,162994,1,0,0:0:0:0:
405,170,163078,1,0,0:0:0:0:
405,169,163161,1,0,0:0:0:0:
405,168,163244,1,0,0:0:0:0:
404,167,163328,1,0,0:0:0:0:
404,166,163411,1,0,0:0:0:0:
404,165,163494,1,0,0:0:0:0:
404,164,163578,1,0,0:0:0:0:
404,163,163661,1,0,0:0:0:0:
404,162,163744,1,0,0:0:0:0:
404,161,163828,1,0,0:0:0:0:
404,160,163911,1,0,0:0:0:0:
403,159,163994,1,0,0:0:0:0:
403,158,164078,1,0,0:0:0:0:
403,157,164161,1,0,0:0:0:0:
403,156,164244,1,0,0:0:0:0:
402,155,164328,1,0,0:0:0:0:
402,154,164411,1,0,0:0:0:0:
402,153,164494,1,0,0:0:0:0:
402,152,164578,1,0,0:0:0:0:
401,151,164661,1,0,0:0:0:0:
401,150,164744,1,0,0:0:0:0:
401,149,164828,1,0,0:0:0:0:
401,148,164911,1,0,0:0:0:0:
400,147,164994,1,0,0:0:0:0:
400,146,165078,1,0,0:0:0:0:
399,145,165161,1,0,0:0:0:0:
399,144,165244,1,0,0:0:0:0:
399,143,165328,1,0,0:0:0:0:
398,142,165411,1,0,0:0:0:0:
398,142,165494,1,0,0:0:0:0:
397,141,165578,1,0,0:0:0:0:
397,140,165661,1,0,0:0:0:0:
397,139,165744,1,0,0:0:0:0:
396,138,165828,1,0,0:0:0:0:
396,137,165911,1,0,0:0:0:0:
395,136,165994,1,0,0:0:0:0:
395,135,166078,1,0,0:0:0:0:
394,134,166161,1,0,0:0:0:0:
394,134,166244,1,0,0:0:0:0:
393,133,166328,1,0,0:0:0:0:
393,132,166411,1,0,0:0:0:0:
392,131,166494,1,0,0:0:0:0:
392,130,166578,1,0,0:0:0:0:
391,129,166661,1,0,0:0:0:0:
390,129,166744,1,0,0:0:0:0:
390,128,166828,1,0,0:0:0:0:
389,127,166911,1,0,0:0:0:0:
389,126,166994,1,0,0:0:0:0:
388,125,167078,1,0,0:0:0:0:
387,125,167161,1,0,0:0:0:0:
387,124,167244,1,0,0:0:0:0:
386,123,167328,1,0,0:0:0:0:
386,122,167411,1,0,0:0:0:0:
385,122,167494,1,0,0:0:0:0:
384,121,167578,1,0,0:0:0:0:
384,120,167661,1,0,0:0:0:0:
383,119,167744,1,0,0:0:0:0:
382,119,167828,1,0,0:0:0:0:
381,118,167911,1,0,0:0:0:0:
381,117,167994,1,0,0:0:0:0:
380,116,168078,1,0,0:0:0:0:
379,116,168161,1,0,0:0:0:0:
379,115,168244,1,0,0:0:0:0:
378,114,168328,1,0,0:0:0:0:
377,114,168411,1,0,0:0:0:0:
376,113,168494,1,0,0:0:0:0:
376,112,168578,1,0,0:0:0:0:
375,112,168661,1,0,0:0:0:0:
374,111,168744,1,0,0:0:0:0:
373,111,168828,1,0,0:0:0:0:
373,110,168911,1,0,0:0:0:0:
372,109,168994,1,0,0:0:0:0:
371,109,169078,1,0,0:0:0:0:
370,108,169161,1,0,0:0:0:0:
369,107,169244,1,0,0:0:0:0:
369,107,169328,1,0,0:0:0:0:
368,106,169411,1,0,0:0:0:0:
367,106,169494,1,0,0:0:0:0:
366,105,169578,1,0,0:0:0:0:
365,105,169661,1,0,0:0:0:0:
364,104,169744,1,0,0:0:0:0:
364,104,169828,1,0,0:0:0:0:
363,103,169911,1,0,0:0:0:0:
362,103,169994,1,0,0:0:0:0:
361,102,170078,1,0,0:0:0:0:
360,102,170161,1,0,0:0:0:0:
359,101,170244,1,0,0:0:0:0:
358,101,170328,1,0,0:0:0:0:
357,100,170411,1,0,0:0:0:0:
357,100,170494,1,0,0:0:0:0:
356,99,170578,1,0,0:0:0:0:
355,99,170661,1,0,0:0:0:0:
354,98,170744,1,0,0:0:0:0:
353,98,170828,1,0,0:0:0:0:
352,97,170911,1,0,0:0:0:0:
351,97,170994,1,0,0:0:0:0:
350,97,171078,1,0,0:0:0:0:
349,96,171161,1,0,0:0:0:0:
348,96,171244,1,0,0:0:0:0:
348,95,171328,1,0,0:0:0:0:
347,95,171411,1,0,0:0:0:0:
346,95,171494,1,0,0:0:0:0:
345,94,171578,1,0,0:0:0:0:
344,94,171661,1,0,0:0:0:0:
343,94,171744,1,0,0:0:0:0:
342,93,171828,1,0,0:0:0:0:
341,93,171911,1,0,0:0:0:0:
340,93,171994,1,0,0:0:0:0:
339,92,172078,1,0,0:0:0:0:
338,92,172161,1,0,0:0:0:0:
337,92,172244,1,0,0:0:0:0:
336,91,172328,1,0,0:0:0:0:
335,91,172411,1,0,0:0:0:0:
334,91,172494,1,0,0:0:0:0:
333,90,172578,1,0,0:0:0:0:
332,90,172661,1,0,0:0:0:0:
331,90,172744,1,0,0:0:0:0:
330,90,172828,1,0,0:0:0:0:
329,89,172911,1,0,0:0:0:0:
329,89,172994,1,0,0:0:0:0:
328,89,173078,1,0,0:0:0:0:
327,89,173161,1,0,0:0:0:0:
326,88,173244,1,0,0:0:0:0:
325,88,173328,1,0,0:0:0:0:
324,88,173411,1,0,0:0:0:0:
323,88,173494,1,0,0:0:0:0:
322,88,173578,1,0,0:0:0:0:
321,87,173661,1,0,0:0:0:0:
320,87,173744,1,0,0:0:0:0:
319,87,173828,1,0,0:0:0:0:
318,87,173911,1,0,0:0:0:0:
317,87,173994,1,0,0:0:0:0:
316,87,174078,1,0,0:0:0:0:
315,86,174161,1,0,0:0:0:0:
314,86,174244,1,0,0:0:0:0:
313,86,174328,1,0,0:0:0:0:
312,86,174411,1,0,0:0:0:0:
311,86,174494,1,0,0:0:0:0:
310,86,174578,1,0,0:0:0:0:
309,86,174661,1,0,0:0:0:0:
308,86,174744,1,0,0:0:0:0:
307,85,174828,1,0,0:0:0:0:
306,85,174911,1,0,0:0:0:0:
305,85,174994,1,0,0:0:0:0:
304,85,175078,1,0,0:0:0:0:
303,85,175161,1,0,0:0:0:0:
302,85,175244,1,0,0:0:0:0:
301,85,175328,1,0,0:0:0:0:
300,85,175411,1,0,0:0:0:0:
299,85,175494,1,0,0:0:0:0:
298,85,175578,1,0,0:0:0:0:
297,85,175661,1,0,0:0:0:0:
296,85,175744,1,0,0:0:0:0:
295,85,175828,1,0,0:0:0:0:
294,85,175911,1,0,0:0:0:0:
293,85,175994,1,0,0:0:0:0:
292,85,176078,1,0,0:0:0:0:
291,85,176161,1,0,0:0:0:0:
290,85,176244,1,0,0:0:0:0:
289,85,176328,1,0,0:0:0:0:
288,85,176411,1,0,0:0:0:0:
287,85,176494,1,0,0:0:0:0:
286,85,176578,1,0,0:0:0:0:
285,85,176661,1,0,0:0:0:0:
284,85,176744,1,0,0:0:0:0:
283,85,176828,1,0,0:0:0:0:
282,85,176911,1,0,0:0:0:0:
281,85,176994,1,0,0:0:0:0:
280,85,177078,1,0,0:0:0:0:
279,85,177161,1,0,0:0:0:0:
278,85,177244,1,0,0:0:0:0:
277,85,177328,1,0,0:0:0:0:
276,85,177411,1,0,0:0:0:0:
275,85,177494,1,0,0:0:0:0:
274,85,177578,1,0,0:0:0:0:
273,86,177661,1,0,0:0:0:0:
272,86,177744,1,0,0:0:0:0:
271,86,177828,1,0,0:0:0:0:
270,86,177911,1,0,0:0:0:0:
269,86,177994,1,0,0:0:0:0:
268,86,178078,1,0,0:0:0:0:
267,86,178161,1,0,0:0:0:0:
266,86,178244,1,0,0:0:0:0:
265,86,178328,1,0,0:0:0:0:
264,87,178411,1,0,0:0:0:0:
263,87,178494,1,0,0:0:0:0:
262,87,178578,1,0,0:0:0:0:
261,87,178661,1,0,0:0:0:0:
260,87,178744,1,0,0:0:0:0:
259,87,178828,1,0,0:0:0:0:
258,87,178911,1,0,0:0:0:0:
257,88,178994,1,0,0:0:0:0:
256,88,179078,1,0,0:0:0:0:
255,88,179161,1,0,0:0:0:0:
254,88,179244,1,0,0:0:0:0:
253,88,179328,1,0,0:0:0:0:
252,89,179411,1,0,0:0:0:0:
251,89,179494,1,0,0:0:0:0:
250,89,179578,1,0,0:0:0:0:
249,89,179661,1,0,0:0:0:0:
248,89,179744,1,0,0:0:0:0:
247,90,179828,1,0,0:0:0:0:
246,90,179911,1,0,0:0:0:0:
245,90,179994,1,0,0:0:0:0:
244,90,180078,1,0,0:0:0:0:
243,91,180161,1,0,0:0:0:0:
242,91,180244,1,0,0:0:0:0:
241,91,180328,1,0,0:0:0:0:
240,91,180411,1,0,0:0:0:0:
239,92,180494,1,0,0:0:0:0:
239,92,180578,1,0,0:0:0:0:
238,92,180661,1,0,0:0:0:0:
237,92,180744,1,0,0:0:0:0:
236,93,180828,1,0,0:0:0:0:
235,93,180911,1,0,0:0:0:0:
234,93,180994,1,0,0:0:0:0:
233,93,181078,1,0,0:0:0:0:
232,94,181161,1,0,0:0:0:0:
231,94,181244,1,0,0:0:0:0:
230,94,181328,1,0,0:0:0:0:
229,95,181411,1,0,0:0:0:0:
228,95,181494,1,0,0:0:0:0:
227,95,181578,1,0,0:0:0:0:
226,96,181661,1,0,0:0:0:0:
225,96,181744,1,0,0:0:0:0:
224,96,181828,1,0,0:0:0:0:
223,97,181911,1,0,0:0:0:0:
222,97,181994,1,0,0:0:0:0:
221,97,182078,1,0,0:0:0:0:
220,98,182161,1,0,0:0:0:0:
219,98,182244,1,0,0:0:0:0:
219,98,182328,1,0,0:0:0:0:
218,99,182411,1,0,0:0:0:0:
217,99,182494,1,0,0:0:0:0:
216,99,182578,1,0,0:0:0:0:
215,100,182661,1,0,0:0:0:0:
214,100,182744,1,0,0:0:0:0:
213,100,182828,1,0,0:0:0:0:
212,101,182911,1,0,0:0:0:0:
211,101,182994,1,0,0:0:0:0:
210,101,183078,1,0,0:0:0:0:
209,102,183161,1,0,0:0:0:0:
208,102,183244,1,0,0:0:0:0:
207,103,183328,1,0,0:0:0:0:
206,103,183411,1,0,0:0:0:0:
206,103,183494,1,0,0:0:0:0:
205,104,183578,1,0,0:0:0:0:
204,104,183661,1,0,0:0:0:0:
203,105,183744,1,0,0:0:0:0:
202,105,183828,1,0,0:0:0:0:
201,105,183911,1,0,0:0:0:0:
200,106,183994,1,0,0:0:0:0:
199,106,184078,1,0,0:0:0:0:
198,107,184161,1,0,0:0:0:0:
197,107,184244,1,0,0:0:0:0:
196,107,184328,1,0,0:0:0:0:
195,108,184411,1,0,0:0:0:0:
195,108,184494,1,0,0:0:0:0:
194,109,184578,1,0,0:0:0:0:
193,109,184661,1,0,0:0:0:0:
192,110,184744,1,0,0:0:0:0:
191,110,184828,1,0,0:0:0:0:
190,110,184911,1,0,0:0:0:0:
189,111,184994,1,0,0:0:0:0:
188,111,185078,1,0,0:0:0:0:
187,112,185161,1,0,0:0:0:0:
186,112,185244,1,0,0:0:0:0:
186,113,185328,1,0,0:0:0:0:
185,113,185411,1,0,0:0:0:0:
184,114,185494,1,0,0:0:0:0:
183,114,185578,1,0,0:0:0:0:
182,115,185661,1,0,0:0:0:0:
181,115,185744,1,0,0:0:0:0:
180,115,185828,1,0,0:0:0:0:
179,116,185911,1,0,0:0:0:0:
178,116,185994,1,0,0:0:0:0:
178,117,186078,1,0,0:0:0:0:
177,117,186161,1,0,0:0:0:0:
176,118,186244,1,0,0:0:0:0:
175,118,186328,1,0,0:0:0:0:
174,119,186411,1,0,0:0:0:0:
