osu file format v14

[General]
AudioFilename: mint tears.mp3
AudioLeadIn: 0
PreviewTime: 66034
Countdown: 0
SampleSet: Normal
StackLeniency: 0.7
Mode: 1
LetterboxInBreaks: 0
WidescreenStoryboard: 1

[Editor]
Bookmarks: 300,4129,15619,25831,44980,56460,66682,87108,97321,107524
DistanceSpacing: 1
BeatDivisor: 4
GridSize: 32
TimelineZoom: 2.599999

[Metadata]
Title:mint tears
TitleUnicode:mint tears
Artist:cotoribbon
ArtistUnicode:cotoribbon
Creator:OnosakiHito
Version:Muzukashii
Source:太鼓の達人
Tags:Taiko no Tatsujin tnt フルコンボ! Full Combo! Original Soundtrack OST オリジナル サウンドトラック Video Game Japanese English silver coin ribbon room NAMCO ナムコ Arcade AC13 pop
BeatmapID:655054
BeatmapSetID:53430

[Difficulty]
HPDrainRate:7
CircleSize:5
OverallDifficulty:4.5
ApproachRate:5
SliderMultiplier:1.4
SliderTickRate:1

[Events]
//Background and Video events
0,0,"Taiko_BG.jpg",0,0
//Break Periods
2,87298,96111
//Storyboard Layer 0 (Background)
//Storyboard Layer 1 (Fail)
//Storyboard Layer 2 (Pass)
//Storyboard Layer 3 (Foreground)
//Storyboard Layer 4 (Overlay)
//Storyboard Sound Samples

[TimingPoints]
290,319.148936170213,4,1,0,80,1,0
25821,-100,4,1,0,80,0,1
46247,-100,4,1,0,80,0,0
97311,-100,4,1,0,80,0,1
107204,-100,4,1,0,80,0,0

[HitObjects]
256,192,4119,5,8,0:0:0:0:
256,192,4438,1,8,0:0:0:0:
256,192,4758,1,8,0:0:0:0:
256,192,4917,1,8,0:0:0:0:
256,192,5077,1,8,0:0:0:0:
256,192,5396,5,4,0:0:0:0:
256,192,5715,5,8,0:0:0:0:
256,192,5875,5,0,0:0:0:0:
256,192,6034,1,0,0:0:0:0:
256,192,6194,1,0,0:0:0:0:
256,192,6353,5,8,0:0:0:0:
256,192,6513,1,8,0:0:0:0:
256,192,6832,1,8,0:0:0:0:
256,192,6992,5,0,0:0:0:0:
256,192,7151,1,0,0:0:0:0:
256,192,7311,5,8,0:0:0:0:
256,192,7630,1,8,0:0:0:0:
256,192,7949,5,0,0:0:0:0:
256,192,8268,5,8,0:0:0:0:
256,192,8428,1,8,0:0:0:0:
256,192,8587,5,0,0:0:0:0:
256,192,8747,1,0,0:0:0:0:
256,192,8907,5,8,0:0:0:0:
256,192,9066,5,0,0:0:0:0:
256,192,9385,1,0,0:0:0:0:
256,192,9545,5,8,0:0:0:0:
256,192,9704,1,8,0:0:0:0:
256,192,9864,5,0,0:0:0:0:
256,192,10183,5,8,0:0:0:0:
256,192,10502,5,0,0:0:0:0:
256,192,10821,5,8,0:0:0:0:
256,192,10981,1,8,0:0:0:0:
256,192,11300,1,8,0:0:0:0:
256,192,11460,1,8,0:0:0:0:
256,192,11779,5,0,0:0:0:0:
256,192,12098,5,8,0:0:0:0:
256,192,12258,1,8,0:0:0:0:
256,192,12577,1,8,0:0:0:0:
256,192,12736,1,8,0:0:0:0:
256,192,13055,5,0,0:0:0:0:
256,192,13375,5,8,0:0:0:0:
256,192,13534,1,8,0:0:0:0:
256,192,13694,5,0,0:0:0:0:
256,192,14013,5,8,0:0:0:0:
256,192,14172,1,8,0:0:0:0:
256,192,14332,5,0,0:0:0:0:
256,192,14651,1,0,0:0:0:0:
256,192,14970,5,8,0:0:0:0:
256,192,15130,1,8,0:0:0:0:
256,192,15290,1,8,0:0:0:0:
256,192,15609,5,4,0:0:0:0:
256,192,16087,5,8,0:0:0:0:
256,192,16247,5,0,0:0:0:0:
256,192,16407,1,0,0:0:0:0:
256,192,16566,5,8,0:0:0:0:
256,192,16726,1,8,0:0:0:0:
256,192,17045,1,8,0:0:0:0:
256,192,17204,5,8,0:0:0:0:
256,192,17524,5,8,0:0:0:0:
256,192,17843,1,8,0:0:0:0:
256,192,18162,5,0,0:0:0:0:
256,192,18641,5,8,0:0:0:0:
256,192,18800,5,0,0:0:0:0:
256,192,18960,1,0,0:0:0:0:
256,192,19119,5,8,0:0:0:0:
256,192,19279,5,0,0:0:0:0:
256,192,19598,5,8,0:0:0:0:
256,192,19917,5,0,0:0:0:0:
256,192,20236,5,8,0:0:0:0:
256,192,20555,5,0,0:0:0:0:
256,192,20715,1,0,0:0:0:0:
256,192,21194,5,8,0:0:0:0:
256,192,21353,5,0,0:0:0:0:
256,192,21513,1,0,0:0:0:0:
256,192,21672,5,8,0:0:0:0:
256,192,21832,1,8,0:0:0:0:
256,192,22151,1,8,0:0:0:0:
256,192,22311,5,0,0:0:0:0:
256,192,22470,1,0,0:0:0:0:
256,192,22630,5,8,0:0:0:0:
256,192,22949,1,8,0:0:0:0:
256,192,23268,5,0,0:0:0:0:
256,192,23587,5,8,0:0:0:0:
256,192,23747,5,0,0:0:0:0:
256,192,24066,5,8,0:0:0:0:
256,192,24385,1,8,0:0:0:0:
256,192,24545,5,0,0:0:0:0:
256,192,25821,1,0,0:0:0:0:
256,192,26141,1,0,0:0:0:0:
256,192,26460,1,0,0:0:0:0:
256,192,26619,1,0,0:0:0:0:
256,192,26699,1,0,0:0:0:0:
256,192,26779,1,0,0:0:0:0:
256,192,26938,1,0,0:0:0:0:
256,192,27258,1,0,0:0:0:0:
256,192,27417,1,0,0:0:0:0:
256,192,27736,5,8,0:0:0:0:
256,192,28055,1,8,0:0:0:0:
256,192,28375,5,0,0:0:0:0:
256,192,28534,1,0,0:0:0:0:
256,192,28853,1,0,0:0:0:0:
256,192,29013,1,0,0:0:0:0:
256,192,29172,1,0,0:0:0:0:
256,192,29252,1,0,0:0:0:0:
256,192,29332,1,0,0:0:0:0:
256,192,29492,1,0,0:0:0:0:
256,192,29811,1,0,0:0:0:0:
256,192,29970,1,0,0:0:0:0:
256,192,30290,5,8,0:0:0:0:
256,192,30449,1,8,0:0:0:0:
256,192,30609,1,8,0:0:0:0:
256,192,30928,5,0,0:0:0:0:
256,192,31247,1,0,0:0:0:0:
256,192,31566,1,0,0:0:0:0:
256,192,31726,1,0,0:0:0:0:
256,192,31805,1,0,0:0:0:0:
256,192,31885,1,0,0:0:0:0:
256,192,32045,1,0,0:0:0:0:
256,192,32364,1,0,0:0:0:0:
256,192,32524,1,0,0:0:0:0:
256,192,32843,5,8,0:0:0:0:
256,192,33162,1,8,0:0:0:0:
256,192,33481,5,0,0:0:0:0:
256,192,33641,1,0,0:0:0:0:
256,192,33960,1,0,0:0:0:0:
256,192,34119,1,0,0:0:0:0:
256,192,34279,1,0,0:0:0:0:
256,192,34359,1,0,0:0:0:0:
256,192,34438,1,0,0:0:0:0:
256,192,34598,1,0,0:0:0:0:
256,192,34917,5,8,0:0:0:0:
256,192,35077,1,8,0:0:0:0:
256,192,35396,1,8,0:0:0:0:
256,192,35555,1,8,0:0:0:0:
256,192,35635,1,8,0:0:0:0:
256,192,35715,1,8,0:0:0:0:
256,192,36034,5,0,0:0:0:0:
256,192,36194,1,0,0:0:0:0:
256,192,36353,1,0,0:0:0:0:
256,192,36672,1,0,0:0:0:0:
256,192,36832,1,0,0:0:0:0:
256,192,36912,1,0,0:0:0:0:
256,192,36992,1,0,0:0:0:0:
256,192,37151,1,0,0:0:0:0:
256,192,37470,1,0,0:0:0:0:
256,192,37630,1,0,0:0:0:0:
256,192,37949,5,8,0:0:0:0:
256,192,38268,1,8,0:0:0:0:
256,192,38587,5,0,0:0:0:0:
256,192,38747,1,0,0:0:0:0:
256,192,39066,1,0,0:0:0:0:
256,192,39146,1,0,0:0:0:0:
256,192,39226,1,0,0:0:0:0:
256,192,39545,1,0,0:0:0:0:
256,192,39704,1,0,0:0:0:0:
256,192,40024,1,0,0:0:0:0:
256,192,40183,1,0,0:0:0:0:
256,192,40343,1,0,0:0:0:0:
256,192,40502,5,8,0:0:0:0:
256,192,40662,1,8,0:0:0:0:
256,192,40821,1,8,0:0:0:0:
256,192,41141,5,0,0:0:0:0:
256,192,41300,1,0,0:0:0:0:
256,192,41460,1,0,0:0:0:0:
256,192,41619,1,0,0:0:0:0:
256,192,41699,1,0,0:0:0:0:
256,192,41779,1,0,0:0:0:0:
256,192,41938,1,0,0:0:0:0:
256,192,42258,1,0,0:0:0:0:
256,192,42577,1,0,0:0:0:0:
256,192,42736,1,0,0:0:0:0:
256,192,43055,5,8,0:0:0:0:
256,192,43375,1,8,0:0:0:0:
256,192,43694,5,0,0:0:0:0:
256,192,43853,1,0,0:0:0:0:
256,192,44172,1,0,0:0:0:0:
256,192,44332,1,0,0:0:0:0:
256,192,44412,1,0,0:0:0:0:
256,192,44492,1,0,0:0:0:0:
256,192,44651,1,0,0:0:0:0:
256,192,44811,1,0,0:0:0:0:
256,192,45130,1,8,0:0:0:0:
256,192,45290,1,8,0:0:0:0:
256,192,45609,1,8,0:0:0:0:
256,192,45928,1,8,0:0:0:0:
256,192,46247,5,0,0:0:0:0:
256,192,46885,1,0,0:0:0:0:
256,192,47045,1,0,0:0:0:0:
256,192,47364,1,0,0:0:0:0:
256,192,47683,1,0,0:0:0:0:
256,192,48002,1,0,0:0:0:0:
256,192,48162,1,0,0:0:0:0:
256,192,48800,5,8,0:0:0:0:
256,192,49438,1,0,0:0:0:0:
256,192,49598,1,0,0:0:0:0:
256,192,49758,1,0,0:0:0:0:
256,192,49917,1,0,0:0:0:0:
256,192,50236,1,0,0:0:0:0:
256,192,50555,1,0,0:0:0:0:
256,192,50715,1,0,0:0:0:0:
256,192,51034,1,0,0:0:0:0:
256,192,51353,5,8,0:0:0:0:
256,192,52311,1,0,0:0:0:0:
256,192,52630,5,8,0:0:0:0:
256,192,53268,5,0,0:0:0:0:
256,192,53587,1,0,0:0:0:0:
256,192,53907,5,8,0:0:0:0:
256,192,54226,5,0,0:0:0:0:
256,192,54385,5,8,0:0:0:0:
256,192,54704,5,0,0:0:0:0:
256,192,55024,5,8,0:0:0:0:
256,192,55183,5,0,0:0:0:0:
256,192,55502,1,0,0:0:0:0:
256,192,55821,5,8,0:0:0:0:
256,192,55981,1,8,0:0:0:0:
256,192,56300,1,8,0:0:0:0:
256,192,56460,5,0,0:0:0:0:
256,192,56779,5,8,0:0:0:0:
256,192,57098,1,0,0:0:0:0:
256,192,57258,1,0,0:0:0:0:
256,192,57417,5,8,0:0:0:0:
256,192,57577,5,0,0:0:0:0:
256,192,57896,1,0,0:0:0:0:
256,192,58055,5,8,0:0:0:0:
256,192,58375,5,0,0:0:0:0:
256,192,58694,5,8,0:0:0:0:
256,192,59013,5,0,0:0:0:0:
256,192,59332,5,8,0:0:0:0:
256,192,59492,5,0,0:0:0:0:
256,192,59651,1,0,0:0:0:0:
256,192,59811,1,0,0:0:0:0:
256,192,59970,5,8,0:0:0:0:
256,192,60130,5,0,0:0:0:0:
256,192,60449,1,0,0:0:0:0:
256,192,60609,5,8,0:0:0:0:
256,192,60768,5,0,0:0:0:0:
256,192,61087,1,0,0:0:0:0:
256,192,61247,5,8,0:0:0:0:
256,192,61407,1,8,0:0:0:0:
256,192,61566,5,0,0:0:0:0:
256,192,61885,5,8,0:0:0:0:
256,192,62204,5,0,0:0:0:0:
256,192,62364,1,0,0:0:0:0:
256,192,62524,5,8,0:0:0:0:
256,192,62683,5,0,0:0:0:0:
256,192,63002,1,0,0:0:0:0:
256,192,63162,5,8,0:0:0:0:
256,192,63481,5,0,0:0:0:0:
256,192,63800,5,8,0:0:0:0:
256,192,63960,1,8,0:0:0:0:
256,192,64119,5,0,0:0:0:0:
256,192,64438,5,8,0:0:0:0:
256,192,64598,5,0,0:0:0:0:
256,192,64917,5,8,0:0:0:0:
256,192,65236,1,8,0:0:0:0:
256,192,65396,1,8,0:0:0:0:
256,192,66672,5,0,0:0:0:0:
256,192,66992,5,8,0:0:0:0:
256,192,67151,1,8,0:0:0:0:
256,192,67470,5,0,0:0:0:0:
256,192,67630,5,8,0:0:0:0:
256,192,67949,5,0,0:0:0:0:
256,192,68268,5,8,0:0:0:0:
256,192,68747,5,0,0:0:0:0:
256,192,68907,5,8,0:0:0:0:
256,192,69226,5,0,0:0:0:0:
256,192,69545,5,8,0:0:0:0:
256,192,69704,1,8,0:0:0:0:
256,192,70024,5,0,0:0:0:0:
256,192,70183,5,8,0:0:0:0:
256,192,70502,5,0,0:0:0:0:
256,192,70662,1,0,0:0:0:0:
256,192,70821,5,8,0:0:0:0:
256,192,70981,5,0,0:0:0:0:
256,192,71460,5,8,0:0:0:0:
256,192,71779,5,0,0:0:0:0:
256,192,72098,5,8,0:0:0:0:
256,192,72258,1,8,0:0:0:0:
256,192,72577,5,0,0:0:0:0:
256,192,72736,5,8,0:0:0:0:
256,192,73055,5,0,0:0:0:0:
256,192,73375,5,8,0:0:0:0:
256,192,73853,5,0,0:0:0:0:
256,192,74013,5,8,0:0:0:0:
256,192,74332,5,0,0:0:0:0:
256,192,74651,5,8,0:0:0:0:
256,192,74811,1,8,0:0:0:0:
256,192,75130,5,0,0:0:0:0:
256,192,75290,5,8,0:0:0:0:
256,192,75609,5,0,0:0:0:0:
256,192,75768,1,0,0:0:0:0:
256,192,75928,5,8,0:0:0:0:
256,192,76087,5,0,0:0:0:0:
256,192,76407,1,0,0:0:0:0:
256,192,76566,5,8,0:0:0:0:
256,192,76885,5,0,0:0:0:0:
256,192,77205,5,8,0:0:0:0:
256,192,77364,1,8,0:0:0:0:
256,192,77683,5,0,0:0:0:0:
256,192,77843,5,8,0:0:0:0:
256,192,78162,5,0,0:0:0:0:
256,192,78481,5,8,0:0:0:0:
256,192,78641,1,8,0:0:0:0:
256,192,78960,5,0,0:0:0:0:
256,192,79120,1,0,0:0:0:0:
256,192,79439,1,0,0:0:0:0:
256,192,79758,5,8,0:0:0:0:
256,192,79917,1,8,0:0:0:0:
256,192,80237,5,0,0:0:0:0:
256,192,80396,5,8,0:0:0:0:
256,192,80715,5,0,0:0:0:0:
256,192,80875,1,0,0:0:0:0:
256,192,81034,5,8,0:0:0:0:
256,192,81194,5,0,0:0:0:0:
256,192,81673,5,8,0:0:0:0:
256,192,81992,5,0,0:0:0:0:
256,192,82311,5,8,0:0:0:0:
256,192,82471,1,8,0:0:0:0:
256,192,82790,5,0,0:0:0:0:
256,192,82949,5,8,0:0:0:0:
256,192,83268,5,0,0:0:0:0:
256,192,83588,5,8,0:0:0:0:
256,192,83747,1,8,0:0:0:0:
256,192,84066,5,0,0:0:0:0:
256,192,84226,1,0,0:0:0:0:
256,192,84545,1,0,0:0:0:0:
256,192,84864,5,8,0:0:0:0:
256,192,85024,1,8,0:0:0:0:
256,192,85343,5,0,0:0:0:0:
256,192,85503,5,8,0:0:0:0:
256,192,85662,5,0,0:0:0:0:
256,192,85981,1,0,0:0:0:0:
256,192,86141,5,8,0:0:0:0:
256,192,86300,5,0,0:0:0:0:
256,192,86460,1,0,0:0:0:0:
256,192,86620,1,0,0:0:0:0:
256,192,86779,5,8,0:0:0:0:
256,192,87098,5,4,0:0:0:0:
256,192,97311,5,0,0:0:0:0:
256,192,97470,1,0,0:0:0:0:
256,192,97630,5,8,0:0:0:0:
256,192,97790,5,0,0:0:0:0:
256,192,98109,1,0,0:0:0:0:
256,192,98268,5,8,0:0:0:0:
256,192,98428,1,8,0:0:0:0:
256,192,98747,5,0,0:0:0:0:
256,192,98907,5,8,0:0:0:0:
256,192,99066,5,0,0:0:0:0:
256,192,99385,5,0,0:0:0:0:
256,192,99545,5,8,0:0:0:0:
256,192,99704,1,8,0:0:0:0:
256,192,100024,5,0,0:0:0:0:
256,192,100183,5,8,0:0:0:0:
256,192,100343,5,0,0:0:0:0:
256,192,100662,1,0,0:0:0:0:
256,192,100821,5,8,0:0:0:0:
256,192,100981,1,8,0:0:0:0:
256,192,101141,5,0,0:0:0:0:
256,192,101460,1,0,0:0:0:0:
256,192,101779,5,8,0:0:0:0:
256,192,101938,1,8,0:0:0:0:
256,192,102018,1,8,0:0:0:0:
256,192,102098,1,8,0:0:0:0:
256,192,102258,1,8,0:0:0:0:
256,192,102417,5,0,0:0:0:0:
256,192,102577,1,0,0:0:0:0:
256,192,102736,5,8,0:0:0:0:
256,192,102896,5,0,0:0:0:0:
256,192,103215,1,0,0:0:0:0:
256,192,103375,5,8,0:0:0:0:
256,192,103534,1,8,0:0:0:0:
256,192,103853,5,0,0:0:0:0:
256,192,104013,5,8,0:0:0:0:
256,192,104172,5,0,0:0:0:0:
256,192,104332,1,0,0:0:0:0:
256,192,104492,1,0,0:0:0:0:
256,192,104651,5,8,0:0:0:0:
256,192,104811,1,8,0:0:0:0:
256,192,105130,5,0,0:0:0:0:
256,192,105290,5,8,0:0:0:0:
256,192,105449,5,0,0:0:0:0:
256,192,105609,5,8,0:0:0:0:
256,192,105768,1,8,0:0:0:0:
256,192,105928,5,0,0:0:0:0:
256,192,106087,5,8,0:0:0:0:
256,192,106247,5,0,0:0:0:0:
256,192,106566,1,0,0:0:0:0:
256,192,106885,5,8,0:0:0:0:
256,192,107045,1,8,0:0:0:0:
256,192,107204,1,8,0:0:0:0:
256,192,107284,1,8,0:0:0:0:
256,192,107364,1,8,0:0:0:0:
