osu file format v14

[General]
AudioFilename: audio.mp3
AudioLeadIn: 0
PreviewTime: 30902
Countdown: 1
SampleSet: None
StackLeniency: 0.7
Mode: 1
LetterboxInBreaks: 0
WidescreenStoryboard: 1

[Editor]
Bookmarks: 121738,122022,122307,122591,122875,123160
DistanceSpacing: 1.2
BeatDivisor: 2
GridSize: 8
TimelineZoom: 1.3

[Metadata]
Title:Dangan Notes
TitleUnicode:ダンガンノーツ
Artist:cosmo@BousouP
ArtistUnicode:cosMo@暴走P
Creator:cdhsausageboy
Version:Authentic Futsuu
Source:太鼓の達人 ブルーVer.
Tags:nottsu taiko no tatsujin blue ver version namco original ナムコオリジナル
BeatmapID:1714753
BeatmapSetID:817658

[Difficulty]
HPDrainRate:7
CircleSize:2
OverallDifficulty:3
ApproachRate:5
SliderMultiplier:1.3999999666214
SliderTickRate:1

[Events]
//Background and Video events
0,0,"idk.jpg",0,150
//Break Periods
2,64816,66273
//Storyboard Layer 0 (Background)
//Storyboard Layer 1 (Fail)
//Storyboard Layer 2 (Pass)
//Storyboard Layer 3 (Foreground)
//Storyboard Sound Samples

[TimingPoints]
1190,571.428571428571,4,1,0,70,1,0
19475,571.428571428571,2,1,0,70,1,0
20617,285.714285714286,5,1,0,70,1,0
20617,-100,5,1,0,70,0,0
20688,285.714285714286,5,1,0,70,1,0
20688,-83.3333333333333,5,1,0,70,0,0
20759,285.714285714286,5,1,0,70,1,0
20759,-71.4285714285714,5,1,0,70,0,0
20830,285.714285714286,5,1,0,70,1,0
20830,-62.5,5,1,0,70,0,0
20901,285.714285714286,5,1,0,70,1,0
20901,-55.5555555555556,5,1,0,70,0,0
20972,285.714285714286,5,1,0,70,1,0
20972,-50,5,1,0,70,0,0
21043,285.714285714286,5,1,0,70,1,0
21043,-45.4545454545455,5,1,0,70,0,0
21114,285.714285714286,5,1,0,70,1,0
21114,-41.6666666666667,5,1,0,70,0,0
21185,285.714285714286,5,1,0,70,1,0
21185,-38.4615384615385,5,1,0,70,0,0
21256,285.714285714286,5,1,0,70,1,0
21256,-35.7142857142857,5,1,0,70,0,0
21327,285.714285714286,5,1,0,70,1,0
21327,-33.3333333333333,5,1,0,70,0,0
21398,285.714285714286,5,1,0,70,1,0
21398,-31.25,5,1,0,70,0,0
21469,285.714285714286,5,1,0,70,1,0
21469,-29.4117647058824,5,1,0,70,0,0
21540,285.714285714286,5,1,0,70,1,0
21540,-27.7777777777778,5,1,0,70,0,0
21759,285.714285714286,4,1,0,70,1,0
40045,-100,4,1,0,70,0,1
49188,-100,4,1,0,70,0,0
62902,-100,4,1,0,70,0,1
66259,-100,4,1,0,70,0,0
67474,-100,4,1,0,70,0,1
85759,-100,4,1,0,70,0,0
94902,-100,4,1,0,70,0,1
104045,-100,4,1,0,70,0,0
108617,-100,4,1,0,70,0,1
117759,285.714285714286,5,1,0,70,1,0
117759,-100,5,1,0,70,0,0
118043,285.714285714286,5,1,0,70,1,0
118043,-103.092783505155,5,1,0,70,0,0
118327,285.714285714286,5,1,0,70,1,0
118327,-106.382978723404,5,1,0,70,0,0
118611,285.714285714286,5,1,0,70,1,0
118611,-109.89010989011,5,1,0,70,0,0
118896,285.714285714286,5,1,0,70,1,0
118896,-113.636363636364,5,1,0,70,0,0
119180,285.714285714286,5,1,0,70,1,0
119180,-117.647058823529,5,1,0,70,0,0
119464,285.714285714286,5,1,0,70,1,0
119464,-121.951219512195,5,1,0,70,0,0
119748,285.714285714286,5,1,0,70,1,0
119748,-126.582278481013,5,1,0,70,0,0
120033,285.714285714286,5,1,0,70,1,0
120033,-131.578947368421,5,1,0,70,0,0
120317,285.714285714286,5,1,0,70,1,0
120317,-136.986301369863,5,1,0,70,0,0
120601,285.714285714286,5,1,0,70,1,0
120601,-142.857142857143,5,1,0,70,0,0
120885,285.714285714286,5,1,0,70,1,0
120885,-149.253731343284,5,1,0,70,0,0
121170,285.714285714286,5,1,0,70,1,0
121170,-156.25,5,1,0,70,0,0
121454,285.714285714286,5,1,0,70,1,0
121454,-163.934426229508,5,1,0,70,0,0
121733,285.714285714286,5,1,0,70,1,0
121733,-172.413793103448,5,1,0,70,0,0
121738,285.714285714286,5,1,0,70,1,8
121738,-100,5,1,0,70,0,0
121807,-76.9230769230769,5,1,0,70,0,0
121878,-62.5,5,1,0,70,0,0
121950,-52.6315789473684,5,1,0,70,0,0
122017,285.714285714286,1,1,0,70,1,0
122017,-181.818181818182,1,1,0,70,0,0
122022,285.714285714286,1,1,0,70,1,8
122022,-45.4545454545455,1,1,0,70,0,0
122093,-40,5,1,0,70,0,0
122164,-35.7142857142857,5,1,0,70,0,0
122236,-32.258064516129,5,1,0,70,0,0
122302,285.714285714286,5,1,0,70,1,0
122302,-192.307692307692,5,1,0,70,0,0
122307,285.714285714286,5,1,0,70,1,8
122307,-29.4117647058824,5,1,0,70,0,0
122378,-27.027027027027,5,1,0,70,0,0
122449,-25,5,1,0,70,0,0
122521,-23.255813953488,5,1,0,70,0,0
122586,285.714285714286,5,1,0,70,1,0
122586,-204.081632653061,5,1,0,70,0,0
122591,285.714285714286,5,1,0,70,1,8
122591,-21.739130434782,5,1,0,70,0,0
122662,-20,5,1,0,70,0,0
122733,-16.666666666666,5,1,0,70,0,0
122805,-14.285714285714,5,1,0,70,0,0
122870,285.714285714286,5,1,0,70,1,0
122870,-217.391304347826,5,1,0,70,0,0
122875,285.714285714286,5,1,0,70,1,8
122875,-12.5,5,1,0,70,0,0
122946,-11.11111111111,5,1,0,70,0,0
123017,-10,5,1,0,70,0,0
123089,-9.090909090909,5,1,0,70,0,0
123155,285.714285714286,5,1,0,70,1,0
123155,-232.558139534884,5,1,0,70,0,0
123160,285.714285714286,5,1,0,70,1,8
123160,-8.3333333333333,5,1,0,70,0,0
123231,-7.6923076923076,5,1,0,70,0,0
123302,-7.1428571428571,5,1,0,70,0,0
123374,-6.6666666666666,5,1,0,70,0,0
123444,285.714285714286,5,1,0,70,1,0
123444,-250,5,1,0,70,0,0
123728,285.714285714286,5,1,0,70,1,0
123728,-263.157894736842,5,1,0,70,0,0
124012,285.714285714286,5,1,0,70,1,0
124012,-277.777777777778,5,1,0,70,0,0
124297,285.714285714286,5,1,0,70,1,0
124297,-294.117647058824,5,1,0,70,0,0
124581,285.714285714286,5,1,0,70,1,0
124581,-312.5,5,1,0,70,0,0
124865,285.714285714286,5,1,0,70,1,0
124865,-333.333333333333,5,1,0,70,0,0
125149,285.714285714286,5,1,0,70,1,0
125149,-357.142857142857,5,1,0,70,0,0
125434,285.714285714286,5,1,0,70,1,0
125434,-384.615384615385,5,1,0,70,0,0

[HitObjects]
177,191,1190,5,0,0:0:0:0:
242,173,3475,1,0,0:0:0:0:
223,133,5761,1,0,0:0:0:0:
230,131,8047,1,0,0:0:0:0:
190,151,10332,1,0,0:0:0:0:
190,151,10904,1,8,0:0:0:0:
229,148,11761,1,0,0:0:0:0:
398,177,12047,1,8,0:0:0:0:
190,151,12618,1,0,0:0:0:0:
190,151,13190,1,8,0:0:0:0:
229,148,14047,1,0,0:0:0:0:
398,177,14333,1,8,0:0:0:0:
190,151,14904,1,0,0:0:0:0:
190,151,15476,1,8,0:0:0:0:
229,148,16333,1,0,0:0:0:0:
398,177,16619,1,8,0:0:0:0:
190,151,17189,1,0,0:0:0:0:
190,151,17761,1,8,0:0:0:0:
229,148,18618,1,0,0:0:0:0:
398,177,18904,1,8,0:0:0:0:
168,200,19475,1,4,0:0:0:0:
124,145,21759,5,0,0:0:0:0:
389,233,22044,1,0,0:0:0:0:
124,145,22330,1,0,0:0:0:0:
389,233,22473,1,0,0:0:0:0:
124,145,22616,1,0,0:0:0:0:
124,145,22901,1,0,0:0:0:0:
389,233,23187,1,0,0:0:0:0:
124,145,23473,1,0,0:0:0:0:
335,153,23616,1,0,0:0:0:0:
356,190,23759,1,8,0:0:0:0:
124,145,24044,5,0,0:0:0:0:
389,233,24329,1,0,0:0:0:0:
124,145,24615,1,0,0:0:0:0:
389,233,24758,1,0,0:0:0:0:
124,145,24901,1,0,0:0:0:0:
305,149,25187,1,0,0:0:0:0:
305,149,25473,1,0,0:0:0:0:
124,145,25759,1,8,0:0:0:0:
482,188,25901,1,8,0:0:0:0:
124,145,26045,1,8,0:0:0:0:
124,145,26330,5,0,0:0:0:0:
389,233,26615,1,0,0:0:0:0:
124,145,26901,1,0,0:0:0:0:
389,233,27044,1,0,0:0:0:0:
124,145,27187,1,0,0:0:0:0:
124,145,27472,1,0,0:0:0:0:
389,233,27758,1,0,0:0:0:0:
124,145,28044,1,0,0:0:0:0:
335,153,28187,1,0,0:0:0:0:
356,190,28330,1,8,0:0:0:0:
124,145,28615,5,0,0:0:0:0:
389,233,28900,1,0,0:0:0:0:
124,145,29186,1,0,0:0:0:0:
389,233,29329,1,0,0:0:0:0:
124,145,29472,1,0,0:0:0:0:
256,192,29759,12,0,30330,0:0:0:0:
256,192,30330,8,0,30330,0:0:0:0:
103,160,30901,5,0,0:0:0:0:
336,150,31187,1,8,0:0:0:0:
124,145,31473,1,0,0:0:0:0:
291,143,31616,1,0,0:0:0:0:
195,169,31759,1,8,0:0:0:0:
124,145,32044,1,0,0:0:0:0:
368,197,32330,1,8,0:0:0:0:
341,218,32616,1,0,0:0:0:0:
341,218,32759,1,0,0:0:0:0:
124,145,32902,1,8,0:0:0:0:
274,178,33044,1,8,0:0:0:0:
103,160,33187,5,0,0:0:0:0:
336,150,33473,1,8,0:0:0:0:
124,145,33759,1,0,0:0:0:0:
291,143,33902,1,0,0:0:0:0:
195,169,34045,1,8,0:0:0:0:
124,145,34330,1,0,0:0:0:0:
368,197,34616,1,8,0:0:0:0:
341,218,34902,1,8,0:0:0:0:
341,218,35045,1,8,0:0:0:0:
124,145,35188,1,8,0:0:0:0:
274,178,35330,1,8,0:0:0:0:
103,160,35473,5,0,0:0:0:0:
336,150,35759,1,8,0:0:0:0:
124,145,36045,1,0,0:0:0:0:
291,143,36188,1,0,0:0:0:0:
195,169,36331,1,8,0:0:0:0:
124,145,36616,1,0,0:0:0:0:
368,197,36902,1,8,0:0:0:0:
341,218,37188,1,0,0:0:0:0:
341,218,37331,1,0,0:0:0:0:
124,145,37474,1,8,0:0:0:0:
274,178,37616,1,8,0:0:0:0:
103,160,37759,5,0,0:0:0:0:
336,150,38045,5,8,0:0:0:0:
124,145,38331,5,0,0:0:0:0:
291,143,38474,5,0,0:0:0:0:
195,169,38617,5,8,0:0:0:0:
256,192,38901,12,0,39473,0:0:0:0:
232,190,40044,5,0,0:0:0:0:
232,190,40187,1,0,0:0:0:0:
232,190,40330,1,0,0:0:0:0:
214,144,40473,1,0,0:0:0:0:
232,190,40616,1,0,0:0:0:0:
347,222,40901,1,4,0:0:0:0:
360,143,41044,1,4,0:0:0:0:
191,217,41330,2,0,L|284:237,5,69.99999833107
232,190,42330,5,0,0:0:0:0:
232,190,42473,1,0,0:0:0:0:
232,190,42616,1,0,0:0:0:0:
214,144,42759,1,0,0:0:0:0:
232,190,42902,1,0,0:0:0:0:
347,222,43187,1,12,0:0:0:0:
360,143,43330,1,12,0:0:0:0:
122,194,43616,2,0,L|635:230,1,489.99998831749
232,190,44902,1,4,0:0:0:0:
318,154,45044,1,4,0:0:0:0:
232,190,45188,1,4,0:0:0:0:
216,120,45473,1,4,0:0:0:0:
241,205,45616,1,4,0:0:0:0:
191,217,45901,2,0,L|284:237,5,69.99999833107
232,190,46901,5,0,0:0:0:0:
232,190,47044,1,0,0:0:0:0:
232,190,47187,1,0,0:0:0:0:
214,144,47330,1,0,0:0:0:0:
232,190,47473,1,0,0:0:0:0:
347,222,47758,1,12,0:0:0:0:
360,143,47901,1,12,0:0:0:0:
256,192,48187,12,0,48901,0:0:0:0:
103,160,49187,5,0,0:0:0:0:
336,150,49473,1,8,0:0:0:0:
291,143,49616,1,8,0:0:0:0:
124,145,49759,1,0,0:0:0:0:
195,169,50045,1,8,0:0:0:0:
124,145,50330,1,0,0:0:0:0:
368,197,50616,1,8,0:0:0:0:
124,145,50759,1,8,0:0:0:0:
341,218,50902,1,0,0:0:0:0:
341,218,51045,1,0,0:0:0:0:
274,178,51187,1,8,0:0:0:0:
103,160,51473,5,0,0:0:0:0:
336,150,51759,1,8,0:0:0:0:
195,169,51901,1,8,0:0:0:0:
124,145,52045,1,0,0:0:0:0:
291,143,52330,1,8,0:0:0:0:
136,187,52616,2,0,L|573:257,1,419.99998998642
103,160,53759,5,0,0:0:0:0:
336,150,54045,1,8,0:0:0:0:
291,143,54188,1,8,0:0:0:0:
124,145,54331,1,0,0:0:0:0:
195,169,54617,1,8,0:0:0:0:
124,145,54902,1,0,0:0:0:0:
368,197,55188,1,8,0:0:0:0:
124,145,55331,1,8,0:0:0:0:
341,218,55474,1,0,0:0:0:0:
341,218,55617,1,0,0:0:0:0:
274,178,55759,1,8,0:0:0:0:
103,160,56045,5,0,0:0:0:0:
336,150,56331,1,8,0:0:0:0:
195,169,56473,1,8,0:0:0:0:
124,145,56617,1,0,0:0:0:0:
291,143,56902,1,8,0:0:0:0:
136,187,57187,2,0,L|573:257,1,419.99998998642
383,146,58330,5,8,0:0:0:0:
383,146,59473,1,8,0:0:0:0:
383,146,60616,1,8,0:0:0:0:
383,146,61187,1,8,0:0:0:0:
383,146,61759,1,8,0:0:0:0:
213,136,62330,1,4,0:0:0:0:
256,192,62901,12,0,64616,0:0:0:0:
424,168,67473,5,0,0:0:0:0:
424,168,67759,1,8,0:0:0:0:
424,168,67901,1,8,0:0:0:0:
424,168,68044,1,0,0:0:0:0:
358,183,68187,1,0,0:0:0:0:
369,192,68330,1,8,0:0:0:0:
424,168,68616,1,0,0:0:0:0:
358,183,68901,1,8,0:0:0:0:
358,183,69044,1,8,0:0:0:0:
202,138,69187,1,0,0:0:0:0:
339,164,69473,1,8,0:0:0:0:
424,168,69759,5,0,0:0:0:0:
286,164,69901,1,0,0:0:0:0:
424,168,70045,1,8,0:0:0:0:
424,168,70187,1,8,0:0:0:0:
424,168,70330,1,8,0:0:0:0:
261,140,70473,1,8,0:0:0:0:
424,168,70616,1,8,0:0:0:0:
86,137,70901,2,0,L|523:249,1,419.99998998642
424,168,72044,5,0,0:0:0:0:
424,168,72187,1,0,0:0:0:0:
248,17,72330,1,8,0:0:0:0:
424,168,72616,5,0,0:0:0:0:
424,168,72759,1,0,0:0:0:0:
248,17,72902,1,8,0:0:0:0:
424,168,73187,5,0,0:0:0:0:
424,168,73330,1,0,0:0:0:0:
248,17,73473,1,8,0:0:0:0:
424,168,73759,5,0,0:0:0:0:
424,168,73902,1,0,0:0:0:0:
248,17,74045,1,8,0:0:0:0:
311,90,74187,1,8,0:0:0:0:
282,228,74330,1,0,0:0:0:0:
269,160,74616,1,8,0:0:0:0:
256,159,75044,1,8,0:0:0:0:
256,159,75187,1,8,0:0:0:0:
256,159,75330,1,8,0:0:0:0:
256,192,75473,12,0,76044,0:0:0:0:
296,181,76616,5,0,0:0:0:0:
101,40,76901,1,8,0:0:0:0:
296,181,77044,1,8,0:0:0:0:
296,181,77187,1,0,0:0:0:0:
296,181,77330,1,0,0:0:0:0:
387,209,77473,1,8,0:0:0:0:
185,87,77759,2,0,L|596:198,1,419.99998998642
286,192,78901,1,4,0:0:0:0:
246,202,79473,1,4,0:0:0:0:
246,202,80044,1,4,0:0:0:0:
246,202,80616,1,4,0:0:0:0:
424,168,81187,5,0,0:0:0:0:
424,168,81330,1,0,0:0:0:0:
424,168,81473,1,0,0:0:0:0:
52,141,81616,1,0,0:0:0:0:
358,183,81758,1,8,0:0:0:0:
358,183,81900,1,8,0:0:0:0:
369,192,82043,1,8,0:0:0:0:
424,168,82329,1,0,0:0:0:0:
18,158,82473,1,0,0:0:0:0:
424,168,82615,1,0,0:0:0:0:
18,158,82759,1,0,0:0:0:0:
358,183,82901,1,8,0:0:0:0:
379,200,83044,1,8,0:0:0:0:
336,179,83187,1,8,0:0:0:0:
282,228,83473,1,0,0:0:0:0:
323,183,83759,1,8,0:0:0:0:
286,196,84187,1,8,0:0:0:0:
286,196,84330,1,8,0:0:0:0:
286,196,84473,1,8,0:0:0:0:
256,192,84616,12,8,85187,0:0:0:0:
103,160,85759,5,0,0:0:0:0:
336,150,86045,1,8,0:0:0:0:
124,145,86331,1,0,0:0:0:0:
291,143,86474,1,0,0:0:0:0:
195,169,86617,1,8,0:0:0:0:
124,145,86902,1,0,0:0:0:0:
368,197,87188,1,8,0:0:0:0:
341,218,87474,1,0,0:0:0:0:
341,218,87617,1,0,0:0:0:0:
124,145,87760,1,8,0:0:0:0:
103,160,88045,5,0,0:0:0:0:
336,150,88331,1,8,0:0:0:0:
124,145,88617,1,0,0:0:0:0:
291,143,88760,1,0,0:0:0:0:
195,169,88903,1,8,0:0:0:0:
124,145,89188,1,0,0:0:0:0:
368,197,89474,1,8,0:0:0:0:
341,218,89760,1,0,0:0:0:0:
341,218,89903,1,0,0:0:0:0:
124,145,90046,1,8,0:0:0:0:
274,178,90188,1,8,0:0:0:0:
103,160,90331,5,0,0:0:0:0:
368,197,90616,1,8,0:0:0:0:
341,218,90902,1,0,0:0:0:0:
341,218,91045,1,0,0:0:0:0:
124,145,91188,1,8,0:0:0:0:
274,178,91330,1,8,0:0:0:0:
103,160,91473,5,0,0:0:0:0:
354,147,91759,1,8,0:0:0:0:
354,147,91901,1,8,0:0:0:0:
388,162,92044,1,0,0:0:0:0:
388,162,92187,1,0,0:0:0:0:
377,227,92330,1,8,0:0:0:0:
377,227,92473,1,8,0:0:0:0:
209,147,92616,6,8,L|631:248,1,419.99998998642
256,192,93759,12,8,94330,0:0:0:0:
355,208,94901,5,0,0:0:0:0:
335,225,95187,1,8,0:0:0:0:
364,145,95330,1,8,0:0:0:0:
355,208,95473,1,0,0:0:0:0:
355,208,95616,1,0,0:0:0:0:
259,82,95759,1,8,0:0:0:0:
92,194,96044,2,0,L|511:273,1,419.99998998642
349,228,97187,1,4,0:0:0:0:
349,228,97759,1,4,0:0:0:0:
349,228,98330,1,4,0:0:0:0:
349,228,98901,1,4,0:0:0:0:
256,246,99473,1,0,0:0:0:0:
256,246,99616,1,0,0:0:0:0:
256,246,99759,1,0,0:0:0:0:
191,191,99901,1,0,0:0:0:0:
256,246,100044,1,8,0:0:0:0:
256,246,100187,1,8,0:0:0:0:
256,246,100330,1,8,0:0:0:0:
115,27,100616,1,0,0:0:0:0:
191,191,100759,1,0,0:0:0:0:
394,192,100902,1,8,0:0:0:0:
256,246,101045,1,8,0:0:0:0:
191,191,101188,1,0,0:0:0:0:
256,246,101330,1,0,0:0:0:0:
115,27,101473,1,8,0:0:0:0:
364,177,101616,1,8,0:0:0:0:
227,185,101759,2,8,L|664:217,1,419.99998998642
209,148,102901,2,12,L|648:180,1,419.99998998642
103,160,104044,5,0,0:0:0:0:
336,150,104330,1,8,0:0:0:0:
124,145,104616,1,0,0:0:0:0:
291,143,104759,1,0,0:0:0:0:
195,169,104902,1,8,0:0:0:0:
124,145,105187,1,0,0:0:0:0:
368,197,105473,1,8,0:0:0:0:
341,218,105759,1,0,0:0:0:0:
341,218,105902,1,0,0:0:0:0:
124,145,106045,1,8,0:0:0:0:
274,178,106187,1,8,0:0:0:0:
103,160,106330,5,0,0:0:0:0:
336,150,106616,1,8,0:0:0:0:
124,145,106902,1,0,0:0:0:0:
291,143,107045,1,0,0:0:0:0:
195,169,107188,1,8,0:0:0:0:
124,145,107473,1,0,0:0:0:0:
368,197,107759,1,8,0:0:0:0:
341,218,108045,1,8,0:0:0:0:
341,218,108188,1,8,0:0:0:0:
124,145,108331,1,8,0:0:0:0:
103,160,108616,5,0,0:0:0:0:
124,145,108901,1,0,0:0:0:0:
195,169,109044,1,8,0:0:0:0:
291,143,109187,1,0,0:0:0:0:
391,164,109329,1,8,0:0:0:0:
124,145,109472,1,0,0:0:0:0:
368,197,109758,1,0,0:0:0:0:
341,218,110044,1,0,0:0:0:0:
124,145,110187,1,8,0:0:0:0:
341,218,110330,1,0,0:0:0:0:
274,178,110472,1,8,0:0:0:0:
336,150,110615,5,8,0:0:0:0:
383,152,110757,1,8,0:0:0:0:
103,160,110901,5,0,0:0:0:0:
236,115,111187,1,0,0:0:0:0:
195,169,111330,5,8,0:0:0:0:
291,143,111473,5,0,0:0:0:0:
245,187,111616,1,8,0:0:0:0:
124,145,111759,5,0,0:0:0:0:
245,187,111901,1,8,0:0:0:0:
256,192,112044,12,0,112616,0:0:0:0:
232,190,113187,5,0,0:0:0:0:
232,190,113330,1,0,0:0:0:0:
232,190,113473,1,0,0:0:0:0:
214,144,113616,1,0,0:0:0:0:
232,190,113759,1,0,0:0:0:0:
347,222,114044,1,4,0:0:0:0:
360,143,114187,1,4,0:0:0:0:
191,217,114473,2,0,L|284:237,5,69.99999833107
232,190,115473,5,0,0:0:0:0:
232,190,115616,1,0,0:0:0:0:
232,190,115759,1,0,0:0:0:0:
214,144,115902,1,0,0:0:0:0:
232,190,116045,1,0,0:0:0:0:
347,222,116330,1,12,0:0:0:0:
360,143,116473,1,12,0:0:0:0:
63,179,116759,2,0,L|458:223,1,349.99999165535
259,175,117759,1,4,0:0:0:0:
63,157,121738,2,0,L|93:165,1,17.4999995827675
93,165,121809,2,0,L|136:166,1,22.7499984161855
217,143,121880,2,0,L|267:156,1,27.999999332428
267,156,121952,2,0,L|318:185,1,33.2499983193875
318,185,122022,2,0,L|359:192,1,38.5000002570153
355,191,122093,2,0,L|396:209,1,43.7499989569188
263,175,122164,2,0,L|339:189,1,48.9999973363878
339,189,122236,2,0,L|415:220,1,54.2499991204739
225,182,122307,2,0,L|307:191,1,59.4999997162819
307,191,122378,2,0,L|379:211,1,64.7499982092381
379,211,122449,2,0,L|446:245,1,69.99999833107
441,242,122521,2,0,L|522:314,1,75.2499993541241
38,82,122591,2,0,L|136:116,1,80.4999996161462
136,115,122662,2,0,L|286:160,1,87.4999979138375
287,160,122733,2,0,L|404:209,1,105.000001502037
408,205,122805,2,0,L|535:274,1,122.499998247624
10,152,122875,2,0,B|250:234|221:212,1,139.99999666214
214,209,122946,2,0,L|472:223,1,157.500002253056
472,223,123017,2,0,L|549:40,1,174.999995827675
102,117,123089,2,0,L|336:124,1,174.999995827675
336,124,123160,2,0,L|192:286,1,174.999995827675
38,238,123231,2,0,L|313:246,1,174.999995827675
96,126,123302,2,0,L|393:225,1,174.999995827675
118,78,123374,2,4,L|422:160,1,174.999995827675
