osu file format v14

[General]
AudioFilename: audio.mp3
AudioLeadIn: 0
PreviewTime: 61992
Countdown: 0
SampleSet: Normal
StackLeniency: 0.7
Mode: 1
LetterboxInBreaks: 0
WidescreenStoryboard: 1

[Editor]
Bookmarks: 33063,116329
DistanceSpacing: 0.8
BeatDivisor: 4
GridSize: 32
TimelineZoom: 1.1

[Metadata]
Title:Oceanus
TitleUnicode:Ωκεανος
Artist:cosMo@bousouP
ArtistUnicode:cosMo@暴走P
Creator:Faputa
Version:Kantan
Source:Deemo
Tags:Instrumental Video Rhythm Game Reba _KB _kobii K a b i - K_a_b_i_- AD:PIANO III 23. AD PIANO Collection short ver
BeatmapID:2198977
BeatmapSetID:1047505

[Difficulty]
HPDrainRate:7.5
CircleSize:2
OverallDifficulty:3.5
ApproachRate:10
SliderMultiplier:1.4
SliderTickRate:1

[Events]
//Background and Video events
0,0,"ocean.jpg",0,0
//Break Periods
2,33263,42409
//Storyboard Layer 0 (Background)
//Storyboard Layer 1 (Fail)
//Storyboard Layer 2 (Pass)
//Storyboard Layer 3 (Foreground)
//Storyboard Layer 4 (Overlay)
//Storyboard Sound Samples

[TimingPoints]
1228,306.122448979592,4,1,0,60,1,0
1534,-100,4,1,0,30,0,0
3676,306.122448979592,4,1,0,30,1,0
3676,-100,4,1,0,30,0,0
3982,-100,4,1,0,32,0,0
4288,-100,4,1,0,34,0,0
4594,-100,4,1,0,36,0,0
4900,-100,4,1,0,38,0,0
5206,-100,4,1,0,40,0,0
5512,-100,4,1,0,42,0,0
5818,-100,4,1,0,44,0,0
6124,-100,4,1,0,46,0,0
6431,-100,4,1,0,48,0,0
6737,-100,4,1,0,50,0,0
7043,-100,4,1,0,52,0,0
7349,-100,4,1,0,54,0,0
7655,-100,4,1,0,56,0,0
7961,-100,4,1,0,58,0,0
8267,-100,4,1,0,60,0,0
8573,-100,4,1,0,62,0,0
8880,-100,4,1,0,64,0,0
9186,-100,4,1,0,66,0,0
9492,-100,4,1,0,68,0,0
9798,-100,4,1,0,70,0,0
10104,-100,4,1,0,72,0,0
10410,-100,4,1,0,74,0,0
10716,-100,4,1,0,76,0,0
11022,-100,4,1,0,78,0,0
11635,-100,4,1,0,82,0,0
12247,-100,4,1,0,86,0,0
12553,-100,4,1,0,87,0,0
12859,-100,4,1,0,88,0,0
13165,-100,4,1,0,89,0,0
13395,-100,4,1,0,80,0,0
33216,-100,4,1,0,70,0,0
42859,-100,4,1,0,75,0,0
50206,-100,4,1,0,80,0,0
62451,-100,4,1,0,90,0,1
110206,-100,4,1,0,90,0,0
111584,-100,4,1,0,85,0,0

[HitObjects]
256,192,1228,5,8,0:0:0:0:
256,192,3676,1,0,0:0:0:0:
256,192,4288,1,0,0:0:0:0:
256,192,4900,1,0,0:0:0:0:
256,192,6124,1,0,0:0:0:0:
256,192,7349,1,8,0:0:0:0:
256,192,7961,1,8,0:0:0:0:
256,192,8573,1,0,0:0:0:0:
256,192,9186,1,0,0:0:0:0:
256,192,9798,1,0,0:0:0:0:
256,192,11022,1,8,0:0:0:0:
256,192,12247,1,0,0:0:0:0:
256,192,12553,1,0,0:0:0:0:
256,192,12859,1,0,0:0:0:0:
256,192,13471,1,4,0:0:0:0:
256,192,14084,1,8,0:0:0:0:
256,192,14543,1,8,0:0:0:0:
256,192,15308,1,0,0:0:0:0:
256,192,15614,1,0,0:0:0:0:
256,192,15920,1,8,0:0:0:0:
256,192,16380,1,8,0:0:0:0:
256,192,16839,1,0,0:0:0:0:
256,192,17145,1,8,0:0:0:0:
256,192,17604,1,8,0:0:0:0:
256,192,18676,1,8,0:0:0:0:
256,192,18982,1,0,0:0:0:0:
256,192,19288,1,0,0:0:0:0:
256,192,19594,1,8,0:0:0:0:
256,192,20206,1,0,0:0:0:0:
256,192,20818,1,0,0:0:0:0:
256,192,21278,1,8,0:0:0:0:
256,192,21737,1,0,0:0:0:0:
256,192,22043,1,0,0:0:0:0:
256,192,22502,1,8,0:0:0:0:
256,192,23573,1,8,0:0:0:0:
256,192,23880,1,0,0:0:0:0:
256,192,24186,1,8,0:0:0:0:
256,192,24492,1,8,0:0:0:0:
256,192,25104,1,8,0:0:0:0:
256,192,25716,1,0,0:0:0:0:
256,192,26176,1,8,0:0:0:0:
256,192,26635,1,8,0:0:0:0:
256,192,26941,1,0,0:0:0:0:
256,192,27400,1,8,0:0:0:0:
256,192,27859,1,0,0:0:0:0:
256,192,28165,1,0,0:0:0:0:
256,192,28778,1,8,0:0:0:0:
256,192,29390,1,8,0:0:0:0:
256,192,30002,1,0,0:0:0:0:
256,192,30308,1,8,0:0:0:0:
256,192,30614,1,0,0:0:0:0:
256,192,31073,1,0,0:0:0:0:
256,192,31533,1,8,0:0:0:0:
256,192,31839,1,8,0:0:0:0:
256,192,32451,1,0,0:0:0:0:
256,192,32757,1,8,0:0:0:0:
256,192,33063,1,0,0:0:0:0:
256,192,42859,5,0,0:0:0:0:
256,192,44084,1,8,0:0:0:0:
256,192,45308,1,8,0:0:0:0:
256,192,46533,1,0,0:0:0:0:
256,192,47757,1,8,0:0:0:0:
256,192,48982,1,8,0:0:0:0:
256,192,49594,1,8,0:0:0:0:
256,192,50206,1,4,0:0:0:0:
256,192,51124,1,8,0:0:0:0:
256,192,51431,1,8,0:0:0:0:
256,192,52043,1,0,0:0:0:0:
256,192,52349,1,8,0:0:0:0:
256,192,52655,1,8,0:0:0:0:
256,192,53267,1,8,0:0:0:0:
256,192,53573,1,0,0:0:0:0:
256,192,53880,1,8,0:0:0:0:
256,192,54492,1,8,0:0:0:0:
256,192,55104,1,0,0:0:0:0:
256,192,55563,1,8,0:0:0:0:
256,192,56022,1,0,0:0:0:0:
256,192,56329,1,8,0:0:0:0:
256,192,56941,1,0,0:0:0:0:
256,192,57247,1,8,0:0:0:0:
256,192,57553,1,0,0:0:0:0:
256,192,58165,1,8,0:0:0:0:
256,192,58778,1,8,0:0:0:0:
256,192,59237,1,8,0:0:0:0:
256,192,59696,1,0,0:0:0:0:
256,192,60002,1,8,0:0:0:0:
256,192,60920,1,8,0:0:0:0:
256,192,61227,1,0,0:0:0:0:
256,192,61533,1,8,0:0:0:0:
256,192,62145,1,0,0:0:0:0:
256,192,62451,1,12,0:0:0:0:
256,192,63063,1,8,0:0:0:0:
256,192,63676,1,8,0:0:0:0:
256,192,63982,1,8,0:0:0:0:
256,192,64288,1,0,0:0:0:0:
256,192,64594,1,0,0:0:0:0:
256,192,64900,1,8,0:0:0:0:
256,192,65512,1,0,0:0:0:0:
256,192,65818,1,8,0:0:0:0:
256,192,66737,1,8,0:0:0:0:
256,192,67043,1,8,0:0:0:0:
256,192,67349,1,8,0:0:0:0:
256,192,67961,1,0,0:0:0:0:
256,192,68267,1,0,0:0:0:0:
256,192,68573,1,8,0:0:0:0:
256,192,69186,1,0,0:0:0:0:
256,192,69492,1,8,0:0:0:0:
256,192,69798,1,8,0:0:0:0:
256,192,70410,1,8,0:0:0:0:
256,192,71022,1,0,0:0:0:0:
256,192,71635,1,8,0:0:0:0:
256,192,71941,1,8,0:0:0:0:
256,192,72247,1,8,0:0:0:0:
256,192,73165,1,0,0:0:0:0:
256,192,73471,1,8,0:0:0:0:
256,192,73778,1,8,0:0:0:0:
256,192,74084,1,0,0:0:0:0:
256,192,74390,1,0,0:0:0:0:
256,192,74696,1,8,0:0:0:0:
256,192,75385,1,4,0:0:0:0:
256,192,75844,1,12,0:0:0:0:
256,192,76533,1,0,0:0:0:0:
256,192,76839,1,0,0:0:0:0:
256,192,77145,1,8,0:0:0:0:
256,192,77757,1,0,0:0:0:0:
256,192,78063,1,8,0:0:0:0:
256,192,78369,1,8,0:0:0:0:
256,192,78982,1,8,0:0:0:0:
256,192,79594,1,0,0:0:0:0:
256,192,79900,1,0,0:0:0:0:
256,192,80206,1,8,0:0:0:0:
256,192,80512,1,8,0:0:0:0:
256,192,80818,1,0,0:0:0:0:
256,192,81737,1,0,0:0:0:0:
256,192,82043,1,12,0:0:0:0:
256,192,82655,1,8,0:0:0:0:
256,192,82961,1,0,0:0:0:0:
256,192,83267,1,8,0:0:0:0:
256,192,83573,1,8,0:0:0:0:
256,192,83880,1,0,0:0:0:0:
256,192,84186,1,0,0:0:0:0:
256,192,84492,1,8,0:0:0:0:
256,192,85104,1,0,0:0:0:0:
256,192,85410,1,8,0:0:0:0:
256,192,86329,1,0,0:0:0:0:
256,192,86635,1,8,0:0:0:0:
256,192,86941,1,8,0:0:0:0:
256,192,87553,1,8,0:0:0:0:
256,192,87859,1,0,0:0:0:0:
256,192,88165,1,8,0:0:0:0:
256,192,88471,1,8,0:0:0:0:
256,192,88778,1,0,0:0:0:0:
256,192,89390,1,8,0:0:0:0:
256,192,90002,1,8,0:0:0:0:
256,192,90614,1,8,0:0:0:0:
256,192,91227,1,0,0:0:0:0:
256,192,91533,1,0,0:0:0:0:
256,192,91839,1,8,0:0:0:0:
256,192,92757,1,0,0:0:0:0:
256,192,93063,1,8,0:0:0:0:
256,192,93369,1,8,0:0:0:0:
256,192,93676,1,0,0:0:0:0:
256,192,93982,1,0,0:0:0:0:
256,192,94288,1,8,0:0:0:0:
256,192,94977,1,4,0:0:0:0:
256,192,95436,1,12,0:0:0:0:
256,192,96124,1,0,0:0:0:0:
256,192,96431,1,8,0:0:0:0:
256,192,96737,1,8,0:0:0:0:
256,192,97349,1,0,0:0:0:0:
256,192,97655,1,0,0:0:0:0:
256,192,97961,1,8,0:0:0:0:
256,192,98573,1,0,0:0:0:0:
256,192,98880,1,8,0:0:0:0:
256,192,99186,1,8,0:0:0:0:
256,192,99492,1,8,0:0:0:0:
256,192,99798,1,0,0:0:0:0:
256,192,100104,1,0,0:0:0:0:
256,192,100410,1,8,0:0:0:0:
256,192,101329,1,0,0:0:0:0:
256,192,101635,1,12,0:0:0:0:
256,192,102247,1,0,0:0:0:0:
256,192,102859,1,8,0:0:0:0:
256,192,103471,1,0,0:0:0:0:
256,192,103778,1,8,0:0:0:0:
256,192,104084,1,0,0:0:0:0:
256,192,104696,1,8,0:0:0:0:
256,192,105002,1,8,0:0:0:0:
256,192,105308,1,0,0:0:0:0:
256,192,105614,1,8,0:0:0:0:
256,192,105920,1,0,0:0:0:0:
256,192,106533,1,0,0:0:0:0:
256,192,107145,1,8,0:0:0:0:
256,192,107451,1,0,0:0:0:0:
256,192,107757,1,8,0:0:0:0:
256,192,108369,1,0,0:0:0:0:
256,192,108982,1,8,0:0:0:0:
256,192,109288,1,8,0:0:0:0:
256,192,109594,1,0,0:0:0:0:
256,192,109900,1,0,0:0:0:0:
256,192,110206,1,8,0:0:0:0:
256,192,111431,1,12,0:0:0:0:
256,192,112043,1,8,0:0:0:0:
256,192,112655,1,0,0:0:0:0:
256,192,113267,1,0,0:0:0:0:
256,192,113880,1,8,0:0:0:0:
256,192,114492,1,8,0:0:0:0:
256,192,115104,1,0,0:0:0:0:
256,192,115716,1,8,0:0:0:0:
256,192,116022,1,8,0:0:0:0:
256,192,116329,1,0,0:0:0:0:
