osu file format v14

[General]
AudioFilename: audio.mp3
AudioLeadIn: 0
PreviewTime: 61992
Countdown: 0
SampleSet: Normal
StackLeniency: 0.7
Mode: 1
LetterboxInBreaks: 0
WidescreenStoryboard: 0

[Editor]
Bookmarks: 33063,116329
DistanceSpacing: 0.8
BeatDivisor: 4
GridSize: 32
TimelineZoom: 2.999999

[Metadata]
Title:Oceanus
TitleUnicode:Ωκεανος
Artist:cosMo@bousouP
ArtistUnicode:cosMo@暴走P
Creator:Faputa
Version:Empyrean Flow
Source:Deemo
Tags:Instrumental Video Rhythm Game Reba _KB _kobii K a b i - K_a_b_i_- AD:PIANO III 23. AD PIANO Collection short ver
BeatmapID:2189542
BeatmapSetID:1047505

[Difficulty]
HPDrainRate:6
CircleSize:2
OverallDifficulty:6.5
ApproachRate:10
SliderMultiplier:1.4
SliderTickRate:1

[Events]
//Background and Video events
0,0,"ocean.jpg",0,0
//Break Periods
//Storyboard Layer 0 (Background)
//Storyboard Layer 1 (Fail)
//Storyboard Layer 2 (Pass)
//Storyboard Layer 3 (Foreground)
//Storyboard Layer 4 (Overlay)
//Storyboard Sound Samples

[TimingPoints]
1228,306.122448979592,4,1,0,60,1,0
1534,-100,4,1,0,30,0,0
3676,306.122448979592,4,1,0,30,1,0
3676,-133.333333333333,4,1,0,30,0,0
3982,-133.333333333333,4,1,0,32,0,0
4288,-133.333333333333,4,1,0,34,0,0
4594,-133.333333333333,4,1,0,36,0,0
4900,-133.333333333333,4,1,0,38,0,0
5206,-133.333333333333,4,1,0,40,0,0
5512,-133.333333333333,4,1,0,42,0,0
5818,-133.333333333333,4,1,0,44,0,0
6124,-133.333333333333,4,1,0,46,0,0
6431,-133.333333333333,4,1,0,48,0,0
6737,-133.333333333333,4,1,0,50,0,0
7043,-133.333333333333,4,1,0,52,0,0
7349,-133.333333333333,4,1,0,54,0,0
7655,-133.333333333333,4,1,0,56,0,0
7961,-133.333333333333,4,1,0,58,0,0
8267,-133.333333333333,4,1,0,60,0,0
8573,-129.87012987013,4,1,0,62,0,0
8880,-126.582278481013,4,1,0,64,0,0
9186,-123.456790123457,4,1,0,66,0,0
9492,-120.481927710843,4,1,0,68,0,0
9798,-117.647058823529,4,1,0,70,0,0
10104,-114.942528735632,4,1,0,72,0,0
10410,-112.359550561798,4,1,0,74,0,0
10716,-109.89010989011,4,1,0,76,0,0
11022,-107.52688172043,4,1,0,78,0,0
11329,-105.263157894737,4,1,0,80,0,0
11635,-103.092783505155,4,1,0,82,0,0
11941,-101.010101010101,4,1,0,84,0,0
12247,-99.009900990099,4,1,0,86,0,0
12553,-98.0392156862745,4,1,0,87,0,0
12859,-97.0873786407767,4,1,0,88,0,0
13165,-96.1538461538461,4,1,0,89,0,0
13318,-95.2380952380952,4,1,0,90,0,0
13548,-96.1538461538461,4,1,0,80,0,0
13701,-97.0873786407767,4,1,0,80,0,0
13854,-98.0392156862745,4,1,0,80,0,0
14007,-99.009900990099,4,1,0,80,0,0
14160,-100,4,1,0,80,0,0
14466,-102.040816326531,4,1,0,80,0,0
14619,-103.092783505155,4,1,0,80,0,0
14772,-104.166666666667,4,1,0,80,0,0
14926,-105.263157894737,4,1,0,80,0,0
15079,-106.382978723404,4,1,0,80,0,0
15232,-107.52688172043,4,1,0,80,0,0
15385,-108.695652173913,4,1,0,80,0,0
15538,-109.89010989011,4,1,0,80,0,0
15691,-111.111111111111,4,1,0,80,0,0
21124,-108.778063380626,4,1,0,80,0,0
21278,-107.647956734133,4,1,0,80,0,0
21584,-105.456643083046,4,1,0,80,0,0
21737,-104.394049956729,4,1,0,80,0,0
21890,-103.3527636529,4,1,0,80,0,0
22043,-102.33194025452,4,1,0,80,0,0
22119,-101.829053458216,4,1,0,80,0,0
22196,-101.331187814317,4,1,0,80,0,0
22272,-100.838065159541,4,1,0,80,0,0
22349,-100.349718769913,4,1,0,80,0,0
22502,-99.3871786564046,4,1,0,80,0,0
22579,-98.9127510405622,4,1,0,80,0,0
22655,-98.4428312945823,4,1,0,80,0,0
22732,-97.9774514693189,4,1,0,80,0,0
22808,-97.5163559307985,4,1,0,80,0,0
22885,-97.0595800231972,4,1,0,80,0,0
22961,-96.6070633288282,4,1,0,80,0,0
23038,-96.1588390166413,4,1,0,80,0,0
23114,-95.7146631035288,4,1,0,80,0,0
23191,-95.2745717884371,4,1,0,80,0,0
30614,-95.2380952380952,4,1,0,80,0,0
30767,-95.8069145766388,4,1,0,80,0,0
30844,-96.0938798768845,4,1,0,80,0,0
30997,-96.6729052914881,4,1,0,80,0,0
31073,-96.9650896587702,4,1,0,80,0,0
31150,-97.2590455775339,4,1,0,80,0,0
31227,-97.5547892084892,4,1,0,80,0,0
31380,-98.151705238651,4,1,0,80,0,0
31533,-98.7559710328986,4,1,0,80,0,0
31609,-99.0608045124178,4,1,0,80,0,0
31686,-99.3676244380761,4,1,0,80,0,0
31839,-99.9870016897803,4,1,0,80,0,0
31992,-100.614148764056,4,1,0,80,0,0
32068,-100.930681817035,4,1,0,80,0,0
32145,-101.249212787371,4,1,0,80,0,0
32221,-101.569760650859,4,1,0,80,0,0
32298,-101.892240803971,4,1,0,80,0,0
32374,-102.216879686644,4,1,0,80,0,0
32451,-102.543593845333,4,1,0,80,0,0
32502,-102.762566063485,4,1,0,80,0,0
32553,-102.982475472149,4,1,0,80,0,0
32604,-103.203328100925,4,1,0,80,0,0
32681,-103.536388899243,4,1,0,80,0,0
32757,-103.87160638478,4,1,0,80,0,0
32859,-104.321954242304,4,1,0,80,0,0
32961,-104.776114398753,4,1,0,80,0,0
33063,-105.234356912845,4,1,0,80,0,0
33216,-133.333333333333,4,1,0,70,0,0
42247,-128.205128205128,4,1,0,70,0,0
42553,-123.456790123457,4,1,0,70,0,0
42859,-117.647058823529,4,1,0,75,0,0
49288,-111.111111111111,4,1,0,75,0,0
49594,-105.263157894737,4,1,0,75,0,0
50206,-100,4,1,0,80,0,0
62145,-97.0873786407767,4,1,0,80,0,0
62221,-96.1538461538461,4,1,0,80,0,0
62298,-95.2380952380952,4,1,0,80,0,0
62374,-94.3396226415094,4,1,0,80,0,0
62451,-93.4579439252336,4,1,0,90,0,1
81737,-92.5925925925926,4,1,0,90,0,1
81813,-91.743119266055,4,1,0,90,0,1
81890,-90.9090909090909,4,1,0,90,0,1
81966,-90.0900900900901,4,1,0,90,0,1
82043,-89.2857142857143,4,1,0,90,0,1
101176,-88.4955752212389,4,1,0,90,0,1
101252,-87.719298245614,4,1,0,90,0,1
101329,-86.9565217391304,4,1,0,90,0,1
101482,-86.2068965517241,4,1,0,90,0,1
110206,-86.2068965517241,4,1,0,90,0,0
110308,-87.719298245614,4,1,0,90,0,0
110410,-89.2857142857143,4,1,0,90,0,0
110512,-90.9090909090909,4,1,0,90,0,0
110614,-92.5925925925926,4,1,0,90,0,0
110716,-94.3396226415094,4,1,0,90,0,0
110818,-96.1538461538461,4,1,0,90,0,0
110920,-98.0392156862745,4,1,0,90,0,0
111022,-100,4,1,0,90,0,0
111124,-102.040816326531,4,1,0,90,0,0
111227,-104.166666666667,4,1,0,90,0,0
111329,-106.382978723404,4,1,0,90,0,0
111431,-108.695652173913,4,1,0,90,0,0
111584,-111.111111111111,4,1,0,85,0,0
111890,-109.89010989011,4,1,0,85,0,0
112043,-108.695652173913,4,1,0,85,0,0
112196,-107.52688172043,4,1,0,85,0,0
112349,-106.382978723404,4,1,0,85,0,0
112502,-105.263157894737,4,1,0,85,0,0
112808,-104.166666666667,4,1,0,85,0,0
112961,-103.092783505155,4,1,0,85,0,0
113114,-102.040816326531,4,1,0,85,0,0
113267,-101.010101010101,4,1,0,85,0,0
113573,-100,4,1,0,85,0,0
114186,-98.7685536728074,4,1,0,85,0,0
114339,-98.1642307212813,4,1,0,85,0,0
114492,-97.5671627956895,4,1,0,85,0,0
114645,-96.9773140969133,4,1,0,85,0,0
114721,-96.6850561643491,4,1,0,85,0,0
114798,-96.3945544788284,4,1,0,85,0,0
114951,-95.8188487173689,4,1,0,85,0,0
115028,-95.5335212796142,4,1,0,85,0,0
115104,-95.2498880813815,4,1,0,85,0,0
115257,-94.6876443986577,4,1,0,85,0,0
115334,-94.4090043531992,4,1,0,85,0,0
115410,-94.1319994201469,4,1,0,85,0,0
115487,-93.8566152488843,4,1,0,85,0,0
115563,-93.5829252337935,4,1,0,85,0,0
115716,-93.0401328613097,4,1,0,85,0,0
115793,-92.7710910436933,4,1,0,85,0,0
115869,-92.5036007026573,4,1,0,85,0,0
115946,-92.2376484564952,4,1,0,85,0,0
116022,-91.9732210769512,4,1,0,85,0,0
116099,-91.7103054870276,4,1,0,85,0,0
116176,-91.4489723878973,4,1,0,85,0,0
116252,-91.1890412657769,4,1,0,85,0,0
116329,-90.9305835924855,4,1,0,85,0,0

[HitObjects]
256,192,1228,5,0,0:0:0:0:
256,192,1279,1,8,0:0:0:0:
256,192,3676,1,8,0:0:0:0:
256,192,3982,1,0,0:0:0:0:
256,192,4288,1,8,0:0:0:0:
256,192,4594,1,8,0:0:0:0:
256,192,4900,1,8,0:0:0:0:
256,192,5206,1,0,0:0:0:0:
256,192,5512,1,8,0:0:0:0:
256,192,5818,1,0,0:0:0:0:
256,192,6124,1,8,0:0:0:0:
256,192,6431,1,0,0:0:0:0:
256,192,6737,1,8,0:0:0:0:
256,192,7043,1,8,0:0:0:0:
256,192,7349,1,8,0:0:0:0:
256,192,7655,1,0,0:0:0:0:
256,192,7961,1,8,0:0:0:0:
256,192,8267,1,0,0:0:0:0:
256,192,8573,1,8,0:0:0:0:
256,192,8880,1,8,0:0:0:0:
256,192,9186,1,8,0:0:0:0:
256,192,9492,1,0,0:0:0:0:
256,192,9798,1,8,0:0:0:0:
256,192,10104,1,8,0:0:0:0:
256,192,10410,1,8,0:0:0:0:
256,192,10716,1,0,0:0:0:0:
256,192,11022,1,8,0:0:0:0:
256,192,11329,1,0,0:0:0:0:
256,192,11635,1,8,0:0:0:0:
256,192,11941,1,0,0:0:0:0:
256,192,12247,1,8,0:0:0:0:
256,192,12553,1,8,0:0:0:0:
256,192,12859,1,8,0:0:0:0:
256,192,13165,1,8,0:0:0:0:
256,192,13471,1,4,0:0:0:0:
256,192,13624,1,8,0:0:0:0:
256,192,13778,1,8,0:0:0:0:
256,192,13931,1,0,0:0:0:0:
256,192,14084,1,8,0:0:0:0:
256,192,14237,1,8,0:0:0:0:
256,192,14543,1,8,0:0:0:0:
256,192,14849,1,8,0:0:0:0:
256,192,15002,1,8,0:0:0:0:
256,192,15155,1,0,0:0:0:0:
256,192,15308,1,8,0:0:0:0:
256,192,15461,1,8,0:0:0:0:
256,192,15614,1,0,0:0:0:0:
256,192,15767,1,0,0:0:0:0:
256,192,15920,1,8,0:0:0:0:
256,192,16073,1,0,0:0:0:0:
256,192,16227,1,8,0:0:0:0:
256,192,16380,1,8,0:0:0:0:
256,192,16686,1,0,0:0:0:0:
256,192,16839,1,8,0:0:0:0:
256,192,16992,1,0,0:0:0:0:
256,192,17145,1,8,0:0:0:0:
256,192,17298,1,8,0:0:0:0:
256,192,17451,1,0,0:0:0:0:
256,192,17604,1,8,0:0:0:0:
256,192,18471,1,8,0:0:0:0:
256,192,18522,1,8,0:0:0:0:
256,192,18676,1,8,0:0:0:0:
256,192,18829,1,0,0:0:0:0:
256,192,18982,1,8,0:0:0:0:
256,192,19135,1,8,0:0:0:0:
256,192,19288,1,0,0:0:0:0:
256,192,19441,1,0,0:0:0:0:
256,192,19594,1,8,0:0:0:0:
256,192,19747,1,0,0:0:0:0:
256,192,19900,1,8,0:0:0:0:
256,192,20053,1,8,0:0:0:0:
256,192,20206,1,0,0:0:0:0:
256,192,20359,1,0,0:0:0:0:
256,192,20512,1,8,0:0:0:0:
256,192,20665,1,8,0:0:0:0:
256,192,20818,1,0,0:0:0:0:
256,192,21124,1,0,0:0:0:0:
256,192,21278,1,8,0:0:0:0:
256,192,21584,1,8,0:0:0:0:
256,192,21737,1,0,0:0:0:0:
256,192,21890,1,8,0:0:0:0:
256,192,22043,1,0,0:0:0:0:
256,192,22119,1,0,0:0:0:0:
256,192,22196,1,0,0:0:0:0:
256,192,22272,1,0,0:0:0:0:
256,192,22349,1,8,0:0:0:0:
256,192,22502,1,0,0:0:0:0:
256,192,22579,1,0,0:0:0:0:
256,192,22655,1,0,0:0:0:0:
256,192,22732,1,8,0:0:0:0:
256,192,22808,1,8,0:0:0:0:
256,192,22885,1,8,0:0:0:0:
256,192,22961,1,0,0:0:0:0:
256,192,23038,1,0,0:0:0:0:
256,192,23114,1,8,0:0:0:0:
256,192,23191,1,8,0:0:0:0:
256,192,23420,1,8,0:0:0:0:
256,192,23497,1,8,0:0:0:0:
256,192,23573,1,0,0:0:0:0:
256,192,23650,1,0,0:0:0:0:
256,192,23727,1,0,0:0:0:0:
256,192,23803,1,0,0:0:0:0:
256,192,23880,1,8,0:0:0:0:
256,192,24033,1,0,0:0:0:0:
256,192,24186,1,8,0:0:0:0:
256,192,24339,1,0,0:0:0:0:
256,192,24415,1,0,0:0:0:0:
256,192,24492,1,8,0:0:0:0:
256,192,24645,1,0,0:0:0:0:
256,192,24721,1,8,0:0:0:0:
256,192,24798,1,0,0:0:0:0:
256,192,24874,1,0,0:0:0:0:
256,192,24951,1,8,0:0:0:0:
256,192,25104,1,8,0:0:0:0:
256,192,25257,1,0,0:0:0:0:
256,192,25410,1,8,0:0:0:0:
256,192,25563,1,8,0:0:0:0:
256,192,25716,1,0,0:0:0:0:
256,192,26022,1,8,0:0:0:0:
256,192,26176,1,8,0:0:0:0:
256,192,26482,1,0,0:0:0:0:
256,192,26635,1,8,0:0:0:0:
256,192,26788,1,0,0:0:0:0:
256,192,26941,1,8,0:0:0:0:
256,192,27094,1,0,0:0:0:0:
256,192,27170,1,0,0:0:0:0:
256,192,27247,1,8,0:0:0:0:
256,192,27400,1,8,0:0:0:0:
256,192,27706,1,0,0:0:0:0:
256,192,27859,1,8,0:0:0:0:
256,192,28012,1,8,0:0:0:0:
256,192,28165,1,0,0:0:0:0:
256,192,28318,1,0,0:0:0:0:
256,192,28471,1,8,0:0:0:0:
256,192,28624,1,0,0:0:0:0:
256,192,28778,1,8,0:0:0:0:
256,192,28931,1,8,0:0:0:0:
256,192,29007,1,0,0:0:0:0:
256,192,29084,1,8,0:0:0:0:
256,192,29237,1,0,0:0:0:0:
256,192,29390,1,8,0:0:0:0:
256,192,29543,1,0,0:0:0:0:
256,192,29619,1,8,0:0:0:0:
256,192,29696,1,0,0:0:0:0:
256,192,29772,1,0,0:0:0:0:
256,192,29849,1,8,0:0:0:0:
256,192,29926,1,8,0:0:0:0:
256,192,30002,1,0,0:0:0:0:
256,192,30155,1,8,0:0:0:0:
256,192,30308,1,0,0:0:0:0:
256,192,30385,1,0,0:0:0:0:
256,192,30461,1,8,0:0:0:0:
256,192,30538,1,8,0:0:0:0:
256,192,30614,1,0,0:0:0:0:
256,192,30767,1,0,0:0:0:0:
256,192,30844,1,8,0:0:0:0:
256,192,30997,1,0,0:0:0:0:
256,192,31073,1,8,0:0:0:0:
256,192,31150,1,0,0:0:0:0:
256,192,31227,1,0,0:0:0:0:
256,192,31380,1,8,0:0:0:0:
256,192,31533,1,8,0:0:0:0:
256,192,31609,1,8,0:0:0:0:
256,192,31686,1,0,0:0:0:0:
256,192,31839,1,8,0:0:0:0:
256,192,31992,1,0,0:0:0:0:
256,192,32068,1,0,0:0:0:0:
256,192,32145,1,8,0:0:0:0:
256,192,32221,1,8,0:0:0:0:
256,192,32298,1,0,0:0:0:0:
256,192,32374,1,0,0:0:0:0:
256,192,32451,1,8,0:0:0:0:
256,192,32502,1,8,0:0:0:0:
256,192,32553,1,8,0:0:0:0:
256,192,32604,1,0,0:0:0:0:
256,192,32681,1,0,0:0:0:0:
256,192,32757,1,8,0:0:0:0:
256,192,32859,1,8,0:0:0:0:
256,192,32961,1,8,0:0:0:0:
256,192,33063,1,0,0:0:0:0:
256,192,33676,1,0,0:0:0:0:
256,192,33982,1,0,0:0:0:0:
256,192,34288,1,8,0:0:0:0:
256,192,34900,1,0,0:0:0:0:
256,192,35512,1,8,0:0:0:0:
256,192,36124,1,8,0:0:0:0:
256,192,36431,1,8,0:0:0:0:
256,192,36737,1,0,0:0:0:0:
256,192,37349,1,8,0:0:0:0:
256,192,37961,1,0,0:0:0:0:
256,192,38573,1,8,0:0:0:0:
256,192,38880,1,0,0:0:0:0:
256,192,39186,1,8,0:0:0:0:
256,192,39798,1,0,0:0:0:0:
256,192,40104,1,0,0:0:0:0:
256,192,40410,1,8,0:0:0:0:
256,192,41022,1,0,0:0:0:0:
256,192,41329,1,8,0:0:0:0:
256,192,41635,1,0,0:0:0:0:
256,192,42247,1,8,0:0:0:0:
256,192,42553,1,8,0:0:0:0:
256,192,42859,1,0,0:0:0:0:
256,192,43165,1,0,0:0:0:0:
256,192,43471,1,8,0:0:0:0:
256,192,43573,1,0,0:0:0:0:
256,192,43676,1,0,0:0:0:0:
256,192,43778,1,8,0:0:0:0:
256,192,43880,1,8,0:0:0:0:
256,192,43982,1,8,0:0:0:0:
256,192,44084,1,0,0:0:0:0:
256,192,44390,1,0,0:0:0:0:
256,192,44696,1,8,0:0:0:0:
256,192,44798,1,8,0:0:0:0:
256,192,44900,1,8,0:0:0:0:
256,192,45002,1,0,0:0:0:0:
256,192,45104,1,0,0:0:0:0:
256,192,45206,1,0,0:0:0:0:
256,192,45308,1,8,0:0:0:0:
256,192,45614,1,0,0:0:0:0:
256,192,45920,1,8,0:0:0:0:
256,192,46022,1,8,0:0:0:0:
256,192,46124,1,0,0:0:0:0:
256,192,46227,1,8,0:0:0:0:
256,192,46329,1,8,0:0:0:0:
256,192,46431,1,0,0:0:0:0:
256,192,46533,1,8,0:0:0:0:
256,192,46839,1,0,0:0:0:0:
256,192,47145,1,8,0:0:0:0:
256,192,47247,1,0,0:0:0:0:
256,192,47349,1,0,0:0:0:0:
256,192,47451,1,8,0:0:0:0:
256,192,47553,1,0,0:0:0:0:
256,192,47655,1,0,0:0:0:0:
256,192,47757,1,8,0:0:0:0:
256,192,48063,1,0,0:0:0:0:
256,192,48369,1,8,0:0:0:0:
256,192,48471,1,0,0:0:0:0:
256,192,48573,1,8,0:0:0:0:
256,192,48676,1,8,0:0:0:0:
256,192,48778,1,0,0:0:0:0:
256,192,48880,1,0,0:0:0:0:
256,192,48982,1,8,0:0:0:0:
256,192,49288,1,0,0:0:0:0:
256,192,49594,1,8,0:0:0:0:
256,192,49645,1,8,0:0:0:0:
256,192,49747,1,0,0:0:0:0:
256,192,49823,1,0,0:0:0:0:
256,192,49900,1,8,0:0:0:0:
256,192,50206,1,4,0:0:0:0:
256,192,50359,1,8,0:0:0:0:
256,192,50436,1,8,0:0:0:0:
256,192,50512,1,8,0:0:0:0:
256,192,50665,1,0,0:0:0:0:
256,192,50818,1,0,0:0:0:0:
256,192,50971,1,8,0:0:0:0:
256,192,51124,1,8,0:0:0:0:
256,192,51278,1,0,0:0:0:0:
256,192,51431,1,8,0:0:0:0:
256,192,51507,1,8,0:0:0:0:
256,192,51584,1,0,0:0:0:0:
256,192,51660,1,8,0:0:0:0:
256,192,51737,1,0,0:0:0:0:
256,192,51890,1,8,0:0:0:0:
256,192,51966,1,8,0:0:0:0:
256,192,52043,1,0,0:0:0:0:
256,192,52196,1,0,0:0:0:0:
256,192,52349,1,8,0:0:0:0:
256,192,52655,1,8,0:0:0:0:
256,192,52808,1,0,0:0:0:0:
256,192,52961,1,8,0:0:0:0:
256,192,53114,1,8,0:0:0:0:
256,192,53267,1,0,0:0:0:0:
256,192,53573,1,0,0:0:0:0:
256,192,53880,1,8,0:0:0:0:
256,192,54033,1,0,0:0:0:0:
256,192,54109,1,0,0:0:0:0:
256,192,54186,1,8,0:0:0:0:
256,192,54339,1,8,0:0:0:0:
256,192,54415,1,0,0:0:0:0:
256,192,54492,1,8,0:0:0:0:
256,192,54645,1,0,0:0:0:0:
256,192,54721,1,8,0:0:0:0:
256,192,54798,1,0,0:0:0:0:
256,192,54874,1,0,0:0:0:0:
256,192,54951,1,0,0:0:0:0:
256,192,55104,1,8,0:0:0:0:
256,192,55257,1,0,0:0:0:0:
256,192,55334,1,0,0:0:0:0:
256,192,55410,1,0,0:0:0:0:
256,192,55563,1,8,0:0:0:0:
256,192,55716,1,0,0:0:0:0:
256,192,55869,1,0,0:0:0:0:
256,192,55946,1,0,0:0:0:0:
256,192,56022,1,8,0:0:0:0:
256,192,56176,1,0,0:0:0:0:
256,192,56329,1,8,0:0:0:0:
256,192,56482,1,0,0:0:0:0:
256,192,56558,1,8,0:0:0:0:
256,192,56635,1,0,0:0:0:0:
256,192,56711,1,0,0:0:0:0:
256,192,56788,1,8,0:0:0:0:
256,192,56864,1,8,0:0:0:0:
256,192,56941,1,8,0:0:0:0:
256,192,57017,1,8,0:0:0:0:
256,192,57094,1,0,0:0:0:0:
256,192,57170,1,0,0:0:0:0:
256,192,57247,1,8,0:0:0:0:
256,192,57400,1,8,0:0:0:0:
256,192,57553,1,0,0:0:0:0:
256,192,57706,1,8,0:0:0:0:
256,192,57783,1,8,0:0:0:0:
256,192,57859,1,0,0:0:0:0:
256,192,57936,1,8,0:0:0:0:
256,192,58012,1,0,0:0:0:0:
256,192,58089,1,0,0:0:0:0:
256,192,58165,1,8,0:0:0:0:
256,192,58318,1,0,0:0:0:0:
256,192,58471,1,8,0:0:0:0:
256,192,58624,1,0,0:0:0:0:
256,192,58701,1,0,0:0:0:0:
256,192,58778,1,8,0:0:0:0:
256,192,58931,1,0,0:0:0:0:
256,192,59007,1,8,0:0:0:0:
256,192,59160,1,0,0:0:0:0:
256,192,59237,1,8,0:0:0:0:
256,192,59313,1,0,0:0:0:0:
256,192,59390,1,0,0:0:0:0:
256,192,59543,1,8,0:0:0:0:
256,192,59696,1,8,0:0:0:0:
256,192,59849,1,0,0:0:0:0:
256,192,59926,1,8,0:0:0:0:
256,192,60002,1,8,0:0:0:0:
256,192,60155,1,0,0:0:0:0:
256,192,60232,1,0,0:0:0:0:
256,192,60308,1,8,0:0:0:0:
256,192,60385,1,0,0:0:0:0:
256,192,60461,1,8,0:0:0:0:
256,192,60538,1,8,0:0:0:0:
256,192,60614,1,0,0:0:0:0:
256,192,60691,1,0,0:0:0:0:
256,192,60767,1,8,0:0:0:0:
256,192,60844,1,0,0:0:0:0:
256,192,60920,1,8,0:0:0:0:
256,192,60997,1,8,0:0:0:0:
256,192,61073,1,0,0:0:0:0:
256,192,61150,1,8,0:0:0:0:
256,192,61227,1,0,0:0:0:0:
256,192,61533,1,8,0:0:0:0:
256,192,61558,1,8,0:0:0:0:
256,192,62145,1,0,0:0:0:0:
256,192,62221,1,0,0:0:0:0:
256,192,62298,1,8,0:0:0:0:
256,192,62374,1,0,0:0:0:0:
256,192,62451,1,12,0:0:0:0:
256,192,62604,1,0,0:0:0:0:
256,192,62757,1,0,0:0:0:0:
256,192,62834,1,0,0:0:0:0:
256,192,62910,1,8,0:0:0:0:
256,192,62987,1,0,0:0:0:0:
256,192,63063,1,8,0:0:0:0:
256,192,63216,1,0,0:0:0:0:
256,192,63369,1,8,0:0:0:0:
256,192,63522,1,0,0:0:0:0:
256,192,63599,1,8,0:0:0:0:
256,192,63676,1,8,0:0:0:0:
256,192,63752,1,0,0:0:0:0:
256,192,63829,1,0,0:0:0:0:
256,192,63905,1,0,0:0:0:0:
256,192,63982,1,8,0:0:0:0:
256,192,64058,1,8,0:0:0:0:
256,192,64135,1,0,0:0:0:0:
256,192,64211,1,0,0:0:0:0:
256,192,64288,1,8,0:0:0:0:
256,192,64364,1,8,0:0:0:0:
256,192,64441,1,0,0:0:0:0:
256,192,64517,1,0,0:0:0:0:
256,192,64594,1,8,0:0:0:0:
256,192,64670,1,0,0:0:0:0:
256,192,64747,1,8,0:0:0:0:
256,192,64823,1,8,0:0:0:0:
256,192,64900,1,0,0:0:0:0:
256,192,65053,1,8,0:0:0:0:
256,192,65130,1,0,0:0:0:0:
256,192,65206,1,8,0:0:0:0:
256,192,65283,1,8,0:0:0:0:
256,192,65359,1,8,0:0:0:0:
256,192,65436,1,8,0:0:0:0:
256,192,65512,1,0,0:0:0:0:
256,192,65665,1,0,0:0:0:0:
256,192,65742,1,0,0:0:0:0:
256,192,65818,1,8,0:0:0:0:
256,192,65971,1,8,0:0:0:0:
256,192,66048,1,8,0:0:0:0:
256,192,66124,1,0,0:0:0:0:
256,192,66278,1,8,0:0:0:0:
256,192,66354,1,8,0:0:0:0:
256,192,66431,1,0,0:0:0:0:
256,192,66507,1,0,0:0:0:0:
256,192,66584,1,8,0:0:0:0:
256,192,66660,1,0,0:0:0:0:
256,192,66737,1,8,0:0:0:0:
256,192,66890,1,0,0:0:0:0:
256,192,67043,1,8,0:0:0:0:
256,192,67119,1,8,0:0:0:0:
256,192,67196,1,0,0:0:0:0:
256,192,67272,1,0,0:0:0:0:
256,192,67349,1,8,0:0:0:0:
256,192,67502,1,0,0:0:0:0:
256,192,67579,1,8,0:0:0:0:
256,192,67655,1,8,0:0:0:0:
256,192,67808,1,8,0:0:0:0:
256,192,67885,1,0,0:0:0:0:
256,192,67961,1,8,0:0:0:0:
256,192,68038,1,8,0:0:0:0:
256,192,68114,1,0,0:0:0:0:
256,192,68191,1,0,0:0:0:0:
256,192,68267,1,8,0:0:0:0:
256,192,68344,1,8,0:0:0:0:
256,192,68420,1,0,0:0:0:0:
256,192,68497,1,0,0:0:0:0:
256,192,68573,1,8,0:0:0:0:
256,192,68727,1,0,0:0:0:0:
256,192,68803,1,8,0:0:0:0:
256,192,68956,1,0,0:0:0:0:
256,192,69033,1,8,0:0:0:0:
256,192,69109,1,0,0:0:0:0:
256,192,69186,1,8,0:0:0:0:
256,192,69262,1,0,0:0:0:0:
256,192,69339,1,0,0:0:0:0:
256,192,69415,1,0,0:0:0:0:
256,192,69492,1,8,0:0:0:0:
256,192,69645,1,0,0:0:0:0:
256,192,69721,1,8,0:0:0:0:
256,192,69798,1,0,0:0:0:0:
256,192,69874,1,0,0:0:0:0:
256,192,69951,1,8,0:0:0:0:
256,192,70028,1,8,0:0:0:0:
256,192,70104,1,0,0:0:0:0:
256,192,70181,1,8,0:0:0:0:
256,192,70257,1,0,0:0:0:0:
256,192,70334,1,0,0:0:0:0:
256,192,70410,1,8,0:0:0:0:
256,192,70487,1,8,0:0:0:0:
256,192,70563,1,0,0:0:0:0:
256,192,70640,1,0,0:0:0:0:
256,192,70716,1,8,0:0:0:0:
256,192,70793,1,0,0:0:0:0:
256,192,70869,1,8,0:0:0:0:
256,192,71022,1,4,0:0:0:0:
256,192,71252,1,12,0:0:0:0:
256,192,71482,1,12,0:0:0:0:
256,192,71635,1,0,0:0:0:0:
256,192,71711,1,0,0:0:0:0:
256,192,71788,1,8,0:0:0:0:
256,192,71941,1,8,0:0:0:0:
256,192,72094,1,8,0:0:0:0:
256,192,72170,1,0,0:0:0:0:
256,192,72247,1,8,0:0:0:0:
256,192,72400,1,0,0:0:0:0:
256,192,72553,1,8,0:0:0:0:
256,192,72630,1,0,0:0:0:0:
256,192,72706,1,0,0:0:0:0:
256,192,72859,1,8,0:0:0:0:
256,192,73012,1,0,0:0:0:0:
256,192,73165,1,8,0:0:0:0:
256,192,73318,1,0,0:0:0:0:
256,192,73395,1,8,0:0:0:0:
256,192,73471,1,8,0:0:0:0:
256,192,73548,1,0,0:0:0:0:
256,192,73624,1,0,0:0:0:0:
256,192,73701,1,0,0:0:0:0:
256,192,73778,1,8,0:0:0:0:
256,192,73854,1,8,0:0:0:0:
256,192,73931,1,0,0:0:0:0:
256,192,74007,1,0,0:0:0:0:
256,192,74084,1,8,0:0:0:0:
256,192,74160,1,8,0:0:0:0:
256,192,74237,1,0,0:0:0:0:
256,192,74313,1,0,0:0:0:0:
256,192,74390,1,8,0:0:0:0:
256,192,74466,1,0,0:0:0:0:
256,192,74543,1,8,0:0:0:0:
256,192,74619,1,8,0:0:0:0:
256,192,74696,1,0,0:0:0:0:
256,192,74849,1,0,0:0:0:0:
256,192,75002,1,8,0:0:0:0:
256,192,75155,1,8,0:0:0:0:
256,192,75385,1,4,0:0:0:0:
256,192,75614,1,12,0:0:0:0:
256,192,75844,1,12,0:0:0:0:
256,192,76073,1,0,0:0:0:0:
256,192,76150,1,8,0:0:0:0:
256,192,76227,1,8,0:0:0:0:
256,192,76303,1,0,0:0:0:0:
256,192,76380,1,8,0:0:0:0:
256,192,76456,1,0,0:0:0:0:
256,192,76533,1,8,0:0:0:0:
256,192,76609,1,8,0:0:0:0:
256,192,76686,1,0,0:0:0:0:
256,192,76762,1,0,0:0:0:0:
256,192,76839,1,8,0:0:0:0:
256,192,76915,1,0,0:0:0:0:
256,192,76992,1,8,0:0:0:0:
256,192,77068,1,8,0:0:0:0:
256,192,77145,1,0,0:0:0:0:
256,192,77298,1,0,0:0:0:0:
256,192,77374,1,0,0:0:0:0:
256,192,77451,1,8,0:0:0:0:
256,192,77528,1,8,0:0:0:0:
256,192,77604,1,0,0:0:0:0:
256,192,77681,1,8,0:0:0:0:
256,192,77757,1,0,0:0:0:0:
256,192,77910,1,0,0:0:0:0:
256,192,78063,1,8,0:0:0:0:
256,192,78216,1,0,0:0:0:0:
256,192,78369,1,8,0:0:0:0:
256,192,78522,1,0,0:0:0:0:
256,192,78599,1,8,0:0:0:0:
256,192,78676,1,0,0:0:0:0:
256,192,78829,1,8,0:0:0:0:
256,192,78982,1,0,0:0:0:0:
256,192,79135,1,0,0:0:0:0:
256,192,79288,1,8,0:0:0:0:
256,192,79441,1,0,0:0:0:0:
256,192,79517,1,0,0:0:0:0:
256,192,79594,1,8,0:0:0:0:
256,192,79670,1,8,0:0:0:0:
256,192,79747,1,8,0:0:0:0:
256,192,79823,1,8,0:0:0:0:
256,192,79900,1,8,0:0:0:0:
256,192,79977,1,8,0:0:0:0:
256,192,80053,1,8,0:0:0:0:
256,192,80130,1,8,0:0:0:0:
256,192,80206,1,0,0:0:0:0:
256,192,80283,1,8,0:0:0:0:
256,192,80359,1,0,0:0:0:0:
256,192,80436,1,8,0:0:0:0:
256,192,80512,1,0,0:0:0:0:
256,192,80589,1,8,0:0:0:0:
256,192,80665,1,0,0:0:0:0:
256,192,80742,1,0,0:0:0:0:
256,192,80818,1,8,0:0:0:0:
256,192,80895,1,0,0:0:0:0:
256,192,80971,1,8,0:0:0:0:
256,192,81048,1,8,0:0:0:0:
256,192,81124,1,0,0:0:0:0:
256,192,81278,1,8,0:0:0:0:
256,192,81431,1,0,0:0:0:0:
256,192,81507,1,8,0:0:0:0:
256,192,81584,1,0,0:0:0:0:
256,192,81737,1,8,0:0:0:0:
256,192,81813,1,8,0:0:0:0:
256,192,81890,1,0,0:0:0:0:
256,192,81966,1,0,0:0:0:0:
256,192,82043,1,12,0:0:0:0:
256,192,82196,1,0,0:0:0:0:
256,192,82349,1,8,0:0:0:0:
256,192,82426,1,8,0:0:0:0:
256,192,82502,1,0,0:0:0:0:
256,192,82579,1,0,0:0:0:0:
256,192,82655,1,8,0:0:0:0:
256,192,82808,1,0,0:0:0:0:
256,192,82961,1,8,0:0:0:0:
256,192,83114,1,0,0:0:0:0:
256,192,83191,1,8,0:0:0:0:
256,192,83267,1,8,0:0:0:0:
256,192,83344,1,0,0:0:0:0:
256,192,83420,1,0,0:0:0:0:
256,192,83497,1,0,0:0:0:0:
256,192,83573,1,8,0:0:0:0:
256,192,83650,1,0,0:0:0:0:
256,192,83727,1,8,0:0:0:0:
256,192,83803,1,0,0:0:0:0:
256,192,83880,1,8,0:0:0:0:
256,192,83956,1,8,0:0:0:0:
256,192,84033,1,0,0:0:0:0:
256,192,84109,1,0,0:0:0:0:
256,192,84186,1,8,0:0:0:0:
256,192,84262,1,0,0:0:0:0:
256,192,84339,1,8,0:0:0:0:
256,192,84415,1,8,0:0:0:0:
256,192,84492,1,0,0:0:0:0:
256,192,84645,1,8,0:0:0:0:
256,192,84721,1,0,0:0:0:0:
256,192,84798,1,8,0:0:0:0:
256,192,84874,1,8,0:0:0:0:
256,192,84951,1,8,0:0:0:0:
256,192,85028,1,8,0:0:0:0:
256,192,85104,1,0,0:0:0:0:
256,192,85257,1,0,0:0:0:0:
256,192,85334,1,0,0:0:0:0:
256,192,85410,1,8,0:0:0:0:
256,192,85563,1,8,0:0:0:0:
256,192,85716,1,0,0:0:0:0:
256,192,85869,1,8,0:0:0:0:
256,192,85946,1,8,0:0:0:0:
256,192,86022,1,0,0:0:0:0:
256,192,86099,1,8,0:0:0:0:
256,192,86176,1,0,0:0:0:0:
256,192,86252,1,0,0:0:0:0:
256,192,86329,1,8,0:0:0:0:
256,192,86482,1,0,0:0:0:0:
256,192,86635,1,8,0:0:0:0:
256,192,86711,1,0,0:0:0:0:
256,192,86788,1,8,0:0:0:0:
256,192,86864,1,0,0:0:0:0:
256,192,86941,1,8,0:0:0:0:
256,192,87094,1,0,0:0:0:0:
256,192,87170,1,0,0:0:0:0:
256,192,87247,1,8,0:0:0:0:
256,192,87323,1,0,0:0:0:0:
256,192,87400,1,8,0:0:0:0:
256,192,87477,1,8,0:0:0:0:
256,192,87553,1,0,0:0:0:0:
256,192,87630,1,0,0:0:0:0:
256,192,87706,1,8,0:0:0:0:
256,192,87783,1,0,0:0:0:0:
256,192,87859,1,8,0:0:0:0:
256,192,87936,1,8,0:0:0:0:
256,192,88012,1,0,0:0:0:0:
256,192,88089,1,8,0:0:0:0:
256,192,88165,1,0,0:0:0:0:
256,192,88318,1,0,0:0:0:0:
256,192,88395,1,8,0:0:0:0:
256,192,88548,1,0,0:0:0:0:
256,192,88624,1,8,0:0:0:0:
256,192,88701,1,0,0:0:0:0:
256,192,88778,1,8,0:0:0:0:
256,192,88854,1,8,0:0:0:0:
256,192,88931,1,0,0:0:0:0:
256,192,89007,1,0,0:0:0:0:
256,192,89084,1,8,0:0:0:0:
256,192,89237,1,0,0:0:0:0:
256,192,89313,1,8,0:0:0:0:
256,192,89390,1,8,0:0:0:0:
256,192,89466,1,0,0:0:0:0:
256,192,89543,1,8,0:0:0:0:
256,192,89619,1,0,0:0:0:0:
256,192,89696,1,8,0:0:0:0:
256,192,89772,1,8,0:0:0:0:
256,192,89849,1,0,0:0:0:0:
256,192,89926,1,0,0:0:0:0:
256,192,90002,1,8,0:0:0:0:
256,192,90079,1,0,0:0:0:0:
256,192,90155,1,8,0:0:0:0:
256,192,90232,1,0,0:0:0:0:
256,192,90308,1,0,0:0:0:0:
256,192,90385,1,8,0:0:0:0:
256,192,90461,1,8,0:0:0:0:
256,192,90614,1,4,0:0:0:0:
256,192,90844,1,12,0:0:0:0:
256,192,91073,1,12,0:0:0:0:
256,192,91227,1,0,0:0:0:0:
256,192,91303,1,8,0:0:0:0:
256,192,91380,1,0,0:0:0:0:
256,192,91533,1,8,0:0:0:0:
256,192,91686,1,0,0:0:0:0:
256,192,91762,1,0,0:0:0:0:
256,192,91839,1,8,0:0:0:0:
256,192,91992,1,0,0:0:0:0:
256,192,92145,1,8,0:0:0:0:
256,192,92221,1,8,0:0:0:0:
256,192,92298,1,0,0:0:0:0:
256,192,92374,1,0,0:0:0:0:
256,192,92451,1,8,0:0:0:0:
256,192,92604,1,0,0:0:0:0:
256,192,92757,1,8,0:0:0:0:
256,192,92910,1,0,0:0:0:0:
256,192,92987,1,8,0:0:0:0:
256,192,93063,1,0,0:0:0:0:
256,192,93140,1,0,0:0:0:0:
256,192,93216,1,8,0:0:0:0:
256,192,93293,1,0,0:0:0:0:
256,192,93369,1,8,0:0:0:0:
256,192,93446,1,8,0:0:0:0:
256,192,93522,1,0,0:0:0:0:
256,192,93599,1,8,0:0:0:0:
256,192,93676,1,0,0:0:0:0:
256,192,93752,1,0,0:0:0:0:
256,192,93829,1,8,0:0:0:0:
256,192,93905,1,0,0:0:0:0:
256,192,93982,1,8,0:0:0:0:
256,192,94058,1,8,0:0:0:0:
256,192,94135,1,0,0:0:0:0:
256,192,94211,1,0,0:0:0:0:
256,192,94288,1,8,0:0:0:0:
256,192,94441,1,0,0:0:0:0:
256,192,94594,1,8,0:0:0:0:
256,192,94747,1,0,0:0:0:0:
256,192,94823,1,8,0:0:0:0:
256,192,94977,1,4,0:0:0:0:
256,192,95206,1,12,0:0:0:0:
256,192,95436,1,12,0:0:0:0:
256,192,95665,1,0,0:0:0:0:
256,192,95742,1,8,0:0:0:0:
256,192,95818,1,8,0:0:0:0:
256,192,95895,1,0,0:0:0:0:
256,192,95971,1,8,0:0:0:0:
256,192,96048,1,8,0:0:0:0:
256,192,96124,1,0,0:0:0:0:
256,192,96201,1,8,0:0:0:0:
256,192,96278,1,0,0:0:0:0:
256,192,96354,1,0,0:0:0:0:
256,192,96431,1,8,0:0:0:0:
256,192,96584,1,8,0:0:0:0:
256,192,96660,1,0,0:0:0:0:
256,192,96737,1,8,0:0:0:0:
256,192,96890,1,0,0:0:0:0:
256,192,96966,1,0,0:0:0:0:
256,192,97043,1,8,0:0:0:0:
256,192,97119,1,0,0:0:0:0:
256,192,97196,1,8,0:0:0:0:
256,192,97272,1,8,0:0:0:0:
256,192,97349,1,0,0:0:0:0:
256,192,97502,1,0,0:0:0:0:
256,192,97655,1,8,0:0:0:0:
256,192,97808,1,0,0:0:0:0:
256,192,97885,1,8,0:0:0:0:
256,192,97961,1,8,0:0:0:0:
256,192,98114,1,0,0:0:0:0:
256,192,98191,1,8,0:0:0:0:
256,192,98267,1,0,0:0:0:0:
256,192,98420,1,8,0:0:0:0:
256,192,98497,1,8,0:0:0:0:
256,192,98573,1,0,0:0:0:0:
256,192,98727,1,0,0:0:0:0:
256,192,98880,1,8,0:0:0:0:
256,192,99033,1,0,0:0:0:0:
256,192,99109,1,0,0:0:0:0:
256,192,99186,1,8,0:0:0:0:
256,192,99262,1,8,0:0:0:0:
256,192,99339,1,8,0:0:0:0:
256,192,99415,1,8,0:0:0:0:
256,192,99492,1,8,0:0:0:0:
256,192,99568,1,8,0:0:0:0:
256,192,99645,1,8,0:0:0:0:
256,192,99721,1,8,0:0:0:0:
256,192,99798,1,0,0:0:0:0:
256,192,99874,1,8,0:0:0:0:
256,192,99951,1,0,0:0:0:0:
256,192,100028,1,8,0:0:0:0:
256,192,100104,1,0,0:0:0:0:
256,192,100181,1,8,0:0:0:0:
256,192,100257,1,0,0:0:0:0:
256,192,100334,1,0,0:0:0:0:
256,192,100410,1,8,0:0:0:0:
256,192,100487,1,8,0:0:0:0:
256,192,100563,1,0,0:0:0:0:
256,192,100640,1,8,0:0:0:0:
256,192,100716,1,0,0:0:0:0:
256,192,100793,1,0,0:0:0:0:
256,192,100869,1,8,0:0:0:0:
256,192,101022,1,0,0:0:0:0:
256,192,101176,1,8,0:0:0:0:
256,192,101252,1,0,0:0:0:0:
256,192,101329,1,8,0:0:0:0:
256,192,101482,1,0,0:0:0:0:
256,192,101558,1,0,0:0:0:0:
256,192,101635,1,8,0:0:0:0:
256,192,101711,1,0,0:0:0:0:
256,192,101788,1,8,0:0:0:0:
256,192,101864,1,0,0:0:0:0:
256,192,101941,1,8,0:0:0:0:
256,192,102017,1,8,0:0:0:0:
256,192,102094,1,0,0:0:0:0:
256,192,102170,1,0,0:0:0:0:
256,192,102247,1,8,0:0:0:0:
256,192,102323,1,8,0:0:0:0:
256,192,102400,1,0,0:0:0:0:
256,192,102477,1,8,0:0:0:0:
256,192,102553,1,8,0:0:0:0:
256,192,102630,1,0,0:0:0:0:
256,192,102706,1,0,0:0:0:0:
256,192,102783,1,0,0:0:0:0:
256,192,102859,1,8,0:0:0:0:
256,192,103012,1,0,0:0:0:0:
256,192,103089,1,0,0:0:0:0:
256,192,103165,1,8,0:0:0:0:
256,192,103242,1,8,0:0:0:0:
256,192,103318,1,0,0:0:0:0:
256,192,103395,1,0,0:0:0:0:
256,192,103471,1,8,0:0:0:0:
256,192,103548,1,0,0:0:0:0:
256,192,103624,1,8,0:0:0:0:
256,192,103701,1,8,0:0:0:0:
256,192,103778,1,0,0:0:0:0:
256,192,103854,1,0,0:0:0:0:
256,192,103931,1,8,0:0:0:0:
256,192,104007,1,0,0:0:0:0:
256,192,104084,1,8,0:0:0:0:
256,192,104160,1,8,0:0:0:0:
256,192,104237,1,8,0:0:0:0:
256,192,104313,1,8,0:0:0:0:
256,192,104390,1,0,0:0:0:0:
256,192,104466,1,8,0:0:0:0:
256,192,104543,1,8,0:0:0:0:
256,192,104619,1,8,0:0:0:0:
256,192,104696,1,0,0:0:0:0:
256,192,104772,1,8,0:0:0:0:
256,192,104849,1,0,0:0:0:0:
256,192,104926,1,8,0:0:0:0:
256,192,105002,1,0,0:0:0:0:
256,192,105079,1,8,0:0:0:0:
256,192,105155,1,0,0:0:0:0:
256,192,105232,1,0,0:0:0:0:
256,192,105308,1,8,0:0:0:0:
256,192,105385,1,8,0:0:0:0:
256,192,105461,1,0,0:0:0:0:
256,192,105538,1,0,0:0:0:0:
256,192,105614,1,8,0:0:0:0:
256,192,105691,1,0,0:0:0:0:
256,192,105767,1,8,0:0:0:0:
256,192,105844,1,8,0:0:0:0:
256,192,105920,1,0,0:0:0:0:
256,192,105997,1,0,0:0:0:0:
256,192,106073,1,8,0:0:0:0:
256,192,106150,1,0,0:0:0:0:
256,192,106227,1,8,0:0:0:0:
256,192,106303,1,0,0:0:0:0:
256,192,106380,1,8,0:0:0:0:
256,192,106456,1,8,0:0:0:0:
256,192,106533,1,0,0:0:0:0:
256,192,106686,1,8,0:0:0:0:
256,192,106762,1,8,0:0:0:0:
256,192,106839,1,0,0:0:0:0:
256,192,106915,1,0,0:0:0:0:
256,192,106992,1,8,0:0:0:0:
256,192,107068,1,0,0:0:0:0:
256,192,107145,1,8,0:0:0:0:
256,192,107221,1,8,0:0:0:0:
256,192,107298,1,0,0:0:0:0:
256,192,107374,1,0,0:0:0:0:
256,192,107451,1,8,0:0:0:0:
256,192,107528,1,8,0:0:0:0:
256,192,107604,1,0,0:0:0:0:
256,192,107681,1,8,0:0:0:0:
256,192,107757,1,8,0:0:0:0:
256,192,107834,1,0,0:0:0:0:
256,192,107910,1,0,0:0:0:0:
256,192,107987,1,0,0:0:0:0:
256,192,108063,1,8,0:0:0:0:
256,192,108140,1,0,0:0:0:0:
256,192,108216,1,8,0:0:0:0:
256,192,108293,1,8,0:0:0:0:
256,192,108369,1,8,0:0:0:0:
256,192,108446,1,0,0:0:0:0:
256,192,108522,1,8,0:0:0:0:
256,192,108599,1,0,0:0:0:0:
256,192,108676,1,8,0:0:0:0:
256,192,108752,1,8,0:0:0:0:
256,192,108829,1,0,0:0:0:0:
256,192,108905,1,0,0:0:0:0:
256,192,108982,1,8,0:0:0:0:
256,192,109033,1,8,0:0:0:0:
256,192,109084,1,8,0:0:0:0:
256,192,109135,1,8,0:0:0:0:
256,192,109186,1,8,0:0:0:0:
256,192,109237,1,8,0:0:0:0:
256,192,109288,1,0,0:0:0:0:
256,192,109364,1,0,0:0:0:0:
256,192,109441,1,8,0:0:0:0:
256,192,109517,1,8,0:0:0:0:
256,192,109594,1,8,0:0:0:0:
256,192,109670,1,0,0:0:0:0:
256,192,109747,1,8,0:0:0:0:
256,192,109823,1,8,0:0:0:0:
256,192,109900,1,0,0:0:0:0:
256,192,109977,1,8,0:0:0:0:
256,192,110053,1,0,0:0:0:0:
256,192,110130,1,0,0:0:0:0:
256,192,110206,1,8,0:0:0:0:
256,192,110308,1,0,0:0:0:0:
256,192,110410,1,8,0:0:0:0:
256,192,110512,1,8,0:0:0:0:
256,192,110614,1,8,0:0:0:0:
256,192,110716,1,8,0:0:0:0:
256,192,110818,1,0,0:0:0:0:
256,192,110920,1,0,0:0:0:0:
256,192,111022,1,8,0:0:0:0:
256,192,111124,1,0,0:0:0:0:
256,192,111227,1,0,0:0:0:0:
256,192,111329,1,0,0:0:0:0:
256,192,111431,1,12,0:0:0:0:
256,192,111737,1,0,0:0:0:0:
256,192,111890,1,0,0:0:0:0:
256,192,112043,1,8,0:0:0:0:
256,192,112196,1,8,0:0:0:0:
256,192,112349,1,0,0:0:0:0:
256,192,112502,1,8,0:0:0:0:
256,192,112579,1,8,0:0:0:0:
256,192,112655,1,8,0:0:0:0:
256,192,112808,1,8,0:0:0:0:
256,192,112961,1,0,0:0:0:0:
256,192,113114,1,0,0:0:0:0:
256,192,113267,1,8,0:0:0:0:
256,192,113573,1,0,0:0:0:0:
256,192,113727,1,0,0:0:0:0:
256,192,113803,1,0,0:0:0:0:
256,192,113880,1,8,0:0:0:0:
256,192,114186,1,8,0:0:0:0:
256,192,114339,1,8,0:0:0:0:
256,192,114492,1,0,0:0:0:0:
256,192,114645,1,0,0:0:0:0:
256,192,114721,1,8,0:0:0:0:
256,192,114798,1,0,0:0:0:0:
256,192,114951,1,0,0:0:0:0:
256,192,115028,1,0,0:0:0:0:
256,192,115104,1,8,0:0:0:0:
256,192,115257,1,0,0:0:0:0:
256,192,115334,1,8,0:0:0:0:
256,192,115410,1,8,0:0:0:0:
256,192,115487,1,0,0:0:0:0:
256,192,115563,1,8,0:0:0:0:
256,192,115716,1,0,0:0:0:0:
256,192,115793,1,0,0:0:0:0:
256,192,115869,1,8,0:0:0:0:
256,192,115946,1,0,0:0:0:0:
256,192,116022,1,8,0:0:0:0:
256,192,116099,1,8,0:0:0:0:
256,192,116176,1,8,0:0:0:0:
256,192,116252,1,8,0:0:0:0:
256,192,116329,1,0,0:0:0:0:
