osu file format v14

[General]
AudioFilename: audio.mp3
AudioLeadIn: 0
PreviewTime: 55597
Countdown: 0
SampleSet: Normal
StackLeniency: 0.7
Mode: 1
LetterboxInBreaks: 0
WidescreenStoryboard: 0

[Editor]
DistanceSpacing: 1
BeatDivisor: 6
GridSize: 8
TimelineZoom: 8

[Metadata]
Title:Nee, Kowareta Ningyou wa Doko e Suterareru no?
TitleUnicode:ねぇ、壊れタ人形ハ何処へ棄テらレるノ?
Artist:cosMo@bousouP
ArtistUnicode:cosMo@暴走P
Creator:Rhytoly
Version:Inner Oni?
Source:maimai MURASAKi
Tags:Doll wAndeRing iN tHe NighTmAre cosMo@bousou-P CHUNITHM SEGA ORIGINAL & JOYPOLIS オリジナル & ジョイポリス Challenge Track 挑戰樂曲
BeatmapID:1784736
BeatmapSetID:854011

[Difficulty]
HPDrainRate:5
CircleSize:2
OverallDifficulty:7
ApproachRate:5
SliderMultiplier:1.4
SliderTickRate:1

[Events]
//Background and Video events
0,0,"do ll.jpg",0,50
//Break Periods
2,8563,10036
//Storyboard Layer 0 (Background)
//Storyboard Layer 1 (Fail)
//Storyboard Layer 2 (Pass)
//Storyboard Layer 3 (Foreground)
//Storyboard Sound Samples

[TimingPoints]
705,319.148936170213,3,1,0,80,1,0
705,-111.111111111111,3,1,0,80,0,0
7406,-112.359550561798,3,1,0,80,0,0
7565,-113.636363636364,3,1,0,80,0,0
7725,-114.942528735632,3,1,0,80,0,0
8044,-117.647058823529,3,1,0,80,0,0
11236,-90.9090909090909,3,1,0,90,0,0
11873,-80,3,1,0,90,0,0
11926,-81.9672131147541,3,1,0,90,0,0
11979,-84.0336134453781,3,1,0,90,0,0
12032,-86.2068965517241,3,1,0,90,0,0
12086,-88.4955752212389,3,1,0,90,0,0
12139,-90.9090909090909,3,1,0,90,0,0
12192,-93.4579439252336,3,1,0,90,0,0
12352,-88.4955752212389,3,1,0,90,0,0
12405,-86.9565217391304,3,1,0,90,0,0
12458,-85.4700854700855,3,1,0,90,0,0
12511,-84.0336134453781,3,1,0,90,0,0
12671,-80,3,1,0,90,0,0
12724,-78.7401574803149,3,1,0,90,0,0
12777,-77.5193798449612,3,1,0,90,0,0
12830,-76.3358778625954,3,1,0,90,0,0
13151,319.148936170213,3,1,0,80,1,8
13151,-100,3,1,0,80,0,0
13469,-125,3,1,0,80,0,0
13789,319.148936170213,3,1,0,90,1,0
13789,-95.2380952380952,3,1,0,90,0,0
25916,-94.3396226415094,3,1,0,90,0,0
25996,-93.4579439252336,3,1,0,90,0,0
26076,-92.5925925925926,3,1,0,90,0,0
26156,-91.743119266055,3,1,0,90,0,0
26235,-90.9090909090909,3,1,0,90,0,0
26874,-90.0900900900901,3,1,0,90,0,0
26953,-89.2857142857143,3,1,0,90,0,0
27033,-88.4955752212389,3,1,0,90,0,0
27113,-87.719298245614,3,1,0,90,0,0
27193,-86.9565217391304,3,1,0,90,0,0
28310,-93.4579439252336,3,1,0,80,0,0
28469,-101.010101010101,3,1,0,80,0,0
28629,-109.89010989011,3,1,0,80,0,0
28789,-66.6666666666667,3,1,0,90,0,0
29108,-90.9090909090909,3,1,0,95,0,0
41235,-90.0900900900901,3,1,0,90,0,0
41315,-89.2857142857143,3,1,0,90,0,0
41395,-88.4955752212389,3,1,0,90,0,0
41475,-87.719298245614,3,1,0,90,0,0
41554,-86.9565217391304,3,1,0,90,0,0
42193,-86.2068965517241,3,1,0,90,0,0
42273,-85.4700854700855,3,1,0,90,0,0
42352,-84.7457627118644,3,1,0,90,0,0
42432,-84.0336134453781,3,1,0,90,0,0
42512,-83.3333333333333,3,1,0,90,0,0
43150,-82.6446280991736,3,1,0,90,0,0
43230,-81.9672131147541,3,1,0,90,0,0
43310,-81.3008130081301,3,1,0,90,0,0
43390,-80.6451612903226,3,1,0,90,0,0
43469,-80,3,1,0,90,0,0
44108,-79.3650793650794,3,1,0,90,0,0
44187,-78.7401574803149,3,1,0,90,0,0
44267,-78.125,3,1,0,90,0,0
44347,-77.5193798449612,3,1,0,90,0,0
44427,-76.9230769230769,3,1,0,90,0,0
47618,-98.0392156862745,3,1,0,90,0,0
47725,-100,3,1,0,90,0,0
47831,-102.040816326531,3,1,0,90,0,0
47937,-104.166666666667,3,1,0,90,0,0
48044,-106.382978723404,3,1,0,90,0,0
48150,-108.695652173913,3,1,0,90,0,0
48257,-111.111111111111,3,1,0,90,0,0
48469,-106.382978723404,3,1,0,90,0,0
48576,-104.166666666667,3,1,0,90,0,0
48682,-102.040816326531,3,1,0,90,0,0
48789,-100,3,1,0,90,0,0
48895,-98.0392156862745,3,1,0,90,0,0
49001,-96.1538461538461,3,1,0,90,0,0
49108,-94.3396226415094,3,1,0,90,0,0
49214,-92.5925925925926,3,1,0,90,0,0
49320,-94.3396226415094,3,1,0,90,0,0
49427,-96.1538461538461,3,1,0,90,0,0
49533,-98.0392156862745,3,1,0,90,0,0
49640,-100,3,1,0,90,0,0
49746,-102.040816326531,3,1,0,90,0,0
49852,-104.166666666667,3,1,0,90,0,0
49959,-106.382978723404,3,1,0,90,0,0
50065,-108.695652173913,3,1,0,90,0,0
50171,-111.111111111111,3,1,0,90,0,0
50278,-108.695652173913,3,1,0,90,0,0
50384,-106.382978723404,3,1,0,90,0,0
50491,-104.166666666667,3,1,0,90,0,0
50597,-102.040816326531,3,1,0,90,0,0
50703,-100,3,1,0,90,0,0
50810,-98.0392156862745,3,1,0,90,0,0
50916,-96.1538461538461,3,1,0,90,0,0
51023,-94.3396226415094,3,1,0,90,0,0
51129,-92.5925925925926,3,1,0,90,0,0
51235,-94.3396226415094,3,1,0,90,0,0
51342,-96.1538461538461,3,1,0,90,0,0
51448,-98.0392156862745,3,1,0,90,0,0
51554,-100,3,1,0,90,0,0
51661,-102.040816326531,3,1,0,90,0,0
51767,-104.166666666667,3,1,0,90,0,0
51874,-106.382978723404,3,1,0,90,0,0
51980,-108.695652173913,3,1,0,90,0,0
52086,-111.111111111111,3,1,0,90,0,0
52193,-108.695652173913,3,1,0,90,0,0
52299,-106.382978723404,3,1,0,90,0,0
52406,-104.166666666667,3,1,0,90,0,0
52512,-102.040816326531,3,1,0,90,0,0
52618,-100,3,1,0,90,0,0
52725,-98.0392156862745,3,1,0,90,0,0
52831,-96.1538461538461,3,1,0,90,0,0
52937,-94.3396226415094,3,1,0,90,0,0
53044,-92.5925925925926,3,1,0,90,0,0
53150,-94.3396226415094,3,1,0,90,0,0
53257,-96.1538461538461,3,1,0,90,0,0
53363,-98.0392156862745,3,1,0,90,0,0
53469,-100,3,1,0,90,0,0
53576,-102.040816326531,3,1,0,90,0,0
53682,-104.166666666667,3,1,0,90,0,0
53789,-106.382978723404,3,1,0,90,0,0
53895,-108.695652173913,3,1,0,90,0,0
54001,-111.111111111111,3,1,0,90,0,0
54108,-108.695652173913,3,1,0,90,0,0
54214,-106.382978723404,3,1,0,90,0,0
54320,-104.166666666667,3,1,0,90,0,0
54427,-102.040816326531,3,1,0,90,0,0
54533,-100,3,1,0,90,0,0
54640,-98.0392156862745,3,1,0,90,0,0
54746,-96.1538461538461,3,1,0,90,0,0
54852,-94.3396226415094,3,1,0,90,0,0
54959,-92.5925925925926,3,1,0,90,0,0
55597,-133.333333333333,3,1,0,90,0,0
55916,-100,3,1,0,90,0,0
59427,-99.009900990099,3,1,0,90,0,0
59507,-98.0392156862745,3,1,0,90,0,0
59586,-97.0873786407767,3,1,0,90,0,0
59746,-95.2380952380952,3,1,0,90,0,0
61342,-94.3396226415094,3,1,0,90,0,0
61421,-93.4579439252336,3,1,0,90,0,0
61501,-92.5925925925926,3,1,0,90,0,0
61661,-90.9090909090909,3,1,0,90,0,0
63576,-100,3,1,0,80,0,0
67086,-99.009900990099,3,1,0,80,0,0
67246,-97.0873786407767,3,1,0,80,0,0
67406,-95.2380952380952,3,1,0,90,0,1
69320,-94.3396226415094,3,1,0,90,0,1
69400,-93.4579439252336,3,1,0,90,0,1
69480,-92.5925925925926,3,1,0,90,0,1
69560,-91.743119266055,3,1,0,90,0,1
69640,-90.9090909090909,3,1,0,90,0,1
69719,-90.0900900900901,3,1,0,90,0,1
69799,-89.2857142857143,3,1,0,90,0,1
69879,-88.4955752212389,3,1,0,90,0,1
69959,-87.719298245614,3,1,0,90,0,1
70039,-86.9565217391304,3,1,0,90,0,1
70118,-86.2068965517241,3,1,0,90,0,1
70198,-85.4700854700855,3,1,0,90,0,1
70278,-86.2068965517241,3,1,0,90,0,1
70358,-86.9565217391304,3,1,0,90,0,1
70437,-87.719298245614,3,1,0,90,0,1
70517,-88.4955752212389,3,1,0,90,0,1
70597,-89.2857142857143,3,1,0,90,0,1
70677,-90.0900900900901,3,1,0,90,0,1
70757,-90.9090909090909,3,1,0,90,0,1
70836,-91.743119266055,3,1,0,90,0,1
70916,-92.5925925925926,3,1,0,90,0,1
70996,-93.4579439252336,3,1,0,90,0,1
71076,-94.3396226415094,3,1,0,90,0,1
71235,-90.9090909090909,3,1,0,90,0,1
75225,-86.9565217391304,3,1,0,90,0,1
75384,-83.3333333333333,3,1,0,90,0,1
75544,-80,3,1,0,90,0,1
75703,-83.3333333333333,3,1,0,90,0,1
75863,-86.9565217391304,3,1,0,90,0,1
76023,-90.9090909090909,3,1,0,90,0,1
76102,-91.743119266055,3,1,0,90,0,1
76182,-92.5925925925926,3,1,0,90,0,1
76262,-93.4579439252336,3,1,0,90,0,1
76342,-94.3396226415094,3,1,0,90,0,1
76421,-95.2380952380952,3,1,0,90,0,1
76501,-96.1538461538461,3,1,0,90,0,1
76581,-97.0873786407767,3,1,0,90,0,1
76661,-98.0392156862745,3,1,0,90,0,1
76741,-99.009900990099,3,1,0,90,0,1
76820,-100,3,1,0,90,0,1
76900,-101.010101010101,3,1,0,90,0,1
76980,-100,3,1,0,90,0,1
77060,-99.009900990099,3,1,0,90,0,1
77140,-98.0392156862745,3,1,0,90,0,1
77219,-97.0873786407767,3,1,0,90,0,1
77299,-96.1538461538461,3,1,0,90,0,1
77379,-95.2380952380952,3,1,0,90,0,1
77459,-94.3396226415094,3,1,0,90,0,1
77539,-93.4579439252336,3,1,0,90,0,1
77618,-92.7643784786642,3,1,0,90,0,1
77698,-91.743119266055,3,1,0,90,0,1
77778,-90.9090909090909,3,1,0,90,0,1
77858,-90.0900900900901,3,1,0,90,0,1
77937,-89.2857142857143,3,1,0,90,0,1
77991,-88.4955752212389,3,1,0,90,0,1
78044,-87.719298245614,3,1,0,90,0,1
78257,-86.9565217391304,3,1,0,90,0,1
78310,-86.2068965517241,3,1,0,90,0,1
78363,-85.4700854700855,3,1,0,90,0,1
78576,-84.7457627118644,3,1,0,90,0,1
78629,-84.0336134453781,3,1,0,90,0,1
78682,-83.3333333333333,3,1,0,90,0,1
78895,-83.3333333333333,3,1,0,90,0,0
79852,-87.719298245614,3,1,0,90,0,0
80810,-92.5925925925926,3,1,0,90,0,0
81767,-98.0392156862745,3,1,0,90,0,0
82725,-116.279069767442,3,1,0,90,0,0
88149,-66.6666666666667,3,1,0,90,0,0
88469,319.148936170213,4,1,0,95,1,1
88469,-86.9565217391304,3,1,0,95,0,1
96127,-86.2068965517241,3,1,0,95,0,1
96207,-85.4700854700855,3,1,0,95,0,1
96287,-84.7457627118644,3,1,0,95,0,1
96366,-84.0336134453781,3,1,0,95,0,1
96446,-83.3333333333333,3,1,0,95,0,1
96526,-82.6446280991736,3,1,0,95,0,1
96607,-81.9672131147541,3,1,0,95,0,1
96687,-81.3008130081301,3,1,0,95,0,1
96766,-80.6451612903226,3,1,0,95,0,1
96846,-80,3,1,0,95,0,1
96926,-79.3650793650794,3,1,0,95,0,1
97006,-78.7401574803149,3,1,0,95,0,1
97086,-78.2472613458529,3,1,0,95,0,1
97165,-77.5193798449612,3,1,0,95,0,1
97245,-76.9230769230769,3,1,0,95,0,1
97325,-76.3358778625954,3,1,0,95,0,1
97405,-76.9230769230769,3,1,0,95,0,1
97484,-77.5193798449612,3,1,0,95,0,1
97564,-78.125,3,1,0,95,0,1
97644,-78.7401574803149,3,1,0,95,0,1
97724,-79.3650793650794,3,1,0,95,0,1
97804,-80,3,1,0,95,0,1
97883,-80.6451612903226,3,1,0,95,0,1
97963,-81.3008130081301,3,1,0,95,0,1
98043,-81.9672131147541,3,1,0,95,0,1
98123,-82.6446280991736,3,1,0,95,0,1
98203,-83.3333333333333,3,1,0,95,0,1
98282,-84.0336134453781,3,1,0,95,0,1
98362,-84.7457627118644,3,1,0,95,0,1
98442,-85.4700854700855,3,1,0,95,0,1
98522,-86.2068965517241,3,1,0,95,0,1
98601,-86.9565217391304,3,1,0,95,0,1
99639,-87.719298245614,3,1,0,95,0,1
99719,-88.4955752212389,3,1,0,95,0,1
99798,-89.2857142857143,3,1,0,95,0,1
99878,-90.0900900900901,3,1,0,95,0,1
99958,-90.9090909090909,3,1,0,95,0,1
100915,-90.0900900900901,3,1,0,95,0,1
100995,-89.2857142857143,3,1,0,95,0,1
101075,-88.4955752212389,3,1,0,95,0,1
101155,-87.719298245614,3,1,0,95,0,1
101234,-86.9565217391304,3,1,0,95,0,1
103867,-87.719298245614,3,1,0,95,0,1
103947,-88.4955752212389,3,1,0,95,0,1
104027,-89.2857142857143,3,1,0,95,0,1
104107,-90.0900900900901,3,1,0,95,0,1
104187,-90.9090909090909,3,1,0,95,0,1
104266,-91.743119266055,3,1,0,95,0,1
104346,-92.5925925925926,3,1,0,95,0,1
104426,-93.4579439252336,3,1,0,95,0,1
104506,-94.3396226415094,3,1,0,95,0,1
104586,-95.2380952380952,3,1,0,95,0,1
104665,-96.1538461538461,3,1,0,95,0,1
104745,-97.0873786407767,3,1,0,95,0,1
104825,-98.0392156862745,3,1,0,95,0,1
104905,-99.009900990099,3,1,0,95,0,1
104984,-100,3,1,0,95,0,1
105064,-101.010101010101,3,1,0,95,0,1
105224,-99.009900990099,3,1,0,95,0,1
105304,-98.0392156862745,3,1,0,95,0,1
105463,-96.1538461538461,3,1,0,95,0,1
105543,-95.2380952380952,3,1,0,95,0,1
105703,-93.4579439252336,3,1,0,95,0,1
105782,-92.5925925925926,3,1,0,95,0,1
105862,-91.743119266055,3,1,0,95,0,1
105942,-90.9090909090909,3,1,0,95,0,1
106022,-90.0900900900901,3,1,0,95,0,1
106101,-89.2857142857143,3,1,0,95,0,1
106181,-88.4955752212389,3,1,0,95,0,1
106261,-87.719298245614,3,1,0,95,0,1
106341,-86.9565217391304,3,1,0,95,0,1
106421,-87.719298245614,3,1,0,95,0,1
106500,-88.4955752212389,3,1,0,95,0,1
106580,-89.2857142857143,3,1,0,95,0,1
106660,-90.0900900900901,3,1,0,95,0,1
106740,-90.9090909090909,3,1,0,95,0,1
106820,-91.743119266055,3,1,0,95,0,1
106899,-92.5925925925926,3,1,0,95,0,1
106979,-93.4579439252336,3,1,0,95,0,1
107059,-94.3396226415094,3,1,0,95,0,1
107139,-95.2380952380952,3,1,0,95,0,1
107219,-96.1538461538461,3,1,0,95,0,1
107298,-97.0873786407767,3,1,0,95,0,1
107378,-96.1538461538461,3,1,0,95,0,1
107458,-95.2380952380952,3,1,0,95,0,1
107538,-94.3396226415094,3,1,0,95,0,1
107617,-93.4579439252336,3,1,0,95,0,1
108575,-93.4579439252336,3,1,0,95,0,0
108894,-83.3333333333333,3,1,0,100,0,1
111607,-84.7457627118644,3,1,0,100,0,1
111687,-85.4700854700855,3,1,0,100,0,1
111766,-86.2068965517241,3,1,0,100,0,1
111846,-86.9565217391304,3,1,0,100,0,1
111926,-87.719298245614,3,1,0,100,0,1
112006,-88.4955752212389,3,1,0,100,0,1
112086,-89.2857142857143,3,1,0,100,0,1
112165,-90.0900900900901,3,1,0,100,0,1
112245,-90.9090909090909,3,1,0,100,0,1
112325,-91.743119266055,3,1,0,100,0,1
112405,-92.5925925925926,3,1,0,100,0,1
112484,-93.4579439252336,3,1,0,100,0,1
112564,-94.3396226415094,3,1,0,100,0,1
112644,-95.2380952380952,3,1,0,100,0,1
112724,-94.3396226415094,3,1,0,100,0,1
112804,-93.4579439252336,3,1,0,100,0,1
112883,-92.5925925925926,3,1,0,100,0,1
112963,-91.743119266055,3,1,0,100,0,1
113043,-90.9090909090909,3,1,0,100,0,1
113203,-86.9565217391304,3,1,0,100,0,1
113362,-83.3333333333333,3,1,0,100,0,1
113522,-79.3650793650794,3,1,0,100,0,1
113601,-80,3,1,0,100,0,1
113681,-80.6451612903226,3,1,0,100,0,1
113761,-81.3008130081301,3,1,0,100,0,1
113841,-81.9672131147541,3,1,0,100,0,1
113921,-82.6446280991736,3,1,0,100,0,1
114000,-83.3333333333333,3,1,0,100,0,1
114639,-84.0336134453781,3,1,0,100,0,1
114719,-84.7457627118644,3,1,0,100,0,1
114798,-85.4700854700855,3,1,0,100,0,1
114878,-86.2068965517241,3,1,0,100,0,1
114958,-86.9565217391304,3,1,0,100,0,1
115038,-87.719298245614,3,1,0,100,0,1
115117,-88.4955752212389,3,1,0,100,0,1
115197,-89.2857142857143,3,1,0,100,0,1
115277,-90.0900900900901,3,1,0,100,0,1
115357,-89.2857142857143,3,1,0,100,0,1
115437,-88.4955752212389,3,1,0,100,0,1
115516,-87.719298245614,3,1,0,100,0,1
115596,-86.9565217391304,3,1,0,100,0,1
115676,-86.2068965517241,3,1,0,100,0,1
115756,-85.4700854700855,3,1,0,100,0,1
115836,-84.7457627118644,3,1,0,100,0,1
115915,-84.0336134453781,3,1,0,100,0,1
115995,-83.3333333333333,3,1,0,100,0,1
116075,-82.6446280991736,3,1,0,100,0,1
116155,-81.9672131147541,3,1,0,100,0,1
116234,-81.3008130081301,3,1,0,100,0,1
116394,-78.7401574803149,3,1,0,100,0,1
116554,-76.9230769230769,3,1,0,100,0,1
117671,-75.187969924812,3,1,0,100,0,1
117750,-74.6268656716418,3,1,0,100,0,1
117830,-74.0740740740741,3,1,0,100,0,1
119107,-74.0740740740741,3,1,0,90,0,0
120383,-80,3,1,0,90,0,0
121660,-86.9565217391304,3,1,0,90,0,0
122937,-95.2380952380952,3,1,0,90,0,0
124213,-105.263157894737,3,1,0,90,0,0
125490,-117.647058823529,3,1,0,90,0,0
126766,-133.333333333333,3,1,0,90,0,0
128043,-153.846153846154,3,1,0,90,0,0
129320,-181.818181818182,3,1,0,90,0,0
130596,-208.333333333333,3,1,0,90,0,0
131873,-250,3,1,0,90,0,0
132511,-270.27027027027,3,1,0,90,0,0
133149,-285.714285714286,3,1,0,90,0,0
134426,-66.6666666666667,3,1,0,90,0,0
135064,-33.3333333333333,3,1,0,100,0,0

[HitObjects]
273,165,705,5,0,0:0:0:0:
368,156,1024,1,0,0:0:0:0:
401,198,1343,1,8,0:0:0:0:
401,198,1661,1,0,0:0:0:0:
242,140,1980,1,0,0:0:0:0:
316,127,2299,1,8,0:0:0:0:
286,116,2618,1,0,0:0:0:0:
422,219,2938,1,8,0:0:0:0:
422,219,3257,1,8,0:0:0:0:
422,219,3576,1,0,0:0:0:0:
422,219,3895,1,0,0:0:0:0:
422,219,4215,1,8,0:0:0:0:
273,165,4534,1,0,0:0:0:0:
368,156,4853,1,0,0:0:0:0:
401,198,5173,1,8,0:0:0:0:
401,198,5492,1,0,0:0:0:0:
242,140,5811,1,0,0:0:0:0:
316,127,6130,1,8,0:0:0:0:
286,116,6449,1,0,0:0:0:0:
422,219,6768,1,8,0:0:0:0:
422,219,7087,1,8,0:0:0:0:
422,219,7407,1,0,0:0:0:0:
248,93,7566,1,8,0:0:0:0:
422,219,7726,1,0,0:0:0:0:
256,192,8044,12,0,8363,0:0:0:0:
367,88,11236,5,8,0:0:0:0:
290,133,11290,1,8,0:0:0:0:
77,170,11343,1,8,0:0:0:0:
282,132,11396,1,8,0:0:0:0:
166,106,11449,1,0,0:0:0:0:
210,100,11502,1,0,0:0:0:0:
361,128,11874,1,8,0:0:0:0:
361,128,11927,1,8,0:0:0:0:
361,128,11980,1,8,0:0:0:0:
361,128,12033,1,8,0:0:0:0:
361,128,12086,1,8,0:0:0:0:
361,128,12140,1,8,0:0:0:0:
149,165,12193,1,0,0:0:0:0:
195,133,12352,1,8,0:0:0:0:
195,133,12406,1,0,0:0:0:0:
195,133,12459,1,0,0:0:0:0:
195,133,12512,1,8,0:0:0:0:
195,133,12672,1,0,0:0:0:0:
195,133,12725,1,0,0:0:0:0:
195,133,12778,1,0,0:0:0:0:
195,133,12831,1,8,0:0:0:0:
193,55,13151,1,8,0:0:0:0:
248,105,13470,1,8,0:0:0:0:
133,168,13789,1,4,0:0:0:0:
132,136,13948,1,8,0:0:0:0:
132,136,14028,1,8,0:0:0:0:
132,136,14108,1,0,0:0:0:0:
134,127,14267,1,0,0:0:0:0:
166,124,14427,1,8,0:0:0:0:
151,151,14586,1,0,0:0:0:0:
209,151,14666,1,0,0:0:0:0:
209,151,14746,1,8,0:0:0:0:
209,151,14906,1,0,0:0:0:0:
209,151,15065,1,8,0:0:0:0:
307,170,15145,1,0,0:0:0:0:
314,171,15225,1,8,0:0:0:0:
314,171,15304,1,8,0:0:0:0:
314,171,15384,1,0,0:0:0:0:
134,154,15544,1,0,0:0:0:0:
206,130,15703,1,8,0:0:0:0:
206,130,15863,1,0,0:0:0:0:
206,130,15943,1,0,0:0:0:0:
206,130,16023,1,8,0:0:0:0:
203,113,16182,1,0,0:0:0:0:
132,135,16342,1,8,0:0:0:0:
83,137,16421,1,0,0:0:0:0:
188,89,16501,1,0,0:0:0:0:
188,89,16661,1,0,0:0:0:0:
396,219,16741,1,0,0:0:0:0:
188,89,16820,1,8,0:0:0:0:
188,89,16900,1,8,0:0:0:0:
188,89,16980,1,0,0:0:0:0:
96,117,17060,1,0,0:0:0:0:
356,175,17140,1,8,0:0:0:0:
203,12,17219,1,0,0:0:0:0:
200,68,17299,1,8,0:0:0:0:
278,124,17459,1,0,0:0:0:0:
278,124,17539,1,0,0:0:0:0:
278,124,17618,1,8,0:0:0:0:
153,101,17778,1,0,0:0:0:0:
153,101,17858,1,0,0:0:0:0:
153,101,17937,1,8,0:0:0:0:
153,101,18017,1,0,0:0:0:0:
153,101,18097,1,8,0:0:0:0:
153,101,18177,1,8,0:0:0:0:
153,101,18257,1,0,0:0:0:0:
194,37,18416,1,8,0:0:0:0:
236,173,18576,1,0,0:0:0:0:
145,137,18735,1,0,0:0:0:0:
169,137,18815,1,0,0:0:0:0:
169,137,18895,1,8,0:0:0:0:
136,56,19054,1,8,0:0:0:0:
136,56,19134,1,8,0:0:0:0:
169,137,19214,1,0,0:0:0:0:
104,22,19374,1,0,0:0:0:0:
59,140,19453,1,0,0:0:0:0:
68,140,19533,1,8,0:0:0:0:
126,161,19693,1,0,0:0:0:0:
144,161,19773,1,0,0:0:0:0:
156,90,19852,1,8,0:0:0:0:
169,137,20012,1,0,0:0:0:0:
169,137,20092,1,0,0:0:0:0:
171,117,20171,1,8,0:0:0:0:
171,117,20251,1,8,0:0:0:0:
151,52,20331,1,0,0:0:0:0:
327,69,20491,1,8,0:0:0:0:
327,69,20570,1,0,0:0:0:0:
327,69,20650,1,8,0:0:0:0:
302,73,20810,1,0,0:0:0:0:
302,73,20890,1,0,0:0:0:0:
302,73,20969,1,8,0:0:0:0:
302,73,21049,1,8,0:0:0:0:
266,88,21129,1,0,0:0:0:0:
365,237,21289,1,0,0:0:0:0:
266,88,21368,1,0,0:0:0:0:
365,237,21448,1,8,0:0:0:0:
369,134,21608,1,8,0:0:0:0:
369,134,21767,1,0,0:0:0:0:
369,134,21927,1,0,0:0:0:0:
105,161,22007,1,0,0:0:0:0:
291,121,22086,1,8,0:0:0:0:
213,141,22246,1,0,0:0:0:0:
213,141,22326,1,0,0:0:0:0:
213,141,22406,1,8,0:0:0:0:
221,122,22565,1,0,0:0:0:0:
222,122,22725,1,8,0:0:0:0:
144,148,22804,1,8,0:0:0:0:
129,147,22884,1,0,0:0:0:0:
198,49,23044,1,8,0:0:0:0:
198,49,23203,1,0,0:0:0:0:
198,49,23283,1,8,0:0:0:0:
198,49,23363,1,0,0:0:0:0:
357,120,23523,1,0,0:0:0:0:
357,120,23602,1,0,0:0:0:0:
357,120,23682,1,8,0:0:0:0:
236,144,23842,1,0,0:0:0:0:
236,144,24001,1,8,0:0:0:0:
236,144,24081,1,0,0:0:0:0:
236,144,24161,1,8,0:0:0:0:
236,144,24241,1,8,0:0:0:0:
482,133,24320,1,0,0:0:0:0:
185,156,24400,1,0,0:0:0:0:
425,306,24480,1,8,0:0:0:0:
236,144,24640,1,0,0:0:0:0:
236,144,24719,1,0,0:0:0:0:
236,144,24799,1,8,0:0:0:0:
236,144,24879,1,0,0:0:0:0:
236,144,24959,1,8,0:0:0:0:
236,144,25039,1,8,0:0:0:0:
236,144,25118,1,0,0:0:0:0:
236,144,25198,1,0,0:0:0:0:
228,144,25278,1,8,0:0:0:0:
330,149,25437,1,0,0:0:0:0:
330,149,25597,1,0,0:0:0:0:
330,149,25677,1,8,0:0:0:0:
330,149,25757,1,0,0:0:0:0:
330,149,25836,1,8,0:0:0:0:
330,149,25916,1,0,0:0:0:0:
330,149,25996,1,8,0:0:0:0:
379,204,26076,1,0,0:0:0:0:
379,204,26156,1,0,0:0:0:0:
379,204,26235,1,8,0:0:0:0:
181,137,26395,1,0,0:0:0:0:
199,137,26475,1,8,0:0:0:0:
199,137,26554,1,8,0:0:0:0:
199,137,26634,1,0,0:0:0:0:
199,137,26714,1,8,0:0:0:0:
199,137,26794,1,0,0:0:0:0:
199,137,26874,1,8,0:0:0:0:
199,137,26953,1,8,0:0:0:0:
199,137,27033,1,0,0:0:0:0:
199,137,27113,1,8,0:0:0:0:
156,108,27193,1,8,0:0:0:0:
156,108,27273,1,0,0:0:0:0:
199,137,27352,1,8,0:0:0:0:
129,113,27432,1,0,0:0:0:0:
129,113,27512,1,8,0:0:0:0:
121,114,27592,1,8,0:0:0:0:
156,108,27671,1,0,0:0:0:0:
156,108,27751,1,8,0:0:0:0:
156,108,27831,1,0,0:0:0:0:
156,108,27911,1,8,0:0:0:0:
156,108,27991,1,8,0:0:0:0:
156,108,28070,1,0,0:0:0:0:
156,108,28150,1,8,0:0:0:0:
378,167,28310,1,8,0:0:0:0:
386,176,28469,1,0,0:0:0:0:
386,176,28629,1,0,0:0:0:0:
386,176,28789,1,12,0:0:0:0:
193,106,29108,1,4,0:0:0:0:
192,146,29267,1,0,0:0:0:0:
192,146,29347,1,0,0:0:0:0:
192,146,29427,1,8,0:0:0:0:
197,146,29586,1,0,0:0:0:0:
197,146,29666,1,0,0:0:0:0:
197,146,29746,1,8,0:0:0:0:
89,185,29906,1,0,0:0:0:0:
153,150,30065,1,8,0:0:0:0:
241,108,30225,1,0,0:0:0:0:
241,108,30304,1,8,0:0:0:0:
241,108,30384,1,0,0:0:0:0:
71,130,30544,1,8,0:0:0:0:
185,193,30624,1,8,0:0:0:0:
108,109,30703,1,0,0:0:0:0:
81,132,30863,1,0,0:0:0:0:
98,120,31023,1,8,0:0:0:0:
98,120,31102,1,8,0:0:0:0:
98,120,31182,1,0,0:0:0:0:
98,120,31262,1,0,0:0:0:0:
98,120,31342,1,8,0:0:0:0:
98,120,31421,1,0,0:0:0:0:
98,120,31501,1,8,0:0:0:0:
98,120,31661,1,0,0:0:0:0:
163,135,31820,1,8,0:0:0:0:
168,135,31980,1,0,0:0:0:0:
381,210,32060,1,8,0:0:0:0:
173,88,32140,1,0,0:0:0:0:
365,190,32219,1,0,0:0:0:0:
146,143,32299,1,8,0:0:0:0:
162,142,32379,1,8,0:0:0:0:
162,142,32459,1,0,0:0:0:0:
140,126,32539,1,0,0:0:0:0:
162,142,32618,1,8,0:0:0:0:
162,142,32778,1,0,0:0:0:0:
162,142,32858,1,0,0:0:0:0:
162,142,32937,1,8,0:0:0:0:
318,102,33097,1,0,0:0:0:0:
318,102,33177,1,0,0:0:0:0:
318,102,33257,1,8,0:0:0:0:
351,247,33336,1,0,0:0:0:0:
338,129,33416,1,8,0:0:0:0:
338,129,33496,1,8,0:0:0:0:
338,129,33576,1,0,0:0:0:0:
334,149,33735,1,8,0:0:0:0:
147,68,33895,1,0,0:0:0:0:
380,162,34054,1,8,0:0:0:0:
380,162,34134,1,0,0:0:0:0:
220,50,34214,1,8,0:0:0:0:
400,198,34374,1,0,0:0:0:0:
400,198,34453,1,8,0:0:0:0:
400,198,34533,1,0,0:0:0:0:
238,130,34693,1,0,0:0:0:0:
458,346,34773,1,0,0:0:0:0:
238,130,34852,1,8,0:0:0:0:
238,130,35012,1,0,0:0:0:0:
238,130,35092,1,0,0:0:0:0:
238,130,35171,1,8,0:0:0:0:
162,21,35331,1,0,0:0:0:0:
107,117,35411,1,0,0:0:0:0:
59,120,35492,1,8,0:0:0:0:
340,151,35570,1,8,0:0:0:0:
189,127,35651,1,0,0:0:0:0:
209,103,35811,1,8,0:0:0:0:
209,103,35890,1,0,0:0:0:0:
151,131,35970,1,8,0:0:0:0:
187,137,36050,1,8,0:0:0:0:
193,137,36130,1,0,0:0:0:0:
161,127,36209,1,0,0:0:0:0:
193,137,36288,1,8,0:0:0:0:
193,137,36367,1,0,0:0:0:0:
193,137,36447,1,8,0:0:0:0:
193,137,36608,1,0,0:0:0:0:
193,137,36687,1,0,0:0:0:0:
193,137,36767,1,8,0:0:0:0:
324,59,36927,1,0,0:0:0:0:
324,59,37086,1,0,0:0:0:0:
349,206,37246,1,0,0:0:0:0:
306,134,37326,1,0,0:0:0:0:
250,47,37406,1,8,0:0:0:0:
258,94,37565,1,0,0:0:0:0:
271,113,37645,1,0,0:0:0:0:
258,94,37725,1,8,0:0:0:0:
104,144,37884,1,0,0:0:0:0:
139,129,38044,1,8,0:0:0:0:
139,129,38124,1,0,0:0:0:0:
139,129,38203,1,8,0:0:0:0:
139,129,38283,1,8,0:0:0:0:
139,129,38363,1,0,0:0:0:0:
165,88,38523,1,8,0:0:0:0:
165,88,38682,1,0,0:0:0:0:
166,126,38842,1,0,0:0:0:0:
189,126,38921,1,0,0:0:0:0:
189,126,39001,1,8,0:0:0:0:
321,110,39161,1,0,0:0:0:0:
321,110,39320,1,8,0:0:0:0:
271,93,39400,1,0,0:0:0:0:
179,206,39480,1,8,0:0:0:0:
170,93,39640,1,0,0:0:0:0:
237,117,39719,1,0,0:0:0:0:
177,87,39799,1,8,0:0:0:0:
177,87,39879,1,0,0:0:0:0:
177,87,39959,1,8,0:0:0:0:
177,87,40039,1,8,0:0:0:0:
177,87,40118,1,0,0:0:0:0:
177,87,40198,1,0,0:0:0:0:
209,142,40278,1,8,0:0:0:0:
266,68,40358,1,8,0:0:0:0:
279,78,40437,1,0,0:0:0:0:
283,82,40597,1,12,0:0:0:0:
228,98,40757,1,0,0:0:0:0:
233,105,40836,1,0,0:0:0:0:
233,105,40916,1,8,0:0:0:0:
228,98,40996,1,0,0:0:0:0:
228,98,41076,1,8,0:0:0:0:
228,98,41156,1,0,0:0:0:0:
236,112,41235,1,8,0:0:0:0:
236,112,41315,1,0,0:0:0:0:
236,112,41395,1,0,0:0:0:0:
236,112,41475,1,0,0:0:0:0:
245,116,41554,1,8,0:0:0:0:
251,120,41634,1,0,0:0:0:0:
245,116,41714,1,8,0:0:0:0:
251,120,41794,1,0,0:0:0:0:
259,124,41874,1,8,0:0:0:0:
264,126,41953,1,8,0:0:0:0:
259,124,42033,1,0,0:0:0:0:
264,126,42113,1,0,0:0:0:0:
270,129,42193,1,8,0:0:0:0:
270,129,42273,1,8,0:0:0:0:
275,132,42352,1,0,0:0:0:0:
282,135,42432,1,0,0:0:0:0:
282,135,42512,1,8,0:0:0:0:
289,138,42592,1,0,0:0:0:0:
289,138,42671,1,8,0:0:0:0:
302,145,42751,1,0,0:0:0:0:
311,149,42831,1,8,0:0:0:0:
321,155,42911,1,0,0:0:0:0:
326,158,42991,1,8,0:0:0:0:
331,162,43070,1,0,0:0:0:0:
338,166,43150,1,8,0:0:0:0:
345,171,43230,1,0,0:0:0:0:
345,171,43310,1,8,0:0:0:0:
352,176,43390,1,0,0:0:0:0:
352,176,43469,1,8,0:0:0:0:
357,179,43549,1,8,0:0:0:0:
352,176,43629,1,0,0:0:0:0:
364,182,43709,1,8,0:0:0:0:
371,186,43789,1,0,0:0:0:0:
394,202,43868,1,8,0:0:0:0:
394,202,43948,1,8,0:0:0:0:
411,209,44028,1,0,0:0:0:0:
411,209,44108,1,8,0:0:0:0:
411,209,44187,1,0,0:0:0:0:
411,209,44267,1,8,0:0:0:0:
411,209,44347,1,8,0:0:0:0:
411,209,44427,1,0,0:0:0:0:
106,155,44480,1,0,0:0:0:0:
118,155,44533,1,0,0:0:0:0:
118,155,44586,1,8,0:0:0:0:
118,155,44666,1,8,0:0:0:0:
118,155,44746,1,0,0:0:0:0:
118,155,44799,1,0,0:0:0:0:
118,155,44852,1,0,0:0:0:0:
118,155,44906,1,8,0:0:0:0:
118,155,44985,1,8,0:0:0:0:
118,155,45065,1,0,0:0:0:0:
118,155,45118,1,0,0:0:0:0:
118,155,45171,1,0,0:0:0:0:
118,155,45225,1,8,0:0:0:0:
118,155,45304,1,8,0:0:0:0:
256,192,45384,12,0,46182,0:0:0:0:
46,155,46342,5,4,0:0:0:0:
211,144,47618,1,8,0:0:0:0:
211,144,47725,1,8,0:0:0:0:
211,144,47831,1,0,0:0:0:0:
211,144,47937,1,8,0:0:0:0:
211,144,48044,1,0,0:0:0:0:
211,144,48150,1,0,0:0:0:0:
211,144,48257,1,12,0:0:0:0:
211,144,48469,1,0,0:0:0:0:
211,144,48576,1,8,0:0:0:0:
211,144,48682,1,0,0:0:0:0:
211,144,48789,1,8,0:0:0:0:
211,144,48895,1,8,0:0:0:0:
211,144,49001,1,0,0:0:0:0:
211,144,49108,1,8,0:0:0:0:
211,144,49214,1,8,0:0:0:0:
216,145,49320,1,8,0:0:0:0:
211,144,49427,1,0,0:0:0:0:
220,147,49533,1,8,0:0:0:0:
225,153,49640,1,8,0:0:0:0:
223,152,49746,1,0,0:0:0:0:
232,161,49852,1,8,0:0:0:0:
228,156,49959,1,0,0:0:0:0:
236,166,50065,1,0,0:0:0:0:
238,168,50171,1,8,0:0:0:0:
239,169,50278,1,0,0:0:0:0:
239,169,50384,1,0,0:0:0:0:
239,169,50491,1,8,0:0:0:0:
244,174,50597,1,0,0:0:0:0:
247,177,50703,1,8,0:0:0:0:
250,179,50810,1,8,0:0:0:0:
252,182,50916,1,0,0:0:0:0:
255,185,51023,1,8,0:0:0:0:
255,185,51129,1,8,0:0:0:0:
255,185,51235,1,0,0:0:0:0:
258,188,51342,1,0,0:0:0:0:
261,191,51448,1,8,0:0:0:0:
264,193,51554,1,8,0:0:0:0:
264,193,51661,1,0,0:0:0:0:
264,194,51767,1,8,0:0:0:0:
264,194,51874,1,0,0:0:0:0:
264,194,51980,1,0,0:0:0:0:
378,209,52086,1,8,0:0:0:0:
242,100,52193,1,0,0:0:0:0:
242,100,52299,1,0,0:0:0:0:
259,193,52406,1,8,0:0:0:0:
261,193,52512,1,0,0:0:0:0:
258,193,52618,1,8,0:0:0:0:
261,191,52725,1,8,0:0:0:0:
256,193,52831,1,0,0:0:0:0:
256,193,52937,1,8,0:0:0:0:
256,193,53044,1,8,0:0:0:0:
256,193,53150,1,8,0:0:0:0:
256,193,53257,1,0,0:0:0:0:
261,193,53363,1,8,0:0:0:0:
259,193,53469,1,8,0:0:0:0:
103,145,53576,1,0,0:0:0:0:
103,145,53682,1,8,0:0:0:0:
103,145,53789,1,0,0:0:0:0:
103,145,53895,1,0,0:0:0:0:
243,131,54001,1,8,0:0:0:0:
243,131,54108,1,0,0:0:0:0:
243,131,54214,1,0,0:0:0:0:
243,131,54320,1,8,0:0:0:0:
243,131,54427,1,0,0:0:0:0:
243,131,54533,1,8,0:0:0:0:
243,131,54640,1,8,0:0:0:0:
243,131,54746,1,0,0:0:0:0:
243,131,54852,1,0,0:0:0:0:
218,131,54959,1,8,0:0:0:0:
243,131,55597,1,0,0:0:0:0:
243,131,55650,1,8,0:0:0:0:
167,175,55916,1,4,0:0:0:0:
173,113,56076,1,0,0:0:0:0:
173,113,56235,1,8,0:0:0:0:
173,113,56315,1,8,0:0:0:0:
173,113,56395,1,0,0:0:0:0:
173,113,56554,1,8,0:0:0:0:
173,113,56634,1,8,0:0:0:0:
173,113,56714,1,0,0:0:0:0:
177,78,56874,1,8,0:0:0:0:
187,137,57033,1,0,0:0:0:0:
224,129,57193,1,8,0:0:0:0:
224,129,57273,1,0,0:0:0:0:
224,129,57352,1,0,0:0:0:0:
224,129,57512,1,8,0:0:0:0:
224,129,57592,1,0,0:0:0:0:
224,129,57671,1,0,0:0:0:0:
215,117,57831,1,8,0:0:0:0:
81,150,57991,1,0,0:0:0:0:
151,125,58150,1,8,0:0:0:0:
151,125,58230,1,0,0:0:0:0:
151,125,58310,1,8,0:0:0:0:
151,125,58469,1,8,0:0:0:0:
151,125,58549,1,0,0:0:0:0:
151,125,58629,1,8,0:0:0:0:
151,125,58789,1,8,0:0:0:0:
162,141,58948,1,0,0:0:0:0:
212,117,59108,1,0,0:0:0:0:
212,117,59187,1,8,0:0:0:0:
212,117,59267,1,0,0:0:0:0:
212,117,59427,1,0,0:0:0:0:
212,117,59507,1,8,0:0:0:0:
212,117,59586,1,0,0:0:0:0:
207,108,59746,1,12,0:0:0:0:
302,113,59906,1,0,0:0:0:0:
302,113,60065,1,8,0:0:0:0:
151,111,60145,1,8,0:0:0:0:
197,18,60225,1,0,0:0:0:0:
244,101,60384,1,8,0:0:0:0:
336,176,60464,1,8,0:0:0:0:
151,111,60544,1,0,0:0:0:0:
115,111,60703,1,12,0:0:0:0:
195,107,60863,1,0,0:0:0:0:
296,125,61023,1,8,0:0:0:0:
50,142,61102,1,0,0:0:0:0:
170,26,61182,1,0,0:0:0:0:
287,113,61342,1,8,0:0:0:0:
200,40,61421,1,0,0:0:0:0:
187,124,61501,1,0,0:0:0:0:
358,123,61661,1,8,0:0:0:0:
361,159,61714,1,8,0:0:0:0:
361,159,61767,1,8,0:0:0:0:
32,124,61820,1,0,0:0:0:0:
361,159,61900,1,0,0:0:0:0:
361,159,61980,1,8,0:0:0:0:
361,159,62033,1,0,0:0:0:0:
361,159,62086,1,0,0:0:0:0:
67,141,62140,1,8,0:0:0:0:
361,159,62219,1,0,0:0:0:0:
53,161,62299,1,8,0:0:0:0:
75,160,62352,1,8,0:0:0:0:
75,160,62406,1,8,0:0:0:0:
75,160,62459,1,0,0:0:0:0:
235,135,62618,1,8,0:0:0:0:
11,157,62671,1,8,0:0:0:0:
361,159,62725,1,8,0:0:0:0:
361,159,62777,1,0,0:0:0:0:
361,159,62857,1,0,0:0:0:0:
361,159,62937,1,8,0:0:0:0:
361,159,62991,1,0,0:0:0:0:
361,159,63044,1,0,0:0:0:0:
82,132,63097,1,8,0:0:0:0:
361,159,63176,1,0,0:0:0:0:
53,161,63256,1,8,0:0:0:0:
75,160,63309,1,8,0:0:0:0:
75,160,63363,1,8,0:0:0:0:
75,160,63416,1,8,0:0:0:0:
109,173,63576,1,4,0:0:0:0:
264,160,63735,1,0,0:0:0:0:
264,160,63895,1,8,0:0:0:0:
264,160,64054,1,8,0:0:0:0:
264,160,64214,1,0,0:0:0:0:
178,160,64374,1,0,0:0:0:0:
340,191,64533,1,4,0:0:0:0:
239,147,64693,1,0,0:0:0:0:
297,141,64852,1,8,0:0:0:0:
297,141,65012,1,8,0:0:0:0:
297,141,65171,1,0,0:0:0:0:
297,141,65331,1,8,0:0:0:0:
297,141,65491,1,4,0:0:0:0:
252,130,65650,1,8,0:0:0:0:
252,130,65810,1,0,0:0:0:0:
221,88,65969,1,12,0:0:0:0:
181,131,66129,1,0,0:0:0:0:
181,131,66289,1,0,0:0:0:0:
183,103,66448,1,8,0:0:0:0:
185,152,66608,1,4,0:0:0:0:
183,152,66767,1,12,0:0:0:0:
76,164,66927,1,8,0:0:0:0:
172,136,67086,1,0,0:0:0:0:
168,132,67246,1,12,0:0:0:0:
179,93,67406,1,4,0:0:0:0:
272,142,67565,1,0,0:0:0:0:
272,142,67645,1,0,0:0:0:0:
272,142,67725,1,8,0:0:0:0:
272,142,67884,1,0,0:0:0:0:
216,56,68044,1,8,0:0:0:0:
216,56,68124,1,0,0:0:0:0:
216,56,68203,1,8,0:0:0:0:
216,56,68283,1,8,0:0:0:0:
216,56,68363,1,0,0:0:0:0:
272,172,68523,1,8,0:0:0:0:
273,127,68602,1,0,0:0:0:0:
273,127,68682,1,0,0:0:0:0:
222,146,68842,1,8,0:0:0:0:
222,146,68921,1,8,0:0:0:0:
222,146,69001,1,0,0:0:0:0:
222,146,69161,1,0,0:0:0:0:
213,146,69320,1,8,0:0:0:0:
231,91,69400,1,0,0:0:0:0:
12,149,69480,1,8,0:0:0:0:
12,149,69560,1,0,0:0:0:0:
231,91,69640,1,8,0:0:0:0:
231,91,69719,1,0,0:0:0:0:
231,91,69799,1,8,0:0:0:0:
231,91,69879,1,0,0:0:0:0:
231,91,69959,1,8,0:0:0:0:
231,91,70039,1,0,0:0:0:0:
231,91,70118,1,8,0:0:0:0:
231,91,70198,1,8,0:0:0:0:
231,91,70278,1,0,0:0:0:0:
111,130,70358,1,8,0:0:0:0:
169,127,70437,1,0,0:0:0:0:
169,127,70517,1,8,0:0:0:0:
169,127,70597,1,0,0:0:0:0:
169,127,70677,1,8,0:0:0:0:
169,127,70757,1,0,0:0:0:0:
169,127,70836,1,8,0:0:0:0:
175,127,70916,1,0,0:0:0:0:
175,127,70996,1,8,0:0:0:0:
175,127,71076,1,0,0:0:0:0:
175,127,71235,1,4,0:0:0:0:
174,149,71395,1,0,0:0:0:0:
216,150,71475,1,0,0:0:0:0:
216,150,71554,1,8,0:0:0:0:
272,107,71714,1,8,0:0:0:0:
265,102,71874,1,0,0:0:0:0:
264,99,72033,1,0,0:0:0:0:
263,97,72193,1,4,0:0:0:0:
151,144,72352,1,0,0:0:0:0:
165,144,72432,1,0,0:0:0:0:
133,69,72512,1,8,0:0:0:0:
138,130,72671,1,0,0:0:0:0:
238,101,72831,1,8,0:0:0:0:
238,101,72991,1,8,0:0:0:0:
199,162,73150,1,4,0:0:0:0:
147,136,73309,1,0,0:0:0:0:
157,117,73389,1,0,0:0:0:0:
213,110,73468,1,8,0:0:0:0:
186,98,73628,1,0,0:0:0:0:
190,92,73788,1,8,0:0:0:0:
415,72,73867,1,0,0:0:0:0:
186,98,73947,1,8,0:0:0:0:
188,90,74108,1,4,0:0:0:0:
165,124,74267,1,0,0:0:0:0:
192,123,74347,1,0,0:0:0:0:
192,123,74427,1,8,0:0:0:0:
194,112,74586,1,8,0:0:0:0:
198,108,74746,1,0,0:0:0:0:
211,141,74826,1,8,0:0:0:0:
198,108,74906,1,0,0:0:0:0:
198,108,75065,1,4,0:0:0:0:
275,125,75225,1,0,0:0:0:0:
275,125,75384,1,8,0:0:0:0:
275,125,75544,1,8,0:0:0:0:
275,125,75703,1,0,0:0:0:0:
275,125,75863,1,0,0:0:0:0:
269,132,76023,1,8,0:0:0:0:
202,92,76102,1,8,0:0:0:0:
165,136,76182,1,0,0:0:0:0:
165,136,76262,1,0,0:0:0:0:
202,92,76342,1,8,0:0:0:0:
165,136,76421,1,8,0:0:0:0:
165,136,76501,1,0,0:0:0:0:
165,136,76581,1,0,0:0:0:0:
165,136,76661,1,8,0:0:0:0:
165,136,76741,1,8,0:0:0:0:
165,136,76820,1,0,0:0:0:0:
165,136,76900,1,0,0:0:0:0:
134,135,76980,1,8,0:0:0:0:
239,156,77060,1,0,0:0:0:0:
239,156,77140,1,8,0:0:0:0:
239,156,77219,1,0,0:0:0:0:
239,156,77299,1,8,0:0:0:0:
239,156,77379,1,0,0:0:0:0:
239,156,77459,1,8,0:0:0:0:
239,156,77539,1,0,0:0:0:0:
239,156,77618,1,8,0:0:0:0:
239,156,77698,1,0,0:0:0:0:
239,156,77778,1,8,0:0:0:0:
239,156,77858,1,8,0:0:0:0:
182,152,77937,1,0,0:0:0:0:
206,91,77991,1,0,0:0:0:0:
206,91,78044,1,0,0:0:0:0:
206,91,78097,1,8,0:0:0:0:
247,98,78177,1,8,0:0:0:0:
206,91,78257,1,0,0:0:0:0:
206,91,78310,1,0,0:0:0:0:
206,91,78363,1,0,0:0:0:0:
206,91,78416,1,8,0:0:0:0:
222,79,78496,1,8,0:0:0:0:
206,91,78576,1,0,0:0:0:0:
206,91,78629,1,0,0:0:0:0:
206,91,78682,1,0,0:0:0:0:
206,91,78735,1,8,0:0:0:0:
257,147,78815,1,8,0:0:0:0:
256,192,78895,12,0,80491,0:0:0:0:
256,192,80810,12,0,82406,0:0:0:0:
256,192,82725,12,0,83363,0:0:0:0:
256,192,83682,12,0,84320,0:0:0:0:
256,192,84480,12,0,85118,0:0:0:0:
256,192,85278,12,0,85916,0:0:0:0:
256,192,86076,12,0,87831,0:0:0:0:
204,157,88150,5,12,0:0:0:0:
211,124,88469,1,4,0:0:0:0:
127,117,88628,1,0,0:0:0:0:
153,117,88708,1,0,0:0:0:0:
153,117,88788,1,8,0:0:0:0:
153,117,88947,1,0,0:0:0:0:
153,117,89107,1,8,0:0:0:0:
153,117,89187,1,0,0:0:0:0:
181,131,89266,1,8,0:0:0:0:
186,131,89346,1,8,0:0:0:0:
206,127,89426,1,0,0:0:0:0:
206,127,89586,1,8,0:0:0:0:
128,129,89745,1,0,0:0:0:0:
365,207,89905,1,0,0:0:0:0:
365,207,89984,1,0,0:0:0:0:
365,207,90064,1,8,0:0:0:0:
292,117,90224,1,0,0:0:0:0:
292,117,90383,1,8,0:0:0:0:
386,180,90463,1,8,0:0:0:0:
386,180,90543,1,0,0:0:0:0:
386,180,90623,1,0,0:0:0:0:
386,180,90703,1,8,0:0:0:0:
386,180,90782,1,0,0:0:0:0:
386,180,90862,1,8,0:0:0:0:
386,180,90942,1,8,0:0:0:0:
386,180,91022,1,0,0:0:0:0:
60,143,91181,1,8,0:0:0:0:
60,143,91261,1,8,0:0:0:0:
60,143,91341,1,0,0:0:0:0:
160,150,91500,1,8,0:0:0:0:
242,123,91660,1,0,0:0:0:0:
242,123,91740,1,8,0:0:0:0:
242,123,91820,1,0,0:0:0:0:
242,123,91899,1,0,0:0:0:0:
242,123,91979,1,8,0:0:0:0:
242,123,92059,1,0,0:0:0:0:
242,123,92139,1,8,0:0:0:0:
139,122,92298,1,0,0:0:0:0:
139,122,92378,1,8,0:0:0:0:
139,122,92458,1,0,0:0:0:0:
139,122,92538,1,0,0:0:0:0:
139,122,92617,1,8,0:0:0:0:
255,120,92777,1,0,0:0:0:0:
324,164,92937,1,0,0:0:0:0:
324,164,93016,1,8,0:0:0:0:
324,164,93096,1,8,0:0:0:0:
324,164,93176,1,0,0:0:0:0:
324,164,93256,1,8,0:0:0:0:
324,164,93336,1,8,0:0:0:0:
324,164,93415,1,0,0:0:0:0:
324,164,93495,1,0,0:0:0:0:
324,164,93575,1,8,0:0:0:0:
95,150,93734,1,0,0:0:0:0:
159,150,93814,1,0,0:0:0:0:
159,150,93894,1,0,0:0:0:0:
169,87,93974,1,0,0:0:0:0:
159,150,94054,1,8,0:0:0:0:
159,150,94213,1,0,0:0:0:0:
159,150,94293,1,0,0:0:0:0:
159,150,94373,1,0,0:0:0:0:
169,87,94453,1,0,0:0:0:0:
159,150,94532,1,8,0:0:0:0:
83,145,94692,1,0,0:0:0:0:
74,145,94772,1,0,0:0:0:0:
330,139,94851,1,8,0:0:0:0:
377,212,95011,1,8,0:0:0:0:
377,212,95091,1,8,0:0:0:0:
377,212,95171,1,0,0:0:0:0:
219,118,95330,1,0,0:0:0:0:
219,118,95410,1,0,0:0:0:0:
219,118,95490,1,8,0:0:0:0:
219,118,95570,1,0,0:0:0:0:
219,118,95649,1,8,0:0:0:0:
219,118,95729,1,0,0:0:0:0:
219,118,95809,1,8,0:0:0:0:
219,118,95889,1,8,0:0:0:0:
219,118,95969,1,0,0:0:0:0:
219,118,96048,1,0,0:0:0:0:
219,118,96128,1,8,0:0:0:0:
240,159,96208,1,0,0:0:0:0:
261,163,96288,1,8,0:0:0:0:
261,163,96367,1,0,0:0:0:0:
261,163,96447,1,8,0:0:0:0:
261,163,96527,1,0,0:0:0:0:
261,163,96607,1,8,0:0:0:0:
261,163,96687,1,0,0:0:0:0:
261,163,96766,1,8,0:0:0:0:
261,163,96846,1,8,0:0:0:0:
261,163,96926,1,8,0:0:0:0:
261,163,97006,1,0,0:0:0:0:
261,163,97086,1,8,0:0:0:0:
261,163,97165,1,0,0:0:0:0:
261,163,97245,1,8,0:0:0:0:
261,163,97325,1,0,0:0:0:0:
261,163,97405,1,8,0:0:0:0:
261,163,97484,1,0,0:0:0:0:
261,163,97564,1,8,0:0:0:0:
261,163,97644,1,8,0:0:0:0:
261,163,97724,1,0,0:0:0:0:
261,163,97804,1,8,0:0:0:0:
261,163,97883,1,0,0:0:0:0:
261,163,97963,1,8,0:0:0:0:
261,163,98043,1,8,0:0:0:0:
261,163,98123,1,0,0:0:0:0:
261,163,98203,1,8,0:0:0:0:
261,163,98282,1,0,0:0:0:0:
261,163,98362,1,8,0:0:0:0:
261,163,98442,1,8,0:0:0:0:
261,163,98522,1,0,0:0:0:0:
261,163,98601,1,0,0:0:0:0:
261,163,98681,1,8,0:0:0:0:
267,141,98761,1,8,0:0:0:0:
265,155,98841,1,0,0:0:0:0:
265,155,98921,1,0,0:0:0:0:
267,141,99000,1,8,0:0:0:0:
267,141,99080,1,8,0:0:0:0:
267,141,99160,1,0,0:0:0:0:
267,141,99240,1,0,0:0:0:0:
267,141,99320,1,8,0:0:0:0:
267,141,99399,1,8,0:0:0:0:
267,141,99479,1,0,0:0:0:0:
267,141,99559,1,0,0:0:0:0:
267,141,99639,1,8,0:0:0:0:
267,141,99719,1,8,0:0:0:0:
267,141,99798,1,0,0:0:0:0:
267,141,99878,1,0,0:0:0:0:
267,141,99958,1,8,0:0:0:0:
267,141,100038,1,0,0:0:0:0:
267,141,100117,1,0,0:0:0:0:
267,141,100197,1,0,0:0:0:0:
267,141,100277,1,8,0:0:0:0:
267,141,100357,1,0,0:0:0:0:
267,141,100437,1,0,0:0:0:0:
267,141,100516,1,0,0:0:0:0:
267,141,100596,1,8,0:0:0:0:
267,141,100676,1,0,0:0:0:0:
267,141,100756,1,0,0:0:0:0:
267,141,100836,1,0,0:0:0:0:
267,141,100915,1,8,0:0:0:0:
267,141,100995,1,0,0:0:0:0:
267,141,101075,1,0,0:0:0:0:
267,141,101155,1,0,0:0:0:0:
267,141,101234,1,8,0:0:0:0:
235,125,101394,1,0,0:0:0:0:
235,125,101474,1,0,0:0:0:0:
235,125,101554,1,0,0:0:0:0:
235,125,101713,1,8,0:0:0:0:
386,234,101873,1,0,0:0:0:0:
261,119,102032,1,0,0:0:0:0:
261,119,102112,1,0,0:0:0:0:
261,119,102192,1,8,0:0:0:0:
81,133,102351,1,8,0:0:0:0:
213,128,102431,1,8,0:0:0:0:
172,128,102511,1,0,0:0:0:0:
208,153,102671,1,8,0:0:0:0:
208,153,102750,1,0,0:0:0:0:
208,153,102830,1,8,0:0:0:0:
265,128,102990,1,0,0:0:0:0:
236,91,103149,1,8,0:0:0:0:
236,91,103229,1,0,0:0:0:0:
236,91,103309,1,8,0:0:0:0:
236,91,103389,1,0,0:0:0:0:
236,91,103469,1,8,0:0:0:0:
316,124,103628,1,0,0:0:0:0:
344,216,103788,1,8,0:0:0:0:
344,216,103867,1,8,0:0:0:0:
344,216,103947,1,0,0:0:0:0:
344,216,104027,1,0,0:0:0:0:
344,216,104107,1,8,0:0:0:0:
344,216,104187,1,0,0:0:0:0:
344,216,104266,1,0,0:0:0:0:
344,216,104346,1,8,0:0:0:0:
344,216,104426,1,0,0:0:0:0:
344,216,104506,1,8,0:0:0:0:
344,216,104586,1,8,0:0:0:0:
344,216,104665,1,0,0:0:0:0:
344,216,104745,1,8,0:0:0:0:
344,216,104825,1,0,0:0:0:0:
344,216,104905,1,0,0:0:0:0:
344,216,104984,1,8,0:0:0:0:
344,216,105064,1,0,0:0:0:0:
357,190,105224,1,8,0:0:0:0:
357,190,105304,1,8,0:0:0:0:
357,190,105463,1,8,0:0:0:0:
357,190,105543,1,0,0:0:0:0:
261,139,105703,1,0,0:0:0:0:
261,139,105782,1,8,0:0:0:0:
261,139,105862,1,0,0:0:0:0:
261,139,105942,1,8,0:0:0:0:
261,139,106022,1,0,0:0:0:0:
261,139,106101,1,8,0:0:0:0:
261,139,106181,1,0,0:0:0:0:
261,139,106261,1,8,0:0:0:0:
261,139,106341,1,0,0:0:0:0:
21,141,106421,1,0,0:0:0:0:
44,142,106500,1,8,0:0:0:0:
44,142,106580,1,0,0:0:0:0:
44,142,106660,1,8,0:0:0:0:
44,142,106740,1,8,0:0:0:0:
44,142,106820,1,0,0:0:0:0:
44,142,106899,1,8,0:0:0:0:
45,142,106979,1,0,0:0:0:0:
45,142,107059,1,0,0:0:0:0:
45,142,107139,1,8,0:0:0:0:
45,142,107219,1,0,0:0:0:0:
45,142,107298,1,0,0:0:0:0:
45,142,107378,1,8,0:0:0:0:
45,142,107458,1,8,0:0:0:0:
44,142,107538,1,0,0:0:0:0:
44,142,107617,1,8,0:0:0:0:
91,130,107697,1,8,0:0:0:0:
91,130,107777,1,0,0:0:0:0:
91,130,107857,1,8,0:0:0:0:
91,130,107937,1,0,0:0:0:0:
91,130,108016,1,8,0:0:0:0:
91,130,108096,1,8,0:0:0:0:
91,130,108176,1,0,0:0:0:0:
91,130,108256,1,8,0:0:0:0:
111,92,108336,1,8,0:0:0:0:
156,147,108415,1,8,0:0:0:0:
106,140,108469,1,8,0:0:0:0:
156,147,108522,1,8,0:0:0:0:
156,147,108575,1,0,0:0:0:0:
91,130,108894,1,4,0:0:0:0:
180,118,109054,1,8,0:0:0:0:
180,118,109133,1,8,0:0:0:0:
180,118,109213,1,0,0:0:0:0:
198,132,109373,1,0,0:0:0:0:
198,132,109453,1,0,0:0:0:0:
198,132,109532,1,8,0:0:0:0:
197,153,109692,1,8,0:0:0:0:
227,137,109851,1,0,0:0:0:0:
241,137,109931,1,0,0:0:0:0:
241,137,110011,1,8,0:0:0:0:
205,38,110091,1,8,0:0:0:0:
241,137,110171,1,0,0:0:0:0:
251,81,110330,1,0,0:0:0:0:
251,81,110410,1,0,0:0:0:0:
251,81,110490,1,8,0:0:0:0:
327,171,110570,1,0,0:0:0:0:
251,81,110649,1,0,0:0:0:0:
327,171,110729,1,8,0:0:0:0:
327,171,110809,1,8,0:0:0:0:
238,116,110969,1,0,0:0:0:0:
238,116,111048,1,8,0:0:0:0:
238,116,111128,1,8,0:0:0:0:
238,116,111208,1,0,0:0:0:0:
238,116,111288,1,8,0:0:0:0:
238,116,111367,1,8,0:0:0:0:
220,117,111447,1,0,0:0:0:0:
308,183,111607,1,8,0:0:0:0:
315,184,111687,1,8,0:0:0:0:
315,184,111766,1,8,0:0:0:0:
315,184,111846,1,0,0:0:0:0:
315,184,111926,1,0,0:0:0:0:
315,184,112006,1,8,0:0:0:0:
315,184,112086,1,8,0:0:0:0:
315,184,112165,1,0,0:0:0:0:
315,184,112245,1,8,0:0:0:0:
315,184,112325,1,0,0:0:0:0:
315,184,112405,1,0,0:0:0:0:
315,184,112484,1,8,0:0:0:0:
315,184,112564,1,0,0:0:0:0:
325,124,112644,1,0,0:0:0:0:
315,184,112724,1,8,0:0:0:0:
325,124,112804,1,8,0:0:0:0:
325,124,112883,1,0,0:0:0:0:
325,124,112963,1,0,0:0:0:0:
325,124,113043,1,8,0:0:0:0:
325,124,113203,1,8,0:0:0:0:
325,124,113362,1,0,0:0:0:0:
373,161,113522,1,8,0:0:0:0:
373,161,113601,1,8,0:0:0:0:
373,161,113681,1,0,0:0:0:0:
373,161,113761,1,0,0:0:0:0:
373,161,113841,1,8,0:0:0:0:
373,161,113921,1,8,0:0:0:0:
373,161,114000,1,0,0:0:0:0:
294,136,114160,1,8,0:0:0:0:
294,136,114240,1,8,0:0:0:0:
294,136,114320,1,0,0:0:0:0:
208,104,114479,1,0,0:0:0:0:
208,104,114559,1,0,0:0:0:0:
208,104,114639,1,8,0:0:0:0:
208,104,114719,1,0,0:0:0:0:
208,104,114798,1,0,0:0:0:0:
208,104,114878,1,8,0:0:0:0:
208,104,114958,1,8,0:0:0:0:
208,104,115038,1,0,0:0:0:0:
384,218,115117,1,0,0:0:0:0:
384,218,115197,1,8,0:0:0:0:
384,218,115277,1,0,0:0:0:0:
384,218,115357,1,0,0:0:0:0:
384,218,115437,1,8,0:0:0:0:
384,218,115516,1,0,0:0:0:0:
384,218,115596,1,0,0:0:0:0:
384,218,115676,1,8,0:0:0:0:
384,218,115756,1,8,0:0:0:0:
384,218,115836,1,0,0:0:0:0:
384,218,115915,1,0,0:0:0:0:
384,218,115995,1,8,0:0:0:0:
384,218,116075,1,0,0:0:0:0:
384,218,116155,1,8,0:0:0:0:
384,218,116234,1,8,0:0:0:0:
384,218,116394,1,0,0:0:0:0:
276,131,116554,1,8,0:0:0:0:
276,131,116713,1,8,0:0:0:0:
276,131,116793,1,0,0:0:0:0:
276,131,116873,1,8,0:0:0:0:
171,90,117032,1,0,0:0:0:0:
171,90,117112,1,8,0:0:0:0:
171,90,117192,1,0,0:0:0:0:
171,90,117351,1,8,0:0:0:0:
171,90,117431,1,8,0:0:0:0:
171,90,117511,1,0,0:0:0:0:
171,90,117671,1,0,0:0:0:0:
171,90,117750,1,0,0:0:0:0:
171,90,117830,1,8,0:0:0:0:
171,90,117910,1,8,0:0:0:0:
171,90,117990,1,0,0:0:0:0:
171,90,118070,1,0,0:0:0:0:
171,90,118149,1,8,0:0:0:0:
171,90,118229,1,8,0:0:0:0:
171,90,118309,1,0,0:0:0:0:
171,90,118389,1,0,0:0:0:0:
171,90,118469,1,8,0:0:0:0:
46,165,118548,1,0,0:0:0:0:
241,135,118628,1,8,0:0:0:0:
345,56,118708,1,8,0:0:0:0:
241,135,118788,1,0,0:0:0:0:
241,135,118867,1,8,0:0:0:0:
241,135,118947,1,0,0:0:0:0:
345,56,119027,1,0,0:0:0:0:
345,56,119107,1,8,0:0:0:0:
256,192,119266,12,0,120064,0:0:0:0:
263,117,120383,5,8,0:0:0:0:
256,192,120543,12,0,121341,0:0:0:0:
229,206,121660,5,0,0:0:0:0:
256,192,121820,12,0,123894,0:0:0:0:
182,142,124213,5,8,0:0:0:0:
256,192,124373,12,0,126447,0:0:0:0:
102,41,126766,5,8,0:0:0:0:
256,192,126926,12,0,129000,0:0:0:0:
286,135,129320,5,0,0:0:0:0:
256,192,129479,12,0,132192,0:0:0:0:
206,175,132511,5,0,0:0:0:0:
256,192,132671,12,0,134107,0:0:0:0:
256,192,134426,12,0,134905,0:0:0:0:
256,192,135064,12,0,136181,0:0:0:0:
