osu file format v14

[General]
AudioFilename: audio.mp3
AudioLeadIn: 0
PreviewTime: 169576
Countdown: 0
SampleSet: Soft
StackLeniency: 0.2
Mode: 2
LetterboxInBreaks: 0
WidescreenStoryboard: 1

[Editor]
Bookmarks: 188776,203176,224776,238276,273076,280276
DistanceSpacing: 0.9
BeatDivisor: 4
GridSize: 8
TimelineZoom: 2.2

[Metadata]
Title:Hatsune Miku no Gekishou (LONG VERSION)
TitleUnicode:Hatsune Miku no Gekishou (LONG VERSION)
Artist:cosMo@bousouP
ArtistUnicode:cosMo@bousouP
Creator:Libegon
Version:Happy End
Source:-Project DIVA- 2nd
Tags:
BeatmapID:1735936
BeatmapSetID:828449

[Difficulty]
HPDrainRate:6
CircleSize:4
OverallDifficulty:9.6
ApproachRate:9.6
SliderMultiplier:2
SliderTickRate:2

[Events]
//Background and Video events
0,0,"no gekiishou.png",0,0
//Break Periods
//Storyboard Layer 0 (Background)
//Storyboard Layer 1 (Fail)
//Storyboard Layer 2 (Pass)
//Storyboard Layer 3 (Foreground)
//Storyboard Sound Samples

[TimingPoints]
1032,300,4,2,9,10,1,0
1032,-200,4,2,9,10,0,0
2008,300,4,2,9,10,1,0
2008,-200,4,2,9,10,0,0
3658,-200,4,2,9,20,0,0
5176,300,4,2,9,20,1,0
9976,-200,4,2,1,30,0,0
10201,-200,4,2,1,5,0,0
10276,-200,4,2,1,30,0,0
10476,-200,4,2,1,5,0,0
10576,-200,4,2,8,30,0,0
11401,-200,4,2,8,5,0,0
11476,-200,4,2,8,30,0,0
11701,-200,4,2,8,5,0,0
11776,-200,4,2,8,30,0,0
12376,-166.666666666667,4,2,8,30,0,0
12601,-166.666666666667,4,2,8,5,0,0
12676,-166.666666666667,4,2,8,30,0,0
12901,-166.666666666667,4,2,8,5,0,0
12976,-166.666666666667,4,2,8,30,0,0
13801,-166.666666666667,4,2,8,5,0,0
13876,-166.666666666667,4,2,8,30,0,0
14101,-166.666666666667,4,2,8,5,0,0
14176,-166.666666666667,4,2,8,30,0,0
14776,-142.857142857143,4,2,1,30,0,0
15001,-142.857142857143,4,2,1,5,0,0
15076,-142.857142857143,4,2,1,30,0,0
15301,-142.857142857143,4,2,1,5,0,0
15376,-142.857142857143,4,2,8,30,0,0
16201,-142.857142857143,4,2,8,5,0,0
16276,-142.857142857143,4,2,8,30,0,0
16501,-142.857142857143,4,2,8,5,0,0
16576,-142.857142857143,4,2,8,30,0,0
17176,-125,4,2,1,30,0,0
17401,-125,4,2,1,5,0,0
17476,-125,4,2,1,30,0,0
17701,-125,4,2,1,5,0,0
17776,-125,4,2,8,30,0,0
18601,-125,4,2,8,5,0,0
18676,-125,4,2,8,30,0,0
18901,-125,4,2,8,5,0,0
18976,-125,4,2,8,30,0,0
19576,-111.111111111111,4,2,1,40,0,0
21901,-111.111111111111,4,2,1,5,0,0
21976,-111.111111111111,4,2,1,40,0,0
29176,-200,4,2,9,33,0,0
29776,-200,4,2,8,33,0,0
30376,-200,4,2,9,33,0,0
30976,-200,4,2,8,33,0,0
31576,-200,4,2,9,33,0,0
32176,-200,4,2,8,33,0,0
32776,-200,4,2,9,33,0,0
33376,-200,4,2,8,33,0,0
33976,-200,4,2,9,33,0,0
34576,-200,4,2,8,33,0,0
35176,-200,4,2,9,33,0,0
35776,-200,4,2,8,33,0,0
36376,-200,4,2,9,33,0,0
36976,-200,4,2,8,33,0,0
37576,-200,4,2,9,33,0,0
38176,-200,4,2,8,33,0,0
38401,-200,4,2,1,5,0,0
38476,-200,4,2,1,33,0,0
38776,-133.333333333333,4,2,1,38,0,0
39376,-133.333333333333,4,2,5,38,0,0
39526,-133.333333333333,4,2,1,38,0,0
40576,-133.333333333333,4,2,5,38,0,0
40726,-133.333333333333,4,2,1,38,0,0
41776,-133.333333333333,4,2,5,38,0,0
41926,-133.333333333333,4,2,1,38,0,0
42976,-133.333333333333,4,2,5,38,0,0
43126,-133.333333333333,4,2,1,38,0,0
44176,-133.333333333333,4,2,5,38,0,0
44326,-133.333333333333,4,2,1,38,0,0
45376,-133.333333333333,4,2,5,38,0,0
45526,-133.333333333333,4,2,1,38,0,0
46576,-133.333333333333,4,2,5,38,0,0
46726,-133.333333333333,4,2,1,38,0,0
47701,-133.333333333333,4,2,1,5,0,0
47776,-133.333333333333,4,2,5,38,0,0
47926,-133.333333333333,4,2,1,38,0,0
48376,-100,4,2,1,45,0,0
48976,-100,4,2,5,45,0,0
49126,-100,4,2,1,45,0,0
50176,-100,4,2,5,45,0,0
50326,-100,4,2,1,45,0,0
51376,-100,4,2,5,45,0,0
51526,-100,4,2,1,45,0,0
52576,-100,4,2,5,45,0,0
52726,-100,4,2,1,45,0,0
53026,-100,4,2,1,45,0,0
53176,-100,4,2,1,45,0,0
53776,-100,4,2,5,45,0,0
53926,-100,4,2,1,45,0,0
54976,-100,4,2,5,45,0,0
55126,-100,4,2,1,45,0,0
56176,-100,4,2,5,45,0,0
56326,-100,4,2,1,45,0,0
57376,-100,4,2,5,45,0,0
57526,-100,4,2,1,45,0,0
57976,-200,4,2,1,60,0,0
58051,-200,4,2,1,20,0,0
59101,-200,4,2,1,5,0,0
59176,-200,4,2,9,20,0,0
59701,-200,4,2,1,5,0,0
59776,-200,4,2,9,20,0,0
60301,-200,4,2,1,5,0,0
60376,-200,4,2,9,20,0,0
60676,-200,4,2,9,20,0,0
60976,-200,4,2,9,20,0,0
61276,-200,4,2,9,20,0,0
61576,-200,4,2,9,20,0,0
62101,-200,4,2,1,5,0,0
62176,-200,4,2,9,20,0,0
62701,-200,4,2,1,5,0,0
62776,-200,4,2,9,20,0,0
63901,-200,4,2,1,5,0,0
63976,-200,4,2,9,20,0,0
64501,-200,4,2,1,5,0,0
64576,-200,4,2,9,20,0,0
65101,-200,4,2,1,5,0,0
65176,-200,4,2,9,20,0,0
65701,-200,4,2,1,5,0,0
65776,-200,4,2,9,20,0,0
66301,-200,4,2,1,5,0,0
66376,-200,4,2,9,20,0,0
66901,-200,4,2,1,5,0,0
66976,-200,4,2,9,20,0,0
67501,-200,4,2,1,5,0,0
67576,-166.666666666667,4,2,1,45,0,0
67676,-166.666666666667,4,2,1,25,0,0
68701,-166.666666666667,4,2,1,5,0,0
68776,-166.666666666667,4,2,9,25,0,0
69301,-166.666666666667,4,2,1,5,0,0
69376,-166.666666666667,4,2,8,25,0,0
69676,-166.666666666667,4,2,8,25,0,0
69826,-166.666666666667,4,2,1,25,0,0
70276,-166.666666666667,4,2,9,25,0,0
70576,-166.666666666667,4,2,8,25,0,0
70876,-166.666666666667,4,2,9,25,0,0
71176,-166.666666666667,4,2,1,25,0,0
72376,-153.846153846154,4,2,1,30,0,0
72601,-153.846153846154,4,2,1,5,0,0
72676,-153.846153846154,4,2,1,30,0,0
72976,-153.846153846154,4,2,5,30,0,0
73126,-153.846153846154,4,2,1,30,0,0
74176,-153.846153846154,4,2,5,30,0,0
74326,-153.846153846154,4,2,1,30,0,0
74776,-105.263157894737,4,2,1,45,0,0
75001,-105.263157894737,4,2,1,5,0,0
75076,-105.263157894737,4,2,1,45,0,0
75976,-86.9565217391304,4,2,1,65,0,0
76576,-86.9565217391304,4,2,1,75,0,0
77176,-100,4,2,10,45,0,0
77251,-100,4,2,1,45,0,0
86176,-100,4,2,1,45,0,0
86776,-100,4,2,2,45,0,0
95776,-100,4,2,1,55,0,0
96376,-100,4,2,2,45,0,0
115576,-200,4,2,9,30,0,0
120301,-200,4,2,1,5,0,0
120376,-200,4,2,9,30,0,0
122701,-200,4,2,1,5,0,0
122776,-200,4,2,9,30,0,0
123901,-200,4,2,1,5,0,0
123976,-200,4,2,9,30,0,0
125101,-200,4,2,1,5,0,0
125176,-200,4,2,2,33,0,0
125776,-200,4,2,8,33,0,0
126376,-200,4,2,9,33,0,0
126976,-200,4,2,8,33,0,0
127576,-200,4,2,9,33,0,0
128176,-200,4,2,8,33,0,0
128776,-200,4,2,9,33,0,0
129376,-200,4,2,8,33,0,0
129976,-200,4,2,1,33,0,0
130576,-200,4,2,8,33,0,0
131176,-200,4,2,9,33,0,0
132076,-200,4,2,8,33,0,0
132226,-200,4,2,1,33,0,0
132676,-200,4,2,9,33,0,0
132976,-200,4,2,8,33,0,0
133276,-200,4,2,9,33,0,0
133576,-166.666666666667,4,2,9,33,0,0
134176,-166.666666666667,4,2,8,33,0,0
134326,-166.666666666667,4,2,9,33,0,0
134476,-166.666666666667,4,2,1,33,0,0
134776,-133.333333333333,4,2,1,30,0,0
139576,-100,4,2,1,35,0,0
143326,-200,4,2,1,40,0,0
143776,-200,4,2,9,25,0,0
144376,300,4,2,1,40,1,0
144376,-200,4,2,1,40,0,0
144676,-200,4,2,1,5,0,0
144976,-200,4,2,9,40,0,0
145876,-200,4,2,1,5,0,0
146176,-200,4,2,9,40,0,0
147076,-200,4,2,1,5,0,0
147376,-200,4,2,9,40,0,0
149476,-200,4,2,1,5,0,0
149776,-200,4,2,9,40,0,0
150676,-200,4,2,1,5,0,0
150976,-200,4,2,9,40,0,0
151876,-200,4,2,1,5,0,0
152176,-200,4,2,9,40,0,0
153976,-200,4,2,1,45,0,0
154276,-200,4,2,1,5,0,0
155176,-200,4,2,9,45,0,0
155476,-200,4,2,1,5,0,0
156376,-200,4,2,9,45,0,0
156676,-200,4,2,1,5,0,0
157576,-200,4,2,9,45,0,0
157876,-200,4,2,1,5,0,0
158176,-200,4,2,9,45,0,0
158776,-200,4,2,9,45,0,0
159076,-200,4,2,1,5,0,0
159976,-200,4,2,9,45,0,0
160276,-200,4,2,1,5,0,0
161176,-200,4,2,9,45,0,0
161476,-200,4,2,1,5,0,0
162376,-200,4,2,9,45,0,0
162676,-200,4,2,1,5,0,0
162976,-200,4,2,9,45,0,0
163276,-200,4,2,1,5,0,0
163576,300,3,2,1,55,1,0
167176,300,4,2,1,45,1,0
167176,-200,4,2,1,45,0,0
167476,-200,4,2,1,5,0,0
167776,-200,4,2,1,45,0,0
168976,-200,4,2,1,35,0,0
169576,-133.333333333333,4,2,1,40,0,0
169876,-133.333333333333,4,2,9,40,0,0
176776,-100,4,2,1,40,0,0
179176,-100,4,2,1,45,0,0
179476,-100,4,2,9,45,0,0
183976,-100,4,2,1,45,0,0
184276,-100,4,2,9,45,0,0
188776,300,3,2,1,30,1,0
188776,-133.333333333333,3,2,1,30,0,0
195976,-100,3,2,1,35,0,0
203176,300,4,2,1,45,1,0
203176,-80,4,2,1,45,0,0
204976,-80,4,2,1,35,0,0
205276,-80,4,2,1,25,0,0
205576,-133.333333333333,4,2,1,15,0,0
215176,-133.333333333333,4,2,1,35,0,0
219976,-100,4,2,1,45,0,0
221176,-100,4,2,1,50,0,0
222376,-100,4,2,1,55,0,0
223576,-100,4,2,1,60,0,0
224776,-100,4,2,1,50,0,1
229576,300,7,2,1,55,1,0
229576,-80,7,2,1,55,0,0
233776,300,3,2,1,55,1,1
238276,300,4,2,1,60,1,0
238276,-80,4,2,1,60,0,0
243076,-100,4,2,1,60,0,0
243376,-100,4,2,1,55,0,0
243676,-100,4,2,1,45,0,0
243976,-100,4,2,1,35,0,0
244276,-100,4,2,1,60,0,1
247801,-100,4,2,1,70,0,0
247876,-100,4,2,1,70,0,1
248101,-100,4,2,1,70,0,0
248176,-80,4,2,1,75,0,1
248401,-80,4,2,1,75,0,0
248476,-66.6666666666667,4,2,1,80,0,1
248701,-66.6666666666667,4,2,1,80,0,0
248776,-57.1428571428571,4,2,1,85,0,1
249001,-57.1428571428571,4,2,1,85,0,0
249076,-100,4,2,1,60,0,1
252676,-100,4,2,1,70,0,0
252976,-100,4,2,1,60,0,0
253276,-100,4,2,1,50,0,0
253576,-100,4,2,1,40,0,0
253876,-100,4,2,1,60,0,1
257401,-100,4,2,1,70,0,0
257476,-100,4,2,1,70,0,1
257701,-100,4,2,1,70,0,0
257776,-80,4,2,1,75,0,1
258001,-80,4,2,1,75,0,0
258076,-66.6666666666667,4,2,1,80,0,1
258301,-66.6666666666667,4,2,1,80,0,0
258376,-57.1428571428571,4,2,1,85,0,1
258601,-57.1428571428571,4,2,1,85,0,0
258676,-100,4,2,1,60,0,1
262876,-100,4,2,1,70,0,0
263476,-100,4,2,1,50,0,0
270676,-80,4,2,1,50,0,0
272176,-80,4,2,1,45,0,0
272476,-80,4,2,1,40,0,0
272776,-80,4,2,1,35,0,0
273076,-80,4,2,1,60,0,1
274176,-80,4,2,1,60,0,0
274276,-80,4,2,1,60,0,1
275376,-80,4,2,1,60,0,0
275476,-80,4,2,1,60,0,1
276576,-80,4,2,1,60,0,0
276676,-80,4,2,1,60,0,1
277776,-80,4,2,1,60,0,0
277876,-80,4,2,1,60,0,1
278976,-80,4,2,1,60,0,0
279076,-80,4,2,1,60,0,1
280176,-80,4,2,1,60,0,0
280276,-100,4,2,1,65,0,1
283876,-100,4,2,1,70,0,1
284476,-100,4,2,1,80,0,1
285076,-200,4,2,10,90,0,0
285151,-200,4,2,1,5,0,0
286276,-200,4,2,1,60,0,0
286351,-200,4,2,1,5,0,0
287476,-200,4,2,1,50,0,0
287551,-200,4,2,1,5,0,0
288676,-400,4,2,1,40,0,0
288751,-400,4,2,1,5,0,0
289876,-1000,4,2,1,30,0,0
289951,-1000,4,2,1,5,0,0
291076,-1000,4,2,1,60,0,0
291151,-1000,4,2,1,5,0,0

[Colours]
Combo1 : 106,69,193
Combo2 : 106,69,193
Combo3 : 106,69,193
Combo4 : 106,69,193

[HitObjects]
160,96,1032,6,0,L|160:128,1,25
256,64,2007,2,0,L|224:64,2,25
352,96,3658,2,0,L|384:96,1,25
192,288,5176,5,0,0:0:0:0:
70,145,5476,1,0,0:0:0:0:
168,0,5776,1,0,0:0:0:0:
350,30,6076,1,0,0:0:0:0:
240,32,6376,5,0,0:0:0:0:
139,149,6676,1,0,0:0:0:0:
48,144,6976,1,0,0:0:0:0:
148,261,7276,1,0,0:0:0:0:
272,256,7576,5,0,0:0:0:0:
441,182,7876,1,0,0:0:0:0:
400,2,8176,1,0,0:0:0:0:
216,8,8476,1,0,0:0:0:0:
96,32,8776,5,2,0:0:0:0:
96,32,9076,1,0,0:0:0:0:
208,32,9376,1,0,0:0:0:0:
96,32,9676,1,0,0:0:0:0:
256,80,9976,6,0,L|240:160,1,75
336,160,10276,2,0,L|352:240,1,75
272,240,10576,1,2,0:0:0:0:
160,240,10876,2,0,L|144:304,1,50
464,128,11176,6,0,L|480:224,1,75
384,208,11476,2,0,L|352:288,1,75
448,288,11776,1,2,0:0:0:0:
352,288,12076,2,0,L|348:232,1,50
115,233,12376,6,0,L|80:144,1,89.9999972534181
160,128,12676,2,0,L|176:16,1,89.9999972534181
96,32,12976,1,2,0:0:0:0:
176,32,13276,2,0,L|208:112,1,59.9999981689454
416,32,13576,6,0,P|432:64|400:128,1,89.9999972534181
336,112,13876,2,0,P|336:144|368:192,1,89.9999972534181
448,192,14176,1,2,0:0:0:0:
336,192,14476,2,0,L|416:192,1,59.9999981689454
112,256,14776,6,0,L|64:160,1,104.999996795654
144,144,15076,2,0,P|144:80|96:64,1,104.999996795654
32,64,15376,1,2,0:0:0:0:
144,64,15676,2,0,L|224:64,1,69.9999978637696
448,64,15976,6,0,P|448:128|416:128,1,104.999996795654
336,128,16276,2,0,P|336:176|384:192,1,104.999996795654
464,192,16576,1,2,0:0:0:0:
272,192,16876,2,0,P|192:192|192:192,1,69.9999978637696
464,240,17176,6,0,L|480:112,1,120
400,96,17476,2,0,L|384:240,1,120
480,208,17776,1,2,0:0:0:0:
336,208,18076,2,0,L|336:304,1,80
48,176,18376,6,0,P|64:224|128:224,1,120
208,224,18676,2,0,P|192:160|144:144,1,120
64,144,18976,1,0,0:0:0:0:
77,67,19126,1,0,0:0:0:0:
144,29,19276,1,0,0:0:0:0:
217,56,19426,1,0,0:0:0:0:
464,64,19576,6,0,L|352:64,1,89.9999972534181
272,64,19876,2,0,L|256:160,1,89.9999972534181
352,160,20176,2,0,L|432:336,1,179.999994506836
144,336,20626,1,0,0:0:0:0:
84,269,20776,5,0,0:0:0:0:
65,182,20926,1,0,0:0:0:0:
89,96,21076,1,0,0:0:0:0:
151,33,21226,1,0,0:0:0:0:
236,7,21376,1,0,0:0:0:0:
324,25,21526,1,0,0:0:0:0:
400,96,21676,2,0,L|256:96,1,134.999995880127
48,96,21976,6,0,L|32:192,1,89.9999972534181
144,192,22276,2,0,L|176:304,1,89.9999972534181
64,288,22576,1,0,0:0:0:0:
105,365,22726,1,0,0:0:0:0:
189,388,22876,1,0,0:0:0:0:
265,345,23026,1,0,0:0:0:0:
320,272,23176,6,0,L|368:192,1,89.9999972534181,2|8,0:0|0:0,0:0:0:0:
272,160,23476,2,0,L|240:48,1,89.9999972534181,2|0,0:0|0:0,0:0:0:0:
336,32,23776,1,0,0:0:0:0:
336,76,23851,1,0,0:0:0:0:
313,114,23926,1,0,0:0:0:0:
273,132,24001,1,0,0:0:0:0:
229,126,24076,1,0,0:0:0:0:
112,128,24226,5,8,0:0:0:0:
416,128,24376,6,0,L|464:224,1,89.9999972534181
352,224,24676,2,0,L|320:320,1,89.9999972534181
432,320,24976,2,0,L|224:320,1,179.999994506836
144,320,25426,1,0,0:0:0:0:
74,263,25576,5,0,0:0:0:0:
42,180,25726,1,0,0:0:0:0:
56,93,25876,1,0,0:0:0:0:
112,23,26026,1,0,0:0:0:0:
195,0,26176,1,0,0:0:0:0:
283,5,26326,1,0,0:0:0:0:
352,80,26476,2,0,L|256:80,1,89.9999972534181,2|2,0:0|0:0,0:0:0:0:
144,80,26776,6,0,L|144:176,1,89.9999972534181
256,176,27076,2,0,L|256:272,1,89.9999972534181
144,272,27376,1,0,0:0:0:0:
161,357,27526,1,0,0:0:0:0:
236,400,27676,1,0,0:0:0:0:
319,372,27826,1,0,0:0:0:0:
400,304,27976,6,0,L|304:304,1,89.9999972534181
208,304,28276,2,0,L|208:208,1,89.9999972534181
304,208,28576,1,0,0:0:0:0:
348,213,28651,1,0,0:0:0:0:
388,195,28726,1,0,0:0:0:0:
414,158,28801,1,0,0:0:0:0:
417,114,28876,1,0,0:0:0:0:
396,75,28951,1,0,0:0:0:0:
358,51,29026,1,0,0:0:0:0:
314,51,29101,1,0,0:0:0:0:
64,48,29176,5,0,0:0:0:0:
63,150,29476,1,0,0:0:0:0:
136,226,29776,1,0,0:0:0:0:
235,242,30076,1,0,0:0:0:0:
271,242,30376,1,0,0:0:0:0:
173,228,30676,1,0,0:0:0:0:
99,164,30976,1,0,0:0:0:0:
73,68,31276,1,0,0:0:0:0:
178,69,31576,5,0,0:0:0:0:
276,81,31876,1,0,0:0:0:0:
357,138,32176,1,0,0:0:0:0:
402,226,32476,1,0,0:0:0:0:
364,323,32776,6,0,L|250:321,1,100
160,320,33376,2,0,L|160:256,1,50
240,256,33676,2,0,L|240:192,1,50
160,176,33976,5,0,0:0:0:0:
180,80,34276,1,0,0:0:0:0:
263,29,34576,1,0,0:0:0:0:
357,54,34876,1,0,0:0:0:0:
256,48,35176,5,0,0:0:0:0:
239,144,35476,1,0,0:0:0:0:
168,213,35776,1,0,0:0:0:0:
71,225,36076,1,0,0:0:0:0:
192,224,36376,5,0,0:0:0:0:
227,314,36676,1,0,0:0:0:0:
317,352,36976,1,0,0:0:0:0:
407,313,37276,1,0,0:0:0:0:
480,240,37576,2,0,L|368:240,1,100
272,240,38176,6,0,L|224:144,1,100
320,128,38626,1,0,0:0:0:0:
416,128,38776,2,0,L|464:-16,1,150.000005722046
352,32,39226,1,0,0:0:0:0:
256,32,39376,2,0,L|224:128,1,75.0000028610231
336,112,39676,2,0,L|352:192,1,75.0000028610231
41,292,39976,6,0,L|47:217,1,75.0000028610231,2|0,0:0|0:0,0:0:0:0:
144,240,40276,2,0,L|138:315,1,75.0000028610231
32,288,40576,2,0,L|48:208,1,75.0000028610231
144,192,40876,2,0,L|240:192,1,75.0000028610231
320,192,41176,2,0,L|352:112,1,75.0000028610231
240,112,41476,2,0,L|224:32,1,75.0000028610231
320,32,41776,2,0,L|400:32,1,75.0000028610231
496,32,42076,2,0,L|496:112,1,75.0000028610231
139,154,42376,6,0,L|150:303,1,150.000005722046,2|0,0:0|0:0,0:0:0:0:
304,304,42976,2,0,L|288:208,1,75.0000028610231
192,224,43276,2,0,L|176:144,1,75.0000028610231
272,96,43576,6,0,L|352:96,1,75.0000028610231
448,96,43876,2,0,L|480:192,1,75.0000028610231
384,192,44176,2,0,L|368:272,1,75.0000028610231
464,272,44476,2,0,L|384:272,1,75.0000028610231
288,272,44776,6,0,L|282:197,1,75.0000028610231,2|0,0:0|0:0,0:0:0:0:
384,192,45076,2,0,L|416:96,1,75.0000028610231
336,64,45376,2,0,L|416:64,1,75.0000028610231
336,128,45676,2,0,L|336:208,1,75.0000028610231
240,208,45976,6,0,P|240:256|336:272,1,150.000005722046
416,272,46426,1,0,0:0:0:0:
320,272,46576,2,0,L|314:347,1,75.0000028610231,2|0,0:0|0:0,0:0:0:0:
416,272,46876,2,0,L|416:352,1,75.0000028610231
356,316,47176,6,0,L|350:241,1,75.0000028610231,2|0,0:0|0:0,0:0:0:0:
272,192,47476,2,0,L|384:192,1,112.500004291535
448,192,47776,1,2,0:0:0:0:
448,192,47926,1,0,0:0:0:0:
176,192,48076,1,0,0:0:0:0:
142,176,48151,1,0,0:0:0:0:
122,145,48226,1,0,0:0:0:0:
122,109,48301,1,0,0:0:0:0:
144,80,48376,6,0,L|352:80,1,200
448,80,48826,1,0,0:0:0:0:
336,80,48976,2,0,L|336:192,1,100
448,80,49276,2,0,L|448:192,1,100
352,176,49576,6,0,L|224:176,1,100
144,176,49876,2,0,L|112:64,1,100
208,48,50176,2,0,L|320:48,1,100
400,48,50476,2,0,L|416:160,1,100
80,176,50776,6,0,P|48:128|48:64,1,100
144,64,51076,2,0,L|256:64,1,100
352,64,51376,2,0,L|400:176,1,100
288,176,51676,2,0,L|256:272,1,100
352,288,51976,6,0,P|272:288|208:176,1,200
304,176,52426,1,0,0:0:0:0:
416,176,52576,2,0,L|464:64,1,100,2|0,0:0|0:0,0:0:0:0:
368,48,52876,2,0,L|256:48,1,100
160,48,53176,6,0,L|128:160,1,100
240,160,53476,2,0,L|272:272,1,100
160,272,53776,2,0,L|288:272,1,100
368,272,54076,2,0,L|400:160,1,100
80,160,54376,6,0,L|48:48,1,100
160,48,54676,2,0,L|192:176,1,100
288,144,54976,2,0,L|400:144,1,100
480,144,55276,2,0,P|480:224|448:240,1,100
128,240,55576,6,0,P|80:224|112:96,1,200
192,80,56026,1,0,0:0:0:0:
432,80,56176,2,0,L|480:208,1,100
368,192,56476,2,0,L|352:304,1,100
464,288,56776,6,0,L|352:288,1,100
256,288,57076,2,0,L|224:192,1,100
320,176,57376,2,0,L|336:64,1,100
256,48,57676,1,0,0:0:0:0:
208,39,57751,1,0,0:0:0:0:
175,73,57826,1,0,0:0:0:0:
184,120,57901,1,0,0:0:0:0:
432,128,57976,6,0,P|432:176|176:304,1,375
48,304,59176,2,0,P|48:256|128:160,1,175
272,144,59776,2,0,L|384:0,1,175
96,192,60376,6,0,L|80:128,1,50
176,128,60676,2,0,L|192:64,1,50
96,48,60976,2,0,L|80:0,1,50
176,64,61276,2,0,L|192:0,1,50
448,176,61576,6,0,P|448:224|336:256,1,175
80,256,62176,2,0,P|80:192|160:112,1,175
464,272,62776,2,0,P|464:208|208:80,1,375
64,256,63976,6,0,L|32:80,1,175
256,64,64576,2,0,L|304:240,1,175
64,224,65176,6,0,L|240:224,1,175
448,224,65776,2,0,L|480:32,1,175
224,272,66376,2,0,P|176:240|224:144,1,175
384,144,66976,2,0,P|416:128|368:32,1,175
160,32,67576,6,0,P|160:144|432:272,1,449.99998626709
80,304,68776,2,0,P|80:240|176:128,1,209.999993591309
336,128,69376,2,0,P|272:128|256:48,1,149.999995422363
64,80,69876,1,0,0:0:0:0:
96,80,69976,2,0,L|160:80,1,59.9999981689454
256,128,70276,2,0,L|261:58,1,59.9999981689454,2|0,0:0|0:0,0:0:0:0:
352,128,70576,2,0,L|352:64,1,59.9999981689454
256,64,70876,2,0,L|320:64,1,59.9999981689454
416,64,71176,6,0,L|404:306,1,239.999992675781,8|10,0:1|0:1,0:0:0:0:
176,208,72151,2,0,L|176:128,1,59.9999981689454
384,112,72376,6,0,L|272:112,1,97.4999955368044
112,112,72676,2,0,L|112:32,1,64.9999970245363
208,32,72976,6,0,L|208:128,1,64.9999970245363
112,96,73276,2,0,L|176:96,1,64.9999970245363
432,96,73576,2,0,L|432:160,1,64.9999970245363
336,160,73876,2,0,L|320:224,1,64.9999970245363
416,240,74176,1,2,0:0:0:0:
320,240,74326,2,0,L|304:304,1,64.9999970245363
400,304,74626,1,2,0:0:0:0:
48,288,74776,6,0,L|192:288,1,142.49999619484
352,288,75076,1,0,0:0:0:0:
434,244,75226,1,0,0:0:0:0:
472,159,75376,1,0,0:0:0:0:
447,69,75526,1,0,0:0:0:0:
372,15,75676,1,0,0:0:0:0:
279,19,75826,1,0,0:0:0:0:
176,64,75976,6,0,P|144:192|144:192,1,115.000002193451
256,176,76276,2,0,L|288:288,1,115.000002193451
192,304,76576,2,0,L|320:304,1,115.000002193451
400,304,76876,2,0,L|432:192,1,115.000002193451
80,224,77176,6,0,L|304:224,1,200
384,224,77626,1,0,0:0:0:0:
112,224,77776,2,0,L|64:96,1,100
176,112,78076,1,2,0:0:0:0:
464,112,78226,6,0,L|352:112,1,100
256,112,78526,1,0,0:0:0:0:
176,164,78676,1,0,0:0:0:0:
182,259,78826,1,0,0:0:0:0:
256,336,78976,2,0,P|384:336|368:336,1,100
464,336,79276,2,0,L|496:240,1,100
112,208,79576,6,0,L|320:208,1,200
208,208,80026,2,0,L|160:96,1,100
256,80,80326,1,0,0:0:0:0:
353,90,80476,1,0,0:0:0:0:
429,153,80626,1,0,0:0:0:0:
352,192,80776,5,0,0:0:0:0:
255,206,80926,1,0,0:0:0:0:
200,286,81076,1,0,0:0:0:0:
221,380,81226,1,0,0:0:0:0:
304,368,81376,1,0,0:0:0:0:
346,343,81451,1,0,0:0:0:0:
363,297,81526,1,0,0:0:0:0:
347,251,81601,1,0,0:0:0:0:
304,208,81676,2,0,L|192:208,1,100
448,208,81976,6,0,P|480:128|384:80,1,200
304,64,82426,1,0,0:0:0:0:
208,64,82576,2,0,L|176:160,1,100
272,160,82876,2,0,L|304:256,1,100
48,272,83176,6,0,L|48:144,1,100
144,160,83476,2,0,L|144:48,1,100
48,32,83776,2,0,L|176:32,1,100
240,32,84076,2,0,L|256:144,1,100
32,160,84376,6,0,L|144:160,1,100
240,160,84676,2,0,L|272:288,1,100
160,256,84976,2,0,L|160:368,1,100
256,352,85276,2,0,L|384:352,1,100
64,352,85576,6,0,L|32:208,1,100
144,240,85876,2,0,L|176:128,1,100
80,128,86176,1,0,0:0:0:0:
37,104,86251,1,0,0:0:0:0:
27,57,86326,1,0,0:0:0:0:
57,19,86401,1,0,0:0:0:0:
96,16,86476,2,0,L|224:16,1,100
416,32,86776,6,0,L|480:240,1,200,6|10,0:0|0:0,0:0:0:0:
384,240,87226,1,0,0:0:0:0:
176,240,87376,2,0,L|144:352,1,100
240,336,87676,1,10,0:0:0:0:
480,336,87826,6,0,L|512:224,1,100
416,208,88126,1,0,0:0:0:0:
347,140,88276,1,0,0:0:0:0:
358,44,88426,1,0,0:0:0:0:
448,0,88576,2,0,L|336:0,1,100
240,0,88876,2,0,L|208:96,1,100
480,160,89176,6,0,L|240:160,1,200
176,160,89626,2,0,L|176:288,1,100
432,256,89926,2,0,L|496:256,2,50
192,256,90226,2,0,L|128:256,2,50
432,256,90526,5,0,0:0:0:0:
497,186,90676,1,0,0:0:0:0:
465,97,90826,1,0,0:0:0:0:
384,32,90976,1,0,0:0:0:0:
334,28,91051,1,0,0:0:0:0:
289,49,91126,1,0,0:0:0:0:
261,89,91201,1,0,0:0:0:0:
240,144,91276,2,0,L|352:144,1,100,2|0,0:0|0:0,0:0:0:0:
96,304,91576,6,0,P|48:272|64:128,1,200
144,128,92026,1,0,0:0:0:0:
384,128,92176,2,0,L|432:240,1,100
336,240,92476,2,0,L|320:352,1,100
416,352,92776,6,0,L|304:352,1,100
208,352,93076,2,0,L|144:256,1,100
240,240,93376,2,0,L|272:128,1,100
179,96,93676,2,0,L|64:96,1,100
400,80,93976,6,0,L|448:192,1,100
352,192,94276,2,0,L|320:304,1,100
432,288,94576,2,0,L|320:288,1,100
224,288,94876,2,0,L|192:176,1,100
448,176,95176,6,0,L|448:64,1,100
336,176,95476,2,0,P|288:64|288:64,1,100
384,48,95776,1,0,0:0:0:0:
472,85,95926,1,0,0:0:0:0:
496,178,96076,1,0,0:0:0:0:
436,254,96226,1,0,0:0:0:0:
144,240,96376,6,0,P|80:192|144:64,1,200
192,64,96826,1,2,0:0:0:0:
304,64,96976,2,0,L|336:192,1,100
224,176,97276,2,0,L|192:304,1,100
304,272,97576,6,0,L|416:272,1,100
496,272,97876,2,0,L|512:160,1,100
416,160,98176,2,0,L|384:64,1,100
480,48,98476,2,0,L|352:48,1,100
64,192,98776,6,0,L|272:192,1,200
352,192,99226,1,2,0:0:0:0:
256,192,99376,2,0,L|224:96,1,100
304,48,99676,1,0,0:0:0:0:
393,85,99826,1,0,0:0:0:0:
419,178,99976,5,0,0:0:0:0:
384,272,100126,2,0,L|256:272,1,100
192,272,100426,1,2,0:0:0:0:
464,272,100576,2,0,L|480:144,1,100
384,160,100876,2,0,L|352:64,1,100
464,48,101176,6,0,L|240:48,1,200
160,48,101626,1,2,0:0:0:0:
416,48,101776,2,0,L|464:160,1,100
352,144,102076,2,0,L|336:256,1,100
432,256,102376,6,0,L|320:256,1,100
223,259,102676,2,0,L|176:160,1,100
272,160,102976,2,0,L|288:48,1,100
192,48,103276,2,0,L|304:48,1,100
32,48,103576,6,0,L|32:160,1,100
128,144,103876,1,0,0:0:0:0:
222,160,104026,1,0,0:0:0:0:
260,248,104176,1,0,0:0:0:0:
160,256,104326,2,0,L|96:256,2,50
256,256,104626,1,2,0:0:0:0:
464,304,104776,6,0,L|480:192,1,100
384,192,105076,1,0,0:0:0:0:
299,140,105226,1,0,0:0:0:0:
256,52,105376,1,0,0:0:0:0:
336,0,105526,1,0,0:0:0:0:
385,0,105601,1,0,0:0:0:0:
430,16,105676,1,0,0:0:0:0:
461,55,105751,1,0,0:0:0:0:
469,104,105826,1,0,0:0:0:0:
454,151,105901,1,0,0:0:0:0:
112,160,105976,6,0,L|320:160,1,200
400,160,106426,1,2,0:0:0:0:
304,160,106576,2,0,P|272:272|272:272,1,100
384,256,106876,1,0,0:0:0:0:
319,330,107026,1,0,0:0:0:0:
224,355,107176,5,0,0:0:0:0:
131,322,107326,1,0,0:0:0:0:
32,272,107476,2,0,L|0:160,1,100
96,176,107776,2,0,L|128:80,1,100
32,48,108076,2,0,L|144:48,1,100
464,208,108376,6,0,L|256:208,1,200
160,208,108826,1,2,0:0:0:0:
416,208,108976,2,0,L|448:112,1,100
352,80,109276,1,0,0:0:0:0:
268,132,109426,1,0,0:0:0:0:
238,225,109576,5,0,0:0:0:0:
336,288,109726,2,0,L|400:368,1,100
288,368,110026,1,0,0:0:0:0:
192,320,110176,1,0,0:0:0:0:
137,242,110326,1,0,0:0:0:0:
187,162,110476,1,0,0:0:0:0:
288,112,110626,1,0,0:0:0:0:
80,304,110776,6,0,P|32:256|96:128,1,200
160,112,111226,1,0,0:0:0:0:
400,112,111376,6,0,L|448:208,1,100
352,224,111676,2,0,L|320:320,1,100
432,320,111976,6,0,L|320:320,1,100
224,320,112276,2,0,L|192:208,1,100
288,192,112576,2,0,L|160:192,1,100
96,192,112876,2,0,L|64:80,1,100,10|0,0:0|0:0,0:0:0:0:
416,208,113176,6,0,P|464:160|464:112,1,100
368,112,113476,2,0,L|320:16,1,100
416,16,113776,1,0,0:0:0:0:
475,93,113926,1,0,0:0:0:0:
457,188,114076,1,0,0:0:0:0:
374,239,114226,1,0,0:0:0:0:
80,240,114376,6,0,L|192:240,1,100
272,240,114676,1,0,0:0:0:0:
305,151,114826,1,0,0:0:0:0:
239,82,114976,1,0,0:0:0:0:
160,32,115126,1,0,0:0:0:0:
113,50,115201,1,0,0:0:0:0:
78,85,115276,1,0,0:0:0:0:
60,131,115351,1,0,0:0:0:0:
61,180,115426,1,0,0:0:0:0:
83,225,115501,1,0,0:0:0:0:
416,240,115576,6,0,B|464:208|272:48|272:48|144:80|96:304|96:304|384:304|384:304|448:16|448:16|144:48|96:208,1,1575
416,192,120376,2,0,B|192:288|112:0|112:0|368:0|368:0|432:80,1,775
192,320,122776,2,0,P|112:288|208:80,1,375
416,80,123976,2,0,P|416:192|192:288,1,375
32,288,125176,5,0,0:0:0:0:
47,190,125476,1,0,0:0:0:0:
113,117,125776,1,0,0:0:0:0:
209,94,126076,1,0,0:0:0:0:
304,112,126376,5,0,0:0:0:0:
394,151,126676,1,0,0:0:0:0:
453,231,126976,1,0,0:0:0:0:
465,329,127276,1,0,0:0:0:0:
368,368,127576,5,0,0:0:0:0:
273,342,127876,1,0,0:0:0:0:
220,260,128176,1,0,0:0:0:0:
237,164,128476,1,0,0:0:0:0:
336,128,128776,5,0,0:0:0:0:
431,147,129076,1,0,0:0:0:0:
487,227,129376,1,0,0:0:0:0:
472,323,129676,1,0,0:0:0:0:
384,352,129976,5,0,0:0:0:0:
285,337,130276,1,0,0:0:0:0:
202,282,130576,1,0,0:0:0:0:
150,198,130876,1,0,0:0:0:0:
224,128,131176,5,0,0:0:0:0:
314,107,131476,1,0,0:0:0:0:
317,14,131776,1,0,0:0:0:0:
228,0,132076,1,0,0:0:0:0:
400,256,132376,6,0,L|416:192,1,50
336,192,132676,1,2,0:0:0:0:
416,160,132826,2,0,L|400:112,1,50
323,102,133126,1,0,0:0:0:0:
384,32,133276,2,0,L|320:32,1,50
240,32,133576,6,0,L|224:96,1,59.9999981689454
323,102,133876,2,0,L|336:176,1,59.9999981689454
240,176,134176,1,0,0:0:0:0:
202,221,134326,1,0,0:0:0:0:
208,279,134476,1,0,0:0:0:0:
252,316,134626,1,0,0:0:0:0:
320,320,134776,6,0,L|320:224,1,75.0000028610231
400,320,135076,2,0,L|400:240,1,75.0000028610231
480,176,135376,2,0,L|400:176,1,75.0000028610231
304,176,135676,2,0,L|272:96,1,75.0000028610231
368,96,135976,6,0,L|400:16,1,75.0000028610231
304,16,136276,2,0,L|224:16,1,75.0000028610231
128,16,136576,1,0,0:0:0:0:
81,73,136726,1,0,0:0:0:0:
71,147,136876,1,0,0:0:0:0:
101,214,137026,1,0,0:0:0:0:
162,257,137176,5,0,0:0:0:0:
236,261,137326,1,0,0:0:0:0:
304,256,137476,2,0,L|224:256,1,75.0000028610231
144,256,137776,2,0,L|144:176,1,75.0000028610231
64,256,138076,2,0,L|64:160,1,75.0000028610231
432,144,138376,6,0,L|357:140,1,75.0000028610231,2|0,0:0|0:0,0:0:0:0:
256,144,138676,2,0,L|224:224,1,75.0000028610231
336,224,138976,2,0,L|352:304,1,75.0000028610231
432,304,139276,2,0,L|352:304,1,75.0000028610231
80,272,139576,6,0,L|80:144,1,100
208,160,139876,2,0,L|96:160,1,100
224,160,140176,2,0,L|336:160,1,100
448,160,140476,2,0,L|320:160,1,100
64,160,140776,2,0,L|32:48,1,100
304,160,141076,2,0,L|352:64,1,100
48,64,141376,2,0,L|160:64,1,100
480,48,141676,2,0,L|479:164,1,100,8|0,0:0|0:0,0:0:0:0:
261,63,141976,5,0,0:0:0:0:
212,51,142051,1,0,0:0:0:0:
163,58,142126,1,0,0:0:0:0:
120,83,142201,1,0,0:0:0:0:
89,122,142276,1,0,0:0:0:0:
76,170,142351,1,0,0:0:0:0:
80,219,142426,1,0,0:0:0:0:
103,263,142501,1,0,0:0:0:0:
141,295,142576,5,0,0:0:0:0:
188,311,142651,1,0,0:0:0:0:
238,308,142726,1,0,0:0:0:0:
283,287,142801,1,0,0:0:0:0:
80,288,142876,2,0,L|0:288,1,50
352,272,143026,2,0,L|416:272,1,50
244,259,143176,1,8,0:0:0:0:
469,256,143326,1,4,0:0:0:0:
217,280,143776,5,0,0:0:0:0:
170,265,143926,1,0,0:0:0:0:
150,221,144076,1,0,0:0:0:0:
171,177,144226,1,0,0:0:0:0:
384,160,144376,6,0,P|416:160|432:16,1,200
112,64,145576,2,0,P|112:128|224:176,1,200
288,240,146626,1,0,0:0:0:0:
288,208,146701,1,0,0:0:0:0:
287,179,146776,6,0,L|303:3,1,175,2|0,0:0|0:0,0:0:0:0:
368,64,147376,2,0,L|400:16,1,50,2|0,0:0|0:0,0:0:0:0:
480,32,147676,2,0,L|448:80,1,50,2|0,0:0|0:0,0:0:0:0:
176,48,147976,5,2,0:0:0:0:
384,272,148576,1,0,0:0:0:0:
429,184,148876,1,0,0:0:0:0:
352,96,149176,6,0,P|320:96|208:224,1,200
416,208,150376,2,0,P|416:240|288:336,1,200
272,208,151426,1,2,0:0:0:0:
272,208,151501,1,2,0:0:0:0:
272,160,151576,6,0,P|256:128|128:112,1,175
64,144,152176,2,0,L|59:194,1,50,2|0,0:0|0:0,0:0:0:0:
144,192,152476,2,0,L|144:256,1,50,2|0,0:0|0:0,0:0:0:0:
240,240,152776,1,0,0:0:0:0:
265,240,152851,1,0,0:0:0:0:
290,240,152926,1,0,0:0:0:0:
25,228,153076,5,2,0:0:0:0:
257,233,153226,1,2,0:0:0:0:
45,227,153376,5,2,0:0:0:0:
288,224,153526,1,2,0:0:0:0:
63,227,153676,5,2,0:0:0:0:
272,224,153826,1,2,0:0:0:0:
62,232,153976,6,0,P|66:167|318:77,1,375
382,106,155176,6,0,P|405:132|241:338,1,375
257,303,156376,6,0,P|266:249|48:62,1,375
50,84,157576,6,0,P|41:147|115:232,1,175
328,248,158176,2,0,L|328:184,1,50
248,184,158476,2,0,L|216:120,1,50
112,320,158776,2,0,P|112:240|336:112,1,350
304,320,159901,6,0,P|316:265|76:73,1,400
95,60,161176,6,0,P|96:112|336:288,1,375
326,289,162376,6,0,P|320:224|400:144,1,175,0|0,0:2|0:2,0:2:0:0:
389,147,162976,6,0,P|384:96|272:48,1,175
64,48,163576,2,0,L|176:48,2,100
336,48,164026,1,0,0:0:0:0:
128,48,164176,6,0,L|16:48,2,100
400,48,164626,2,0,L|400:160,1,100
128,160,164926,1,0,0:0:0:0:
368,160,165076,1,0,0:0:0:0:
80,160,165226,6,0,L|192:160,1,100
416,160,165526,1,0,0:0:0:0:
32,160,165676,2,0,L|144:160,2,100
416,160,166126,6,0,L|464:272,1,100
144,272,166426,1,0,0:0:0:0:
416,272,166576,1,0,0:0:0:0:
48,272,166726,2,0,L|160:272,1,100
384,272,167026,1,0,0:0:0:0:
80,272,167176,6,0,P|80:224|176:128,1,175
400,128,167776,2,0,L|448:128,1,25
176,128,167926,2,0,L|128:128,1,25
384,96,168076,2,0,L|381:146,1,50
112,224,168376,6,0,L|80:112,1,100,6|0,0:0|0:0,0:0:0:0:
208,112,168976,2,0,L|224:0,1,100
112,16,169576,6,0,L|272:16,1,150.000005722046
352,16,170026,1,0,0:0:0:0:
112,16,170176,2,0,P|96:64|128:160,1,150.000005722046
224,160,170626,6,0,L|256:240,1,75.0000028610231
144,240,170926,2,0,L|224:240,2,75.0000028610231
432,240,171376,2,0,L|448:160,1,75.0000028610231
352,144,171676,2,0,L|320:64,1,75.0000028610231
416,48,171976,6,0,P|448:96|448:192,1,150.000005722046
352,192,172426,1,0,0:0:0:0:
256,192,172576,2,0,P|224:224|256:320,1,150.000005722046
352,272,173026,6,0,L|384:352,1,75.0000028610231
272,352,173326,2,0,L|352:352,2,75.0000028610231
176,352,173776,2,0,L|144:272,1,75.0000028610231
240,256,174076,2,0,L|256:176,1,75.0000028610231
16,160,174376,2,0,L|176:160,1,150.000005722046
256,160,174826,2,0,L|288:256,1,75.0000028610231
176,240,175126,2,0,L|160:320,1,75.0000028610231
256,320,175426,1,2,0:0:0:0:
480,320,175576,6,0,P|432:320|384:224,1,150.000005722046
480,224,176026,1,0,0:0:0:0:
384,224,176176,2,0,L|352:144,1,75.0000028610231
448,128,176476,2,0,L|464:48,1,75.0000028610231
160,272,176776,6,0,P|112:256|128:128,1,200
416,64,177226,1,0,0:0:0:0:
416,64,177301,1,0,0:0:0:0:
416,64,177376,6,0,L|408:264,1,200,6|0,0:0|0:0,0:0:0:0:
68,288,177826,1,0,0:0:0:0:
68,288,177901,1,0,0:0:0:0:
68,288,177976,6,0,L|74:188,1,100,6|0,0:0|0:0,0:0:0:0:
176,192,178276,2,0,L|176:64,1,100
416,160,178501,1,0,0:0:0:0:
480,112,178576,2,0,L|400:32,1,100
96,48,178876,2,0,L|208:48,1,100
464,320,179176,6,0,L|476:108,1,200,6|0,0:0|0:0,0:0:0:0:
384,96,179626,2,0,L|432:0,1,100
96,144,179926,2,0,L|32:144,2,50
176,144,180226,1,0,0:0:0:0:
181,242,180376,5,0,0:0:0:0:
236,324,180526,1,0,0:0:0:0:
325,366,180676,1,0,0:0:0:0:
423,357,180826,1,0,0:0:0:0:
496,304,180976,1,0,0:0:0:0:
505,255,181051,1,0,0:0:0:0:
486,209,181126,1,0,0:0:0:0:
446,181,181201,1,0,0:0:0:0:
416,160,181276,2,0,L|304:160,1,100,2|0,0:0|0:0,0:0:0:0:
102,250,181576,6,0,P|54:234|86:106,1,200
176,80,182026,1,0,0:0:0:0:
272,80,182176,5,2,0:0:0:0:
368,80,182326,2,0,L|448:80,2,50
272,80,182626,1,0,0:0:0:0:
174,74,182776,5,0,0:0:0:0:
96,134,182926,1,0,0:0:0:0:
76,230,183076,1,0,0:0:0:0:
123,316,183226,1,0,0:0:0:0:
208,336,183376,1,0,0:0:0:0:
256,340,183451,1,0,0:0:0:0:
299,316,183526,1,0,0:0:0:0:
320,271,183601,1,0,0:0:0:0:
304,224,183676,2,0,L|176:224,1,100
112,224,183976,6,0,P|112:112|192:64,1,200
256,64,184426,1,0,0:0:0:0:
352,64,184576,2,0,L|400:160,1,100
304,176,184876,2,0,L|272:272,1,100
369,284,185176,5,0,0:0:0:0:
272,270,185326,1,0,0:0:0:0:
212,194,185476,1,0,0:0:0:0:
222,97,185626,1,0,0:0:0:0:
305,44,185776,1,0,0:0:0:0:
353,39,185851,1,0,0:0:0:0:
396,63,185926,1,0,0:0:0:0:
416,108,186001,1,0,0:0:0:0:
401,156,186076,2,0,L|289:156,1,100
32,176,186376,6,0,P|32:96|80:96,1,100
272,160,186676,2,0,P|272:80|240:80,1,100
80,64,186901,1,2,0:0:0:0:
80,64,186976,5,2,0:0:0:0:
352,64,187126,1,0,0:0:0:0:
344,113,187201,1,0,0:0:0:0:
337,162,187276,1,0,0:0:0:0:
80,176,187426,1,0,0:0:0:0:
129,183,187501,1,0,0:0:0:0:
178,190,187576,1,0,0:0:0:0:
436,172,187726,1,2,0:0:0:0:
428,254,187876,1,2,0:0:0:0:
420,336,188026,1,2,0:0:0:0:
176,304,188176,5,0,0:0:0:0:
129,289,188251,1,0,0:0:0:0:
105,246,188326,1,0,0:0:0:0:
116,199,188401,1,0,0:0:0:0:
144,160,188476,6,0,L|272:160,1,100
464,160,188776,1,0,0:0:0:0:
410,28,189076,1,0,0:0:0:0:
268,23,189376,1,0,0:0:0:0:
144,32,189676,6,0,L|112:128,1,100.000003814697
192,128,189976,2,0,L|224:224,1,100.000003814697
144,240,190276,2,0,L|256:240,1,100.000003814697
320,240,190576,2,0,L|352:144,1,100.000003814697
272,112,190876,2,0,L|384:112,1,100.000003814697
448,112,191176,2,0,P|480:144|448:192,1,100.000003814697
384,192,191476,5,2,0:0:0:0:
496,192,191676,1,0,0:0:0:0:
448,192,191776,2,0,L|464:304,1,100.000003814697
384,288,192076,2,0,L|352:384,1,100.000003814697
432,384,192376,1,0,0:0:0:0:
453,244,192676,1,0,0:0:0:0:
330,174,192976,1,0,0:0:0:0:
96,224,193276,6,0,P|80:192|112:128,1,100.000003814697
176,128,193576,2,0,P|208:96|192:48,1,100.000003814697
112,32,193876,2,0,L|144:112,1,75.0000028610231
224,96,194176,1,0,0:0:0:0:
215,169,194326,1,0,0:0:0:0:
162,220,194476,1,0,0:0:0:0:
88,226,194626,1,0,0:0:0:0:
32,208,194776,2,0,L|112:208,1,75.0000028610231
432,208,195076,6,0,L|352:208,1,75.0000028610231
256,208,195376,2,0,L|352:208,1,75.0000028610231
432,208,195676,2,0,L|352:208,1,75.0000028610231
128,288,195976,6,0,P|80:256|112:192,1,133.333333333333
160,176,196276,2,0,P|192:128|144:80,1,133.333333333333
96,80,196576,2,0,L|240:80,1,133.333333333333
288,80,196876,6,0,P|288:128|224:192,1,133.333333333333
176,192,197176,2,0,L|144:336,1,133.333333333333
208,320,197476,2,0,L|352:320,1,133.333333333333
400,320,197776,6,0,P|432:304|432:208,1,133.333333333333
384,208,198076,2,0,P|368:160|416:96,1,133.333333333333
480,96,198376,1,8,0:1:0:0:
368,96,198576,1,0,0:0:0:0:
96,160,198676,6,0,L|64:256,1,100,8|8,0:1|0:1,0:0:0:0:
160,256,198976,2,0,L|176:368,1,100
80,352,199276,2,0,L|208:352,1,100
416,352,199576,6,0,P|448:320|400:256,1,133.333333333333
352,256,199876,2,0,L|320:112,1,133.333333333333
384,96,200176,2,0,P|336:96|288:160,1,133.333333333333
336,160,200476,6,0,P|336:208|256:224,1,133.333333333333
224,192,200776,2,0,L|160:320,1,133.333333333333
112,304,201076,2,0,P|80:272|96:192,1,133.333333333333
144,176,201376,6,0,P|192:176|208:96,1,133.333333333333
160,96,201676,2,0,P|160:32|224:32,1,133.333333333333
272,32,201976,2,0,L|224:176,1,133.333333333333
176,144,202276,6,0,P|144:192|176:256,1,133.333333333333
224,272,202576,2,0,L|304:160,1,133.333333333333
258,122,202876,2,0,P|290:67|219:14,1,150
124,335,203176,6,0,L|116:195,1,125,6|0,0:0|0:0,0:0:0:0:
371,326,203476,2,0,L|387:198,1,125
292,151,203776,5,8,0:0:0:0:
32,160,203926,1,0,0:0:0:0:
94,160,204001,1,0,0:0:0:0:
157,160,204076,1,0,0:0:0:0:
384,160,204226,1,0,0:0:0:0:
157,160,204376,6,0,L|32:160,1,125
272,160,204676,2,0,L|400:160,1,125
80,160,204976,5,0,0:0:0:0:
240,160,205126,1,0,0:0:0:0:
16,160,205276,1,0,0:0:0:0:
320,160,205426,1,0,0:0:0:0:
64,208,205576,6,0,L|48:128,1,75.0000028610231,2|0,0:0|0:0,0:0:0:0:
112,80,205876,1,8,0:0:0:0:
368,80,206026,2,0,L|272:80,1,75.0000028610231
192,80,206326,2,0,P|176:128|208:160,1,75.0000028610231
272,144,206626,1,8,0:0:0:0:
368,144,206776,6,0,L|384:48,1,75.0000028610231
288,48,207076,1,8,0:0:0:0:
192,32,207226,2,0,L|272:32,1,75.0000028610231
368,32,207526,1,0,0:0:0:0:
355,102,207676,1,0,0:0:0:0:
288,128,207826,1,0,0:0:0:0:
224,128,207976,6,0,L|128:128,1,75.0000028610231
48,128,208276,1,8,0:0:0:0:
144,128,208426,2,0,L|176:224,1,75.0000028610231
80,208,208726,2,0,L|48:288,1,75.0000028610231
144,288,209026,1,8,0:0:0:0:
48,272,209176,6,0,L|48:192,1,75.0000028610231
144,192,209476,1,8,0:0:0:0:
240,192,209626,2,0,P|272:144|256:128,1,75.0000028610231
192,112,209926,1,0,0:0:0:0:
158,52,210076,1,0,0:0:0:0:
215,13,210226,1,0,0:0:0:0:
272,0,210376,6,0,L|368:0,1,75.0000028610231,2|0,0:0|0:0,0:0:0:0:
112,256,210676,1,8,0:0:0:0:
48,208,210826,2,0,L|96:144,1,75.0000028610231
192,128,211126,2,0,L|192:48,1,75.0000028610231
96,48,211426,1,8,0:0:0:0:
416,64,211576,6,0,L|416:144,1,75.0000028610231
320,128,211876,1,8,0:0:0:0:
224,128,212026,2,0,L|192:208,1,75.0000028610231
288,208,212326,2,0,L|304:288,1,75.0000028610231
208,288,212626,6,0,L|128:288,1,75.0000028610231
16,288,213076,2,0,L|12:212,1,75.0000028610231,8|8,0:0|0:0,0:0:0:0:
112,208,213376,2,0,L|128:128,1,75.0000028610231,0|8,0:0|0:0,0:0:0:0:
48,128,213676,2,0,L|144:128,1,75.0000028610231,0|8,0:0|0:0,0:0:0:0:
224,128,213976,6,0,L|224:224,1,75.0000028610231
128,208,214276,1,0,0:0:0:0:
135,281,214426,1,0,0:0:0:0:
179,341,214576,1,0,0:0:0:0:
247,369,214726,1,0,0:0:0:0:
320,359,214876,1,0,0:0:0:0:
378,312,215026,1,0,0:0:0:0:
128,320,215176,5,0,0:0:0:0:
22,223,215476,1,0,0:0:0:0:
53,84,215776,1,0,0:0:0:0:
190,42,216076,1,0,0:0:0:0:
304,48,216376,5,0,0:0:0:0:
301,192,216676,1,0,0:0:0:0:
180,271,216976,1,0,0:0:0:0:
80,272,217276,6,0,L|160:272,2,75.0000028610231
176,272,217876,1,0,0:0:0:0:
318,254,218176,1,0,0:0:0:0:
373,122,218476,1,0,0:0:0:0:
256,112,218776,5,0,0:0:0:0:
316,0,219076,1,0,0:0:0:0:
452,15,219376,1,0,0:0:0:0:
352,16,219676,2,0,L|256:16,1,75.0000028610231
48,32,219976,6,0,L|48:144,1,100
144,128,220276,2,0,L|192:224,1,100
80,224,220576,2,0,L|192:224,1,100
288,224,220876,2,0,L|288:336,1,100
192,320,221176,6,0,L|160:224,1,100
256,208,221476,2,0,L|288:96,1,100
192,80,221776,2,0,L|320:80,1,100
387,73,222076,1,8,0:0:0:0:
152,72,222226,1,0,0:0:0:0:
496,80,222376,6,0,L|496:208,1,100
400,176,222676,2,0,L|368:272,1,100
464,272,222976,2,0,L|352:272,1,100
272,272,223276,2,0,L|240:160,1,100
496,176,223576,5,2,0:0:0:0:
384,176,223876,1,2,0:0:0:0:
272,176,224176,1,2,0:0:0:0:
160,288,224776,5,0,0:0:0:0:
104,254,224876,1,0,0:0:0:0:
72,192,224976,2,0,L|192:192,1,66.6666666666667
464,192,225176,2,0,L|360:192,1,66.6666666666667
152,192,225376,6,0,L|232:192,1,66.6666666666667
432,192,225576,1,0,0:0:0:0:
120,208,225676,1,0,0:0:0:0:
68,169,225776,1,0,0:0:0:0:
66,105,225876,1,0,0:0:0:0:
116,65,225976,1,0,0:0:0:0:
336,64,226076,6,0,L|432:64,1,66.6666666666667
119,152,226276,2,0,L|47:152,1,66.6666666666667
53,152,226476,2,0,L|128:152,1,66.6666666666667
408,152,226676,2,0,L|408:232,1,66.6666666666667
160,224,226876,2,0,L|248:224,1,66.6666666666667
432,224,227076,1,0,0:0:0:0:
160,232,227176,6,0,L|96:192,1,66.6666666666667
48,152,227376,2,0,L|104:88,1,66.6666666666667
344,96,227576,2,0,L|432:96,1,66.6666666666667
96,224,227776,1,0,0:0:0:0:
115,160,227876,1,0,0:0:0:0:
163,116,227976,1,0,0:0:0:0:
228,104,228076,1,0,0:0:0:0:
477,96,228176,2,0,L|381:96,1,66.6666666666667
128,104,228376,6,0,L|48:104,1,66.6666666666667
296,96,228576,1,0,0:0:0:0:
96,272,228676,1,0,0:0:0:0:
42,235,228776,1,0,0:0:0:0:
28,172,228876,1,0,0:0:0:0:
63,117,228976,1,0,0:0:0:0:
272,96,229076,2,0,L|368:96,1,66.6666666666667
61,104,229276,2,0,L|157:104,1,66.6666666666667
338,96,229476,1,0,0:0:0:0:
128,288,229576,6,0,P|64:224|96:160,1,166.666666666667
320,192,229876,2,0,P|319:128|224:96,1,166.666666666667
64,224,230176,2,0,L|64:32,1,166.666666666667
352,224,230476,2,0,P|351:128|288:128,1,166.666666666667
64,96,230776,5,2,0:1:0:0:
331,283,231076,1,0,0:0:0:0:
425,208,231226,1,0,0:0:0:0:
417,88,231376,1,0,0:0:0:0:
314,26,231526,1,0,0:0:0:0:
96,320,231676,6,0,P|32:288|64:192,1,166.666666666667
288,192,231976,2,0,P|352:192|352:96,1,166.666666666667
64,64,232276,2,0,L|256:64,1,166.666666666667
448,64,232576,2,0,L|256:64,1,166.666666666667
64,64,232876,5,0,0:0:0:0:
91,181,233026,1,0,0:0:0:0:
202,227,233176,1,0,0:0:0:0:
320,224,233326,1,0,0:0:0:0:
435,194,233476,1,0,0:0:0:0:
470,80,233626,1,0,0:0:0:0:
216,72,233776,5,0,0:0:0:0:
281,66,233876,1,0,0:0:0:0:
334,104,233976,1,0,0:0:0:0:
144,112,234076,2,0,L|72:112,1,66.6666666666667
408,120,234276,2,0,L|496:120,1,66.6666666666667
184,152,234476,2,0,L|184:64,1,66.6666666666667
264,80,234676,6,0,L|264:0,1,66.6666666666667
64,16,234876,1,0,0:0:0:0:
264,216,234976,1,0,0:0:0:0:
309,170,235076,1,0,0:0:0:0:
296,107,235176,1,0,0:0:0:0:
80,96,235276,2,0,L|160:96,1,66.6666666666667
384,96,235476,2,0,L|304:96,1,66.6666666666667
112,96,235676,6,0,L|112:16,1,66.6666666666667
392,80,235876,1,0,0:0:0:0:
411,137,235976,1,0,0:0:0:0:
356,164,236076,1,0,0:0:0:0:
144,176,236176,2,0,L|256:176,1,66.6666666666667
408,176,236376,1,0,0:0:0:0:
104,176,236476,5,0,0:0:0:0:
62,132,236576,1,0,0:0:0:0:
104,89,236676,1,0,0:0:0:0:
320,88,236776,2,0,L|400:88,1,66.6666666666667
136,88,236976,2,0,L|48:88,1,66.6666666666667
320,88,237176,2,0,L|320:184,1,66.6666666666667
120,176,237376,6,0,L|120:96,1,66.6666666666667
32,96,237576,2,0,L|32:24,1,66.6666666666667
232,32,237776,2,0,L|328:32,1,66.6666666666667
24,32,237976,1,0,0:0:0:0:
24,96,238076,1,0,0:0:0:0:
72,141,238176,1,0,0:0:0:0:
400,224,238276,6,0,P|464:192|432:32,1,250
224,32,238726,1,0,0:0:0:0:
384,32,238876,5,2,0:0:0:0:
96,32,239026,2,0,L|32:32,2,62.5
320,32,239326,1,0,0:0:0:0:
416,32,239476,6,0,L|464:160,1,125
352,160,239776,2,0,L|320:288,1,125
208,288,240076,6,0,L|176:160,1,125
416,160,240376,2,0,L|448:32,1,125
96,32,240676,2,0,L|224:32,1,125
448,32,240976,2,0,L|480:176,1,125
64,160,241276,6,0,L|192:160,1,125
304,160,241576,2,0,L|336:32,1,125
64,208,241876,6,0,L|64:32,1,125
176,64,242176,2,0,L|320:64,1,125
416,64,242476,2,0,L|416:192,1,125
288,176,242776,2,0,L|256:304,1,125
480,288,243076,5,0,0:0:0:0:
430,289,243151,1,0,0:0:0:0:
381,280,243226,1,0,0:0:0:0:
335,260,243301,1,0,0:0:0:0:
295,230,243376,1,0,0:0:0:0:
262,192,243451,1,0,0:0:0:0:
239,148,243526,1,0,0:0:0:0:
226,100,243601,1,0,0:0:0:0:
240,64,243676,5,0,0:0:0:0:
275,29,243751,1,0,0:0:0:0:
321,10,243826,1,0,0:0:0:0:
371,9,243901,1,0,0:0:0:0:
418,25,243976,1,0,0:0:0:0:
455,58,244051,1,0,0:0:0:0:
478,102,244126,1,0,0:0:0:0:
484,151,244201,1,0,0:0:0:0:
152,152,244276,6,0,L|232:152,1,50
448,152,244426,2,0,L|448:224,1,50
160,216,244576,1,0,0:0:0:0:
114,199,244651,1,0,0:0:0:0:
95,154,244726,1,0,0:0:0:0:
116,110,244801,1,0,0:0:0:0:
272,96,244876,6,0,L|336:96,1,50
480,96,245026,2,0,L|416:96,1,50
89,71,245176,2,0,L|32:110,1,50
89,154,245326,2,0,L|136:208,1,50
296,176,245476,5,0,0:0:0:0:
302,224,245551,1,0,0:0:0:0:
273,263,245626,1,0,0:0:0:0:
225,273,245701,1,0,0:0:0:0:
40,272,245776,6,0,L|112:272,1,50
240,264,245926,2,0,L|304:264,1,50
488,264,246076,2,0,L|424:264,1,50
208,264,246226,2,0,L|264:264,1,50
488,264,246376,1,0,0:0:0:0:
480,215,246451,1,0,0:0:0:0:
449,176,246526,1,0,0:0:0:0:
404,156,246601,1,0,0:0:0:0:
192,152,246676,6,0,L|128:152,1,50
336,144,246826,2,0,L|408:144,1,50
88,152,246976,2,0,L|80:96,1,50
160,88,247126,2,0,L|184:32,1,50
24,32,247276,2,0,L|80:32,1,50
232,32,247426,2,0,L|288:32,1,50
440,24,247576,5,0,0:0:0:0:
468,63,247651,1,0,0:0:0:0:
467,112,247726,1,0,0:0:0:0:
436,150,247801,1,0,0:0:0:0:
280,152,247876,2,0,L|224:152,1,50
32,152,248026,2,0,L|104:152,1,50
344,152,248176,5,0,0:0:0:0:
348,212,248251,1,0,0:0:0:0:
310,260,248326,1,0,0:0:0:0:
249,270,248401,1,0,0:0:0:0:
112,272,248476,6,0,L|32:272,1,75.0000028610231
328,272,248626,2,0,L|408:272,1,75.0000028610231
112,200,248776,2,0,L|16:200,1,87.500000834465
336,184,248926,2,0,L|440:184,1,87.500000834465
120,184,249076,6,0,L|48:184,1,50
72,184,249226,2,0,L|128:176,1,50
424,184,249376,2,0,L|336:184,1,50
120,184,249526,2,0,L|208:184,1,50
440,176,249676,5,0,0:0:0:0:
468,214,249751,1,0,0:0:0:0:
454,260,249826,1,0,0:0:0:0:
409,277,249901,1,0,0:0:0:0:
240,280,249976,2,0,L|160:280,1,50
416,272,250126,2,0,L|480:272,1,50
200,272,250276,6,0,L|168:208,1,50
256,192,250426,2,0,L|280:136,1,50
56,136,250576,2,0,L|112:136,1,50
296,136,250726,2,0,L|376:136,1,50
112,144,250876,6,0,L|40:144,1,50
400,136,251026,2,0,L|398:216,1,50
96,192,251176,2,0,L|72:256,1,50
176,240,251326,2,0,L|200:296,1,50
24,288,251476,6,0,L|96:288,1,50
240,280,251626,2,0,L|312:280,1,50
480,280,251776,2,0,L|416:280,1,50
200,280,251926,2,0,L|272:280,1,50
464,272,252076,5,0,0:0:0:0:
452,223,252151,1,0,0:0:0:0:
418,188,252226,1,0,0:0:0:0:
371,174,252301,1,0,0:0:0:0:
176,168,252376,2,0,L|96:168,1,50
344,168,252526,2,0,L|432:168,1,50
112,280,252676,5,0,0:0:0:0:
114,230,252751,1,0,0:0:0:0:
139,188,252826,1,0,0:0:0:0:
182,162,252901,1,0,0:0:0:0:
248,152,252976,5,0,0:0:0:0:
250,103,253051,1,0,0:0:0:0:
219,65,253126,1,0,0:0:0:0:
171,60,253201,1,0,0:0:0:0:
16,64,253276,2,0,L|80:64,1,50
344,64,253426,2,0,L|264:64,1,50
66,64,253576,5,0,0:0:0:0:
55,112,253651,1,0,0:0:0:0:
72,158,253726,1,0,0:0:0:0:
111,189,253801,1,0,0:0:0:0:
352,192,253876,6,0,L|432:192,1,50
112,192,254026,2,0,L|184:192,1,50
416,192,254176,2,0,L|416:128,1,50
152,120,254326,2,0,L|88:120,1,50
408,112,254476,6,0,L|480:112,1,50
458,112,254626,2,0,L|408:112,1,50
112,112,254776,2,0,L|48:112,1,50
312,104,254926,2,0,L|384:104,1,50
104,112,255076,6,0,L|72:64,1,50
128,16,255226,2,0,L|208:16,1,50
432,24,255376,2,0,L|368:24,1,50
152,24,255526,2,0,L|152:88,1,50
400,88,255676,5,0,0:0:0:0:
404,137,255751,1,0,0:0:0:0:
381,180,255826,1,0,0:0:0:0:
337,203,255901,1,0,0:0:0:0:
112,216,255976,2,0,L|40:216,1,50
288,216,256126,2,0,L|360:216,1,50
104,208,256276,5,0,0:0:0:0:
67,175,256351,1,0,0:0:0:0:
63,127,256426,1,0,0:0:0:0:
93,88,256501,1,0,0:0:0:0:
248,80,256576,6,0,L|304:80,1,50
480,80,256726,2,0,L|424:80,1,50
264,80,256876,2,0,L|200:80,1,50
32,88,257026,2,0,L|96:88,1,50
336,80,257176,6,0,L|400:80,1,50
386,80,257326,2,0,L|336:80,1,50
120,88,257476,6,0,L|56:88,1,50
280,88,257626,2,0,L|336:88,1,50
117,120,257776,2,0,L|45:120,1,62.5
318,94,257926,2,0,L|382:94,1,62.5
47,189,258076,6,0,L|116:126,1,75.0000028610231
396,183,258226,2,0,L|341:133,1,75.0000028610231
96,88,258376,2,0,L|32:0,1,87.500000834465
328,88,258526,2,0,L|384:8,1,87.500000834465
80,144,258676,5,0,0:0:0:0:
92,191,258751,1,0,0:0:0:0:
127,227,258826,1,0,0:0:0:0:
174,241,258901,1,0,0:0:0:0:
392,240,258976,6,0,L|448:240,1,50
184,240,259126,2,0,L|184:168,1,50
432,152,259276,2,0,L|360:152,1,50
160,152,259426,2,0,L|96:152,1,50
382,152,259576,6,0,L|440:152,1,50
432,152,259726,2,0,L|376:152,1,50
128,184,259876,5,0,0:0:0:0:
98,145,259951,1,0,0:0:0:0:
103,97,260026,1,0,0:0:0:0:
141,66,260101,1,0,0:0:0:0:
328,64,260176,6,0,L|384:64,1,50
128,72,260326,2,0,L|64:72,1,50
264,72,260476,2,0,L|328:72,1,50
480,72,260626,2,0,L|480:128,1,50
272,152,260776,6,0,L|216:152,1,50
40,160,260926,2,0,L|40:232,1,50
288,208,261076,5,0,0:0:0:0:
281,256,261151,1,0,0:0:0:0:
247,292,261226,1,0,0:0:0:0:
199,302,261301,1,0,0:0:0:0:
40,304,261376,5,0,0:0:0:0:
35,254,261451,1,0,0:0:0:0:
58,211,261526,1,0,0:0:0:0:
101,186,261601,1,0,0:0:0:0:
272,176,261676,2,0,L|352:176,1,50
480,176,261826,2,0,L|480:112,1,50
248,104,261976,6,0,L|312:104,1,50
488,96,262126,2,0,L|432:96,1,50
176,104,262276,5,0,0:0:0:0:
180,153,262351,1,0,0:0:0:0:
211,191,262426,1,0,0:0:0:0:
257,208,262501,1,0,0:0:0:0:
464,200,262576,2,0,L|400:200,1,50
232,200,262726,2,0,L|176:200,1,50
24,208,262876,6,0,L|24:272,1,50
248,256,263026,2,0,L|304:256,1,50
88,264,263176,2,0,L|24:264,1,50
320,280,263326,2,0,L|320:200,1,50
144,288,263476,6,0,P|80:272|96:128,1,200
160,144,263926,1,2,0:0:0:0:
416,144,264076,5,8,0:0:0:0:
320,144,264226,1,2,0:0:0:0:
320,144,264301,1,0,0:0:0:0:
320,144,264376,1,2,0:0:0:0:
416,144,264526,1,2,0:0:0:0:
112,144,264676,6,0,L|224:144,1,100
320,144,264976,1,0,0:0:0:0:
320,144,265126,1,2,0:0:0:0:
48,144,265276,5,8,0:0:0:0:
160,144,265426,2,0,L|224:144,2,50
48,144,265726,1,2,0:0:0:0:
416,144,265876,6,0,P|416:208|288:240,1,200
192,256,266326,1,2,0:0:0:0:
304,256,266476,2,0,L|304:368,1,100
192,352,266776,1,2,0:0:0:0:
304,356,266926,1,2,0:0:0:0:
64,304,267076,6,0,L|176:304,1,100
464,304,267376,2,0,L|336:304,1,100
112,304,267676,5,8,0:0:0:0:
224,304,267826,2,0,L|288:304,2,50
112,304,268126,1,2,0:0:0:0:
480,304,268276,5,2,0:0:0:0:
368,304,268426,1,2,0:0:0:0:
480,304,268576,2,0,L|496:192,1,100
128,272,268876,5,2,0:0:0:0:
64,208,269026,1,2,0:0:0:0:
176,208,269176,2,0,L|64:208,1,100
448,208,269476,6,0,L|432:96,1,100
320,96,269776,1,8,0:0:0:0:
416,96,269926,1,2,0:0:0:0:
128,96,270076,5,0,0:0:0:0:
240,96,270226,2,0,L|160:96,1,50,2|0,0:0|0:0,0:0:0:0:
48,96,270376,1,0,0:0:0:0:
42,144,270451,1,0,0:0:0:0:
70,184,270526,1,0,0:0:0:0:
118,194,270601,1,0,0:0:0:0:
160,192,270676,6,0,L|288:192,1,125,6|0,0:0|0:0,0:0:0:0:
506,190,270976,1,8,0:0:0:0:
411,191,271126,1,2,0:0:0:0:
128,192,271276,2,0,L|96:48,1,125
208,48,271576,2,0,L|288:160,1,125
160,160,271876,5,0,0:0:0:0:
119,206,271951,1,0,0:0:0:0:
106,267,272026,1,0,0:0:0:0:
124,326,272101,1,0,0:0:0:0:
169,368,272176,1,0,0:0:0:0:
229,384,272251,1,0,0:0:0:0:
289,368,272326,1,0,0:0:0:0:
334,326,272401,1,0,0:0:0:0:
304,272,272476,5,0,0:0:0:0:
252,238,272551,1,0,0:0:0:0:
220,185,272626,1,0,0:0:0:0:
214,123,272701,1,0,0:0:0:0:
237,65,272776,1,0,0:0:0:0:
282,23,272851,1,0,0:0:0:0:
342,5,272926,1,0,0:0:0:0:
403,15,273001,1,0,0:0:0:0:
160,192,273076,6,0,L|64:192,2,83.3333333333333
368,192,273376,2,0,L|368:16,1,166.666666666667
160,96,273676,6,0,L|256:96,2,83.3333333333333
432,96,273976,2,0,P|432:160|320:192,1,166.666666666667
96,208,274276,6,0,L|0:208,2,83.3333333333333
256,208,274576,2,0,L|256:32,1,166.666666666667
416,32,274876,2,0,L|512:32,2,83.3333333333333
176,32,275176,2,0,P|144:64|176:176,1,166.666666666667
400,176,275476,6,0,L|304:176,2,83.3333333333333
80,176,275776,2,0,L|32:16,1,166.666666666667
256,160,276076,2,0,L|288:64,1,83.3333333333333
176,48,276276,1,0,0:0:0:0:
400,64,276376,2,0,L|448:224,1,166.666666666667
160,224,276676,6,0,L|128:320,1,83.3333333333333
240,304,276876,1,0,0:0:0:0:
32,304,276976,2,0,L|16:128,1,166.666666666667
224,112,277276,2,0,L|128:112,2,83.3333333333333
432,112,277576,2,0,P|480:272|480:272,1,166.666666666667
192,296,277876,5,0,0:0:0:0:
144,256,277951,1,0,0:0:0:0:
127,197,278026,1,0,0:0:0:0:
144,138,278101,1,0,0:0:0:0:
200,112,278176,2,0,L|288:112,1,62.5
472,112,278326,2,0,L|392:112,1,62.5
144,120,278476,5,0,0:0:0:0:
147,181,278551,1,0,0:0:0:0:
186,228,278626,1,0,0:0:0:0:
246,243,278701,1,0,0:0:0:0:
472,240,278776,2,0,L|472:176,1,62.5
288,160,278926,2,0,L|216:160,1,62.5
24,160,279076,2,0,L|88:160,1,62.5
288,160,279226,2,0,L|288:88,1,62.5
56,88,279376,5,0,0:0:0:0:
72,147,279451,1,0,0:0:0:0:
115,191,279526,1,0,0:0:0:0:
175,208,279601,1,0,0:0:0:0:
424,208,279676,6,0,L|504:208,1,62.5
256,208,279826,2,0,L|184:208,1,62.5
456,208,279976,2,0,L|456:128,1,62.5
168,128,280126,2,0,L|232:128,1,62.5
456,128,280276,5,0,0:0:0:0:
470,174,280351,1,0,0:0:0:0:
452,220,280426,1,0,0:0:0:0:
409,243,280501,1,0,0:0:0:0:
256,248,280576,2,0,L|192:248,1,50
48,248,280726,2,0,L|48:176,1,50
216,176,280876,5,0,0:0:0:0:
261,159,280951,1,0,0:0:0:0:
277,113,281026,1,0,0:0:0:0:
251,72,281101,1,0,0:0:0:0:
72,64,281176,2,0,L|16:64,1,50
224,56,281326,2,0,L|280:56,1,50
472,56,281476,6,0,L|472:112,1,50
288,104,281626,2,0,L|224:104,1,50
32,120,281776,5,0,0:0:0:0:
29,168,281851,1,0,0:0:0:0:
59,207,281926,1,0,0:0:0:0:
107,215,282001,1,0,0:0:0:0:
304,208,282076,6,0,L|360:208,1,50
354,208,282226,2,0,L|304:208,1,50
128,208,282376,6,0,L|64:208,1,50
280,184,282526,2,0,L|344:184,1,50
64,224,282676,5,0,0:0:0:0:
53,175,282751,1,0,0:0:0:0:
68,128,282826,1,0,0:0:0:0:
104,94,282901,1,0,0:0:0:0:
256,80,282976,2,0,L|344:80,1,50
480,88,283126,2,0,L|480:144,1,50
280,152,283276,6,0,L|216:152,1,50
24,160,283426,2,0,L|24:224,1,50
272,208,283576,2,0,L|336:208,1,50
80,216,283726,2,0,L|24:216,1,50
360,216,283876,5,0,0:0:0:0:
361,166,283951,1,0,0:0:0:0:
338,123,284026,1,0,0:0:0:0:
295,97,284101,1,0,0:0:0:0:
104,96,284176,2,0,L|160:96,1,50
432,104,284326,2,0,L|432:168,1,50
128,128,284476,6,0,L|64:128,1,50
328,128,284626,2,0,L|384:128,1,50
78,128,284776,2,0,L|24:128,1,50
392,136,284926,2,0,L|456:136,1,50
96,288,285076,6,0,P|64:240|240:64,1,366.666666666667
416,64,286276,6,0,P|416:128|176:240,1,366.666666666667
432,240,287476,6,0,P|368:240|112:80,1,366.666666666667
409,310,288676,6,0,L|420:119,1,187.5
272,112,289876,6,0,L|268:31,1,80
256,192,291151,12,0,302176,0:0:0:0:
