osu file format v14

[General]
AudioFilename: audio.mp3
AudioLeadIn: 0
PreviewTime: 27625
Countdown: 0
SampleSet: Soft
StackLeniency: 0.4
Mode: 0
LetterboxInBreaks: 0
WidescreenStoryboard: 1

[Editor]
Bookmarks: 28188,66700,96888
DistanceSpacing: 1.25
BeatDivisor: 4
GridSize: 8
TimelineZoom: 3.199999

[Metadata]
Title:Hatsune Miku no Gekishou
TitleUnicode:初音ミクの激唱
Artist:cosMo@bousouP
ArtistUnicode:cosMo@暴走P
Creator:[Karcher]
Version:Riana's Extreme
Source:初音ミク -Project DIVA- 2nd
Tags:Ƒ Arcade extend X Future Tone The Intense Singing of Hatsune Miku Vocaloid Synthesizer SEGA InfinitY Happy End extend Complete Collection NONSTOP MIX akane-_ akane narrative riana video game jpop j-pop pop japanese
BeatmapID:3009885
BeatmapSetID:1370608

[Difficulty]
HPDrainRate:6
CircleSize:3.5
OverallDifficulty:9
ApproachRate:9.4
SliderMultiplier:1.92
SliderTickRate:1

[Events]
//Background and Video events
0,0,"lv.png",0,0
//Break Periods
2,46900,52510
//Storyboard Layer 0 (Background)
//Storyboard Layer 1 (Fail)
//Storyboard Layer 2 (Pass)
//Storyboard Layer 3 (Foreground)
//Storyboard Layer 4 (Overlay)
//Storyboard Sound Samples

[TimingPoints]
2500,300,4,2,1,35,1,0
10900,-100,4,2,1,50,0,0
12100,-133.333333333333,4,2,1,40,0,0
21700,300,3,2,1,60,1,1
21700,-133.333333333333,3,2,1,60,0,1
25300,300,4,2,1,50,1,0
25300,-400,4,2,1,50,0,0
26500,-200,4,2,1,50,0,0
27700,-166.666666666667,4,2,2,40,0,0
37300,-133.333333333333,4,2,3,50,0,0
46900,300,6,2,2,30,1,0
54100,300,3,2,2,45,1,0
54100,-111.111111111111,3,2,2,45,0,0
61300,300,4,2,1,55,1,0
62950,-200,4,2,1,55,0,0
63550,-133.333333333333,4,2,1,55,0,0
63700,-133.333333333333,4,2,4,30,0,0
73300,-133.333333333333,4,2,1,50,0,0
75700,-133.333333333333,4,2,1,55,0,0
78025,-200,4,2,1,55,0,0
78100,-200,4,2,1,60,0,0
80500,-200,4,2,3,70,0,0
81700,-200,4,2,1,60,0,0
82900,-100,4,2,2,70,0,1
87700,300,7,2,1,55,1,0
87700,-100,7,2,1,55,0,0
91900,300,3,2,2,70,1,1
91900,-100,3,2,2,70,0,1
96400,300,4,2,1,60,1,0
96400,-100,4,2,1,60,0,0
97000,-200,4,2,1,60,0,0
100000,-200,4,2,1,70,0,0
100150,-100,4,2,1,70,0,0
101200,-100,4,2,1,75,0,0
101725,-200,4,2,1,75,0,0
101800,-200,4,2,1,80,0,0
102100,-100,4,2,1,80,0,0
102400,-100,4,2,2,70,0,1
112000,-100,4,2,2,70,0,1
121600,-100,4,2,2,60,0,0
128800,-100,4,2,2,70,0,0
130000,-100,4,2,1,80,0,0
131200,-100,4,2,2,70,0,0
136000,-100,4,2,2,70,0,0
138400,-100,4,2,2,70,0,1
143200,-100,4,2,2,70,0,0
143275,-100,4,2,1,70,0,0
152350,-400,4,2,1,40,0,0
153850,-400,4,2,1,30,0,0
155050,-400,4,2,1,20,0,0
156250,-400,4,2,1,15,0,0
157450,-400,4,2,1,10,0,0
158800,-400,4,2,1,5,0,0

[Colours]
Combo1 : 255,255,136
Combo2 : 128,255,255
Combo3 : 0,236,236
Combo4 : 132,255,193

[HitObjects]
115,53,11200,6,0,L|135:159,1,96,2|2,0:0|0:0,0:0:0:0:
285,366,11500,1,2,0:0:0:0:
403,141,11650,1,2,0:0:0:0:
152,233,11800,1,2,0:0:0:0:
377,280,11950,1,2,0:0:0:0:
436,7,12100,5,6,0:1:0:0:
256,192,12175,12,0,13000,0:0:0:0:
256,192,13300,5,2,0:1:0:0:
256,192,13375,12,0,14200,0:0:0:0:
113,100,14500,5,2,0:1:0:0:
256,192,14575,12,0,15400,0:0:0:0:
401,117,15700,6,0,L|415:268,1,144.000005493164,2|0,0:1|0:0,0:0:0:0:
158,336,16300,1,2,0:0:0:0:
401,117,16600,1,2,0:0:0:0:
235,28,16900,5,2,0:1:0:0:
256,192,16975,12,0,17800,0:0:0:0:
367,320,18100,5,2,0:1:0:0:
256,192,18175,12,0,19000,0:0:0:0:
108,196,19300,5,2,0:1:0:0:
256,192,19375,12,0,20200,0:0:0:0:
99,181,20500,6,0,L|254:195,1,144.000005493164,2|0,0:1|0:0,0:0:0:0:
451,84,21100,1,2,0:1:0:0:
295,296,21250,1,0,0:0:0:0:
451,84,21400,1,0,0:0:0:0:
65,19,21700,6,0,L|81:115,1,72.0000027465821,6|2,0:1|0:0,0:0:0:0:
48,240,22000,1,2,0:0:0:0:
173,342,22150,21,2,0:0:0:0:
137,161,22300,1,2,0:0:0:0:
173,342,22450,1,2,0:0:0:0:
246,52,22600,6,0,L|262:148,1,72.0000027465821,6|2,0:1|0:0,0:0:0:0:
203,245,22900,1,2,0:0:0:0:
368,360,23050,21,2,0:0:0:0:
332,179,23200,1,2,0:0:0:0:
368,360,23350,1,2,0:0:0:0:
493,223,23500,5,6,0:1:0:0:
297,267,23650,1,2,0:0:0:0:
151,150,23800,1,2,0:0:0:0:
385,33,23950,5,2,0:0:0:0:
248,180,24100,1,2,0:0:0:0:
277,365,24250,1,2,0:0:0:0:
0,221,24400,5,6,0:1:0:0:
196,265,24550,1,2,0:0:0:0:
342,148,24700,1,2,0:0:0:0:
108,31,24850,5,2,0:0:0:0:
245,178,25000,1,2,0:0:0:0:
216,363,25150,1,2,0:0:0:0:
486,229,25300,6,0,P|497:174|492:149,1,72,6|2,0:1|0:0,0:0:0:0:
411,110,25825,1,2,0:0:0:0:
392,142,25900,1,2,0:0:0:0:
362,164,25975,1,2,0:0:0:0:
325,174,26050,1,2,0:0:0:0:
289,168,26125,1,2,0:0:0:0:
257,147,26200,1,2,0:0:0:0:
323,79,26350,1,2,0:0:0:0:
200,7,26500,6,0,P|139:75|141:126,1,144,6|0,0:1|0:0,0:0:0:0:
147,308,27100,5,2,0:0:0:0:
0,245,27250,1,0,0:0:0:0:
147,308,27400,1,0,0:0:0:0:
404,360,27700,6,0,P|339:296|243:317,1,172.799994726563,6|0,0:0|0:0,0:0:0:0:
343,180,28300,2,0,P|368:130|439:88,1,115.199996484375,2|0,0:0|0:0,0:0:0:0:
512,78,28750,1,2,0:0:0:0:
244,123,29050,5,2,0:0:0:0:
154,97,29200,1,2,0:0:0:0:
127,187,29350,1,2,0:0:0:0:
218,215,29500,1,2,0:0:0:0:
16,248,30100,6,0,P|80:183|59:87,1,172.799994726563,2|0,0:0|0:0,0:0:0:0:
187,207,30700,2,0,P|236:232|279:303,1,115.199996484375,2|0,0:0|0:0,0:0:0:0:
266,375,31150,1,2,0:0:0:0:
431,305,31450,5,2,0:0:0:0:
436,214,31600,1,2,0:0:0:0:
442,122,31750,1,2,0:0:0:0:
450,33,31900,5,2,0:0:0:0:
190,70,32200,1,2,0:0:0:0:
79,219,32500,2,0,L|96:355,1,115.199996484375,2|0,0:0|0:0,0:0:0:0:
219,281,33100,2,0,L|315:289,2,86.3999973632813,2|2|2,0:0|0:0|0:0,0:0:0:0:
182,187,33700,6,0,P|254:164|279:117,1,115.199996484375,2|0,0:0|0:0,0:0:0:0:
450,142,34300,2,0,P|394:91|340:92,1,115.199996484375,2|0,0:0|0:0,0:0:0:0:
345,243,34900,6,0,L|332:380,1,115.199996484375,6|0,0:0|0:0,0:0:0:0:
254,233,35350,1,2,0:0:0:0:
254,233,35425,1,2,0:0:0:0:
254,233,35500,2,0,L|241:370,1,115.199996484375,6|0,0:0|0:0,0:0:0:0:
162,224,35950,1,2,0:0:0:0:
162,224,36025,1,2,0:0:0:0:
162,224,36100,2,0,L|149:361,1,115.199996484375,6|0,0:0|0:0,0:0:0:0:
47,265,36550,5,2,0:0:0:0:
47,265,36625,1,2,0:0:0:0:
47,265,36700,1,6,0:0:0:0:
224,80,37000,1,2,0:0:0:0:
341,297,37300,6,0,P|274:222|220:235,1,144.000005493164,6|2,0:0|0:0,0:0:0:0:
64,328,37750,1,0,0:0:0:0:
64,328,37900,2,0,L|46:163,1,144.000005493164,2|0,0:0|0:0,0:0:0:0:
123,105,38350,1,2,0:0:0:0:
404,250,38650,5,2,0:0:0:0:
481,315,38800,1,2,0:0:0:0:
457,177,38950,1,2,0:0:0:0:
433,37,39100,1,2,0:0:0:0:
433,37,39400,1,2,0:0:0:0:
112,308,39700,6,0,P|158:264|252:263,1,144.000005493164,2|2,0:0|0:2,0:3:0:0:
289,369,40150,1,0,0:0:0:0:
289,369,40300,2,0,L|440:348,1,144.000005493164,2|2,0:0|0:0,0:0:0:0:
496,279,40750,1,2,0:0:0:0:
493,33,41050,5,2,0:0:0:0:
343,156,41200,1,2,0:0:0:0:
181,57,41350,1,2,0:0:0:0:
469,174,41500,5,2,0:0:0:0:
215,335,41800,1,2,0:0:0:0:
25,146,42100,2,0,L|3:-17,1,144.000005493164,6|2,0:0|0:0,0:0:0:0:
174,167,42700,2,0,L|213:30,2,108.000004119873,2|2|2,0:0|0:0|0:0,0:0:0:0:
429,64,43300,6,0,P|339:88|314:135,1,144.000005493164,2|2,0:0|0:0,0:0:0:0:
315,127,43750,1,0,0:0:0:0:
62,242,43900,2,0,P|118:293|187:294,1,144.000005493164,2|2,0:0|0:0,0:0:0:0:
313,330,44500,6,0,L|465:315,1,144.000005493164,2|2,0:0|0:0,0:0:0:0:
303,239,44950,1,2,0:0:0:0:
303,239,45025,1,2,0:0:0:0:
303,239,45100,2,0,L|454:223,1,144.000005493164,2|2,0:0|0:0,0:0:0:0:
294,147,45550,1,2,0:0:0:0:
294,147,45625,1,2,0:0:0:0:
294,147,45700,2,0,L|448:130,1,144.000005493164,2|2,0:0|0:0,0:0:0:0:
492,59,46150,5,2,0:0:0:0:
435,248,46300,1,2,0:0:0:0:
127,97,46600,1,2,0:0:0:0:
129,109,53050,5,2,0:0:0:0:
129,109,53200,5,2,0:0:0:0:
362,145,53350,1,2,0:0:0:0:
321,218,53500,5,2,0:0:0:0:
163,256,53650,1,2,0:0:0:0:
186,341,53800,5,2,0:0:0:0:
296,368,53950,1,2,0:0:0:0:
408,383,54100,6,0,L|382:195,2,172.799994726563,6|2|2,0:0|0:0|0:0,0:0:0:0:
250,180,55000,1,2,0:0:0:0:
18,209,55300,1,2,0:0:0:0:
459,136,55600,1,2,0:0:0:0:
303,351,55900,6,0,P|224:271|151:290,1,172.799994726563,2|2,0:0|0:0,0:0:0:0:
95,185,56500,2,0,L|83:89,1,57.5999982421876,2|0,0:0|0:0,0:0:0:0:
194,179,56700,1,2,0:0:0:0:
194,179,56800,2,0,L|172:-15,1,172.799994726563,2|0,0:0|0:0,0:0:0:0:
345,185,57400,6,0,L|332:291,1,57.5999982421876,2|0,0:0|0:0,0:0:0:0:
444,191,57600,1,2,0:0:0:0:
444,191,57700,2,0,L|422:385,1,172.799994726563,2|2,0:0|0:0,0:0:0:0:
210,282,58300,1,2,0:0:0:0:
0,197,58600,6,0,P|88:150|183:156,2,172.799994726563,2|2|2,0:0|0:0|0:0,0:0:0:0:
484,360,59500,5,2,0:0:0:0:
310,115,59800,1,2,0:0:0:0:
416,36,60100,5,2,0:0:0:0:
311,320,60400,1,2,0:0:0:0:
104,150,60700,6,0,P|192:197|287:191,1,172.799994726563,10|10,0:0|0:0,0:0:0:0:
119,333,61300,5,6,3:2:0:0:
89,308,61375,1,0,3:0:0:0:
78,272,61450,1,0,3:2:0:0:
89,235,61525,1,0,3:0:0:0:
119,211,61600,1,8,0:0:0:0:
156,206,61675,1,0,3:0:0:0:
190,223,61750,1,0,3:0:0:0:
209,256,61825,1,0,3:0:0:0:
207,293,61900,1,0,3:2:0:0:
179,269,61975,1,0,3:0:0:0:
169,233,62050,1,0,3:2:0:0:
179,197,62125,1,0,3:2:0:0:
209,173,62200,1,8,3:2:0:0:
247,168,62275,1,0,3:0:0:0:
280,185,62350,1,0,3:2:0:0:
299,217,62425,1,0,3:0:0:0:
301,254,62500,1,0,3:2:0:0:
264,247,62575,1,0,3:0:0:0:
237,221,62650,1,0,3:0:0:0:
228,184,62725,1,0,3:0:0:0:
242,149,62800,1,8,0:0:0:0:
271,125,62875,1,8,0:0:0:0:
309,123,62950,1,8,0:0:0:0:
343,142,63025,1,0,3:0:0:0:
360,178,63100,5,10,0:0:0:0:
130,55,63400,1,8,0:3:0:0:
280,26,63550,1,4,0:3:0:0:
280,26,63700,6,0,L|443:46,1,144.000005493164,2|0,3:2|3:0,0:0:0:0:
512,130,64300,2,0,L|349:150,1,144.000005493164
218,130,64900,5,2,0:0:0:0:
137,172,65200,1,0,3:0:0:0:
99,251,65500,1,0,0:0:0:0:
138,327,65800,1,2,0:0:0:0:
227,328,65950,5,2,3:2:0:0:
300,383,66100,6,0,P|314:316|375:247,1,144.000005493164,2|0,0:0|3:0,0:0:0:0:
375,123,66700,2,0,P|420:173|508:202,1,144.000005493164
375,123,67300,5,2,0:0:0:0:
333,204,67600,1,0,3:0:0:0:
254,242,67900,1,0,0:0:0:0:
178,203,68200,1,2,0:0:0:0:
229,133,68350,5,2,3:2:0:0:
312,111,68500,6,0,L|332:274,1,144.000005493164,2|0,0:0|3:0,0:0:0:0:
419,292,69100,2,0,L|439:129,1,144.000005493164
332,203,69700,5,2,0:0:0:0:
304,117,70000,1,0,3:0:0:0:
225,79,70300,1,0,0:0:0:0:
149,118,70600,1,2,3:2:0:0:
143,203,70750,5,2,3:2:0:0:
68,251,70900,6,0,P|134:265|203:326,1,144.000005493164,2|0,0:0|3:0,0:0:0:0:
368,266,71500,2,0,P|317:311|288:399,1,144.000005493164
368,266,72100,5,2,0:0:0:0:
449,224,72400,1,0,3:0:0:0:
468,137,72700,1,2,0:0:0:0:
422,58,73000,2,0,L|337:50,1,72.0000027465821,2|2,0:0|0:0,0:0:0:0:
84,96,73300,5,6,0:1:0:0:
211,139,73600,1,4,0:3:0:0:
169,59,73900,1,0,3:0:0:0:
128,182,74200,1,4,0:3:0:0:
408,255,74500,5,2,3:1:0:0:
314,270,74800,1,4,0:3:0:0:
221,289,75100,1,0,3:0:0:0:
136,315,75400,1,6,0:3:0:0:
322,359,75550,5,6,0:3:0:0:
136,315,75700,5,2,3:1:0:0:
189,194,76000,1,4,0:3:0:0:
268,297,76300,1,0,3:0:0:0:
136,315,76600,1,4,0:3:0:0:
170,321,76900,5,2,3:1:0:0:
147,122,77200,1,8,0:3:0:0:
327,197,77500,1,8,0:3:0:0:
170,321,77800,1,2,0:0:0:0:
0,237,77950,5,2,0:0:0:0:
170,321,78100,5,6,3:1:0:0:
330,303,78400,1,8,0:0:0:0:
173,195,78700,1,8,0:0:0:0:
307,215,79000,1,8,0:0:0:0:
131,17,79300,5,10,0:1:0:0:
367,2,79600,1,8,0:0:0:0:
158,103,79900,1,8,0:0:0:0:
329,134,80200,1,6,0:3:0:0:
508,170,80350,5,6,0:3:0:0:
329,134,80500,5,14,0:1:0:0:
291,302,80650,1,2,3:2:0:0:
214,97,80800,5,10,0:0:0:0:
208,343,80950,1,2,3:2:0:0:
122,129,81100,5,10,0:0:0:0:
98,311,81250,1,2,3:2:0:0:
0,105,81400,5,10,0:0:0:0:
24,366,81550,1,2,3:2:0:0:
225,202,81700,5,14,0:1:0:0:
429,306,82000,5,8,0:3:0:0:
195,361,82150,1,4,0:3:0:0:
429,306,82300,1,4,0:3:0:0:
34,76,82900,5,6,3:2:0:0:
71,138,83000,1,2,0:0:0:0:
141,141,83100,1,2,0:0:0:0:
194,94,83200,2,0,L|200:31,2,64,10|2|2,0:0|0:0|0:0,0:0:0:0:
254,160,83500,5,2,3:2:0:0:
217,224,83600,1,2,0:0:0:0:
150,246,83700,1,2,0:0:0:0:
84,221,83800,2,0,L|76:156,2,64,10|2|2,0:0|0:0|0:0,0:0:0:0:
184,104,84100,5,2,3:2:0:0:
202,91,84200,1,2,0:0:0:0:
221,78,84300,1,2,0:0:0:0:
242,64,84400,2,0,L|246:-1,2,64,2|2|2,3:2|0:0|0:0,0:0:0:0:
310,124,84700,5,10,0:0:0:0:
328,137,84800,1,2,0:0:0:0:
347,150,84900,1,2,0:0:0:0:
368,164,85000,2,0,L|373:229,2,64,10|2|2,0:0|0:0|0:0,0:0:0:0:
274,219,85300,5,6,3:2:0:0:
212,256,85400,1,2,0:0:0:0:
209,326,85500,1,2,0:0:0:0:
256,379,85600,2,0,L|320:384,2,64,10|2|2,0:0|0:0|0:0,0:0:0:0:
129,291,85900,5,6,3:2:0:0:
65,254,86000,1,2,0:0:0:0:
43,187,86100,1,2,0:0:0:0:
68,121,86200,2,0,L|132:114,2,64,10|2|2,0:0|0:0|0:0,0:0:0:0:
192,195,86500,5,6,3:2:0:0:
205,213,86600,1,2,0:0:0:0:
218,232,86700,1,2,0:0:0:0:
232,253,86800,2,0,L|296:259,2,64,10|2|2,0:0|0:0|0:0,0:0:0:0:
116,255,87100,5,14,0:0:0:0:
103,273,87200,1,10,0:3:0:0:
90,292,87300,1,10,0:3:0:0:
76,313,87400,2,0,L|13:318,2,64,10|6|6,0:3|0:3|0:3,0:0:0:0:
117,169,87700,6,0,L|107:74,1,96,6|0,3:2|0:0,0:0:0:0:
208,245,88000,1,2,0:0:0:0:
397,271,88300,6,0,L|408:176,1,96,10|0,0:0|0:0,0:0:0:0:
306,357,88600,1,10,0:3:0:0:
394,83,88900,5,2,3:2:0:0:
151,349,89200,1,10,0:0:0:0:
109,140,89350,1,2,0:0:0:0:
151,349,89500,1,2,3:2:0:0:
436,278,89800,5,10,0:0:0:0:
36,259,90100,2,0,L|238:219,2,192,2|10|10,3:2|0:0|0:0,0:0:0:0:
468,163,91000,5,2,3:2:0:0:
376,348,91150,1,2,0:0:0:0:
237,137,91300,5,10,0:0:0:0:
256,337,91450,1,2,0:0:0:0:
35,226,91600,5,2,3:2:0:0:
132,384,91750,1,10,0:0:0:0:
6,144,91900,5,6,3:2:0:0:
37,80,92000,1,2,0:0:0:0:
102,53,92100,1,2,0:0:0:0:
169,73,92200,1,10,0:0:0:0:
207,133,92300,1,2,0:0:0:0:
197,203,92400,1,2,0:0:0:0:
150,255,92500,5,10,0:0:0:0:
185,325,92600,1,2,0:0:0:0:
257,356,92700,1,2,0:0:0:0:
332,333,92800,1,2,3:2:0:0:
374,267,92900,1,2,0:0:0:0:
363,189,93000,1,2,0:0:0:0:
296,146,93100,5,2,3:2:0:0:
339,218,93200,1,2,0:0:0:0:
424,234,93300,1,2,0:0:0:0:
492,182,93400,1,10,0:0:0:0:
499,97,93500,1,2,0:0:0:0:
440,34,93600,1,2,0:0:0:0:
354,41,93700,5,2,3:2:0:0:
310,71,93800,2,0,L|288:186,1,64,2|2,0:0|0:0,0:0:0:0:
189,155,94000,5,6,3:2:0:0:
212,235,94100,2,0,L|300:311,1,64,2|2,0:0|0:0,0:0:0:0:
200,354,94300,5,2,3:2:0:0:
296,373,94400,2,0,L|406:334,1,64,2|2,0:0|0:0,0:0:0:0:
431,283,94600,5,10,0:0:0:0:
348,257,94700,1,2,0:0:0:0:
311,180,94800,1,2,0:0:0:0:
344,100,94900,1,2,3:2:0:0:
426,73,95000,1,2,0:0:0:0:
499,114,95100,1,2,0:0:0:0:
512,195,95200,5,6,3:2:0:0:
449,243,95300,1,2,0:0:0:0:
371,240,95400,1,2,0:0:0:0:
314,186,95500,1,14,0:0:0:0:
305,108,95600,1,2,0:0:0:0:
348,43,95700,1,2,0:0:0:0:
398,90,95800,5,6,3:2:0:0:
407,159,95900,1,2,0:0:0:0:
369,219,96000,1,2,0:0:0:0:
302,240,96100,1,14,0:0:0:0:
236,212,96200,1,10,0:3:0:0:
206,149,96300,1,6,0:3:0:0:
229,86,96400,6,0,B|223:183,1,96,6|0,3:2|3:0,0:0:0:0:
154,251,96625,1,0,3:2:0:0:
154,251,96700,1,8,0:0:0:0:
442,212,97000,1,2,3:2:0:0:
269,311,97150,1,0,3:2:0:0:
269,311,97225,1,2,3:2:0:0:
269,311,97300,1,8,0:0:0:0:
442,212,97450,1,2,3:2:0:0:
503,282,97600,5,6,3:2:0:0:
231,124,97750,1,0,3:2:0:0:
104,379,97900,1,10,0:0:0:0:
331,219,98050,1,0,3:2:0:0:
99,5,98200,5,6,3:2:0:0:
236,254,98350,1,0,3:2:0:0:
474,77,98500,1,10,0:0:0:0:
373,370,98800,5,6,3:2:0:0:
253,166,98950,1,0,3:2:0:0:
474,77,99100,1,10,0:0:0:0:
307,309,99250,1,0,3:2:0:0:
115,106,99400,5,6,0:0:0:0:
406,204,99550,1,0,3:2:0:0:
70,356,99700,1,10,0:0:0:0:
227,132,99850,1,0,3:2:0:0:
492,225,100000,5,14,0:0:0:0:
66,131,100300,1,8,0:0:0:0:
277,88,100600,5,8,0:0:0:0:
233,308,100750,1,0,3:2:0:0:
277,88,100900,1,8,0:0:0:0:
233,308,101050,1,0,3:2:0:0:
319,178,101200,5,14,0:0:0:0:
285,173,101275,1,0,3:0:0:0:
251,177,101350,1,8,0:0:0:0:
218,188,101425,1,0,3:0:0:0:
190,207,101500,1,8,0:0:0:0:
167,232,101575,1,0,3:0:0:0:
150,262,101650,1,8,0:0:0:0:
141,295,101725,1,0,3:0:0:0:
143,326,101800,6,0,P|210:323|246:295,1,96,14|8,0:0|0:0,0:0:0:0:
152,159,102400,5,6,3:2:0:0:
167,127,102475,1,2,0:0:0:0:
194,105,102550,1,2,0:0:0:0:
228,97,102625,1,2,0:0:0:0:
262,103,102700,1,10,0:0:0:0:
291,122,102775,1,2,0:0:0:0:
310,150,102850,1,2,0:0:0:0:
330,179,102925,1,2,0:0:0:0:
362,193,103000,1,2,3:2:0:0:
396,190,103075,1,2,0:0:0:0:
424,171,103150,1,2,3:2:0:0:
440,141,103225,1,2,0:0:0:0:
439,105,103300,1,10,0:0:0:0:
421,77,103375,1,2,0:0:0:0:
392,60,103450,1,2,3:2:0:0:
356,60,103525,1,2,0:0:0:0:
323,78,103600,1,2,3:2:0:0:
292,93,103675,1,2,0:0:0:0:
258,87,103750,1,2,3:2:0:0:
230,68,103825,1,2,0:0:0:0:
197,57,103900,1,10,0:0:0:0:
164,67,103975,1,2,0:0:0:0:
142,93,104050,1,2,0:0:0:0:
136,126,104125,1,2,0:0:0:0:
152,159,104200,1,2,3:2:0:0:
179,177,104275,1,2,0:0:0:0:
214,179,104350,1,2,3:2:0:0:
243,162,104425,1,2,0:0:0:0:
259,132,104500,1,10,0:0:0:0:
266,97,104575,1,2,0:0:0:0:
287,70,104650,1,2,0:0:0:0:
319,59,104725,1,2,0:0:0:0:
352,64,104800,5,6,3:2:0:0:
345,97,104875,1,2,0:0:0:0:
323,124,104950,1,2,3:2:0:0:
291,136,105025,1,2,0:0:0:0:
258,129,105100,1,10,0:0:0:0:
232,107,105175,1,2,0:0:0:0:
200,91,105250,1,2,3:2:0:0:
166,90,105325,1,2,0:0:0:0:
134,105,105400,1,2,3:2:0:0:
112,132,105475,1,2,0:0:0:0:
104,165,105550,1,2,3:2:0:0:
112,199,105625,1,2,0:0:0:0:
134,226,105700,1,10,0:0:0:0:
165,240,105775,1,2,0:0:0:0:
199,240,105850,1,2,0:0:0:0:
230,225,105925,1,2,0:0:0:0:
266,187,106000,5,14,0:1:0:0:
312,165,106075,1,2,3:2:0:0:
365,165,106150,1,2,3:2:0:0:
410,187,106225,1,2,3:2:0:0:
439,230,106300,5,14,0:1:0:0:
433,205,106375,1,2,3:2:0:0:
438,177,106450,1,2,3:2:0:0:
454,157,106525,1,2,3:2:0:0:
410,187,106600,5,14,0:1:0:0:
388,238,106675,1,2,3:2:0:0:
407,288,106750,1,2,3:2:0:0:
454,316,106825,1,2,3:2:0:0:
436,295,106900,5,14,0:1:0:0:
407,288,106975,1,2,3:2:0:0:
383,301,107050,1,2,3:2:0:0:
367,319,107125,1,2,3:2:0:0:
310,334,107200,5,6,3:1:0:0:
272,325,107275,1,2,0:0:0:0:
244,298,107350,1,2,0:0:0:0:
232,262,107425,1,2,0:0:0:0:
239,225,107500,1,10,0:0:0:0:
263,196,107575,1,2,0:0:0:0:
285,166,107650,1,2,0:0:0:0:
290,127,107725,1,2,0:0:0:0:
275,93,107800,1,2,3:2:0:0:
244,70,107875,1,2,0:0:0:0:
207,66,107950,1,2,3:2:0:0:
172,81,108025,1,2,0:0:0:0:
151,111,108100,1,10,0:0:0:0:
145,150,108175,1,2,0:0:0:0:
161,183,108250,1,2,0:0:0:0:
192,206,108325,1,2,0:0:0:0:
231,214,108400,1,2,3:2:0:0:
266,203,108475,1,2,0:0:0:0:
303,197,108550,1,2,3:2:0:0:
338,212,108625,1,2,0:0:0:0:
359,242,108700,1,10,0:0:0:0:
364,280,108775,1,2,0:0:0:0:
346,313,108850,1,2,3:2:0:0:
314,334,108925,1,2,0:0:0:0:
276,334,109000,1,2,3:2:0:0:
244,316,109075,1,2,0:0:0:0:
225,283,109150,1,2,3:2:0:0:
225,244,109225,1,2,0:0:0:0:
244,210,109300,1,10,0:0:0:0:
279,192,109375,1,2,0:0:0:0:
295,158,109450,1,2,0:0:0:0:
294,118,109525,1,2,0:0:0:0:
263,92,109600,5,6,3:2:0:0:
271,128,109675,1,2,0:0:0:0:
295,158,109750,1,2,0:0:0:0:
331,167,109825,1,2,0:0:0:0:
367,153,109900,1,10,0:0:0:0:
404,157,109975,1,2,0:0:0:0:
438,176,110050,1,2,0:0:0:0:
462,204,110125,1,2,0:0:0:0:
470,241,110200,5,2,3:2:0:0:
431,241,110275,1,2,0:0:0:0:
397,226,110350,1,2,3:2:0:0:
370,197,110425,1,2,0:0:0:0:
358,161,110500,1,10,0:0:0:0:
360,123,110575,1,2,0:0:0:0:
379,89,110650,1,2,0:0:0:0:
408,65,110725,1,2,0:0:0:0:
446,66,110800,5,2,3:2:0:0:
414,87,110875,1,2,0:0:0:0:
379,89,110950,1,2,0:0:0:0:
342,78,111025,1,2,0:0:0:0:
303,74,111100,1,2,3:2:0:0:
270,93,111175,1,2,0:0:0:0:
252,126,111250,1,2,0:0:0:0:
258,165,111325,1,2,0:0:0:0:
286,190,111400,5,2,3:2:0:0:
258,163,111475,1,2,0:0:0:0:
223,152,111550,1,2,0:0:0:0:
185,160,111625,1,2,0:0:0:0:
156,184,111700,1,2,3:2:0:0:
142,219,111775,1,2,0:0:0:0:
143,256,111850,1,2,0:0:0:0:
165,289,111925,1,2,0:0:0:0:
165,332,112000,5,6,3:2:0:0:
165,289,112075,1,2,0:0:0:0:
149,251,112150,1,2,0:0:0:0:
117,227,112225,1,2,0:0:0:0:
96,192,112300,1,10,0:0:0:0:
93,150,112375,1,2,0:0:0:0:
110,113,112450,1,2,0:0:0:0:
143,95,112525,1,2,0:0:0:0:
185,95,112600,1,2,3:2:0:0:
222,113,112675,1,2,0:0:0:0:
245,147,112750,1,2,3:2:0:0:
244,187,112825,1,2,0:0:0:0:
266,223,112900,1,10,0:0:0:0:
305,240,112975,1,2,0:0:0:0:
343,223,113050,1,2,0:0:0:0:
358,185,113125,1,2,0:0:0:0:
343,147,113200,1,2,3:2:0:0:
305,130,113275,1,2,0:0:0:0:
266,147,113350,1,2,3:2:0:0:
250,185,113425,1,2,0:0:0:0:
234,223,113500,1,10,0:0:0:0:
195,240,113575,1,2,0:0:0:0:
157,223,113650,1,2,3:2:0:0:
141,185,113725,1,2,0:0:0:0:
157,147,113800,1,2,3:2:0:0:
195,130,113875,1,2,0:0:0:0:
234,147,113950,1,2,3:2:0:0:
263,176,114025,1,2,0:0:0:0:
301,192,114100,1,10,0:0:0:0:
343,195,114175,1,2,0:0:0:0:
383,187,114250,1,2,0:0:0:0:
414,159,114325,1,2,0:0:0:0:
419,118,114400,5,6,3:2:0:0:
374,132,114475,1,2,0:0:0:0:
342,167,114550,1,2,3:2:0:0:
326,211,114625,1,2,0:0:0:0:
336,255,114700,1,10,0:0:0:0:
323,300,114775,1,2,0:0:0:0:
285,325,114850,1,2,3:2:0:0:
239,321,114925,1,2,0:0:0:0:
205,289,115000,1,2,3:2:0:0:
200,244,115075,1,2,0:0:0:0:
225,204,115150,1,2,3:2:0:0:
268,194,115225,1,2,0:0:0:0:
311,209,115300,1,10,0:0:0:0:
356,212,115375,1,2,0:0:0:0:
392,185,115450,1,2,0:0:0:0:
401,140,115525,1,2,0:0:0:0:
365,88,115600,5,14,0:1:0:0:
305,87,115675,1,2,3:2:0:0:
259,125,115750,1,2,3:2:0:0:
259,186,115825,1,2,3:2:0:0:
301,230,115900,5,14,0:1:0:0:
285,203,115975,1,2,3:2:0:0:
259,186,116050,1,2,3:2:0:0:
228,182,116125,1,2,3:2:0:0:
240,243,116200,5,14,0:1:0:0:
220,299,116275,1,2,3:2:0:0:
160,316,116350,1,2,3:2:0:0:
101,302,116425,1,2,3:2:0:0:
73,251,116500,5,14,0:1:0:0:
92,274,116575,1,2,3:2:0:0:
101,302,116650,1,2,3:2:0:0:
95,329,116725,1,2,3:2:0:0:
150,345,116800,5,6,3:1:0:0:
197,333,116875,1,2,0:0:0:0:
236,301,116950,1,2,0:0:0:0:
255,254,117025,1,2,0:0:0:0:
249,205,117100,1,10,0:0:0:0:
222,164,117175,1,2,0:0:0:0:
219,113,117250,1,2,0:0:0:0:
252,73,117325,1,2,0:0:0:0:
302,68,117400,1,2,3:2:0:0:
345,96,117475,1,2,0:0:0:0:
360,143,117550,1,2,3:2:0:0:
333,187,117625,1,2,0:0:0:0:
328,237,117700,1,10,0:0:0:0:
343,286,117775,1,2,0:0:0:0:
320,331,117850,1,2,0:0:0:0:
270,339,117925,1,2,0:0:0:0:
227,315,118000,1,2,3:2:0:0:
214,266,118075,1,2,0:0:0:0:
235,220,118150,1,2,3:2:0:0:
229,170,118225,1,2,0:0:0:0:
196,132,118300,1,10,0:0:0:0:
144,124,118375,1,2,0:0:0:0:
98,148,118450,1,2,3:2:0:0:
73,189,118525,1,2,0:0:0:0:
77,239,118600,1,2,3:2:0:0:
106,279,118675,1,2,0:0:0:0:
154,294,118750,1,2,3:2:0:0:
202,275,118825,1,2,0:0:0:0:
242,248,118900,1,10,0:0:0:0:
291,232,118975,1,2,0:0:0:0:
341,231,119050,1,2,0:0:0:0:
390,244,119125,1,2,0:0:0:0:
424,281,119200,5,6,3:2:0:0:
373,266,119275,1,2,0:0:0:0:
332,230,119350,1,2,0:0:0:0:
313,179,119425,1,2,0:0:0:0:
321,127,119500,1,10,0:0:0:0:
293,81,119575,1,2,0:0:0:0:
241,71,119650,1,2,0:0:0:0:
196,101,119725,1,2,0:0:0:0:
196,155,119800,5,2,3:2:0:0:
149,123,119875,1,2,0:0:0:0:
96,125,119950,1,2,3:2:0:0:
53,156,120025,1,2,0:0:0:0:
36,205,120100,1,10,0:0:0:0:
47,258,120175,1,2,0:0:0:0:
86,292,120250,1,2,0:0:0:0:
140,300,120325,1,2,0:0:0:0:
186,271,120400,5,2,3:2:0:0:
142,240,120475,1,2,3:2:0:0:
132,188,120550,1,2,3:2:0:0:
160,144,120625,1,2,3:2:0:0:
212,132,120700,1,10,0:0:0:0:
256,164,120775,1,2,3:2:0:0:
309,165,120850,1,2,3:2:0:0:
353,132,120925,1,2,3:2:0:0:
349,78,121000,5,10,0:0:0:0:
295,69,121075,1,2,3:2:0:0:
249,96,121150,1,2,3:2:0:0:
223,141,121225,1,2,3:2:0:0:
230,195,121300,1,10,0:0:0:0:
266,235,121375,1,10,0:0:0:0:
317,248,121450,1,10,0:0:0:0:
366,228,121525,1,10,0:0:0:0:
410,186,121600,6,0,P|429:123|258:42,1,288,6|0,3:2|3:2,0:0:0:0:
92,60,122200,2,0,P|139:68|179:95,1,96,8|0,0:0|3:2,0:0:0:0:
332,220,122500,5,2,3:2:0:0:
116,344,122650,1,2,0:0:0:0:
332,220,122800,1,10,0:0:0:0:
495,384,122950,1,0,3:2:0:0:
473,352,123025,1,0,3:2:0:0:
441,328,123100,1,0,3:2:0:0:
403,316,123175,1,0,3:0:0:0:
363,317,123250,1,0,3:2:0:0:
326,331,123325,1,0,3:0:0:0:
295,357,123400,5,10,0:0:0:0:
449,155,123550,1,0,3:2:0:0:
127,261,123700,1,8,0:0:0:0:
120,228,123775,1,0,3:0:0:0:
113,197,123850,1,0,3:2:0:0:
106,166,123925,1,0,3:0:0:0:
96,132,124000,6,0,B|169:167|224:105|224:105|280:41|360:83,1,288,14|8,0:0|0:0,0:0:0:0:
352,205,124600,2,0,P|412:226|467:193,1,96,10|8,0:3|0:3,0:0:0:0:
355,80,124900,1,2,3:2:0:0:
167,13,125050,1,10,0:0:0:0:
355,80,125200,5,2,3:2:0:0:
172,271,125350,1,0,3:0:0:0:
172,271,125425,1,0,3:0:0:0:
172,271,125500,1,8,0:0:0:0:
339,238,125650,1,0,0:0:0:0:
250,192,125800,5,2,3:2:0:0:
348,332,125950,1,0,3:2:0:0:
419,167,126100,1,8,0:0:0:0:
188,321,126400,5,2,3:2:0:0:
47,347,126550,1,0,0:0:0:0:
327,286,126700,2,0,P|325:232|276:187,1,96,8|0,0:0|0:0,0:0:0:0:
61,49,127000,5,2,3:2:0:0:
40,244,127150,1,0,3:2:0:0:
218,163,127300,2,0,P|219:109|269:64,1,96,10|0,0:0|0:0,0:0:0:0:
356,12,127600,5,2,3:2:0:0:
405,273,127750,1,0,3:2:0:0:
405,273,127825,1,0,3:2:0:0:
405,273,127900,2,0,P|352:297|309:292,1,96,10|0,0:0|0:0,0:0:0:0:
93,326,128200,5,2,3:2:0:0:
70,305,128275,1,0,3:2:0:0:
58,272,128350,1,0,3:2:0:0:
63,233,128425,1,0,3:2:0:0:
87,200,128500,1,10,0:0:0:0:
125,181,128575,1,0,3:2:0:0:
153,150,128650,1,0,3:2:0:0:
166,105,128725,1,0,3:2:0:0:
150,57,128800,5,6,3:2:0:0:
226,232,129100,1,8,0:0:0:0:
309,0,129400,5,0,3:2:0:0:
298,177,129550,1,0,3:2:0:0:
145,75,129700,1,8,0:0:0:0:
309,0,129850,1,0,3:2:0:0:
145,75,130000,5,14,0:0:0:0:
298,177,130150,1,2,3:2:0:0:
310,209,130225,1,2,0:0:0:0:
311,244,130300,1,10,0:0:0:0:
302,277,130375,1,2,0:0:0:0:
284,305,130450,1,2,3:2:0:0:
258,328,130525,1,2,0:0:0:0:
226,328,130600,5,10,0:0:0:0:
201,305,130675,1,2,3:2:0:0:
171,290,130750,1,2,3:2:0:0:
137,284,130825,1,2,3:2:0:0:
103,289,130900,2,0,P|74:311|54:343,3,48,10|2|2|2,0:0|3:2|3:2|3:2,0:0:0:0:
47,212,131200,5,6,3:1:0:0:
49,155,131300,1,2,0:0:0:0:
0,181,131400,1,2,0:0:0:0:
47,212,131500,1,10,0:0:0:0:
144,113,131800,5,2,3:2:0:0:
190,92,131900,1,2,0:0:0:0:
149,61,132000,1,2,0:0:0:0:
144,113,132100,1,10,0:0:0:0:
267,145,132400,5,2,3:1:0:0:
311,177,132500,1,2,0:0:0:0:
315,124,132600,1,2,0:0:0:0:
267,145,132700,1,10,0:0:0:0:
399,186,133000,5,2,3:2:0:0:
397,243,133100,1,2,0:0:0:0:
447,217,133200,1,2,0:0:0:0:
399,186,133300,1,10,0:0:0:0:
41,128,133600,5,6,3:1:0:0:
99,80,133700,1,2,0:0:0:0:
176,73,133800,1,2,0:0:0:0:
244,110,133900,1,10,0:0:0:0:
280,180,134200,5,2,3:2:0:0:
244,110,134300,1,2,0:0:0:0:
176,73,134400,1,2,0:0:0:0:
99,80,134500,1,10,0:0:0:0:
408,134,134800,5,6,3:1:0:0:
420,208,134900,1,2,0:0:0:0:
388,278,135000,1,2,0:0:0:0:
322,318,135100,1,10,0:0:0:0:
243,314,135400,5,2,3:2:0:0:
322,318,135500,1,2,0:0:0:0:
388,278,135600,1,2,0:0:0:0:
420,208,135700,1,10,0:0:0:0:
155,118,136000,5,6,3:1:0:0:
191,109,136100,1,2,0:0:0:0:
226,102,136200,1,2,0:0:0:0:
373,139,136300,5,10,0:0:0:0:
338,146,136400,1,2,0:0:0:0:
302,155,136500,1,2,0:0:0:0:
275,249,136600,5,2,3:2:0:0:
235,263,136700,1,2,0:0:0:0:
195,277,136800,1,2,0:0:0:0:
44,242,136900,5,10,0:0:0:0:
84,228,137000,1,2,0:0:0:0:
124,214,137100,1,2,0:0:0:0:
170,133,137200,5,6,3:1:0:0:
246,160,137300,2,0,L|332:133,1,64,2|2,0:0|0:0,0:0:0:0:
345,30,137500,5,10,0:0:0:0:
421,8,137600,2,0,L|514:29,1,64,2|2,0:0|0:0,0:0:0:0:
505,110,137800,5,2,3:2:0:0:
439,176,137900,2,0,L|448:246,1,64,2|2,0:0|0:2,0:0:0:0:
254,70,138100,5,10,0:0:0:0:
320,136,138200,2,0,L|311:206,1,64,2|2,0:0|0:0,0:0:0:0:
289,319,138400,5,6,3:1:0:0:
329,355,138475,1,2,0:0:0:0:
380,368,138550,1,2,3:2:0:0:
433,355,138625,1,2,0:0:0:0:
471,317,138700,1,10,0:0:0:0:
487,267,138775,1,2,0:0:0:0:
474,215,138850,1,2,3:2:0:0:
439,176,138925,1,2,0:0:0:0:
388,158,139000,1,6,3:2:0:0:
338,174,139075,1,2,0:0:0:0:
292,197,139150,1,2,3:2:0:0:
238,194,139225,1,2,0:0:0:0:
193,167,139300,1,10,0:0:0:0:
165,122,139375,1,2,0:0:0:0:
142,74,139450,1,2,3:2:0:0:
99,43,139525,1,2,0:0:0:0:
51,50,139600,5,6,3:2:0:0:
72,103,139675,1,2,0:0:0:0:
122,130,139750,1,2,3:2:0:0:
179,123,139825,1,2,0:0:0:0:
223,86,139900,1,10,0:0:0:0:
270,53,139975,1,2,0:0:0:0:
327,49,140050,1,2,3:2:0:0:
376,78,140125,1,2,0:0:0:0:
403,128,140200,1,6,3:2:0:0:
402,185,140275,1,2,0:0:0:0:
364,228,140350,1,2,3:2:0:0:
307,239,140425,1,2,0:0:0:0:
259,205,140500,1,10,0:0:0:0:
204,223,140575,1,2,0:0:0:0:
162,263,140650,1,2,3:2:0:0:
156,320,140725,1,2,0:0:0:0:
187,372,140800,5,6,3:1:0:0:
232,327,140875,1,2,3:2:0:0:
237,266,140950,1,2,3:2:0:0:
202,216,141025,1,2,3:2:0:0:
144,201,141100,1,10,0:0:0:0:
87,226,141175,1,2,3:2:0:0:
63,282,141250,1,2,3:2:0:0:
79,341,141325,1,2,3:2:0:0:
136,365,141400,5,6,3:2:0:0:
198,364,141475,1,2,3:2:0:0:
246,324,141550,1,2,3:2:0:0:
259,262,141625,1,2,3:2:0:0:
247,198,141700,1,10,0:0:0:0:
263,135,141775,1,10,0:0:0:0:
320,106,141850,1,10,0:0:0:0:
382,123,141925,1,10,0:0:0:0:
419,175,142000,5,14,0:2:0:0:
356,157,142075,1,2,3:2:0:0:
324,96,142150,1,10,0:2:0:0:
262,76,142225,1,2,3:2:0:0:
204,108,142300,1,14,0:0:0:0:
194,173,142375,1,2,3:2:0:0:
146,219,142450,1,10,0:2:0:0:
82,215,142525,1,2,3:2:0:0:
33,168,142600,5,14,0:0:0:0:
33,100,142675,1,10,0:2:0:0:
84,54,142750,1,10,0:2:0:0:
154,57,142825,1,10,0:2:0:0:
203,105,142900,5,14,0:0:0:0:
228,176,142975,1,10,0:0:0:0:
297,210,143050,1,10,0:0:0:0:
371,197,143125,1,10,0:0:0:0:
415,135,143200,1,14,0:1:0:0:
256,192,143275,12,0,144100,0:0:0:0:
257,188,144400,5,2,0:0:0:0:
256,192,144475,12,0,145300,0:0:0:0:
257,188,145600,5,2,0:0:0:0:
256,192,145675,12,0,146500,0:0:0:0:
257,188,146800,5,2,0:0:0:0:
256,192,146875,12,0,147700,0:0:0:0:
257,188,148000,5,2,0:0:0:0:
256,192,148075,12,0,148900,0:0:0:0:
256,127,149200,5,2,0:0:0:0:
262,158,149300,1,2,0:0:0:0:
269,189,149400,1,2,0:0:0:0:
275,221,149500,1,2,0:0:0:0:
