osu file format v14

[General]
AudioFilename: audio.mp3
AudioLeadIn: 0
PreviewTime: 27625
Countdown: 0
SampleSet: Soft
StackLeniency: 0.3
Mode: 0
LetterboxInBreaks: 0
WidescreenStoryboard: 1

[Editor]
Bookmarks: 106900,143200
DistanceSpacing: 1.3
BeatDivisor: 4
GridSize: 16
TimelineZoom: 2.4

[Metadata]
Title:Hatsune Miku no Gekishou
TitleUnicode:初音ミクの激唱
Artist:cosMo@bousouP
ArtistUnicode:cosMo@暴走P
Creator:[Karcher]
Version:Narrative's Hard
Source:初音ミク -Project DIVA- 2nd
Tags:Ƒ Arcade extend X Future Tone The Intense Singing of Hatsune Miku Vocaloid Synthesizer SEGA InfinitY Happy End extend Complete Collection NONSTOP MIX akane-_ akane narrative riana video game jpop j-pop pop japanese
BeatmapID:3009893
BeatmapSetID:1370608

[Difficulty]
HPDrainRate:5
CircleSize:3.5
OverallDifficulty:6
ApproachRate:7.5
SliderMultiplier:1.4
SliderTickRate:1

[Events]
//Background and Video events
0,0,"lv.png",0,0
//Break Periods
2,63900,72475
//Storyboard Layer 0 (Background)
//Storyboard Layer 1 (Fail)
//Storyboard Layer 2 (Pass)
//Storyboard Layer 3 (Foreground)
//Storyboard Layer 4 (Overlay)
//Storyboard Sound Samples

[TimingPoints]
2500,300,4,2,1,35,1,0
2500,-111.111111111111,4,2,1,35,0,0
10900,-111.111111111111,4,2,1,50,0,0
12100,-111.111111111111,4,2,1,40,0,0
21700,300,3,2,1,60,1,0
24400,-117.647058823529,3,2,1,60,0,0
24850,-166.666666666667,3,2,1,60,0,0
25300,300,4,2,1,50,1,0
27700,-100,4,2,2,40,0,0
37300,-100,4,2,3,50,0,0
46900,300,6,2,2,30,1,0
46900,-125,6,2,2,30,0,0
54100,300,3,2,2,45,1,0
54100,-111.111111111111,3,2,2,45,0,0
61300,300,4,2,1,55,1,0
61300,-100,4,2,1,55,0,0
63700,-100,4,2,4,30,0,0
73300,-125,4,2,1,50,0,0
75700,-125,4,2,1,55,0,0
78100,-111.111111111111,4,2,1,60,0,0
80500,-100,4,2,3,70,0,0
81700,-100,4,2,1,60,0,0
82900,-90.9090909090909,4,2,2,70,0,1
87700,300,7,2,1,55,1,0
87700,-90.9090909090909,7,2,1,55,0,0
91900,300,3,2,2,70,1,1
91900,-90.9090909090909,3,2,2,70,0,1
96400,300,4,2,1,60,1,0
96400,-90.9090909090909,4,2,1,60,0,0
100000,-90.9090909090909,4,2,1,70,0,0
101200,-90.9090909090909,4,2,1,75,0,0
101800,-90.9090909090909,4,2,1,80,0,0
102400,-86.9565217391304,4,2,2,70,0,1
121600,-95.2380952380952,4,2,2,60,0,0
126325,-95.2380952380952,4,2,2,60,0,0
126400,-95.2380952380952,4,2,2,60,0,0
128800,-95.2380952380952,4,2,2,70,0,0
130000,-95.2380952380952,4,2,1,80,0,0
131200,-86.9565217391304,4,2,2,70,0,1
143200,-86.9565217391304,4,2,2,70,0,0
143275,-86.9565217391304,4,2,1,50,0,0
152350,-86.9565217391304,4,2,1,40,0,0
153850,-86.9565217391304,4,2,1,30,0,0
155050,-86.9565217391304,4,2,1,20,0,0
156250,-86.9565217391304,4,2,1,15,0,0
157450,-86.9565217391304,4,2,1,10,0,0
158800,-86.9565217391304,4,2,1,5,0,0

[Colours]
Combo1 : 237,158,223
Combo2 : 172,231,255

[HitObjects]
430,45,2500,6,0,L|445:195,1,125.999996154785,6|0,0:1|0:0,0:0:0:0:
303,257,3100,2,0,L|315:131,1,125.999996154785,2|0,0:0|0:0,0:0:0:0:
176,44,3700,6,0,P|114:36|61:67,1,125.999996154785,2|0,0:0|0:0,0:0:0:0:
105,224,4300,2,0,P|166:231|219:200,1,125.999996154785,2|0,0:0|0:0,0:0:0:0:
274,137,4750,1,2,0:0:0:0:
274,137,4825,1,2,0:0:0:0:
274,137,4900,6,0,B|243:175|243:175|257:269,1,125.999996154785,2|0,0:0|0:0,0:0:0:0:
385,347,5500,6,0,L|455:338,1,62.9999980773926,2|0,0:0|0:0,0:0:0:0:
497,274,5800,2,0,L|488:204,1,62.9999980773926,2|0,0:0|0:0,0:0:0:0:
422,162,6100,2,0,P|394:107|416:50,1,125.999996154785,2|0,0:0|0:0,0:0:0:0:
289,159,6700,6,0,P|258:178|218:176,1,62.9999980773926,2|0,0:0|0:0,0:0:0:0:
185,247,7000,2,0,P|157:223|146:184,1,62.9999980773926,2|0,0:0|0:0,0:0:0:0:
134,118,7300,6,0,B|89:72|89:72|22:100,1,125.999996154785,2|0,0:1|0:0,0:0:0:0:
183,33,7900,6,0,L|325:58,1,125.999996154785,2|0,0:0|0:0,0:0:0:0:
462,5,8500,2,0,L|440:129,1,125.999996154785,2|0,0:0|0:0,0:0:0:0:
404,289,9100,6,0,B|357:312|357:312|261:289,1,125.999996154785,2|0,0:0|0:0,0:0:0:0:
229,249,9550,1,2,0:0:0:0:
229,249,9625,1,2,0:0:0:0:
229,249,9700,6,0,B|173:256|173:256|150:278|150:278|100:285,1,125.999996154785,2|0,0:1|0:0,0:0:0:0:
19,148,10300,6,0,L|32:79,1,62.9999980773926,2|0,0:0|0:0,0:0:0:0:
100,43,10600,2,0,L|162:54,1,62.9999980773926,2|0,0:0|0:0,0:0:0:0:
233,95,10900,6,0,L|272:88,3,31.4999990386963,2|2|2|0,0:0|0:0|0:0|0:0,0:0:0:0:
299,110,11200,2,0,P|308:153|294:190,1,62.9999980773926,2|2,0:0|0:0,0:0:0:0:
250,233,11500,1,2,0:0:0:0:
250,233,11650,1,2,0:0:0:0:
192,290,11800,2,0,P|187:321|197:350,1,62.9999980773926,2|2,0:0|0:0,0:0:0:0:
280,375,12100,5,6,0:1:0:0:
280,375,12250,2,0,B|233:332|233:332|148:360,1,125.999996154785
95,376,12700,2,0,P|87:332|97:304,1,62.9999980773926
121,238,13000,2,0,P|129:194|119:166,1,62.9999980773926
60,134,13300,5,2,0:1:0:0:
60,134,13450,2,0,B|101:159|101:159|199:138,1,125.999996154785
240,91,13900,2,0,L|313:106,1,62.9999980773926
359,162,14200,2,0,P|373:210|364:235,1,62.9999980773926
315,283,14500,5,2,0:1:0:0:
315,283,14650,2,0,P|358:251|429:265,1,125.999996154785
484,205,15100,2,0,P|489:165|474:122,1,62.9999980773926
503,63,15400,2,0,P|466:45|420:46,1,62.9999980773926
385,101,15700,5,2,0:1:0:0:
385,101,15850,2,0,L|234:119,1,125.999996154785
198,61,16300,2,0,B|167:56|167:56|136:74,1,62.9999980773926,2|0,0:0|0:0,0:0:0:0:
58,65,16600,2,0,B|53:96|53:96|71:127,1,62.9999980773926,2|0,0:0|0:0,0:0:0:0:
130,177,16900,5,2,0:1:0:0:
130,177,17050,2,0,B|121:231|121:231|96:253|96:253|85:309,1,125.999996154785
130,360,17500,2,0,L|196:349,1,62.9999980773926
241,283,17800,2,0,L|252:217,1,62.9999980773926
215,153,18100,5,2,0:1:0:0:
215,153,18250,2,0,B|199:66|199:66|228:15,1,125.999996154785
295,9,18700,2,0,P|339:18|363:42,1,62.9999980773926
434,32,19000,2,0,P|425:76|401:100,1,62.9999980773926
350,141,19300,5,2,0:1:0:0:
350,141,19450,2,0,B|384:113|384:113|472:139,1,125.999996154785
504,206,19900,2,0,L|483:278,1,62.9999980773926
463,345,20200,2,0,L|402:327,1,62.9999980773926
361,255,20500,6,0,B|317:210|317:210|260:238,1,125.999996154785,2|0,0:1|0:0,0:0:0:0:
196,288,20950,1,0,0:0:0:0:
196,288,21100,2,0,B|139:316|139:316|95:271,1,125.999996154785,2|0,0:1|0:0,0:0:0:0:
76,89,21700,6,0,L|-14:76,2,70,6|2|2,0:1|0:0|0:0,0:0:0:0:
152,138,22150,2,0,P|214:158|273:105,1,140,2|2,0:0|0:0,0:0:0:0:
333,51,22600,6,0,P|353:98|347:131,2,70,6|2|2,0:1|0:0|0:0,0:0:0:0:
250,13,23050,2,0,P|216:3|182:10,2,70,2|2|2,0:0|0:0|0:0,0:0:0:0:
333,51,23500,6,0,L|473:26,1,140,6|2,0:1|0:0,0:0:0:0:
504,110,23950,2,0,B|492:165|492:165|466:187|466:187|452:243,1,140,2|2,0:0|0:0,0:0:0:0:
392,281,24400,6,0,L|312:292,2,59.5000011348725,6|2|2,0:1|0:0|0:0,0:0:0:0:
429,320,24850,2,0,L|486:331,2,41.9999987182618,2|2|2,0:0|0:0|0:0,0:0:0:0:
410,348,25300,5,6,0:1:0:0:
256,192,25375,12,0,27400,0:0:0:0:
27,224,27700,6,0,B|84:233|84:233|106:260|106:260|166:271,1,140,6|0,0:0|0:0,0:0:0:0:
209,346,28150,1,0,0:0:0:0:
209,346,28300,2,0,P|248:280|215:197,1,140,2|0,0:0|0:0,0:0:0:0:
174,152,28750,6,0,B|216:190|216:190|307:164,1,140,2|2,0:0|0:0,0:0:0:0:
373,117,29200,2,0,L|442:132,1,70,2|2,0:0|0:0,0:0:0:0:
493,206,29500,2,0,P|434:242|451:325,1,140,2|0,0:0|0:0,0:0:0:0:
302,361,30100,6,0,B|215:323|215:323|155:348,1,140,2|0,0:0|0:0,0:0:0:0:
84,361,30550,1,0,0:0:0:0:
84,361,30700,2,0,L|68:217,1,140,2|0,0:0|0:0,0:0:0:0:
1,159,31150,6,0,B|62:193|62:193|121:142,1,140,2|2,0:0|0:0,0:0:0:0:
196,107,31600,2,0,P|207:150|197:179,1,70,2|2,0:0|0:0,0:0:0:0:
153,251,31900,2,0,P|216:207|284:224,1,140,2|2,0:0|0:0,0:0:0:0:
420,326,32500,6,0,B|386:300|386:300|409:186,1,140,2|0,0:0|0:0,0:0:0:0:
471,141,32950,1,0,0:0:0:0:
417,67,33100,5,2,0:0:0:0:
417,67,33250,2,0,L|333:89,1,70
278,141,33550,1,2,0:0:0:0:
278,141,33700,2,0,B|222:130|222:130|188:145|188:145|137:136,1,140,2|0,0:0|0:0,0:0:0:0:
61,107,34150,1,0,0:0:0:0:
61,107,34300,6,0,P|55:149|68:177,1,70,2|0,0:0|0:0,0:0:0:0:
117,248,34600,2,0,P|159:254|187:241,1,70
282,209,34900,6,0,P|347:210|395:275,1,140,6|0,0:0|0:0,0:0:0:0:
342,360,35350,1,2,0:0:0:0:
342,360,35425,1,2,0:0:0:0:
342,360,35500,6,0,L|178:331,1,140,6|0,0:0|0:0,0:0:0:0:
108,364,35950,1,2,0:0:0:0:
108,364,36025,1,2,0:0:0:0:
108,364,36100,6,0,B|162:324|162:324|141:245,1,140,6|0,0:0|0:0,0:0:0:0:
70,194,36550,1,2,0:0:0:0:
70,194,36625,1,2,0:0:0:0:
70,194,36700,6,0,P|52:149|69:111,1,70,6|0,0:0|0:0,0:0:0:0:
0,58,37000,2,0,P|37:26|78:31,1,70,2|0,0:0|0:0,0:0:0:0:
146,81,37300,6,0,B|209:115|209:115|263:71,1,140,6|2,0:0|0:0,0:0:0:0:
337,19,37750,1,0,0:0:0:0:
337,19,37900,2,0,B|391:31|391:31|415:63|415:63|463:75,1,140,2|2,0:0|0:0,0:0:0:0:
495,156,38350,6,0,L|482:232,1,70,2|2,0:0|0:0,0:0:0:0:
416,287,38650,1,2,0:0:0:0:
416,287,38800,2,0,L|347:275,1,70,2|2,0:0|0:0,0:0:0:0:
281,211,39100,2,0,B|232:208|210:232|210:232|200:269|157:282,1,140,2|2,0:0|0:0,0:0:0:0:
16,375,39700,6,0,L|36:206,1,140,2|2,0:0|0:0,0:0:0:0:
41,145,40150,1,0,0:0:0:0:
41,145,40300,2,0,B|102:110|102:110|149:166,1,140,2|2,0:0|0:0,0:0:0:0:
191,242,40750,6,0,P|225:260|277:252,1,70,2|2,0:0|0:0,0:0:0:0:
325,200,41050,1,2,0:0:0:0:
325,200,41200,2,0,P|359:201|389:218,1,70,2|2,0:0|0:0,0:0:0:0:
454,280,41500,2,0,B|418:249|418:249|436:150,1,140,2|2,0:0|0:0,0:0:0:0:
278,16,42100,6,0,B|217:25|217:25|194:51|194:51|136:60,1,140,6|2,0:0|0:0,0:0:0:0:
70,25,42550,1,0,0:0:0:0:
70,25,42700,2,0,P|105:54|101:124,2,105,2|2|2,0:0|0:0|0:0,0:0:0:0:
17,100,43300,6,0,L|33:246,1,140,2|2,0:0|0:0,0:0:0:0:
42,329,43750,1,2,0:0:0:0:
115,274,43900,2,0,B|178:242|178:242|236:307,1,140,2|2,0:0|0:0,0:0:0:0:
393,359,44500,6,0,P|455:337|457:256,1,140,2|2,0:0|0:0,0:0:0:0:
403,217,44950,1,2,0:0:0:0:
403,217,45025,1,2,0:0:0:0:
403,217,45100,2,0,B|362:173|362:173|388:67,1,140,2|2,0:0|0:0,0:0:0:0:
334,29,45550,1,2,0:0:0:0:
334,29,45625,1,2,0:0:0:0:
334,29,45700,6,0,L|182:51,1,140,2|2,0:0|0:0,0:0:0:0:
108,66,46150,1,2,0:0:0:0:
108,66,46300,2,0,P|99:110|121:150,1,70,2|2,0:0|0:0,0:0:0:0:
165,202,46600,2,0,B|178:253|178:253|151:316,1,105,2|0,0:0|0:0,0:0:0:0:
144,335,46900,6,0,P|208:346|255:299,2,112,2|0|0,0:0|0:0|0:0,0:0:0:0:
39,241,47800,1,2,0:0:0:0:
39,241,48100,2,0,L|52:108,1,112,0|2,0:0|0:0,0:0:0:0:
160,34,48700,6,0,B|203:71|203:71|265:44,2,112,2|2|2,0:0|0:0|0:0,0:0:0:0:
132,185,49600,2,0,B|175:222|175:222|225:199,2,112,2|2|2,0:0|0:0|0:0,0:0:0:0:
159,327,50500,6,0,B|207:280|260:290|260:290|300:348|371:345,1,224,2|0,0:0|0:0,0:0:0:0:
462,247,51400,6,0,P|480:195|458:144,2,112,2|0|0,0:0|0:0|0:0,0:0:0:0:
352,344,52300,2,0,P|300:362|249:340,2,112,2|0|0,0:0|0:0|0:0,0:0:0:0:
371,276,53050,1,2,0:0:0:0:
371,276,53200,6,0,L|382:197,1,56,2|2,0:0|0:0,0:0:0:0:
328,167,53500,2,0,L|320:111,1,56,2|2,0:0|0:0,0:0:0:0:
355,47,53800,1,2,0:0:0:0:
355,47,53950,1,2,0:0:0:0:
265,16,54100,6,0,P|225:19|190:50,1,62.9999980773926,6|0,0:0|0:0,0:0:0:0:
124,26,54400,2,0,P|114:64|133:107,1,62.9999980773926,2|0,0:0|0:0,0:0:0:0:
187,130,54700,1,2,0:0:0:0:
111,275,55000,6,0,L|42:283,1,62.9999980773926,2|0,0:0|0:0,0:0:0:0:
13,207,55300,2,0,L|20:144,1,62.9999980773926,2|0,0:0|0:0,0:0:0:0:
30,62,55600,1,2,0:0:0:0:
192,40,55900,6,0,P|222:35|253:43,1,62.9999980773926,2|0,0:0|0:0,0:0:0:0:
331,18,56200,2,0,P|335:48|327:79,1,62.9999980773926,2|0,0:0|0:0,0:0:0:0:
259,123,56500,2,0,L|270:208,1,83.9999974365235,2|2,0:0|0:0,0:0:0:0:
306,247,56800,6,0,L|287:387,1,125.999996154785,2|0,0:0|0:0,0:0:0:0:
452,370,57400,2,0,P|463:330|450:287,1,83.9999974365235,2|2,0:0|0:0,0:0:0:0:
411,251,57700,6,0,L|405:174,1,62.9999980773926,2|0,0:0|0:0,0:0:0:0:
476,145,58000,2,0,L|469:70,1,62.9999980773926,2|0,0:0|0:0,0:0:0:0:
417,22,58300,1,2,0:0:0:0:
269,92,58600,6,0,B|239:104|239:104|195:91,1,62.9999980773926,2|0,0:0|0:0,0:0:0:0:
176,20,58900,2,0,B|146:11|146:11|116:23,1,62.9999980773926,2|0,0:0|0:0,0:0:0:0:
59,82,59200,1,2,0:0:0:0:
24,237,59500,6,0,L|30:307,1,62.9999980773926,2|0,0:0|0:0,0:0:0:0:
83,361,59800,2,0,L|145:355,1,62.9999980773926,2|0,0:0|0:0,0:0:0:0:
203,297,60100,1,2,0:0:0:0:
286,155,60400,6,0,P|325:150|365:174,1,62.9999980773926,2|0,0:0|0:0,0:0:0:0:
411,207,60700,2,0,L|404:245,3,31.4999990386963,10|0|0|0,0:0|3:2|3:2|3:2,0:0:0:0:
381,271,61000,2,0,L|386:301,3,31.4999990386963,10|0|0|0,0:0|3:2|3:2|3:2,0:0:0:0:
410,349,61300,6,0,L|317:337,1,70,6|0,3:2|3:2,0:0:0:0:
254,370,61600,2,0,P|245:332|255:299,1,70,8|0,0:0|0:0,0:0:0:0:
303,228,61900,1,0,3:2:0:0:
303,228,62050,1,0,3:2:0:0:
233,171,62200,2,0,L|220:96,1,70,8|0,3:2|3:2,0:0:0:0:
279,32,62500,6,0,B|247:66|247:66|150:45,1,140,0|8,3:2|0:0,0:0:0:0:
116,36,62875,1,8,0:0:0:0:
116,36,62950,1,8,0:0:0:0:
62,109,63100,2,0,L|75:182,1,70,10|8,0:0|0:0,0:0:0:0:
143,237,63400,1,8,0:3:0:0:
143,237,63550,1,4,0:3:0:0:
102,318,63700,5,2,3:2:0:0:
468,246,73300,6,0,P|431:194|323:206,1,168,6|4,0:1|0:3,0:0:0:0:
296,258,73900,2,0,P|242:318|162:307,1,168,0|4,3:0|0:3,0:0:0:0:
117,249,74500,2,0,B|111:182|111:182|128:151|128:151|121:79,1,168,2|4,3:1|0:3,0:0:0:0:
111,13,75100,1,0,3:0:0:0:
238,83,75400,2,0,L|306:74,1,56,6|6,0:3|0:3,0:0:0:0:
353,34,75700,6,0,B|305:58|305:58|329:181,1,168,2|4,3:1|0:3,0:0:0:0:
349,239,76300,2,0,B|283:186|283:186|213:266,1,168,0|4,3:0|0:3,0:0:0:0:
192,311,76900,2,0,P|158:325|121:321,1,56,2|0,3:1|0:0,0:0:0:0:
73,294,77200,1,8,0:3:0:0:
73,294,77500,2,0,L|54:170,1,112,8|2,0:3|0:0,0:0:0:0:
43,111,77950,1,2,0:0:0:0:
106,40,78100,6,0,P|168:30|217:95,1,125.999996154785,6|8,3:1|0:0,0:0:0:0:
244,151,78550,1,0,0:0:0:0:
244,151,78700,2,0,P|249:195|235:220,1,62.9999980773926,8|0,0:0|0:0,0:0:0:0:
186,271,79000,2,0,P|176:300|183:331,1,62.9999980773926,8|0,0:0|0:0,0:0:0:0:
262,354,79300,6,0,B|345:334|345:334|388:356,1,125.999996154785,10|8,0:1|0:0,0:0:0:0:
456,320,79750,1,0,0:0:0:0:
456,320,79900,2,0,L|468:249,1,62.9999980773926,8|8,0:0|0:3,0:0:0:0:
483,177,80200,1,6,0:3:0:0:
483,177,80350,1,6,0:3:0:0:
422,109,80500,6,0,L|343:123,1,70,14|2,0:1|3:2,0:0:0:0:
289,186,80800,2,0,L|220:173,1,70,10|2,0:0|3:2,0:0:0:0:
133,162,81100,1,10,0:0:0:0:
133,162,81250,1,2,3:2:0:0:
44,139,81400,2,0,P|36:93|55:53,1,70,10|2,0:0|3:2,0:0:0:0:
116,18,81700,1,14,0:1:0:0:
446,79,82900,6,0,L|438:23,2,51.3333348999024,6|2|2,3:2|0:0|0:0,0:0:0:0:
397,125,83200,2,0,L|389:175,2,51.3333348999024,10|2|2,0:0|0:0|0:0,0:0:0:0:
352,73,83500,2,0,P|306:47|244:60,1,102.666669799805,2|2,3:2|0:0,0:0:0:0:
207,97,83800,2,0,L|222:216,1,102.666669799805,10|2,0:0|0:0,0:0:0:0:
197,261,84100,6,0,L|134:252,2,51.3333348999024,2|2|2,3:2|0:0|0:0,0:0:0:0:
242,310,84400,2,0,L|305:301,2,51.3333348999024,2|2|2,3:2|0:0|0:0,0:0:0:0:
192,355,84700,2,0,L|71:335,1,102.666669799805,10|2,0:0|0:0,0:0:0:0:
44,289,85000,2,0,B|32:239|32:239|61:187,1,102.666669799805,10|2,0:0|0:0,0:0:0:0:
68,127,85300,6,0,P|43:112|-6:123,2,51.3333348999024,6|2|2,3:2|0:0|0:0,0:0:0:0:
117,81,85600,2,0,P|122:51|97:9,2,51.3333348999024,10|2|2,0:0|0:0|0:0,0:0:0:0:
170,122,85900,2,0,P|217:136|266:117,1,102.666669799805,6|2,3:2|0:0,0:0:0:0:
306,64,86200,2,0,P|351:45|400:59,1,102.666669799805,10|2,0:0|0:0,0:0:0:0:
454,99,86500,6,0,L|513:89,2,51.3333348999024,6|2|2,3:2|0:0|0:0,0:0:0:0:
416,154,86800,2,0,L|357:144,2,51.3333348999024,10|2|2,0:0|0:0|0:0,0:0:0:0:
464,199,87100,2,0,L|478:316,1,102.666669799805,14|10,0:0|0:3,0:0:0:0:
425,344,87400,2,0,B|384:313|384:313|313:336,1,102.666669799805,10|6,0:3|0:3,0:0:0:0:
274,355,87700,6,0,P|237:358|190:329,1,77.0000023498536,6|0,3:2|0:0,0:0:0:0:
103,362,88000,2,0,P|100:328|129:278,1,77.0000023498536,2|0,0:0|3:2,0:0:0:0:
193,225,88300,2,0,L|181:144,1,77.0000023498536,10|0,0:0|0:0,0:0:0:0:
104,84,88600,2,0,L|110:40,3,38.5000011749268,10|4|4|4,0:3|0:3|0:3|0:3,0:0:0:0:
140,5,88900,6,0,B|175:-4|175:-4|217:18,1,77.0000023498536,2|0,3:2|0:0,0:0:0:0:
258,103,89200,2,0,B|294:121|294:121|329:112,1,77.0000023498536,10|2,0:0|0:0,0:0:0:0:
429,85,89500,1,2,3:2:0:0:
429,85,89650,1,0,3:2:0:0:
490,182,89800,2,0,L|475:270,1,77.0000023498536,10|0,0:0|0:0,0:0:0:0:
458,360,90100,5,2,3:2:0:0:
458,360,90250,1,0,3:2:0:0:
379,297,90400,2,0,B|339:288|339:288|301:309,1,77.0000023498536,10|0,0:0|0:0,0:0:0:0:
224,361,90700,2,0,P|180:365|149:344,1,77.0000023498536,10|4,0:0|0:3,0:0:0:0:
136,305,90925,1,4,0:3:0:0:
136,305,91000,6,0,L|149:216,1,77.0000023498536,2|2,3:2|0:0,0:0:0:0:
221,162,91300,2,0,L|208:73,1,77.0000023498536,10|2,0:0|0:0,0:0:0:0:
137,23,91600,1,2,3:2:0:0:
137,23,91750,1,10,0:0:0:0:
63,108,91900,6,0,P|34:91|-3:93,2,51.3333348999024,6|2|2,3:2|0:0|0:0,0:0:0:0:
77,173,92200,2,0,P|51:195|42:231,2,51.3333348999024,10|2|2,0:0|0:0|0:0,0:0:0:0:
142,155,92500,2,0,L|244:173,1,102.666669799805,10|2,0:0|0:0,0:0:0:0:
293,128,92800,2,0,B|274:152|274:152|288:223,1,102.666669799805,2|2,3:2|0:0,0:0:0:0:
344,261,93100,6,0,L|412:270,2,51.3333348999024,2|2|2,3:2|0:0|0:0,0:0:0:0:
299,311,93400,2,0,L|231:320,2,51.3333348999024,10|2|2,0:0|0:0|0:0,0:0:0:0:
343,360,93700,2,0,P|401:374|453:341,1,102.666669799805,2|2,3:2|0:0,0:0:0:0:
472,299,94000,6,0,P|486:241|453:189,1,102.666669799805,6|2,3:2|0:0,0:0:0:0:
413,166,94300,2,0,L|358:176,2,51.3333348999024,2|2|2,3:2|0:0|0:0,0:0:0:0:
450,110,94600,2,0,L|504:102,2,51.3333348999024,10|2|2,0:0|0:0|0:0,0:0:0:0:
402,63,94900,2,0,L|298:77,1,102.666669799805,2|2,3:2|0:0,0:0:0:0:
235,60,95200,6,0,L|225:0,2,51.3333348999024,6|2|2,3:2|0:0|0:0,0:0:0:0:
171,81,95500,2,0,L|162:131,2,51.3333348999024,14|2|2,0:0|0:0|0:0,0:0:0:0:
107,58,95800,2,0,P|47:76|29:127,1,102.666669799805,6|2,3:2|0:0,0:0:0:0:
27,175,96100,2,0,B|46:200|46:200|34:287,1,102.666669799805,14|6,0:0|0:3,0:0:0:0:
25,346,96400,5,6,3:2:0:0:
124,314,96550,1,0,3:0:0:0:
124,314,96625,1,0,3:2:0:0:
124,314,96700,2,0,P|168:319|204:350,1,77.0000023498536,8|0,0:0|3:2,0:0:0:0:
290,364,97000,2,0,L|331:355,3,38.5000011749268,2|0|0|2,3:2|3:2|3:2|3:2,0:0:0:0:
363,319,97300,2,0,L|400:327,3,38.5000011749268,8|0|2|0,0:0|3:0|3:2|3:0,0:0:0:0:
444,351,97600,6,0,L|458:275,1,77.0000023498536,6|0,3:2|3:2,0:0:0:0:
482,174,97900,2,0,B|452:153|452:153|403:167,1,77.0000023498536,10|0,0:0|3:2,0:0:0:0:
329,246,98200,6,0,B|289:257|289:257|259:236,1,77.0000023498536,6|0,3:2|3:2,0:0:0:0:
170,277,98500,2,0,B|158:237|158:237|179:207,1,77.0000023498536,10|0,0:0|3:2,0:0:0:0:
267,132,98800,6,0,L|256:55,1,77.0000023498536,6|0,3:2|3:2,0:0:0:0:
162,18,99100,2,0,L|85:28,1,77.0000023498536,10|0,0:0|3:2,0:0:0:0:
27,131,99400,6,0,P|17:172|35:214,1,77.0000023498536,6|0,3:2|3:2,0:0:0:0:
96,277,99700,2,0,P|137:287|179:269,1,77.0000023498536,10|0,0:0|3:2,0:0:0:0:
266,214,100000,5,14,0:0:0:0:
266,214,100150,1,0,3:2:0:0:
341,279,100300,2,0,L|428:270,1,77.0000023498536,8|0,0:0|3:2,0:0:0:0:
510,233,100600,2,0,P|521:269|511:306,1,77.0000023498536,8|0,0:0|3:2,0:0:0:0:
487,352,100825,1,0,0:0:0:0:
487,352,100900,2,0,L|402:360,1,77.0000023498536,8|0,0:0|3:2,0:0:0:0:
341,279,101200,5,14,0:0:0:0:
341,279,101350,1,8,0:0:0:0:
254,339,101500,2,0,B|217:352|217:352|172:330,1,77.0000023498536,8|8,0:0|0:0,0:0:0:0:
148,241,101800,2,0,L|157:182,3,38.5000011749268,14|8|8|8,0:0|0:0|0:0|0:0,0:0:0:0:
112,173,102100,2,0,L|103:114,3,38.5000011749268,8|8|8|8,0:0|0:0|0:0|0:0,0:0:0:0:
125,85,102400,6,0,P|166:67|209:75,1,80.5000015354157,6|2,3:2|0:0,0:0:0:0:
285,9,102700,2,0,P|303:50|295:93,1,80.5000015354157,10|2,0:0|0:0,0:0:0:0:
248,177,103000,2,0,L|258:229,3,40.2500007677078,2|2|2|2,3:2|0:0|3:2|0:0,0:0:0:0:
297,248,103300,2,0,L|287:300,3,40.2500007677078,10|2|2|2,0:0|0:0|3:2|0:0,0:0:0:0:
255,327,103600,6,0,L|164:338,1,80.5000015354157,2|2,3:2|3:2,0:0:0:0:
113,263,103900,1,10,0:0:0:0:
113,263,103975,1,2,0:0:0:0:
113,263,104050,1,2,0:0:0:0:
184,186,104200,2,0,P|192:136|178:102,1,80.5000015354157,2|2,3:2|3:2,0:0:0:0:
146,78,104425,1,2,0:0:0:0:
146,78,104500,2,0,P|96:70|62:84,1,80.5000015354157,10|2,0:0|0:0,0:0:0:0:
4,182,104800,6,0,L|15:274,1,80.5000015354157,6|2,3:2|3:2,0:0:0:0:
21,313,105025,1,2,0:0:0:0:
21,313,105100,2,0,P|61:320|100:303,1,80.5000015354157,10|2,0:0|3:2,0:0:0:0:
160,221,105400,2,0,P|197:207|236:214,1,80.5000015354157,2|2,3:2|3:2,0:0:0:0:
309,288,105700,1,10,0:0:0:0:
354,198,105850,1,2,0:0:0:0:
354,198,105925,1,2,0:0:0:0:
354,198,106000,6,0,L|347:151,3,40.2500007677078,14|2|2|2,0:1|3:2|3:2|3:2,0:0:0:0:
339,106,106300,2,0,L|386:99,3,40.2500007677078,14|2|2|2,0:1|3:2|3:2|3:2,0:0:0:0:
430,105,106600,2,0,L|435:144,3,40.2500007677078,14|2|2|2,0:1|3:2|3:2|3:2,0:0:0:0:
439,197,106900,2,0,L|479:192,3,40.2500007677078,14|2|2|2,0:1|3:2|3:2|3:2,0:0:0:0:
502,239,107200,6,0,P|511:277|499:315,1,80.5000015354157,6|2,3:1|0:0,0:0:0:0:
454,334,107425,1,2,0:0:0:0:
454,334,107500,2,0,L|366:324,1,80.5000015354157,10|2,0:0|0:0,0:0:0:0:
306,245,107800,2,0,B|266:233|266:233|223:254,1,80.5000015354157,2|2,3:2|3:2,0:0:0:0:
191,285,108025,1,2,0:0:0:0:
191,285,108100,2,0,B|156:301|156:301|116:289,1,80.5000015354157,10|2,0:0|0:0,0:0:0:0:
26,233,108400,6,0,L|21:183,3,40.2500007677078,2|2|2|2,3:2|0:0|3:2|0:0,0:0:0:0:
69,169,108700,2,0,L|74:119,3,40.2500007677078,10|2|2|2,0:0|0:0|3:2|0:0,0:0:0:0:
29,98,109000,2,0,L|24:48,3,40.2500007677078,2|2|2|2,3:2|0:0|3:2|0:0,0:0:0:0:
71,32,109300,2,0,L|161:45,1,80.5000015354157,10|2,0:0|0:0,0:0:0:0:
241,124,109600,6,0,P|276:142|315:138,1,80.5000015354157,6|2,3:2|0:0,0:0:0:0:
404,82,109900,2,0,P|443:78|478:96,1,80.5000015354157,10|2,0:0|0:0,0:0:0:0:
502,198,110200,2,0,L|495:246,3,40.2500007677078,2|2|2|2,3:2|0:0|3:2|0:0,0:0:0:0:
446,258,110500,2,0,L|452:297,3,40.2500007677078,10|2|2|2,0:0|0:0|0:0|0:0,0:0:0:0:
484,339,110800,6,0,B|447:327|447:327|409:345,1,80.5000015354157,2|2,3:2|0:0,0:0:0:0:
306,369,111100,2,0,L|291:277,1,80.5000015354157,2|2,3:2|0:0,0:0:0:0:
324,189,111400,2,0,B|287:177|287:177|249:195,1,80.5000015354157,2|2,3:2|0:0,0:0:0:0:
150,158,111700,2,0,B|138:195|138:195|156:233,1,80.5000015354157,2|2,3:2|0:0,0:0:0:0:
143,337,112000,6,0,L|56:351,1,80.5000015354157,6|2,3:2|0:0,0:0:0:0:
19,253,112300,2,0,L|31:173,1,80.5000015354157,10|2,0:0|0:0,0:0:0:0:
49,69,112600,2,0,L|105:78,3,40.2500007677078,2|2|2|2,3:2|0:0|3:2|0:0,0:0:0:0:
141,80,112900,2,0,L|134:119,3,40.2500007677078,10|2|2|2,0:0|0:0|0:0|0:0,0:0:0:0:
125,171,113200,6,0,P|170:194|214:182,1,80.5000015354157,2|2,3:2|3:2,0:0:0:0:
272,117,113500,1,10,0:0:0:0:
272,117,113575,1,2,0:0:0:0:
272,117,113650,1,2,3:2:0:0:
348,188,113800,2,0,B|360:227|360:227|345:265,1,80.5000015354157,2|2,3:2|3:2,0:0:0:0:
316,308,114025,1,2,0:0:0:0:
316,308,114100,2,0,B|355:296|355:296|391:310,1,80.5000015354157,10|2,0:0|0:0,0:0:0:0:
497,371,114400,6,0,B|510:331|510:331|496:293,1,80.5000015354157,6|2,3:2|3:2,0:0:0:0:
444,204,114700,1,10,0:0:0:0:
444,204,114775,1,2,0:0:0:0:
444,204,114850,1,2,3:2:0:0:
391,113,115000,2,0,P|348:98|293:114,1,80.5000015354157,2|2,3:2|3:2,0:0:0:0:
249,185,115300,1,10,0:0:0:0:
190,111,115450,1,2,0:0:0:0:
190,111,115525,1,2,0:0:0:0:
190,111,115600,6,0,L|198:45,3,40.2500007677078,14|2|2|2,0:1|3:2|3:2|3:2,0:0:0:0:
201,19,115900,2,0,L|135:11,3,40.2500007677078,14|2|2|2,0:1|3:2|3:2|3:2,0:0:0:0:
108,10,116200,2,0,L|100:76,3,40.2500007677078,14|2|2|2,0:1|3:2|3:2|3:2,0:0:0:0:
60,80,116500,2,0,L|64:119,3,40.2500007677078,14|2|2|2,0:1|3:2|3:2|3:2,0:0:0:0:
107,161,116800,6,0,P|118:198|107:237,1,80.5000015354157,6|2,3:1|0:0,0:0:0:0:
24,301,117100,2,0,P|13:339|24:377,1,80.5000015354157,10|2,0:0|0:0,0:0:0:0:
128,364,117400,2,0,L|179:356,3,40.2500007677078,2|2|2|2,3:2|0:0|3:2|0:0,0:0:0:0:
208,325,117700,2,0,L|247:331,3,40.2500007677078,10|2|2|2,0:0|0:0|0:0|0:0,0:0:0:0:
291,361,118000,6,0,P|349:368|378:352,1,80.5000015354157,2|2,3:2|3:2,0:0:0:0:
400,320,118225,1,2,0:0:0:0:
400,320,118300,2,0,L|389:232,1,80.5000015354157,10|2,0:0|3:2,0:0:0:0:
328,160,118600,1,2,3:2:0:0:
328,160,118675,1,2,0:0:0:0:
328,160,118750,1,2,3:2:0:0:
384,71,118900,2,0,L|430:66,3,40.2500007677078,10|2|2|2,0:0|0:0|0:0|0:0,0:0:0:0:
476,59,119200,6,0,P|491:97|481:143,1,80.5000015354157,6|2,3:2|0:0,0:0:0:0:
431,225,119500,2,0,P|425:264|439:301,1,80.5000015354157,10|2,0:0|0:0,0:0:0:0:
475,346,119725,1,2,0:0:0:0:
475,346,119800,2,0,L|379:329,1,80.5000015354157,2|2,3:2|3:2,0:0:0:0:
294,303,120100,2,0,L|288:354,3,40.2500007677078,10|2|2|2,0:0|0:0|0:0|0:0,0:0:0:0:
241,365,120400,6,0,L|161:350,1,80.5000015354157,2|2,3:2|3:2,0:0:0:0:
121,326,120625,1,2,3:2:0:0:
121,326,120700,2,0,L|41:341,1,80.5000015354157,10|2,0:0|3:2,0:0:0:0:
7,242,121000,2,0,B|-5:202|-5:202|15:156,1,80.5000015354157,10|2,0:0|3:2,0:0:0:0:
108,126,121300,2,0,B|123:90|123:90|111:50,1,80.5000015354157,10|10,0:0|0:0,0:0:0:0:
67,21,121525,1,10,0:0:0:0:
72,25,121600,6,0,B|125:17|156:51|127:91|221:93,1,146.999995513916,6|0,3:2|0:0,0:0:0:0:
272,33,122050,1,0,3:2:0:0:
272,33,122200,2,0,P|317:32|350:54,1,73.4999977569581,8|0,0:0|3:2,0:0:0:0:
415,113,122500,1,2,3:2:0:0:
415,113,122650,1,2,0:0:0:0:
344,177,122800,6,0,L|331:257,1,73.4999977569581,10|0,0:0|3:2,0:0:0:0:
321,299,123025,1,0,3:2:0:0:
321,299,123100,2,0,L|393:287,1,73.4999977569581,0|0,3:2|3:2,0:0:0:0:
488,273,123400,2,0,L|494:234,3,36.749998878479,10|0|0|0,0:0|3:2|3:2|3:2,0:0:0:0:
466,197,123700,2,0,P|455:145|472:108,1,73.4999977569581,8|0,0:0|3:2,0:0:0:0:
466,16,124000,6,0,B|402:23|402:23|380:49|380:49|309:58,1,146.999995513916,14|0,0:0|3:2,0:0:0:0:
243,19,124450,1,8,0:0:0:0:
176,87,124600,2,0,P|169:133|181:166,1,73.4999977569581,10|8,0:3|0:3,0:0:0:0:
239,230,124900,1,2,3:2:0:0:
239,230,125050,1,10,0:0:0:0:
322,183,125200,6,0,L|395:191,1,73.4999977569581,2|0,3:2|3:0,0:0:0:0:
443,197,125425,1,0,3:0:0:0:
443,197,125500,2,0,B|454:232|454:232|440:268,1,73.4999977569581,8|0,0:0|0:0,0:0:0:0:
393,349,125800,1,2,3:2:0:0:
393,349,125950,1,0,3:2:0:0:
314,294,126100,2,0,B|238:279|238:279|215:288|210:316,1,110.249996635437,8|8,0:0|0:0,0:0:0:0:
214,349,126400,6,0,P|153:293|88:310,1,146.999995513916,2|8,3:2|0:0,0:0:0:0:
17,359,126850,1,0,0:0:0:0:
95,304,127000,2,0,L|85:230,1,73.4999977569581,2|0,3:2|3:2,0:0:0:0:
58,198,127225,1,0,3:0:0:0:
58,198,127300,2,0,L|68:124,1,73.4999977569581,10|0,0:0|0:0,0:0:0:0:
121,45,127600,6,0,P|170:47|207:80,1,73.4999977569581,2|0,3:2|3:2,0:0:0:0:
270,8,127900,2,0,P|283:55|263:100,1,73.4999977569581,10|0,0:0|0:0,0:0:0:0:
222,155,128200,2,0,L|229:203,3,36.749998878479,2|0|0|0,3:2|3:2|3:2|3:2,0:0:0:0:
258,227,128500,2,0,L|251:275,3,36.749998878479,10|0|0|0,0:0|3:2|3:2|3:2,0:0:0:0:
221,299,128800,6,0,B|261:277|302:284|302:284|324:320|366:328,1,146.999995513916,6|8,3:2|0:0,0:0:0:0:
443,300,129250,1,0,3:2:0:0:
443,300,129400,2,0,L|455:206,1,73.4999977569581,0|0,3:2|3:2,0:0:0:0:
469,132,129700,1,8,0:0:0:0:
422,61,129850,1,0,3:2:0:0:
422,61,129925,1,0,3:2:0:0:
422,61,130000,6,0,B|321:39|321:39|302:60|269:67,1,146.999995513916,14|10,0:0|0:0,0:0:0:0:
200,31,130450,1,2,3:2:0:0:
200,31,130600,2,0,L|152:37,3,36.749998878479,10|2|2|2,0:0|3:2|3:2|3:2,0:0:0:0:
115,39,130900,2,0,L|121:87,3,36.749998878479,10|2|2|2,0:0|3:2|3:2|3:2,0:0:0:0:
144,121,131200,6,0,L|212:127,2,53.6666676902771,6|2|2,3:1|0:0|0:0,0:0:0:0:
77,143,131500,2,0,P|56:190|72:250,1,107.333335380554,10|0,0:0|0:0,0:0:0:0:
121,287,131800,2,0,L|116:340,2,53.6666676902771,2|2|2,3:2|0:0|0:0,0:0:0:0:
167,235,132100,1,10,0:0:0:0:
326,196,132400,6,0,P|330:159|317:124,2,53.6666676902771,2|2|2,3:1|0:0|0:0,0:0:0:0:
270,240,132700,2,0,L|288:352,1,107.333335380554,10|0,0:0|0:0,0:0:0:0:
219,367,133000,2,0,L|166:358,2,53.6666676902771,2|2|2,3:2|0:0|0:0,0:0:0:0:
287,345,133300,2,0,P|331:305|397:321,1,107.333335380554,10|0,0:0|0:0,0:0:0:0:
441,330,133600,6,0,L|449:383,2,53.6666676902771,6|2|2,3:1|0:0|0:0,0:0:0:0:
490,280,133900,1,10,0:0:0:0:
344,129,134200,2,0,P|294:99|232:121,1,107.333335380554,2|2,3:2|0:0,0:0:0:0:
190,148,134500,2,0,P|137:156|93:127,1,107.333335380554,10|0,0:0|0:0,0:0:0:0:
96,58,134800,6,0,L|103:-15,2,53.6666676902771,6|2|2,3:1|0:0|0:0,0:0:0:0:
94,128,135100,1,10,0:0:0:0:
79,336,135400,2,0,L|6:329,2,53.6666676902771,2|2|2,3:2|0:0|0:0,0:0:0:0:
143,310,135700,2,0,B|207:316|207:316|243:365,1,107.333335380554,10|0,0:0|0:0,0:0:0:0:
302,362,136000,6,0,P|281:299|306:252,1,107.333335380554,6|2,3:1|0:0,0:0:0:0:
358,231,136300,2,0,P|372:180|351:132,1,107.333335380554,10|2,0:0|0:0,0:0:0:0:
317,70,136600,2,0,L|328:11,2,53.6666676902771,2|2|2,3:2|0:0|0:0,0:0:0:0:
258,107,136900,2,0,L|267:159,2,53.6666676902771,10|2|2,0:0|0:0|0:0,0:0:0:0:
213,53,137200,6,0,B|162:35|162:35|111:68,1,107.333335380554,6|2,3:1|0:0,0:0:0:0:
66,111,137500,2,0,L|91:229,1,107.333335380554,10|2,0:0|0:0,0:0:0:0:
99,284,137800,2,0,P|71:271|39:270,2,53.6666676902771,2|2|2,3:2|0:0|0:2,0:0:0:0:
150,331,138100,2,0,P|128:353|118:383,2,53.6666676902771,10|2|2,0:0|0:0|0:0,0:0:0:0:
213,301,138400,6,0,L|259:309,3,40.2500007677078,6|2|2|2,3:1|0:0|3:2|0:0,0:0:0:0:
300,329,138700,2,0,L|339:322,3,40.2500007677078,10|2|2|2,0:0|0:0|3:2|0:0,0:0:0:0:
388,301,139000,2,0,B|399:261|399:261|386:223,1,80.5000015354157,6|2,3:2|3:2,0:0:0:0:
356,135,139300,1,10,0:0:0:0:
356,135,139375,1,2,0:0:0:0:
356,135,139450,1,2,3:2:0:0:
264,183,139600,6,0,L|221:176,3,40.2500007677078,6|2|2|2,3:2|0:0|3:2|0:0,0:0:0:0:
172,169,139900,2,0,L|178:129,3,40.2500007677078,10|2|2|2,0:0|0:0|3:2|0:0,0:0:0:0:
184,77,140200,2,0,L|141:70,3,40.2500007677078,6|2|2|2,3:2|0:0|3:2|0:0,0:0:0:0:
92,65,140500,2,0,L|85:104,3,40.2500007677078,10|2|2|2,0:0|0:0|3:2|0:0,0:0:0:0:
46,139,140800,6,0,L|59:226,1,80.5000015354157,6|2,3:1|3:2,0:0:0:0:
99,251,141025,1,2,3:2:0:0:
99,251,141100,2,0,L|87:330,1,80.5000015354157,10|2,0:0|3:2,0:0:0:0:
184,369,141400,2,0,P|233:376|275:350,1,80.5000015354157,6|2,3:2|3:2,0:0:0:0:
301,331,141625,1,2,3:2:0:0:
301,331,141700,2,0,P|308:282|282:240,1,80.5000015354157,10|10,0:0|0:0,0:0:0:0:
220,181,142000,6,0,L|228:142,3,40.2500007677078,14|2|10|2,0:2|3:2|0:2|3:2,0:0:0:0:
242,91,142300,2,0,L|281:99,3,40.2500007677078,14|2|10|2,0:0|3:2|0:2|3:2,0:0:0:0:
334,103,142600,2,0,L|342:64,3,40.2500007677078,14|10|10|10,0:0|0:2|0:2|0:2,0:0:0:0:
356,13,142900,2,0,L|395:21,3,40.2500007677078,14|10|10|10,0:0|0:0|0:0|0:0,0:0:0:0:
446,34,143200,1,14,0:1:0:0:
256,192,143275,12,2,149200,0:0:0:0:
