osu file format v14

[General]
AudioFilename: audio.mp3
AudioLeadIn: 0
PreviewTime: 27625
Countdown: 0
SampleSet: Soft
StackLeniency: 0.4
Mode: 0
LetterboxInBreaks: 0
WidescreenStoryboard: 1

[Editor]
Bookmarks: 106900
DistanceSpacing: 0.6
BeatDivisor: 4
GridSize: 8
TimelineZoom: 1.7

[Metadata]
Title:Hatsune Miku no Gekishou
TitleUnicode:初音ミクの激唱
Artist:cosMo@bousouP
ArtistUnicode:cosMo@暴走P
Creator:[Karcher]
Version:Insane
Source:初音ミク -Project DIVA- 2nd
Tags:Ƒ Arcade extend X Future Tone The Intense Singing of Hatsune Miku Vocaloid Synthesizer SEGA InfinitY Happy End extend Complete Collection NONSTOP MIX akane-_ akane narrative riana video game jpop j-pop pop japanese
BeatmapID:3008157
BeatmapSetID:1370608

[Difficulty]
HPDrainRate:5
CircleSize:3
OverallDifficulty:8
ApproachRate:9
SliderMultiplier:1.6
SliderTickRate:1

[Events]
//Background and Video events
0,0,"lv.png",0,0
//Break Periods
2,47100,53500
2,63900,72700
//Storyboard Layer 0 (Background)
//Storyboard Layer 1 (Fail)
//Storyboard Layer 2 (Pass)
//Storyboard Layer 3 (Foreground)
//Storyboard Layer 4 (Overlay)
//Storyboard Sound Samples

[TimingPoints]
2500,300,4,2,1,35,1,0
2500,-333.333333333333,4,2,1,35,0,0
4900,-250,4,2,1,35,0,0
7300,-333.333333333333,4,2,1,35,0,0
9700,-250,4,2,1,35,0,0
10900,-250,4,2,1,50,0,0
11200,-100,4,2,1,50,0,0
11500,-125,4,2,1,50,0,0
11800,-166.666666666667,4,2,1,50,0,0
12100,-250,4,2,1,40,0,0
13300,-200,4,2,1,40,0,0
14500,-166.666666666667,4,2,1,40,0,0
15700,-200,4,2,1,40,0,0
16900,-250,4,2,1,40,0,0
18100,-200,4,2,1,40,0,0
19300,-166.666666666667,4,2,1,40,0,0
20500,-200,4,2,1,40,0,0
21025,-200,4,2,1,5,0,0
21100,-142.857142857143,4,2,1,40,0,0
21625,-142.857142857143,4,2,1,5,0,0
21700,300,3,2,1,60,1,0
21700,-100,3,2,1,60,0,0
25300,300,4,2,1,50,1,0
25300,-100,4,2,1,50,0,0
27700,-166.666666666667,4,2,2,40,0,0
35500,-125,4,2,2,40,0,0
36100,-100,4,2,2,40,0,0
37300,-111.111111111111,4,2,3,50,0,0
46900,300,6,2,2,30,1,0
46900,-125,6,2,2,30,0,0
54100,300,3,2,2,45,1,0
54100,-142.857142857143,3,2,2,45,0,0
61300,300,4,2,1,55,1,0
61300,-111.111111111111,4,2,1,55,0,0
63700,-166.666666666667,4,2,4,30,0,0
73300,-125,4,2,1,50,0,0
75700,-125,4,2,1,55,0,0
78100,-100,4,2,1,60,0,0
80500,-100,4,2,3,70,0,0
81700,-100,4,2,1,60,0,0
82900,-90.9090909090909,4,2,2,70,0,1
87700,300,7,2,1,55,1,0
87700,-100,7,2,1,55,0,0
91900,300,3,2,2,70,1,1
91900,-83.3333333333333,3,2,2,70,0,1
96400,300,4,2,1,60,1,0
96400,-90.9090909090909,4,2,1,60,0,0
100000,-90.9090909090909,4,2,1,70,0,0
101200,-90.9090909090909,4,2,1,75,0,0
101800,-90.9090909090909,4,2,1,80,0,0
102400,-83.3333333333333,4,2,2,70,0,1
106300,-74.0740740740741,4,2,2,70,0,1
106600,-66.6666666666667,4,2,2,70,0,1
106900,-60.6060606060606,4,2,2,70,0,1
107200,-83.3333333333333,4,2,2,70,0,1
110800,-83.3333333333333,4,2,2,70,0,0
112000,-83.3333333333333,4,2,2,70,0,1
115900,-74.0740740740741,4,2,2,70,0,1
116200,-66.6666666666667,4,2,2,70,0,1
116500,-60.6060606060606,4,2,2,70,0,1
116800,-83.3333333333333,4,2,2,70,0,1
121600,-100,4,2,2,60,0,0
128800,-100,4,2,2,70,0,0
130000,-100,4,2,1,80,0,0
131200,-90.9090909090909,4,2,2,70,0,1
135900,-90.9090909090909,4,2,2,70,0,0
136000,-83.3333333333333,4,2,2,70,0,1
143200,-166.666666666667,4,2,2,70,0,0
143275,-166.666666666667,4,2,1,50,0,0
144325,-166.666666666667,4,2,1,5,0,0
144400,-166.666666666667,4,2,1,50,0,0
145525,-166.666666666667,4,2,1,5,0,0
145600,-166.666666666667,4,2,1,50,0,0
146725,-166.666666666667,4,2,1,5,0,0
146800,-166.666666666667,4,2,1,50,0,0
147925,-166.666666666667,4,2,1,5,0,0
148000,-166.666666666667,4,2,1,50,0,0
152350,-166.666666666667,4,2,1,40,0,0
153850,-166.666666666667,4,2,1,30,0,0
155050,-166.666666666667,4,2,1,20,0,0
156250,-166.666666666667,4,2,1,15,0,0
157450,-166.666666666667,4,2,1,10,0,0
158800,-166.666666666667,4,2,1,5,0,0

[Colours]
Combo1 : 237,158,223
Combo2 : 172,231,255

[HitObjects]
74,64,2500,6,0,L|82:162,1,95.9999970703126,6|2,0:1|0:0,0:0:0:0:
160,340,3700,2,0,L|167:244,1,95.9999970703126,2|2,0:0|0:0,0:0:0:0:
231,72,4750,1,2,0:0:0:0:
231,72,4825,1,2,0:0:0:0:
231,72,4900,6,0,P|276:86|347:54,1,128,2|2,0:0|0:0,0:0:0:0:
496,114,5800,1,2,0:0:0:0:
512,275,6100,2,0,P|467:289|396:257,1,128,2|2,0:0|0:0,0:0:0:0:
254,175,7000,1,2,0:0:0:0:
187,323,7300,6,0,L|91:343,1,95.9999970703126,2|2,0:1|0:0,0:0:0:0:
254,175,8500,2,0,L|350:195,1,95.9999970703126,2|2,0:0|0:0,0:0:0:0:
120,120,9550,1,2,0:0:0:0:
120,120,9625,1,2,0:0:0:0:
120,120,9700,6,0,P|98:168|120:243,1,128,2|2,0:1|0:0,0:0:0:0:
269,302,10600,1,2,0:0:0:0:
402,201,10900,1,2,0:0:0:0:
402,201,10975,1,2,0:0:0:0:
402,201,11050,1,2,0:0:0:0:
331,115,11200,6,0,P|300:143|289:184,1,80,2|2,0:0|0:0,0:0:0:0:
194,181,11500,6,0,P|198:218|215:243,1,64,2|2,0:0|0:0,0:0:0:0:
156,314,11800,6,0,P|179:327|205:331,1,47.9999985351563,2|2,0:0|0:0,0:0:0:0:
287,274,12100,6,0,B|335:269|335:269|344:307|385:320|385:320|417:293|416:252,1,192,6|0,0:1|0:0,0:0:0:0:
305,186,13300,6,0,B|234:195|234:195|210:232|210:232|164:201|164:201|138:224|94:211,1,240,2|0,0:1|0:0,0:0:0:0:
32,125,14500,6,0,B|21:83|70:50|70:50|179:98|91:225,1,287.999991210938,2|0,0:1|0:0,0:0:0:0:
0,299,15700,6,0,B|83:262|58:329|155:289,1,160,2|2,0:1|0:0,0:0:0:0:
289,234,16600,1,2,0:0:0:0:
387,349,16900,6,0,P|444:379|472:284,1,192,2|0,0:1|0:0,0:0:0:0:
272,207,18100,6,0,B|232:153|232:153|142:222|217:306,1,240,2|0,0:1|0:0,0:0:0:0:
502,198,19300,6,0,B|422:183|387:264|387:264|353:187|268:207,1,287.999991210938,2|0,0:1|0:0,0:0:0:0:
109,333,20500,6,0,L|89:192,1,140,2|0,0:1|0:0,0:0:0:0:
173,150,21100,6,0,L|203:349,1,195.999994018555,2|0,0:1|0:0,0:0:0:0:
301,354,21700,5,6,0:1:0:0:
361,302,21850,1,2,0:0:0:0:
379,224,22000,1,2,0:0:0:0:
280,268,22150,6,0,P|230:290|167:214,1,160,2|2,0:0|0:0,0:0:0:0:
300,162,22600,5,6,0:1:0:0:
379,224,22750,1,2,0:0:0:0:
480,219,22900,1,2,0:0:0:0:
427,74,23050,6,0,L|435:155,2,80,2|2|2,0:0|0:0|0:0,0:0:0:0:
316,38,23500,5,6,0:1:0:0:
196,25,23650,1,2,0:0:0:0:
105,103,23800,1,2,0:0:0:0:
228,200,23950,6,0,L|216:111,2,80,2|2|2,0:0|0:0|0:0,0:0:0:0:
142,290,24400,5,6,0:1:0:0:
54,281,24550,1,2,0:0:0:0:
6,207,24700,1,2,0:0:0:0:
96,133,24850,6,0,L|106:212,2,80,2|2|2,0:0|0:0|0:0,0:0:0:0:
26,58,25300,6,0,P|76:93|171:48,1,160,6|0,0:1|0:0,0:0:0:0:
290,123,25750,1,2,0:0:0:0:
290,123,25825,1,2,0:0:0:0:
290,123,25900,2,0,L|239:132,1,40,2|2,0:0|0:0,0:0:0:0:
268,211,26050,2,0,L|307:204,1,40,2|2,0:0|0:0,0:0:0:0:
324,39,26200,2,0,B|301:28|301:28|240:38,1,80,2|2,0:0|0:0,0:0:0:0:
377,113,26500,6,0,P|431:139|462:4,1,240,6|0,0:1|0:0,0:0:0:0:
377,113,27100,2,0,L|367:276,1,160,2|0,0:0|0:0,0:0:0:0:
473,358,27550,1,2,0:0:0:0:
473,358,27625,1,2,0:0:0:0:
473,358,27700,6,0,B|381:328|416:385|316:349,1,143.999995605469,6|0,0:0|0:0,0:0:0:0:
277,281,28300,2,0,L|181:298,1,95.9999970703126,2|0,0:0|0:0,0:0:0:0:
108,364,28750,2,0,P|88:326|90:271,1,95.9999970703126,2|2,0:0|0:0,0:0:0:0:
189,199,29200,1,2,0:0:0:0:
172,88,29350,1,2,0:0:0:0:
47,58,29500,2,0,L|61:152,1,95.9999970703126,2|0,0:0|0:0,0:0:0:0:
227,20,30100,6,0,P|259:70|236:148,1,143.999995605469,2|0,0:0|0:0,0:0:0:0:
179,223,30700,2,0,L|190:339,1,95.9999970703126,2|0,0:0|0:0,0:0:0:0:
296,312,31150,2,0,L|286:216,1,95.9999970703126,2|2,0:0|0:0,0:0:0:0:
222,126,31600,1,2,0:0:0:0:
102,165,31750,1,2,0:0:0:0:
13,72,31900,2,0,B|47:60|47:60|107:72,1,95.9999970703126,2|2,0:0|0:0,0:0:0:0:
0,244,32500,6,0,B|86:223|47:270|143:247,1,143.999995605469,2|0,0:0|0:0,0:0:0:0:
233,218,33100,2,0,L|223:137,2,71.9999978027344,2|2|2,0:0|0:0|0:0,0:0:0:0:
324,272,33700,2,0,P|320:323|397:329,1,143.999995605469,2|0,0:0|0:0,0:0:0:0:
435,160,34300,2,0,B|396:139|396:139|412:250,1,143.999995605469,2|0,0:0|0:0,0:0:0:0:
324,272,34900,6,0,B|242:262|268:297|170:281,1,143.999995605469,6|2,0:0|0:0,0:0:0:0:
178,296,35425,1,2,0:0:0:0:
174,310,35500,6,0,P|136:357|86:271,1,192,6|2,0:0|0:0,0:0:0:0:
101,245,36025,1,2,0:0:0:0:
113,198,36100,6,0,B|129:151|129:151|103:38,1,160,6|0,0:0|0:0,0:0:0:0:
35,146,36550,1,2,0:0:0:0:
35,146,36625,1,2,0:0:0:0:
35,146,36700,1,6,0:0:0:0:
260,15,37000,1,2,0:0:0:0:
485,179,37300,6,0,P|468:233|387:225,1,143.999995605469,6|2,0:0|0:0,0:0:0:0:
391,230,37750,1,0,0:0:0:0:
349,132,37900,2,0,L|207:150,1,143.999995605469,2|2,0:0|0:0,0:0:0:0:
206,150,38350,1,2,0:0:0:0:
19,256,38500,6,0,L|26:179,1,71.9999978027344,2|2,0:0|0:0,0:0:0:0:
117,196,38800,2,0,L|110:267,1,71.9999978027344,2|2,0:0|0:0,0:0:0:0:
81,110,39100,1,2,0:0:0:0:
79,95,39175,1,2,0:0:0:0:
77,80,39250,1,2,0:0:0:0:
75,65,39325,1,2,0:0:0:0:
74,50,39400,1,2,0:0:0:0:
206,150,39700,6,0,P|251:181|336:138,1,143.999995605469,2|2,0:0|0:0,0:0:0:0:
328,151,40150,1,0,0:0:0:0:
456,30,40300,2,0,L|436:176,1,143.999995605469,2|2,0:0|0:0,0:0:0:0:
436,172,40750,1,2,0:0:0:0:
371,343,40900,6,0,L|362:261,1,71.9999978027344,2|2,0:0|0:0,0:0:0:0:
463,260,41200,2,0,L|470:331,1,71.9999978027344,2|2,0:0|0:0,0:0:0:0:
273,352,41500,1,2,0:0:0:0:
258,353,41575,1,2,0:0:0:0:
243,354,41650,1,2,0:0:0:0:
228,355,41725,1,2,0:0:0:0:
213,356,41800,1,2,0:0:0:0:
14,252,42100,6,0,P|65:242|95:316,1,143.999995605469,6|2,0:0|0:0,0:0:0:0:
95,315,42550,1,0,0:0:0:0:
203,268,42700,2,0,L|192:157,2,107.999996704102,2|2|2,0:0|0:0|0:0,0:0:0:0:
299,321,43300,2,0,P|340:346|420:305,1,143.999995605469,2|2,0:0|0:0,0:0:0:0:
419,306,43750,1,2,0:0:0:0:
336,175,43900,1,2,0:0:0:0:
338,189,43975,1,2,0:0:0:0:
340,203,44050,1,2,0:0:0:0:
342,217,44125,1,2,0:0:0:0:
344,231,44200,1,2,0:0:0:0:
393,103,44500,6,0,P|337:84|260:120,1,143.999995605469,2|2,0:0|0:0,0:0:0:0:
187,198,44950,1,2,0:0:0:0:
187,198,45025,1,2,0:0:0:0:
187,198,45100,2,0,L|34:188,1,143.999995605469,2|2,0:0|0:0,0:0:0:0:
39,70,45550,1,2,0:0:0:0:
39,70,45625,1,2,0:0:0:0:
39,70,45700,2,0,L|192:60,1,143.999995605469,2|2,0:0|0:0,0:0:0:0:
294,148,46150,1,2,0:0:0:0:
430,101,46300,1,2,0:0:0:0:
427,86,46375,1,2,0:0:0:0:
424,71,46450,1,2,0:0:0:0:
422,56,46525,1,2,0:0:0:0:
420,41,46600,1,2,0:0:0:0:
261,282,46900,5,2,0:0:0:0:
52,108,54100,6,0,L|67:225,2,111.999996582031,6|2|2,0:0|0:0|0:0,0:0:0:0:
165,170,55000,1,2,0:0:0:0:
293,168,55300,1,2,0:0:0:0:
391,85,55600,1,2,0:0:0:0:
150,58,55900,6,0,L|165:175,1,111.999996582031,2|2,0:0|0:0,0:0:0:0:
271,288,56500,1,2,0:0:0:0:
405,196,56700,1,2,0:0:0:0:
405,196,56800,2,0,L|390:84,1,111.999996582031,2|0,0:0|0:0,0:0:0:0:
219,41,57400,6,0,P|173:60|136:52,1,74.6666643880209,2|2,0:0|0:0,0:0:0:0:
76,31,57700,1,2,0:0:0:0:
33,152,58000,1,2,0:0:0:0:
101,261,58300,1,2,0:0:0:0:
229,247,58600,2,0,L|212:125,2,111.999996582031,2|2|2,0:0|0:0|0:0,0:0:0:0:
346,299,59500,5,2,0:0:0:0:
468,260,59800,1,2,0:0:0:0:
498,134,60100,1,2,0:0:0:0:
334,36,60400,5,2,0:0:0:0:
190,161,60700,1,10,0:0:0:0:
190,161,60775,1,0,3:2:0:0:
190,161,60850,2,0,L|192:200,1,27.9999991455078,0|0,3:2|3:2,0:0:0:0:
296,200,61000,2,0,L|294:172,3,27.9999991455078,10|0|0|0,0:0|3:2|3:2|3:2,0:0:0:0:
392,147,61300,5,6,3:2:0:0:
392,147,61450,1,0,3:2:0:0:
342,277,61600,2,0,P|308:289|266:283,1,71.9999978027344,8|0,0:0|0:0,0:0:0:0:
432,228,61900,5,0,3:2:0:0:
432,228,62050,1,0,3:2:0:0:
317,93,62200,2,0,P|281:89|247:101,1,71.9999978027344,8|0,3:2|3:2,0:0:0:0:
145,263,62500,5,0,3:2:0:0:
145,263,62650,1,0,3:0:0:0:
74,98,62800,2,0,L|77:61,2,35.9999989013672,8|8|8,0:0|0:0|0:0,0:0:0:0:
16,258,63100,2,0,L|18:293,2,35.9999989013672,10|8|8,0:0|0:0|0:0,0:0:0:0:
162,124,63400,2,0,L|168:48,1,71.9999978027344,8|4,0:3|0:3,0:0:0:0:
91,187,63700,5,2,3:2:0:0:
45,297,73300,6,0,B|121:279|91:319|177:296,1,128,6|4,0:1|0:3,0:0:0:0:
257,272,73750,1,4,0:3:0:0:
257,272,73900,1,0,3:0:0:0:
188,148,74200,2,0,L|183:218,1,64,4|4,0:3|0:3,0:0:0:0:
257,272,74500,6,0,P|299:307|369:271,1,128,2|4,3:1|0:3,0:0:0:0:
437,234,74950,1,4,0:3:0:0:
437,234,75100,1,0,3:0:0:0:
345,119,75400,1,6,0:3:0:0:
353,201,75550,1,6,0:3:0:0:
362,283,75700,6,0,P|306:308|257:272,1,128,2|4,3:1|0:3,0:0:0:0:
189,231,76150,1,4,0:3:0:0:
189,231,76300,1,0,3:0:0:0:
190,377,76600,2,0,L|182:302,1,64,4|4,0:3|0:3,0:0:0:0:
189,231,76900,6,0,P|157:197|72:225,1,128,2|8,3:1|0:3,0:0:0:0:
19,262,77350,1,4,0:3:0:0:
19,262,77500,1,8,0:3:0:0:
56,46,77800,1,2,0:0:0:0:
67,128,77950,1,2,0:0:0:0:
82,210,78100,6,0,P|141:191|195:269,1,160,6|8,3:1|0:0,0:0:0:0:
456,290,78700,2,0,P|397:308|343:231,1,160,8|8,0:0|0:0,0:0:0:0:
82,210,79300,6,0,L|100:372,1,160,10|8,0:1|0:0,0:0:0:0:
456,290,79900,2,0,L|473:130,1,160,8|6,0:0|0:3,0:0:0:0:
352,69,80350,1,6,0:3:0:0:
256,212,80500,6,0,L|172:221,1,80,14|2,0:1|3:2,0:0:0:0:
29,154,80800,2,0,L|108:145,1,80,10|2,0:0|3:2,0:0:0:0:
252,306,81100,2,0,L|172:314,1,80,10|2,0:0|3:2,0:0:0:0:
202,132,81400,2,0,L|281:123,1,80,10|2,0:0|3:2,0:0:0:0:
94,268,81700,5,14,0:1:0:0:
29,154,82000,5,8,0:3:0:0:
94,40,82300,5,4,0:3:0:0:
94,40,82900,6,0,L|87:109,2,58.6666684570313,6|2|2,3:2|0:0|0:0,0:0:0:0:
186,88,83200,1,10,0:0:0:0:
208,95,83300,1,2,0:0:0:0:
231,95,83400,1,2,0:0:0:0:
253,89,83500,2,0,L|250:24,2,58.6666684570313,2|2|2,3:2|0:0|0:0,0:0:0:0:
265,184,83800,1,10,0:0:0:0:
285,194,83900,1,2,0:0:0:0:
307,199,84000,1,2,0:0:0:0:
330,196,84100,6,0,L|336:129,2,58.6666684570313,2|2|2,3:2|0:0|0:0,0:0:0:0:
428,139,84400,2,0,L|422:197,2,58.6666684570313,2|2|2,3:2|0:0|0:0,0:0:0:0:
378,284,84700,5,10,0:0:0:0:
347,311,84800,1,2,0:0:0:0:
307,322,84900,1,2,0:0:0:0:
266,319,85000,1,10,0:0:0:0:
227,303,85100,1,2,0:0:0:0:
201,270,85200,1,2,0:0:0:0:
196,229,85300,6,0,P|204:196|199:167,2,58.6666684570313,6|2|2,3:2|0:0|0:0,0:0:0:0:
236,93,85600,2,0,P|203:85|174:90,2,58.6666684570313,10|2|2,0:0|0:0|0:0,0:0:0:0:
100,53,85900,2,0,P|92:86|97:115,2,58.6666684570313,6|2|2,3:2|0:0|0:0,0:0:0:0:
60,189,86200,2,0,P|93:197|122:192,2,58.6666684570313,10|2|2,0:0|0:0|0:0,0:0:0:0:
196,229,86500,5,6,3:2:0:0:
228,253,86600,1,2,0:0:0:0:
268,260,86700,1,2,0:0:0:0:
308,254,86800,1,10,0:0:0:0:
345,237,86900,1,2,0:0:0:0:
372,206,87000,1,2,0:0:0:0:
381,165,87100,5,14,0:0:0:0:
340,167,87200,1,10,0:3:0:0:
301,152,87300,1,10,0:3:0:0:
274,120,87400,1,10,0:3:0:0:
266,79,87500,1,6,0:3:0:0:
277,39,87600,1,6,0:3:0:0:
308,9,87700,6,0,L|470:23,1,160,6|2,3:2|0:0,0:0:0:0:
183,117,88300,2,0,P|174:69|187:33,1,80,10|0,0:0|0:0,0:0:0:0:
53,19,88600,1,10,0:3:0:0:
54,30,88675,1,4,0:3:0:0:
55,41,88750,1,4,0:3:0:0:
56,52,88825,1,4,0:3:0:0:
57,63,88900,1,2,3:2:0:0:
182,193,89200,2,0,P|191:145|178:109,1,80,10|2,0:0|0:0,0:0:0:0:
37,246,89500,1,2,3:2:0:0:
214,290,89650,1,0,3:2:0:0:
104,151,89800,1,10,0:0:0:0:
104,151,90100,6,0,L|189:138,1,80,2|0,3:2|3:2,0:0:0:0:
364,211,90400,2,0,L|279:198,1,80,10|0,0:0|0:0,0:0:0:0:
281,64,90700,2,0,L|366:51,1,80,10|4,0:0|0:3,0:0:0:0:
455,41,90925,1,4,0:3:0:0:
455,41,91000,6,0,P|444:88|458:125,1,80,2|2,3:2|0:0,0:0:0:0:
498,252,91300,1,10,0:0:0:0:
425,376,91450,1,2,0:0:0:0:
291,345,91600,2,0,L|203:356,1,80,2|10,3:2|0:0,0:0:0:0:
20,338,91900,5,6,3:2:0:0:
0,297,92000,1,2,0:0:0:0:
3,252,92100,1,2,0:0:0:0:
30,216,92200,1,10,0:0:0:0:
72,201,92300,1,2,0:0:0:0:
116,205,92400,1,2,0:0:0:0:
152,230,92500,6,0,L|159:299,2,63.9999980468751,10|2|2,0:0|0:0|0:0,0:0:0:0:
256,222,92800,2,0,L|249:158,2,63.9999980468751,2|2|2,3:2|0:0|0:0,0:0:0:0:
357,230,93100,5,2,3:2:0:0:
401,230,93200,1,2,0:0:0:0:
440,250,93300,1,2,0:0:0:0:
457,291,93400,1,10,0:0:0:0:
453,335,93500,1,2,0:0:0:0:
426,370,93600,1,2,0:0:0:0:
383,384,93700,6,0,L|373:316,2,63.9999980468751,2|2|2,3:2|0:0|0:0,0:0:0:0:
357,230,94000,5,6,3:2:0:0:
316,249,94100,1,2,0:0:0:0:
271,252,94200,1,2,0:0:0:0:
227,241,94300,1,2,3:2:0:0:
193,211,94400,1,2,0:0:0:0:
182,167,94500,1,2,0:0:0:0:
185,122,94600,6,0,L|261:132,2,63.9999980468751,10|2|2,0:0|0:0|0:0,0:0:0:0:
351,164,94900,2,0,L|414:155,2,63.9999980468751,2|2|2,3:2|0:0|0:0,0:0:0:0:
330,70,95200,5,6,3:2:0:0:
291,42,95300,1,2,0:0:0:0:
244,38,95400,1,2,0:0:0:0:
201,21,95500,5,14,0:0:0:0:
162,49,95600,1,2,0:0:0:0:
144,91,95700,1,2,0:0:0:0:
113,127,95800,5,6,3:2:0:0:
128,172,95900,1,2,0:0:0:0:
163,202,96000,1,2,0:0:0:0:
186,243,96100,5,14,0:0:0:0:
234,242,96200,1,10,0:3:0:0:
274,218,96300,1,6,0:3:0:0:
319,208,96400,6,0,P|368:158|330:70,1,176.000005371094,6|8,3:2|0:0,0:0:0:0:
228,149,96850,1,0,3:2:0:0:
228,149,96925,1,0,3:0:0:0:
228,149,97000,2,0,L|86:131,1,132.00000402832,2|2,3:2|3:2,0:0:0:0:
95,36,97300,2,0,L|190:47,1,88.000002685547,8|2,0:0|3:2,0:0:0:0:
330,70,97600,6,0,L|417:59,1,88.000002685547,6|0,3:2|3:2,0:0:0:0:
512,10,97900,1,10,0:0:0:0:
512,10,98050,1,0,3:2:0:0:
330,70,98200,6,0,P|319:120|328:160,1,88.000002685547,6|0,3:2|3:2,0:0:0:0:
493,220,98500,1,10,0:0:0:0:
493,220,98650,1,0,3:2:0:0:
330,70,98800,6,0,L|242:80,1,88.000002685547,6|0,3:2|3:2,0:0:0:0:
166,236,99100,1,10,0:0:0:0:
166,236,99250,1,0,3:2:0:0:
92,65,99400,5,6,3:2:0:0:
92,65,99475,1,0,3:2:0:0:
92,65,99550,1,0,3:2:0:0:
237,180,99700,2,0,P|257:220|251:262,1,88.000002685547,10|0,0:0|3:2,0:0:0:0:
7,240,100000,6,0,B|42:222|58:197|58:197|168:238,1,176.000005371094,14|8,0:0|0:0,0:0:0:0:
269,349,100450,1,0,3:2:0:0:
358,231,100600,2,0,L|348:139,1,88.000002685547,8|0,0:0|3:2,0:0:0:0:
169,147,100900,2,0,L|159:234,1,88.000002685547,8|0,0:0|3:2,0:0:0:0:
358,231,101200,6,0,P|402:239|447:228,1,88.000002685547,14|8,0:0|0:0,0:0:0:0:
449,51,101500,2,0,P|405:43|360:54,1,88.000002685547,8|8,0:0|0:0,0:0:0:0:
262,261,101800,6,0,L|269:353,1,88.000002685547,14|8,0:0|0:0,0:0:0:0:
174,87,102100,2,0,L|167:0,1,88.000002685547,8|8,0:0|0:0,0:0:0:0:
12,268,102400,6,0,P|68:279|110:265,1,95.9999970703126,6|2,3:2|0:0,0:0:0:0:
176,226,102625,1,2,0:0:0:0:
176,226,102700,2,0,L|170:170,3,47.9999985351563,10|2|2|2,0:0|0:0|0:0|0:0,0:0:0:0:
257,248,103000,1,2,3:2:0:0:
284,256,103075,1,2,0:0:0:0:
312,257,103150,1,2,3:2:0:0:
340,252,103225,1,2,0:0:0:0:
366,240,103300,2,0,L|363:191,3,47.9999985351563,10|2|2|2,0:0|0:0|3:2|0:0,0:0:0:0:
445,142,103600,6,0,P|485:102|430:47,1,143.999995605469,2|2,3:2|0:0,0:0:0:0:
356,96,103900,1,10,0:0:0:0:
225,158,104050,2,0,L|172:154,1,47.9999985351563,2|2,0:0|0:0,0:0:0:0:
99,94,104200,1,2,3:2:0:0:
86,120,104275,1,2,0:0:0:0:
82,148,104350,1,2,3:2:0:0:
86,176,104425,1,2,0:0:0:0:
98,201,104500,2,0,P|103:232|98:258,3,47.9999985351563,10|2|2|2,0:0|0:0|0:0|0:0,0:0:0:0:
34,330,104800,6,0,B|99:291|99:291|216:325,1,191.999994140625,6|10,3:2|0:0,0:0:0:0:
366,371,105250,1,2,3:2:0:0:
366,371,105325,1,2,0:0:0:0:
366,371,105400,2,0,L|416:365,3,47.9999985351563,2|2|2|2,3:2|0:0|3:2|0:0,0:0:0:0:
460,284,105700,1,10,0:0:0:0:
469,256,105775,1,2,0:0:0:0:
470,227,105850,1,2,0:0:0:0:
465,198,105925,1,2,0:0:0:0:
449,173,106000,6,0,P|401:172|355:187,1,95.9999970703126,14|2,0:1|3:2,0:0:0:0:
265,108,106300,6,0,P|240:149|239:213,1,108.000000411987,14|2,0:1|3:2,0:0:0:0:
368,305,106600,6,0,L|355:183,1,120.000004577637,14|2,0:1|3:2,0:0:0:0:
126,0,106900,6,0,L|112:131,1,132.00000125885,14|2,0:1|3:2,0:0:0:0:
95,278,107200,6,0,P|143:261|188:273,1,95.9999970703126,6|2,3:1|0:0,0:0:0:0:
260,324,107425,1,2,0:0:0:0:
260,324,107500,2,0,L|254:371,3,47.9999985351563,10|2|2|2,0:0|0:0|0:0|0:0,0:0:0:0:
349,330,107800,2,0,L|343:377,3,47.9999985351563,2|2|2|2,3:2|0:0|3:2|0:0,0:0:0:0:
435,340,108100,1,10,0:0:0:0:
445,313,108175,1,2,0:0:0:0:
450,284,108250,1,2,0:0:0:0:
449,255,108325,1,2,0:0:0:0:
439,227,108400,6,0,P|390:242|365:162,1,143.999995605469,2|2,3:2|0:0,0:0:0:0:
437,131,108700,1,10,0:0:0:0:
350,40,108850,1,2,3:2:0:0:
350,40,108925,1,2,0:0:0:0:
350,40,109000,2,0,L|357:93,3,47.9999985351563,2|2|2|2,3:2|0:0|3:2|0:0,0:0:0:0:
274,137,109300,1,10,0:0:0:0:
248,150,109375,1,2,0:0:0:0:
219,155,109450,1,2,0:0:0:0:
190,154,109525,1,2,0:0:0:0:
163,143,109600,6,0,P|112:96|65:184,1,191.999994140625,6|10,3:2|0:0,0:0:0:0:
165,316,110050,1,2,0:0:0:0:
165,316,110125,1,2,0:0:0:0:
165,316,110200,2,0,L|168:263,3,47.9999985351563,2|2|2|2,3:2|0:0|3:2|0:0,0:0:0:0:
271,249,110500,2,0,L|273:296,3,47.9999985351563,10|2|2|2,0:0|0:0|0:0|0:0,0:0:0:0:
207,171,110800,6,0,L|209:123,7,47.9999985351563,2|2|2|2|2|2|2|2,3:2|0:0|0:0|0:0|3:2|0:0|0:0|0:0,0:0:0:0:
338,157,111400,2,0,L|336:109,7,47.9999985351563,2|2|2|2|2|2|2|2,3:2|0:0|0:0|0:0|3:2|0:0|0:0|0:0,0:0:0:0:
254,25,112000,6,0,P|207:38|159:30,1,95.9999970703126,6|2,3:2|0:0,0:0:0:0:
67,12,112225,1,2,0:0:0:0:
67,12,112300,2,0,L|72:64,3,47.9999985351563,10|2|2|2,0:0|0:0|0:0|0:0,0:0:0:0:
144,116,112600,1,2,3:2:0:0:
151,143,112675,1,2,0:0:0:0:
152,171,112750,1,2,3:2:0:0:
148,199,112825,1,2,0:0:0:0:
138,226,112900,2,0,L|85:237,3,47.9999985351563,10|2|2|2,0:0|0:0|0:0|0:0,0:0:0:0:
131,322,113200,6,0,P|195:351|246:301,1,143.999995605469,2|2,3:2|0:0,0:0:0:0:
261,221,113500,1,10,0:0:0:0:
376,282,113650,2,0,L|316:279,1,47.9999985351563,2|2,3:2|0:0,0:0:0:0:
261,221,113800,1,2,3:2:0:0:
250,194,113875,1,2,0:0:0:0:
247,165,113950,1,2,3:2:0:0:
253,136,114025,1,2,0:0:0:0:
266,110,114100,2,0,P|295:113|318:108,3,47.9999985351563,10|2|2|2,0:0|0:0|0:0|0:0,0:0:0:0:
398,54,114400,6,0,B|348:106|348:106|385:225,1,191.999994140625,6|10,3:2|0:0,0:0:0:0:
512,170,114850,1,2,3:2:0:0:
512,170,114925,1,2,0:0:0:0:
512,170,115000,2,0,L|507:225,3,47.9999985351563,2|2|2|2,3:2|0:0|3:2|0:0,0:0:0:0:
499,312,115300,1,10,0:0:0:0:
476,329,115375,1,2,0:0:0:0:
448,338,115450,1,2,0:0:0:0:
419,335,115525,1,2,0:0:0:0:
394,320,115600,6,0,P|341:309|298:320,1,95.9999970703126,14|2,0:1|3:2,0:0:0:0:
149,360,115900,6,0,P|97:369|38:344,1,108.000000411987,14|2,0:1|3:2,0:0:0:0:
129,153,116200,6,0,L|108:277,1,120.000004577637,14|2,0:1|3:2,0:0:0:0:
352,207,116500,6,0,L|333:62,1,132.00000125885,14|2,0:1|3:2,0:0:0:0:
112,65,116800,6,0,P|105:111|131:155,1,95.9999970703126,6|2,3:1|0:0,0:0:0:0:
218,177,117025,1,2,0:0:0:0:
218,177,117100,2,0,L|268:181,3,47.9999985351563,10|2|2|2,0:0|0:0|0:0|0:0,0:0:0:0:
352,207,117400,2,0,L|399:203,3,47.9999985351563,2|2|2|2,3:2|0:0|3:2|0:0,0:0:0:0:
478,167,117700,1,10,0:0:0:0:
490,141,117775,1,2,0:0:0:0:
493,112,117850,1,2,0:0:0:0:
488,83,117925,1,2,0:0:0:0:
470,59,118000,6,0,P|429:109|371:68,1,143.999995605469,2|2,3:2|0:0,0:0:0:0:
302,14,118300,1,10,0:0:0:0:
280,148,118450,1,2,3:2:0:0:
280,148,118525,1,2,0:0:0:0:
280,148,118600,2,0,L|284:89,3,47.9999985351563,2|2|2|2,3:2|0:0|3:2|0:0,0:0:0:0:
210,36,118900,1,10,0:0:0:0:
168,25,118975,1,2,0:0:0:0:
124,25,119050,1,2,0:0:0:0:
83,40,119125,1,2,0:0:0:0:
57,75,119200,5,6,3:2:0:0:
59,98,119275,1,2,0:0:0:0:
61,122,119350,1,2,0:0:0:0:
63,145,119425,1,2,0:0:0:0:
66,169,119500,2,0,L|72:223,3,47.9999985351563,10|2|2|2,0:0|0:0|0:0|0:0,0:0:0:0:
178,250,119800,5,2,3:2:0:0:
211,256,119875,1,2,0:0:0:0:
244,261,119950,1,2,3:2:0:0:
277,266,120025,1,2,0:0:0:0:
310,271,120100,2,0,L|361:279,3,47.9999985351563,10|2|2|2,0:0|0:0|0:0|0:0,0:0:0:0:
207,354,120400,6,0,L|160:346,7,47.9999985351563,2|2|2|2|10|2|2|2,3:2|3:2|3:2|3:2|0:0|3:2|3:2|3:2,0:0:0:0:
71,216,121000,5,10,0:0:0:0:
112,192,121075,1,2,3:2:0:0:
159,190,121150,1,2,3:2:0:0:
206,199,121225,1,2,3:2:0:0:
244,227,121300,1,10,0:0:0:0:
282,255,121375,1,10,0:0:0:0:
329,264,121450,1,10,0:0:0:0:
376,262,121525,1,10,0:0:0:0:
417,238,121600,6,0,L|402:75,1,160,6|0,3:2|0:0,0:0:0:0:
290,72,122050,1,0,3:2:0:0:
290,72,122200,2,0,P|238:97|152:49,1,160,8|2,0:0|3:2,0:0:0:0:
36,12,122650,1,2,0:0:0:0:
29,136,122800,6,0,L|32:224,1,80,10|0,0:0|3:2,0:0:0:0:
162,247,123100,2,0,L|159:167,1,80,0|0,3:2|3:2,0:0:0:0:
67,308,123400,1,10,0:0:0:0:
68,319,123475,1,0,3:2:0:0:
69,330,123550,1,0,3:2:0:0:
70,341,123625,1,0,3:2:0:0:
72,352,123700,2,0,P|115:342|151:352,1,80,8|0,0:0|3:2,0:0:0:0:
307,245,124000,6,0,B|263:214|263:214|153:249,1,160,14|0,0:0|3:2,0:0:0:0:
275,348,124450,1,8,0:0:0:0:
408,253,124600,2,0,L|418:163,1,80,10|8,0:3|0:3,0:0:0:0:
298,73,124900,1,2,3:2:0:0:
298,73,125050,1,10,0:0:0:0:
463,75,125200,6,0,P|489:123|409:170,1,160,2|8,3:2|0:0,0:0:0:0:
286,226,125650,1,0,0:0:0:0:
176,130,125800,2,0,L|185:44,2,80,2|0|8,3:2|3:2|0:0,0:0:0:0:
293,375,126400,6,0,B|318:300|318:300|280:213,1,160,2|8,3:2|0:0,0:0:0:0:
196,308,126850,1,0,0:0:0:0:
196,308,127000,2,0,L|29:331,1,160,2|10,3:2|0:0,0:0:0:0:
36,47,127600,5,2,3:2:0:0:
118,137,127750,1,0,3:2:0:0:
118,137,127825,1,0,3:2:0:0:
118,137,127900,2,0,P|162:142|200:130,1,80,10|0,0:0|0:0,0:0:0:0:
271,29,128200,2,0,L|278:74,3,40,2|0|0|0,3:2|3:2|3:2|3:2,0:0:0:0:
368,123,128500,2,0,L|361:168,3,40,10|0|0|0,0:0|3:2|3:2|3:2,0:0:0:0:
282,225,128800,6,0,P|253:278|323:339,1,160,6|8,3:2|0:0,0:0:0:0:
413,250,129250,1,0,3:2:0:0:
498,354,129400,1,0,3:2:0:0:
498,354,129550,1,0,3:2:0:0:
413,250,129700,2,0,L|422:167,1,80,8|0,0:0|3:2,0:0:0:0:
455,77,129925,1,0,3:2:0:0:
455,77,130000,6,0,B|359:61|398:99|292:80,1,160,14|10,0:0|0:0,0:0:0:0:
132,89,130450,1,2,3:2:0:0:
132,89,130525,1,2,0:0:0:0:
132,89,130600,2,0,P|134:158|214:150,1,160,10|10,0:0|0:0,0:0:0:0:
305,89,131050,1,2,3:2:0:0:
305,89,131125,1,2,3:2:0:0:
305,89,131200,6,0,L|297:22,3,58.6666684570313,6|2|2|10,3:1|0:0|0:0|0:0,0:0:0:0:
478,231,131800,6,0,L|486:164,3,58.6666684570313,2|2|2|10,3:2|0:0|0:0|0:0,0:0:0:0:
213,341,132400,6,0,L|205:274,3,58.6666684570313,2|2|2|10,3:1|0:0|0:0|0:0,0:0:0:0:
305,89,133000,5,2,3:2:0:0:
310,129,133100,1,2,0:0:0:0:
315,169,133200,1,2,0:0:0:0:
320,209,133300,1,10,0:0:0:0:
151,98,133600,6,0,L|83:91,3,58.6666684570313,6|2|2|10,3:1|0:0|0:0|0:0,0:0:0:0:
320,209,134200,6,0,L|388:202,3,58.6666684570313,2|2|2|10,3:2|0:0|0:0|0:0,0:0:0:0:
105,318,134800,5,6,3:1:0:0:
112,277,134900,1,2,0:0:0:0:
153,284,135000,1,2,0:0:0:0:
146,325,135100,1,10,0:0:0:0:
418,373,135400,6,0,L|425:305,3,58.6666684570313,2|2|2|10,3:2|0:0|0:0|0:0,0:0:0:0:
460,80,136000,5,6,3:1:0:0:
425,62,136100,1,2,0:0:0:0:
386,60,136200,1,2,0:0:0:0:
349,71,136300,1,10,0:0:0:0:
323,99,136400,1,2,0:0:0:0:
312,135,136500,1,2,0:0:0:0:
317,172,136600,6,0,L|325:248,2,63.9999980468751,2|2|2,3:2|0:0|0:0,0:0:0:0:
450,337,136900,2,0,L|456:273,2,63.9999980468751,10|2|2,0:0|0:0|0:0,0:0:0:0:
275,358,137200,5,6,3:1:0:0:
219,372,137300,1,2,0:0:0:0:
161,364,137400,1,2,0:0:0:0:
118,324,137500,1,10,0:0:0:0:
104,267,137600,1,2,0:0:0:0:
123,212,137700,1,2,0:0:0:0:
170,179,137800,6,0,L|236:187,2,63.9999980468751,2|2|2,3:2|0:0|0:2,0:0:0:0:
323,235,138100,2,0,L|386:227,2,63.9999980468751,10|2|2,0:0|0:0|0:0,0:0:0:0:
458,157,138400,6,0,P|476:111|465:63,1,95.9999970703126,6|2,3:1|3:2,0:0:0:0:
364,20,138625,1,2,0:0:0:0:
364,20,138700,2,0,L|304:25,3,47.9999985351563,10|2|2|2,0:0|0:0|3:2|0:0,0:0:0:0:
238,95,139000,2,0,L|190:91,3,47.9999985351563,6|2|2|2,3:2|0:0|3:2|0:0,0:0:0:0:
96,29,139300,1,10,0:0:0:0:
64,40,139375,1,2,0:0:0:0:
38,62,139450,1,2,3:2:0:0:
27,93,139525,1,2,0:0:0:0:
30,126,139600,6,0,L|39:178,3,47.9999985351563,6|2|2|2,3:2|0:0|3:2|0:0,0:0:0:0:
49,276,139900,1,10,0:0:0:0:
49,276,139975,1,2,0:0:0:0:
49,276,140050,2,0,L|40:328,1,47.9999985351563,2|2,3:2|0:0,0:0:0:0:
142,369,140200,2,0,L|151:311,3,47.9999985351563,6|2|2|2,3:2|0:0|3:2|0:0,0:0:0:0:
202,234,140500,1,10,0:0:0:0:
234,224,140575,1,2,0:0:0:0:
267,223,140650,1,2,3:2:0:0:
300,229,140725,1,2,0:0:0:0:
328,247,140800,6,0,L|334:298,3,47.9999985351563,6|2|2|2,3:1|3:2|3:2|3:2,0:0:0:0:
442,252,141100,2,0,L|493:246,3,47.9999985351563,10|2|2|2,0:0|3:2|3:2|3:2,0:0:0:0:
447,138,141400,2,0,L|441:87,3,47.9999985351563,6|2|2|2,3:2|3:2|3:2|3:2,0:0:0:0:
333,133,141700,1,10,0:0:0:0:
285,140,141775,1,10,0:0:0:0:
237,147,141850,1,10,0:0:0:0:
189,154,141925,1,10,0:0:0:0:
141,160,142000,6,0,P|140:182|147:211,1,47.9999985351563,14|2,0:2|3:2,0:0:0:0:
105,288,142150,2,0,P|125:295|155:298,1,47.9999985351563,10|2,0:2|3:2,0:0:0:0:
215,361,142300,2,0,P|228:343|240:316,1,47.9999985351563,14|2,0:0|3:2,0:0:0:0:
319,278,142450,2,0,P|306:259|284:240,1,47.9999985351563,10|2,0:2|3:2,0:0:0:0:
273,154,142600,2,0,P|251:159|226:175,3,47.9999985351563,14|10|10|10,0:0|0:2|0:2|0:2,0:0:0:0:
385,72,142900,5,14,0:0:0:0:
391,124,142975,1,10,0:0:0:0:
397,176,143050,1,10,0:0:0:0:
402,228,143125,1,10,0:0:0:0:
407,280,143200,1,14,0:1:0:0:
256,192,143275,12,0,144325,0:0:0:0:
256,192,144400,5,2,0:0:0:0:
256,192,144475,12,0,145525,0:0:0:0:
256,192,145600,5,2,0:0:0:0:
256,192,145675,12,0,146725,0:0:0:0:
256,192,146800,5,2,0:0:0:0:
256,192,146875,12,0,147925,0:0:0:0:
256,192,148000,5,2,0:0:0:0:
256,192,148075,12,2,149200,0:0:0:0:
