osu file format v14

[General]
AudioFilename: audio.mp3
AudioLeadIn: 0
PreviewTime: 169433
Countdown: 1
SampleSet: None
StackLeniency: 0.7
Mode: 2
LetterboxInBreaks: 0
WidescreenStoryboard: 0

[Editor]
Bookmarks: 9983,19583,29183,38783,57983,67583,115583,125183,128183,144383,153983,169583,205583,224783,245033,263483
DistanceSpacing: 1.1
BeatDivisor: 4
GridSize: 32
TimelineZoom: 4.599997

[Metadata]
Title:Hatsune Miku No Gekishou(2018 remake)
TitleUnicode:初音ミクの激唱(2018 remake)
Artist:cosMo@bonsouP
ArtistUnicode:cosMo@暴走P
Creator:JeirYagtama
Version:InFiniTe EnD---
Source:
Tags:
BeatmapID:1892110
BeatmapSetID:906707

[Difficulty]
HPDrainRate:6
CircleSize:3.9
OverallDifficulty:3.9
ApproachRate:9
SliderMultiplier:1.9
SliderTickRate:2

[Events]
//Background and Video events
0,0,"end.jpg",0,0
//Break Periods
2,58183,66983
//Storyboard Layer 0 (Background)
//Storyboard Layer 1 (Fail)
//Storyboard Layer 2 (Pass)
//Storyboard Layer 3 (Foreground)
//Storyboard Sound Samples

[TimingPoints]
1058,300,4,2,0,50,1,0
5164,-100,4,2,0,5,0,0
5183,300,4,2,0,50,1,0
47183,-83.3333333333333,4,2,0,50,0,0
47464,-83.3333333333333,4,2,0,5,0,0
47483,-83.3333333333333,4,2,0,50,0,0
47764,-83.3333333333333,4,2,0,5,0,0
47783,-83.3333333333333,4,2,0,50,0,0
48064,-83.3333333333333,4,2,0,5,0,0
48083,-83.3333333333333,4,2,0,50,0,0
56783,-83.3333333333333,4,2,0,50,0,0
57064,-83.3333333333333,4,2,0,5,0,0
57083,-83.3333333333333,4,2,0,50,0,0
57364,-83.3333333333333,4,2,0,5,0,0
57383,-83.3333333333333,4,2,0,50,0,0
57664,-83.3333333333333,4,2,0,5,0,0
57683,-83.3333333333333,4,2,0,50,0,0
101183,-25,4,2,0,50,0,0
103283,-100,4,2,0,50,0,0
103583,-25,4,2,0,50,0,0
104783,-83.3333333333333,4,2,0,50,0,0
188783,300,3,2,0,50,1,0
195983,300,4,2,0,50,1,0
195983,-83.3333333333333,4,2,0,50,0,0
224783,-100,4,2,0,50,0,1
229583,300,7,2,0,50,1,0
229583,-83.3333333333333,7,2,0,50,0,0
233783,300,4,2,0,50,1,1
233783,-100,4,2,0,50,0,1
236483,300,4,2,0,50,1,1
238283,300,4,2,0,50,1,0
238283,-83.3333333333333,4,2,0,50,0,0
244283,-83.3333333333333,4,2,0,50,0,1
263483,-100,4,2,0,50,0,0
280283,-100,4,2,0,50,0,1
285083,-100,4,2,0,50,0,0

[Colours]
Combo1 : 128,128,255
Combo2 : 0,255,255

[HitObjects]
0,132,1058,6,0,L|0:198,1,47.5
0,179,2033,2,0,L|47:179,2,47.5
12,172,3683,1,0,0:0:0:0:
12,172,3758,2,0,B|5:28|5:28|3:256|3:256|1:386|1:386|4:-9,1,890.625
4,102,5183,5,0,0:0:0:0:
184,102,5483,1,0,0:0:0:0:
4,102,5783,2,0,L|-1:312,1,190
296,279,6383,5,0,0:0:0:0:
116,279,6683,1,0,0:0:0:0:
296,279,6983,2,0,L|85:274,1,190
413,294,7583,5,0,0:0:0:0:
233,294,7883,1,0,0:0:0:0:
413,294,8183,2,0,L|413:99,1,190
115,284,8783,5,0,0:0:0:0:
295,284,9083,1,0,0:0:0:0:
115,284,9383,2,0,L|326:279,1,190
385,279,9833,1,0,0:0:0:0:
162,252,9983,6,0,P|79:268|33:174,1,190
292,193,10583,2,0,L|86:193,1,190
410,185,11183,2,0,L|212:183,3,190
498,127,12383,6,0,L|498:318,1,190
248,309,12983,2,0,L|455:304,1,190
152,285,13583,2,0,P|264:277|326:227,2,190
349,260,14483,2,0,L|350:395,1,95
122,310,14783,6,0,P|76:246|162:229,1,190
400,221,15383,2,0,L|202:220,1,190
487,183,15983,2,0,L|267:184,3,190
50,275,17183,6,0,L|50:77,1,190
302,129,17783,2,0,P|377:131|396:26,1,190
155,41,18383,2,0,L|379:48,1,190
94,149,18983,1,0,0:0:0:0:
125,149,19020,1,0,0:0:0:0:
158,149,19058,1,0,0:0:0:0:
190,149,19095,1,0,0:0:0:0:
223,149,19133,1,0,0:0:0:0:
256,149,19170,1,0,0:0:0:0:
256,149,19208,1,0,0:0:0:0:
256,149,19245,1,0,0:0:0:0:
223,149,19283,1,0,0:0:0:0:
191,149,19320,1,0,0:0:0:0:
158,149,19358,1,0,0:0:0:0:
125,149,19395,1,0,0:0:0:0:
94,149,19433,1,0,0:0:0:0:
315,230,19583,6,0,P|365:148|291:125,1,190
194,122,20033,1,0,0:0:0:0:
418,149,20183,1,0,0:0:0:0:
387,149,20220,1,0,0:0:0:0:
354,149,20258,1,0,0:0:0:0:
322,149,20295,1,0,0:0:0:0:
289,149,20333,1,0,0:0:0:0:
256,149,20370,1,0,0:0:0:0:
256,149,20408,1,0,0:0:0:0:
256,149,20445,1,0,0:0:0:0:
289,149,20483,1,0,0:0:0:0:
321,149,20520,1,0,0:0:0:0:
354,149,20558,1,0,0:0:0:0:
387,149,20595,1,0,0:0:0:0:
418,149,20633,1,0,0:0:0:0:
198,161,20783,6,0,L|92:159,2,95
296,162,21233,1,0,0:0:0:0:
75,120,21383,2,0,L|71:243,1,95
221,209,21683,2,0,L|108:213,1,95
354,270,21983,6,0,P|342:205|232:213,1,190
131,208,22433,1,0,0:0:0:0:
372,230,22583,1,0,0:0:0:0:
406,216,22620,1,0,0:0:0:0:
440,188,22658,1,0,0:0:0:0:
458,152,22695,1,0,0:0:0:0:
462,111,22733,1,0,0:0:0:0:
416,135,22770,1,0,0:0:0:0:
382,121,22807,1,0,0:0:0:0:
348,93,22845,1,0,0:0:0:0:
330,57,22882,1,0,0:0:0:0:
326,21,22920,1,0,0:0:0:0:
375,26,22958,1,0,0:0:0:0:
409,40,22995,1,0,0:0:0:0:
443,68,23033,1,0,0:0:0:0:
210,123,23183,6,0,L|88:119,3,95
262,136,23783,2,0,L|386:144,1,95
193,117,24083,2,0,L|301:108,1,95
60,153,24383,6,0,P|72:88|182:96,1,190
72,91,24833,1,0,0:0:0:0:
297,84,24983,1,0,0:0:0:0:
297,107,25020,1,0,0:0:0:0:
296,131,25058,1,0,0:0:0:0:
296,155,25095,1,0,0:0:0:0:
295,178,25133,1,0,0:0:0:0:
267,186,25170,1,0,0:0:0:0:
224,184,25208,1,0,0:0:0:0:
182,182,25245,1,0,0:0:0:0:
138,179,25283,1,0,0:0:0:0:
96,177,25320,1,0,0:0:0:0:
51,181,25358,1,0,0:0:0:0:
50,204,25395,1,0,0:0:0:0:
49,228,25433,1,0,0:0:0:0:
276,228,25583,6,0,L|382:226,2,95
178,229,26033,1,0,0:0:0:0:
399,187,26183,2,0,L|403:310,1,95
253,276,26483,2,0,L|366:280,1,95
121,309,26783,6,0,P|43:297|48:172,1,190
127,212,27233,1,0,0:0:0:0:
347,224,27383,5,0,0:0:0:0:
385,218,27420,1,0,0:0:0:0:
425,212,27458,1,0,0:0:0:0:
464,206,27495,1,0,0:0:0:0:
484,200,27533,1,0,0:0:0:0:
444,198,27570,1,0,0:0:0:0:
404,194,27608,1,0,0:0:0:0:
364,191,27645,1,0,0:0:0:0:
324,188,27683,1,0,0:0:0:0:
332,153,27720,1,0,0:0:0:0:
371,150,27758,1,0,0:0:0:0:
411,147,27795,1,0,0:0:0:0:
451,143,27833,1,0,0:0:0:0:
227,146,27983,6,0,L|116:145,3,95
376,153,28583,2,0,L|380:292,1,95
137,204,28883,2,0,L|133:343,1,95
355,317,29183,6,0,P|475:278|481:220,2,190
146,306,30083,1,0,0:0:0:0:
421,302,30383,2,0,L|418:77,1,190
157,146,30983,2,0,L|351:141,1,190
88,235,31583,6,0,P|208:196|214:138,2,190
277,254,32483,1,0,0:0:0:0:
18,233,32783,2,0,P|40:160|167:165,1,190
404,143,33383,2,0,L|204:144,1,190
109,140,33833,1,0,0:0:0:0:
332,205,33983,6,0,P|212:166|206:108,2,190
123,201,34883,1,0,0:0:0:0:
384,183,35183,2,0,L|158:184,1,190
457,300,35783,2,0,L|463:75,1,190
357,107,36233,1,0,0:0:0:0:
127,141,36383,6,0,P|24:84|-1:9,2,190
336,142,37283,1,0,0:0:0:0:
72,113,37583,2,0,P|19:185|87:241,1,190
345,226,38183,2,0,L|137:230,1,190
250,231,38633,1,0,0:0:0:0:
38,222,38783,6,0,P|38:174|168:181,1,190
268,156,39233,1,0,0:0:0:0:
118,227,39383,2,0,L|123:95,1,95
258,131,39683,2,0,L|133:131,1,95
387,182,39983,1,0,0:0:0:0:
254,180,40283,2,0,L|443:174,2,190
140,177,41033,1,0,0:0:0:0:
287,186,41183,6,0,L|285:57,1,95
140,129,41483,2,0,L|138:0,1,95
284,41,41783,2,0,L|164:40,1,95
334,48,42083,2,0,L|454:47,1,95
142,147,42383,5,0,0:0:0:0:
331,146,42683,2,0,L|121:145,2,190
435,150,43433,1,0,0:0:0:0:
220,191,43583,6,0,P|79:152|67:114,2,190
334,191,44333,1,0,0:0:0:0:
187,199,44483,2,0,L|197:308,1,95
313,221,44783,1,0,0:0:0:0:
123,233,45083,2,0,L|119:110,1,95
269,172,45383,2,0,L|265:49,1,95
119,83,45683,2,0,L|-22:80,1,95
248,74,45983,6,0,L|29:53,2,190
39,74,46883,2,0,L|38:189,1,95
262,177,47183,2,0,L|46:175,1,213.749993476868
48,175,47483,2,0,L|262:177,1,213.749993476868
262,177,47783,2,0,L|48:175,1,213.749993476868
48,175,48083,2,0,L|48:53,1,113.999996520996
283,73,48383,6,0,L|417:75,2,113.999996520996
169,70,48833,1,0,0:0:0:0:
332,108,48983,2,0,L|332:230,1,113.999996520996
179,208,49283,2,0,L|50:209,1,113.999996520996
299,195,49583,6,0,L|435:193,1,113.999996520996
249,206,49883,2,0,L|246:73,1,113.999996520996
409,79,50183,2,0,L|295:81,1,113.999996520996
456,53,50483,2,0,L|342:50,1,113.999996520996
109,141,50783,6,0,P|46:115|38:60,1,113.999996520996
190,107,51083,2,0,P|253:81|261:26,1,113.999996520996
102,44,51383,2,0,L|259:39,1,113.999996520996
377,44,51683,2,0,L|220:39,1,113.999996520996
32,75,51983,6,0,L|35:203,1,113.999996520996
190,186,52283,2,0,L|328:185,1,113.999996520996
142,161,52583,2,0,L|280:160,1,113.999996520996
93,138,52883,2,0,L|95:265,1,113.999996520996
335,255,53183,6,0,L|337:107,1,113.999996520996
174,161,53483,2,0,L|172:13,1,113.999996520996
336,44,53783,2,0,L|474:45,1,113.999996520996
286,73,54083,2,0,L|426:71,1,113.999996520996
169,193,54383,6,0,L|165:42,1,113.999996520996
328,71,54683,2,0,L|330:230,1,113.999996520996
169,193,54983,2,0,L|43:191,1,113.999996520996
219,159,55283,2,0,L|105:160,1,113.999996520996
338,164,55583,6,0,P|192:157|115:88,2,227.999993041992
132,170,56483,2,0,L|10:164,1,113.999996520996
250,177,56783,2,0,L|466:175,1,213.749993476868
463,175,57083,2,0,L|323:180,1,113.999996520996
115,186,57383,2,0,L|110:51,1,113.999996520996
273,58,57683,2,0,L|138:59,1,113.999996520996
391,93,57983,5,0,0:0:0:0:
77,152,67583,6,0,L|310:149,3,227.999993041992
83,90,68783,2,0,L|85:346,1,227.999993041992
312,313,69383,2,0,L|52:316,1,227.999993041992
400,294,69983,2,0,L|145:295,1,227.999993041992
400,294,70583,2,0,L|405:39,1,227.999993041992
97,99,71183,2,0,L|351:93,2,227.999993041992
325,92,72083,2,0,L|348:240,1,113.999996520996
109,190,72383,6,0,P|36:152|136:80,1,227.999993041992
212,73,72833,1,0,0:0:0:0:
376,103,72983,2,0,L|131:109,1,227.999993041992
45,116,73433,1,0,0:0:0:0:
211,161,73583,2,0,P|339:157|347:30,1,227.999993041992
258,72,74033,1,0,0:0:0:0:
95,133,74183,2,0,P|145:37|251:49,1,227.999993041992
148,49,74633,1,0,0:0:0:0:
381,139,74783,6,0,L|511:131,2,113.999996520996
278,145,75233,1,0,0:0:0:0:
114,162,75383,2,0,L|113:24,1,113.999996520996
277,50,75683,2,0,L|155:55,1,113.999996520996
396,133,75983,6,0,L|538:134,1,113.999996520996
350,118,76283,2,0,L|492:119,1,113.999996520996
230,178,76583,2,0,L|227:21,1,113.999996520996
389,146,76883,2,0,L|392:-11,1,113.999996520996
158,98,77183,6,0,L|324:96,1,113.999996520996
116,186,77483,2,0,L|107:65,1,113.999996520996
336,231,77783,1,0,0:0:0:0:
295,227,77820,1,0,0:0:0:0:
262,208,77858,1,0,0:0:0:0:
239,176,77895,1,0,0:0:0:0:
231,137,77933,1,0,0:0:0:0:
242,98,77970,1,0,0:0:0:0:
267,69,78008,1,0,0:0:0:0:
302,52,78045,1,0,0:0:0:0:
347,53,78083,1,0,0:0:0:0:
460,55,78233,1,0,0:0:0:0:
230,116,78383,6,0,L|109:116,1,113.999996520996
277,98,78683,2,0,L|401:102,1,113.999996520996
156,155,78983,2,0,L|269:156,3,113.999996520996
37,192,79583,6,0,L|37:54,1,113.999996520996
199,90,79883,2,0,L|62:86,1,113.999996520996
322,235,80183,1,0,0:0:0:0:
363,231,80220,1,0,0:0:0:0:
396,212,80258,1,0,0:0:0:0:
419,180,80295,1,0,0:0:0:0:
427,141,80333,1,0,0:0:0:0:
416,102,80370,1,0,0:0:0:0:
391,73,80408,1,0,0:0:0:0:
356,56,80445,1,0,0:0:0:0:
311,57,80483,1,0,0:0:0:0:
197,64,80633,1,0,0:0:0:0:
430,175,80783,6,0,L|435:22,1,113.999996520996
272,154,81083,2,0,L|277:1,1,113.999996520996
114,52,81383,2,0,L|260:52,1,113.999996520996
66,149,81683,2,0,L|54:26,1,113.999996520996
288,50,81983,6,0,L|40:52,1,227.999993041992
173,60,82433,1,0,0:0:0:0:
405,198,82583,1,0,0:0:0:0:
400,164,82620,1,0,0:0:0:0:
387,133,82658,1,0,0:0:0:0:
366,107,82695,1,0,0:0:0:0:
339,87,82733,1,0,0:0:0:0:
307,77,82770,1,0,0:0:0:0:
274,74,82808,1,0,0:0:0:0:
242,80,82845,1,0,0:0:0:0:
212,96,82883,1,0,0:0:0:0:
98,101,83033,1,0,0:0:0:0:
333,119,83183,6,0,L|482:114,1,113.999996520996
285,102,83483,2,0,L|136:97,1,113.999996520996
408,90,83783,2,0,L|406:230,1,113.999996520996
242,190,84083,2,0,L|396:196,1,113.999996520996
120,178,84383,6,0,L|261:178,3,113.999996520996
466,180,84983,2,0,L|425:180,12,28.4999991302491
234,198,85583,2,0,L|108:200,1,113.999996520996
281,199,85883,2,0,L|449:194,1,113.999996520996
158,266,86183,2,0,L|24:257,1,113.999996520996
205,235,86483,2,0,L|71:226,1,113.999996520996
322,195,86783,5,0,0:0:0:0:
196,195,86933,1,0,0:0:0:0:
355,195,87083,1,0,0:0:0:0:
360,69,87233,1,0,0:0:0:0:
126,75,87383,1,0,0:0:0:0:
157,74,87420,1,0,0:0:0:0:
189,73,87458,1,0,0:0:0:0:
221,72,87495,1,0,0:0:0:0:
253,71,87533,1,0,0:0:0:0:
285,70,87570,1,0,0:0:0:0:
317,70,87608,1,0,0:0:0:0:
349,69,87645,1,0,0:0:0:0:
381,68,87683,1,0,0:0:0:0:
494,66,87833,1,0,0:0:0:0:
260,104,87983,5,0,0:0:0:0:
134,104,88133,1,0,0:0:0:0:
292,84,88283,1,0,0:0:0:0:
166,84,88433,1,0,0:0:0:0:
397,170,88583,5,0,0:0:0:0:
422,58,88733,1,0,0:0:0:0:
267,61,88883,1,0,0:0:0:0:
393,61,89033,1,0,0:0:0:0:
157,172,89183,5,0,0:0:0:0:
132,60,89333,1,0,0:0:0:0:
293,69,89483,1,0,0:0:0:0:
167,69,89633,1,0,0:0:0:0:
402,80,89783,1,0,0:0:0:0:
371,79,89820,1,0,0:0:0:0:
339,78,89858,1,0,0:0:0:0:
307,77,89895,1,0,0:0:0:0:
275,76,89933,1,0,0:0:0:0:
243,75,89970,1,0,0:0:0:0:
211,75,90008,1,0,0:0:0:0:
179,74,90045,1,0,0:0:0:0:
147,73,90083,1,0,0:0:0:0:
34,71,90233,1,0,0:0:0:0:
267,104,90383,5,0,0:0:0:0:
393,104,90533,1,0,0:0:0:0:
231,80,90683,1,0,0:0:0:0:
357,80,90833,1,0,0:0:0:0:
126,174,90983,5,0,0:0:0:0:
101,62,91133,1,0,0:0:0:0:
262,152,91283,1,0,0:0:0:0:
287,40,91433,1,0,0:0:0:0:
51,63,91583,5,0,0:0:0:0:
176,56,91733,1,0,0:0:0:0:
339,99,91883,1,0,0:0:0:0:
214,92,92033,1,0,0:0:0:0:
446,247,92183,1,0,0:0:0:0:
412,233,92220,1,0,0:0:0:0:
378,205,92258,1,0,0:0:0:0:
360,169,92295,1,0,0:0:0:0:
356,128,92333,1,0,0:0:0:0:
402,152,92370,1,0,0:0:0:0:
436,138,92407,1,0,0:0:0:0:
470,110,92445,1,0,0:0:0:0:
488,74,92482,1,0,0:0:0:0:
492,38,92520,1,0,0:0:0:0:
397,38,92633,1,0,0:0:0:0:
165,178,92783,5,0,0:0:0:0:
39,176,92933,1,0,0:0:0:0:
24,51,93083,1,0,0:0:0:0:
149,43,93233,1,0,0:0:0:0:
381,51,93383,5,0,0:0:0:0:
506,51,93533,1,0,0:0:0:0:
343,43,93683,1,0,0:0:0:0:
468,43,93833,1,0,0:0:0:0:
231,139,93983,5,0,0:0:0:0:
231,139,94133,1,0,0:0:0:0:
70,135,94283,1,0,0:0:0:0:
70,135,94433,1,0,0:0:0:0:
307,125,94583,1,0,0:0:0:0:
307,125,94733,1,0,0:0:0:0:
470,131,94883,1,0,0:0:0:0:
470,131,95033,1,0,0:0:0:0:
237,188,95183,6,0,L|400:183,1,113.999996520996
512,189,95483,2,0,L|349:184,1,113.999996520996
164,207,95783,2,0,L|112:97,1,113.999996520996
280,140,96083,2,0,L|332:30,1,113.999996520996
95,59,96383,6,0,L|336:56,2,227.999993041992
220,55,97133,1,0,0:0:0:0:
59,62,97283,2,0,L|57:221,1,113.999996520996
292,181,97583,2,0,P|394:121|330:85,1,227.999993041992
238,84,98033,1,0,0:0:0:0:
402,84,98183,2,0,L|395:228,1,113.999996520996
232,194,98483,2,0,L|391:191,1,113.999996520996
110,192,98783,6,0,P|134:122|276:140,1,227.999993041992
39,111,99383,1,0,0:0:0:0:
152,110,99533,1,0,0:0:0:0:
313,104,99683,1,0,0:0:0:0:
200,103,99833,1,0,0:0:0:0:
434,115,99983,6,0,L|435:242,1,113.999996520996
272,197,100283,2,0,L|273:324,1,113.999996520996
38,314,100583,2,0,L|176:307,3,113.999996520996
374,314,101183,6,0,B|370:219|370:219|372:292|372:292|492:195|302:166|401:98|401:98|396:260,1,380
216,242,101483,2,0,B|220:147|220:147|218:220|218:220|98:123|288:94|189:26|189:26|194:188,1,380
367,185,101783,2,0,B|296:82|296:82|305:370,1,380
134,168,102083,2,0,B|248:88|248:88|196:353,1,380
457,181,102383,6,0,B|484:312|484:312|487:14,1,380
322,107,102683,2,0,B|340:287|340:287|327:-90,1,380
87,33,102983,2,0,B|88:373|88:373|-34:225,1,380
197,323,103283,2,0,L|63:326,1,95
360,313,103583,6,0,B|367:134|367:134|286:191|286:191|551:210,1,380
238,207,103883,2,0,B|231:28|231:28|179:144|179:144|170:42,1,380
400,101,104183,2,0,B|394:139|394:139|374:154|374:154|363:124|363:124|355:159|355:159|338:131|338:131|344:153|344:153|338:114|338:114|281:322,1,380
175,112,104483,2,0,B|181:150|181:150|201:165|201:165|212:135|212:135|220:170|220:170|237:142|237:142|231:164|231:164|237:125|237:125|294:333,1,380
44,261,104783,6,0,P|70:192|224:209,1,227.999993041992
92,183,105233,1,0,0:0:0:0:
325,201,105383,2,0,L|320:48,1,113.999996520996
484,81,105683,2,0,L|340:86,1,113.999996520996
137,93,105983,5,0,0:0:0:0:
250,89,106133,1,0,0:0:0:0:
411,101,106283,1,0,0:0:0:0:
298,97,106433,1,0,0:0:0:0:
61,212,106583,2,0,P|31:156|159:145,1,227.999993041992
33,124,107033,1,0,0:0:0:0:
268,164,107183,6,0,P|370:149|389:26,1,227.999993041992
229,165,107633,2,0,P|127:150|108:27,1,227.999993041992
264,40,108083,1,0,0:0:0:0:
150,46,108233,1,0,0:0:0:0:
381,150,108383,5,0,0:0:0:0:
411,38,108533,1,0,0:0:0:0:
251,151,108683,1,0,0:0:0:0:
221,39,108833,1,0,0:0:0:0:
454,83,108983,2,0,L|177:77,1,227.999993041992
339,81,109433,1,0,0:0:0:0:
103,158,109583,6,0,P|119:87|267:94,1,227.999993041992
417,146,110033,2,0,P|401:75|253:82,1,227.999993041992
433,81,110483,1,0,0:0:0:0:
423,194,110633,1,0,0:0:0:0:
192,191,110783,6,0,L|35:193,1,113.999996520996
239,156,111083,2,0,L|82:158,1,113.999996520996
288,182,111383,2,0,L|315:37,1,113.999996520996
145,80,111683,2,0,L|291:77,1,113.999996520996
491,97,111983,6,0,L|333:98,1,113.999996520996
217,102,112283,2,0,L|381:99,1,113.999996520996
96,193,112583,2,0,L|95:58,1,113.999996520996
258,72,112883,2,0,L|118:70,1,113.999996520996
377,126,113183,6,0,L|257:126,1,113.999996520996
102,129,113483,2,0,L|95:273,1,113.999996520996
331,248,113783,2,0,L|465:251,1,113.999996520996
281,223,114083,2,0,L|143:225,1,113.999996520996
403,211,114383,6,0,P|375:148|210:153,1,227.999993041992
357,132,114833,1,0,0:0:0:0:
125,185,114983,2,0,L|115:37,1,113.999996520996
355,146,115283,2,0,L|365:-2,1,113.999996520996
125,53,115583,1,0,0:0:0:0:
256,192,115733,12,0,115864,0:0:0:0:
256,192,115883,12,0,116164,0:0:0:0:
256,192,116183,12,0,116464,0:0:0:0:
256,192,116483,12,0,116764,0:0:0:0:
256,192,116783,12,0,117064,0:0:0:0:
256,192,117083,12,0,117364,0:0:0:0:
256,192,117383,12,0,117664,0:0:0:0:
256,192,117683,12,0,117964,0:0:0:0:
256,192,117983,12,0,118264,0:0:0:0:
256,192,118283,12,0,118564,0:0:0:0:
256,192,118583,12,0,118864,0:0:0:0:
256,192,118883,12,0,119164,0:0:0:0:
256,192,119183,12,0,119464,0:0:0:0:
256,192,119483,12,0,119764,0:0:0:0:
256,192,119783,12,0,120064,0:0:0:0:
256,192,120083,12,0,120233,0:0:0:0:
256,192,120383,12,0,120664,0:0:0:0:
256,192,120683,12,0,120964,0:0:0:0:
256,192,120983,12,0,121264,0:0:0:0:
256,192,121283,12,0,121564,0:0:0:0:
256,192,121583,12,0,121864,0:0:0:0:
256,192,121883,12,0,122164,0:0:0:0:
256,192,122183,12,0,122464,0:0:0:0:
256,192,122483,12,0,122764,0:0:0:0:
256,192,122783,12,0,123064,0:0:0:0:
256,192,123083,12,0,123364,0:0:0:0:
256,192,123383,12,0,123664,0:0:0:0:
256,192,123683,12,0,123964,0:0:0:0:
256,192,123983,12,0,124264,0:0:0:0:
256,192,124283,12,0,124564,0:0:0:0:
256,192,124583,12,0,124883,0:0:0:0:
145,285,125183,6,0,L|86:50,1,227.999993041992
319,284,125783,2,0,L|378:49,1,227.999993041992
146,70,126383,1,0,0:0:0:0:
374,65,126683,1,0,0:0:0:0:
147,68,126983,1,0,0:0:0:0:
374,65,127283,1,0,0:0:0:0:
77,186,127583,6,0,P|78:110|211:112,1,227.999993041992
435,186,128183,2,0,L|159:185,1,227.999993041992
443,178,128783,1,0,0:0:0:0:
215,173,129083,1,0,0:0:0:0:
442,176,129383,1,0,0:0:0:0:
215,173,129683,1,0,0:0:0:0:
489,135,129983,6,0,L|499:363,1,227.999993041992
250,354,130583,2,0,L|533:351,1,227.999993041992
219,349,131183,1,0,0:0:0:0:
447,344,131483,1,0,0:0:0:0:
220,347,131783,1,0,0:0:0:0:
447,344,132083,1,0,0:0:0:0:
150,348,132383,6,0,L|149:102,1,227.999993041992
376,137,132983,2,0,P|357:79|190:92,1,227.999993041992
441,220,133583,2,0,P|497:171|391:118,1,227.999993041992
171,122,134183,1,0,0:0:0:0:
398,111,134483,1,0,0:0:0:0:
398,111,134633,1,0,0:0:0:0:
164,125,134783,6,0,L|409:124,3,227.999993041992
118,279,135983,2,0,P|49:193|61:53,1,227.999993041992
330,88,136583,2,0,L|55:93,1,227.999993041992
375,117,137183,6,0,L|130:116,3,227.999993041992
32,119,138233,1,0,0:0:0:0:
210,162,138383,2,0,P|206:93|63:93,1,227.999993041992
344,166,138983,2,0,P|433:159|451:24,1,227.999993041992
347,47,139433,1,0,0:0:0:0:
113,69,139583,6,0,L|226:70,2,113.999996520996
8,71,140033,1,0,0:0:0:0:
185,199,140183,2,0,L|342:192,1,113.999996520996
135,165,140483,2,0,L|21:164,1,113.999996520996
254,142,140783,6,0,L|141:143,2,113.999996520996
367,145,141233,1,0,0:0:0:0:
193,170,141383,2,0,L|310:161,1,113.999996520996
482,173,141683,2,0,L|365:164,1,113.999996520996
134,164,141983,6,0,L|10:162,1,113.999996520996
178,125,142283,2,0,L|54:123,1,113.999996520996
300,115,142583,1,0,0:0:0:0:
174,115,142733,1,0,0:0:0:0:
300,115,142883,1,0,0:0:0:0:
425,112,143033,1,0,0:0:0:0:
181,137,143183,5,0,0:0:0:0:
416,160,143333,2,0,L|150:168,1,227.999993041992
421,183,143783,2,0,L|460:134,7,56.9999982604981
275,172,144383,6,0,L|146:80,1,113.999996520996
295,99,144683,1,0,0:0:0:0:
132,128,144833,2,0,L|247:40,1,113.999996520996
336,54,145133,1,0,0:0:0:0:
177,60,145283,6,0,L|8:64,1,113.999996520996
188,60,145583,1,0,0:0:0:0:
29,170,145733,2,0,L|21:26,1,113.999996520996
148,58,146033,1,0,0:0:0:0:
311,133,146183,2,0,L|197:137,1,113.999996520996
34,130,146483,2,0,L|168:117,1,113.999996520996
380,188,146783,6,0,L|533:187,1,113.999996520996
367,191,147083,1,0,0:0:0:0:
207,171,147233,2,0,L|320:170,1,113.999996520996
194,174,147533,1,0,0:0:0:0:
358,178,147683,6,0,L|366:34,1,113.999996520996
239,66,147983,1,0,0:0:0:0:
403,65,148133,2,0,L|289:62,1,113.999996520996
163,56,148434,1,0,0:0:0:0:
323,97,148583,2,0,L|209:101,1,113.999996520996
367,124,148883,2,0,L|480:128,1,113.999996520996
245,156,149183,6,0,L|121:152,2,113.999996520996
405,162,149633,2,0,L|281:158,2,113.999996520996
245,207,150083,6,0,L|222:69,1,113.999996520996
351,85,150383,1,0,0:0:0:0:
192,84,150533,1,0,0:0:0:0:
317,87,150683,1,0,0:0:0:0:
442,87,150833,1,0,0:0:0:0:
284,198,150983,2,0,L|427:198,1,113.999996520996
236,180,151283,2,0,L|379:180,1,113.999996520996
115,196,151583,6,0,L|107:45,2,113.999996520996
276,155,152033,2,0,L|284:4,2,113.999996520996
116,159,152483,1,0,0:0:0:0:
241,155,152633,1,0,0:0:0:0:
475,154,152783,6,0,L|498:99,2,56.9999982604981
238,143,153083,1,0,0:0:0:0:
276,142,153121,1,0,0:0:0:0:
316,142,153158,1,0,0:0:0:0:
354,141,153196,1,0,0:0:0:0:
394,140,153233,1,0,0:0:0:0:
165,134,153383,5,0,0:0:0:0:
400,121,153533,1,0,0:0:0:0:
240,127,153683,5,0,0:0:0:0:
365,123,153833,1,0,0:0:0:0:
138,145,153983,5,0,0:0:0:0:
263,147,154133,1,0,0:0:0:0:
138,145,154283,1,0,0:0:0:0:
12,146,154433,1,0,0:0:0:0:
241,150,154583,2,0,L|291:89,2,56.9999982604981
115,150,154883,1,0,0:0:0:0:
240,149,155033,1,0,0:0:0:0:
474,186,155183,6,0,L|477:46,1,113.999996520996
249,85,155483,2,0,L|363:88,1,113.999996520996
133,133,155783,2,0,L|97:88,2,56.9999982604981
362,135,156083,1,0,0:0:0:0:
236,132,156233,1,0,0:0:0:0:
469,156,156383,5,0,0:0:0:0:
344,158,156533,1,0,0:0:0:0:
469,156,156683,1,0,0:0:0:0:
344,158,156833,1,0,0:0:0:0:
107,144,156983,1,0,0:0:0:0:
152,142,157058,1,0,0:0:0:0:
197,141,157133,1,0,0:0:0:0:
36,179,157283,1,0,0:0:0:0:
36,49,157433,1,0,0:0:0:0:
196,40,157583,6,0,L|52:46,1,113.999996520996
315,110,157883,2,0,L|459:116,1,113.999996520996
199,125,158183,1,0,0:0:0:0:
147,122,158258,1,0,0:0:0:0:
95,122,158333,1,0,0:0:0:0:
254,90,158483,2,0,L|113:85,1,113.999996520996
384,149,158783,6,0,L|231:149,2,113.999996520996
497,154,159233,1,0,0:0:0:0:
248,188,159383,2,0,L|250:104,1,56.9999982604981
306,131,159533,1,0,0:0:0:0:
465,133,159683,1,0,0:0:0:0:
351,127,159833,1,0,0:0:0:0:
118,125,159983,6,0,L|231:125,1,113.999996520996
2,100,160283,2,0,L|115:98,1,113.999996520996
352,171,160583,2,0,L|350:87,1,56.9999982604981
294,114,160733,1,0,0:0:0:0:
65,118,160883,2,0,L|209:120,1,113.999996520996
406,129,161183,5,0,0:0:0:0:
244,129,161333,1,0,0:0:0:0:
301,126,161408,1,0,0:0:0:0:
358,124,161483,1,0,0:0:0:0:
200,118,161633,1,0,0:0:0:0:
201,68,161708,1,0,0:0:0:0:
358,54,161858,1,0,0:0:0:0:
299,53,161933,1,0,0:0:0:0:
233,51,162008,1,0,0:0:0:0:
83,51,162083,2,0,L|89:192,1,113.999996520996
321,164,162383,6,0,L|171:165,2,113.999996520996
446,169,162833,1,0,0:0:0:0:
211,290,162983,1,0,0:0:0:0:
176,294,163020,1,0,0:0:0:0:
143,292,163058,1,0,0:0:0:0:
111,282,163095,1,0,0:0:0:0:
81,266,163133,1,0,0:0:0:0:
56,243,163170,1,0,0:0:0:0:
36,216,163208,1,0,0:0:0:0:
15,178,163245,1,0,2:0:0:0:
66,175,163283,1,0,2:0:0:0:
18,160,163320,1,0,2:0:0:0:
58,151,163358,1,0,2:0:0:0:
99,145,163395,1,0,2:0:0:0:
137,137,163433,1,0,2:0:0:0:
375,137,163583,6,0,L|265:60,2,113.999996520996
137,137,164033,2,0,L|252:51,2,113.999996520996
389,144,164483,6,0,L|248:141,2,113.999996520996
104,142,164933,2,0,L|245:139,2,113.999996520996
366,134,165383,5,0,0:0:0:0:
217,134,165533,1,0,0:0:0:0:
366,134,165683,1,0,0:0:0:0:
135,131,165833,5,0,0:0:0:0:
283,132,165983,1,0,0:0:0:0:
135,131,166133,1,0,0:0:0:0:
367,128,166283,6,0,L|496:128,2,113.999996520996
205,126,166733,2,0,L|76:126,2,113.999996520996
434,180,167183,2,0,L|439:46,1,113.999996520996
275,146,167483,2,0,L|280:12,1,113.999996520996
119,144,167783,2,0,L|124:10,1,113.999996520996
286,36,168083,2,0,L|145:37,1,113.999996520996
407,260,168383,6,0,P|454:204|277:123,1,341.999989562989
126,107,168983,2,0,L|125:241,1,113.999996520996
358,192,169283,2,0,L|357:326,1,113.999996520996
202,304,169583,6,0,P|116:256|209:187,1,227.999993041992
284,189,170033,1,0,0:0:0:0:
121,178,170183,2,0,P|133:95|263:101,1,227.999993041992
416,95,170633,2,0,L|152:101,1,227.999993041992
302,101,171083,2,0,L|438:96,1,113.999996520996
188,140,171383,2,0,L|107:141,2,56.9999982604981
301,139,171683,1,0,0:0:0:0:
166,165,171983,6,0,L|438:169,1,227.999993041992
497,172,172433,1,0,0:0:0:0:
336,208,172583,2,0,P|217:172|205:53,1,227.999993041992
356,82,173033,2,0,L|82:80,1,227.999993041992
290,84,173483,1,0,0:0:0:0:
176,85,173633,1,0,0:0:0:0:
335,133,173783,6,0,L|207:132,1,113.999996520996
381,162,174083,1,0,0:0:0:0:
382,133,174120,1,0,0:0:0:0:
384,105,174158,1,0,0:0:0:0:
385,76,174195,1,0,0:0:0:0:
387,48,174233,1,0,0:0:0:0:
160,187,174383,6,0,P|208:98|344:130,1,227.999993041992
436,115,174833,1,0,0:0:0:0:
208,129,174983,2,0,L|379:79,2,170.999994781494
367,233,175583,2,0,L|362:102,1,113.999996520996
202,175,175883,2,0,L|207:44,1,113.999996520996
435,77,176183,2,0,L|491:79,2,56.9999982604981
320,79,176483,1,0,0:0:0:0:
433,77,176633,1,0,0:0:0:0:
202,146,176783,6,0,L|69:144,1,113.999996520996
245,137,177083,1,0,0:0:0:0:
119,142,177233,2,0,L|116:61,1,56.9999982604981
272,84,177383,2,0,L|398:87,1,113.999996520996
231,146,177683,1,0,0:0:0:0:
356,146,177833,2,0,L|359:65,1,56.9999982604981
193,80,177983,6,0,L|306:73,1,113.999996520996
75,129,178283,1,0,0:0:0:0:
188,125,178433,2,0,L|131:124,1,56.9999982604981
291,139,178583,2,0,L|419:136,1,113.999996520996
175,208,178883,1,0,0:0:0:0:
147,214,178920,1,0,0:0:0:0:
119,211,178958,1,0,0:0:0:0:
93,200,178995,1,0,0:0:0:0:
71,181,179033,1,0,0:0:0:0:
57,156,179070,1,0,0:0:0:0:
51,129,179108,1,0,0:0:0:0:
218,120,179183,6,0,L|363:116,2,113.999996520996
104,124,179633,1,0,0:0:0:0:
337,163,179783,1,0,0:0:0:0:
223,174,179933,2,0,L|290:126,2,56.9999982604981
108,183,180233,1,0,0:0:0:0:
342,186,180383,6,0,L|471:186,1,113.999996520996
296,168,180683,2,0,L|425:168,1,113.999996520996
172,157,180983,2,0,L|129:117,7,56.9999982604981
320,153,181583,5,0,0:0:0:0:
207,151,181733,2,0,L|275:112,2,56.9999982604981
320,145,182033,1,0,0:0:0:0:
91,127,182183,2,0,L|204:121,1,113.999996520996
363,114,182483,2,0,L|250:108,1,113.999996520996
480,184,182783,6,0,L|487:52,1,113.999996520996
257,67,183083,2,0,L|143:68,1,113.999996520996
376,152,183383,2,0,L|435:124,3,56.9999982604981
376,152,183645,2,0,L|410:150,7,28.4999991302491
228,151,183983,6,0,L|60:150,1,113.999996520996
281,121,184283,2,0,L|449:120,1,113.999996520996
167,154,184583,2,0,P|193:78|273:77,1,170.999994781494
102,68,185033,2,0,L|104:149,1,56.9999982604981
263,114,185183,5,0,0:0:0:0:
318,108,185258,1,0,0:0:0:0:
354,66,185333,1,0,0:0:0:0:
351,10,185408,1,0,0:0:0:0:
140,176,185483,2,0,L|128:53,1,113.999996520996
364,161,185783,5,0,0:0:0:0:
363,105,185858,1,0,0:0:0:0:
319,71,185933,1,0,0:0:0:0:
265,83,186008,1,0,0:0:0:0:
88,89,186083,2,0,L|45:220,1,113.999996520996
324,181,186383,2,0,L|210:184,1,113.999996520996
372,218,186683,1,0,0:0:0:0:
485,223,186833,2,0,L|420:219,1,56.9999982604981
245,218,186983,6,0,L|403:220,1,113.999996520996
197,209,187283,1,0,0:0:0:0:
84,214,187433,2,0,L|149:210,1,56.9999982604981
299,166,187583,6,0,L|141:168,1,113.999996520996
349,162,187883,1,0,0:0:0:0:
235,155,188033,1,0,0:0:0:0:
467,124,188183,2,0,L|469:262,1,113.999996520996
237,189,188483,2,0,L|235:319,1,113.999996520996
452,300,188783,5,0,0:0:0:0:
262,291,189083,1,0,0:0:0:0:
452,300,189383,1,0,0:0:0:0:
213,285,189683,2,0,P|139:245|198:166,1,190
380,170,190208,1,0,0:0:0:0:
427,170,190283,1,0,0:0:0:0:
161,170,190583,6,0,L|371:163,1,190
75,145,191183,2,0,L|282:136,2,190
264,142,192083,1,0,0:0:0:0:
121,143,192308,1,0,0:0:0:0:
221,139,192383,6,0,P|117:110|74:42,2,190
24,69,193283,2,0,L|21:269,1,190
164,256,193808,1,0,0:0:0:0:
112,258,193883,1,0,0:0:0:0:
392,250,194183,2,0,L|182:249,2,190
388,145,194933,1,0,0:0:0:0:
254,149,195083,6,0,L|130:154,1,95
296,136,195383,2,0,L|190:66,1,95
354,73,195683,2,0,L|381:73,6,23.75
212,180,195983,6,0,L|82:178,1,113.999996520996
260,162,196283,2,0,L|387:163,1,113.999996520996
136,202,196583,2,0,L|139:79,1,113.999996520996
299,162,196883,2,0,L|302:39,1,113.999996520996
74,66,197183,6,0,L|205:64,1,113.999996520996
348,59,197483,2,0,L|217:57,1,113.999996520996
463,176,197783,2,0,L|464:29,1,113.999996520996
307,61,198083,2,0,L|456:58,1,113.999996520996
188,137,198383,1,0,0:0:0:0:
188,137,198608,1,0,0:0:0:0:
346,146,198683,6,0,L|481:155,2,113.999996520996
233,143,199133,1,0,0:0:0:0:
464,142,199283,1,0,0:0:0:0:
457,114,199320,1,0,0:0:0:0:
441,90,199358,1,0,0:0:0:0:
418,74,199395,1,0,0:0:0:0:
391,68,199433,1,0,0:0:0:0:
363,71,199470,1,0,0:0:0:0:
338,85,199508,1,0,0:0:0:0:
171,101,199583,6,0,L|33:104,1,113.999996520996
220,119,199883,2,0,L|128:33,1,113.999996520996
375,112,200183,2,0,L|513:115,1,113.999996520996
326,130,200483,2,0,L|418:44,1,113.999996520996
178,112,200783,6,0,L|308:112,1,113.999996520996
130,102,201083,2,0,L|2:103,1,113.999996520996
264,132,201383,2,0,L|110:131,1,113.999996520996
312,119,201683,2,0,L|319:253,1,113.999996520996
88,191,201983,6,0,L|95:325,1,113.999996520996
255,187,202283,2,0,L|120:186,1,113.999996520996
384,271,202583,2,0,L|383:141,1,113.999996520996
215,160,202883,1,0,0:0:0:0:
248,158,202920,1,0,0:0:0:0:
281,158,202958,1,0,0:0:0:0:
315,158,202995,1,0,0:0:0:0:
349,157,203033,1,0,0:0:0:0:
383,157,203070,1,0,0:0:0:0:
416,157,203108,1,0,0:0:0:0:
221,217,203183,6,0,P|130:206|109:64,1,227.999993041992
210,86,203633,1,0,0:0:0:0:
46,84,203783,2,0,L|43:218,1,113.999996520996
206,195,204083,2,0,L|69:191,1,113.999996520996
328,185,204383,1,0,0:0:0:0:
199,201,204533,2,0,L|120:202,1,56.9999982604981
301,195,204683,1,0,0:0:0:0:
358,186,204758,1,0,0:0:0:0:
415,177,204833,1,0,0:0:0:0:
85,204,204983,6,0,L|199:201,3,113.999996520996
432,274,205583,6,0,P|486:244|379:190,1,227.999993041992
284,164,206033,2,0,P|230:134|337:80,1,227.999993041992
431,53,206483,1,0,0:0:0:0:
317,54,206633,1,0,0:0:0:0:
153,206,206783,6,0,P|197:125|328:136,1,227.999993041992
433,141,207233,2,0,P|388:60|257:71,1,227.999993041992
105,67,207683,1,0,0:0:0:0:
218,69,207833,1,0,0:0:0:0:
454,67,207983,6,0,L|452:295,1,227.999993041992
337,300,208433,2,0,P|337:239|476:248,1,227.999993041992
355,228,208883,1,0,0:0:0:0:
469,228,209033,1,0,0:0:0:0:
304,225,209183,6,0,L|67:221,1,227.999993041992
190,221,209633,2,0,L|427:217,1,227.999993041992
304,212,210083,1,0,0:0:0:0:
417,200,210233,1,0,0:0:0:0:
181,221,210383,6,0,P|90:206|67:67,1,227.999993041992
165,179,210833,2,0,P|256:164|279:25,1,227.999993041992
176,39,211283,1,0,0:0:0:0:
62,42,211433,1,0,0:0:0:0:
224,282,211583,6,0,L|249:54,1,227.999993041992
135,62,212033,2,0,L|410:66,1,227.999993041992
249,62,212483,1,0,0:0:0:0:
135,68,212633,1,0,0:0:0:0:
362,214,212783,6,0,L|118:139,1,227.999993041992
256,161,213233,2,0,P|327:144|251:42,1,227.999993041992
163,26,213683,1,0,0:0:0:0:
276,29,213833,1,0,0:0:0:0:
113,65,213983,6,0,L|375:49,1,227.999993041992
227,62,214433,1,0,0:0:0:0:
458,145,214583,2,0,L|493:146,4,28.4999991302491
302,138,214883,2,0,L|436:139,1,113.999996520996
187,196,215183,6,0,P|145:159|258:120,1,227.999993041992
361,105,215633,1,0,0:0:0:0:
200,168,215783,2,0,P|92:154|87:37,1,227.999993041992
191,57,216233,1,0,0:0:0:0:
352,146,216383,2,0,P|320:72|181:96,1,227.999993041992
305,83,216833,1,0,0:0:0:0:
145,183,216983,2,0,P|91:162|177:77,1,227.999993041992
279,66,217433,1,0,0:0:0:0:
49,271,217583,6,0,L|42:26,1,227.999993041992
156,43,218033,1,0,0:0:0:0:
316,81,218183,2,0,L|61:84,1,227.999993041992
202,82,218633,1,0,0:0:0:0:
433,104,218783,2,0,L|209:28,2,227.999993041992
319,116,219533,1,0,0:0:0:0:
432,117,219683,1,0,0:0:0:0:
432,117,219833,1,0,0:0:0:0:
202,138,219983,6,0,L|75:141,1,113.999996520996
251,111,220283,2,0,L|124:114,1,113.999996520996
367,130,220583,2,0,L|494:133,1,113.999996520996
318,103,220883,2,0,L|445:106,1,113.999996520996
196,183,221183,6,0,L|196:28,1,113.999996520996
357,158,221483,2,0,L|357:3,1,113.999996520996
127,72,221783,1,0,0:0:0:0:
98,71,221820,1,0,0:0:0:0:
70,70,221858,1,0,0:0:0:0:
41,70,221895,1,0,0:0:0:0:
13,69,221933,1,0,0:0:0:0:
172,41,222083,2,0,L|58:43,1,113.999996520996
295,111,222383,5,0,0:0:0:0:
431,110,222533,1,0,0:0:0:0:
295,111,222683,1,0,0:0:0:0:
431,110,222833,1,0,0:0:0:0:
178,115,222983,5,0,0:0:0:0:
43,90,223133,1,0,0:0:0:0:
278,76,223283,1,0,0:0:0:0:
34,84,223433,1,0,0:0:0:0:
326,207,223583,6,0,P|369:142|257:140,1,227.999993041992
135,125,224033,1,0,0:0:0:0:
376,127,224183,1,0,0:0:0:0:
262,128,224333,1,0,0:0:0:0:
376,127,224483,1,0,0:0:0:0:
490,127,224633,1,0,0:0:0:0:
196,154,224783,6,0,L|96:158,2,63.3333333333333
292,149,225083,2,0,L|356:147,2,63.3333333333333
114,154,225383,1,0,0:0:0:0:
196,154,225483,1,0,0:0:0:0:
278,151,225583,1,0,0:0:0:0:
195,145,225683,2,0,L|305:143,2,63.3333333333333
366,143,225983,6,0,L|476:141,2,63.3333333333333
278,151,226283,1,0,0:0:0:0:
359,143,226383,1,0,0:0:0:0:
441,137,226483,1,0,0:0:0:0:
258,154,226583,1,0,0:0:0:0:
177,146,226683,1,0,0:0:0:0:
95,140,226783,1,0,0:0:0:0:
177,146,226883,2,0,L|113:147,2,63.3333333333333
361,148,227183,5,0,0:0:0:0:
449,149,227283,1,0,0:0:0:0:
446,60,227383,1,0,0:0:0:0:
286,135,227483,1,0,0:0:0:0:
198,136,227583,1,0,0:0:0:0:
201,47,227683,1,0,0:0:0:0:
289,46,227783,2,0,L|215:46,2,63.3333333333333
387,44,228083,2,0,L|450:44,2,63.3333333333333
200,93,228383,5,0,0:0:0:0:
112,87,228483,1,0,0:0:0:0:
24,87,228583,1,0,0:0:0:0:
200,93,228683,1,0,0:0:0:0:
112,87,228783,1,0,0:0:0:0:
24,87,228883,1,0,0:0:0:0:
275,89,228983,2,0,L|338:89,2,63.3333333333333
112,87,229283,2,0,L|212:85,2,63.3333333333333
309,213,229583,6,0,P|420:197|412:85,1,227.999993041992
144,107,230183,2,0,L|388:108,1,227.999993041992
74,210,230783,2,0,L|76:64,1,113.999996520996
242,100,231083,2,0,L|105:101,1,113.999996520996
363,181,231383,6,0,L|366:36,1,113.999996520996
133,180,231683,2,0,L|130:35,1,113.999996520996
291,73,231983,2,0,L|28:73,2,227.999993041992
405,73,232733,1,0,0:0:0:0:
175,121,232883,6,0,L|34:125,1,113.999996520996
291,111,233183,2,0,L|177:107,1,113.999996520996
341,176,233483,2,0,L|352:36,1,113.999996520996
142,100,233783,5,0,0:0:0:0:
217,98,233883,1,0,0:0:0:0:
292,98,233983,1,0,0:0:0:0:
198,95,234083,1,0,0:0:0:0:
273,93,234183,1,0,0:0:0:0:
348,93,234283,1,0,0:0:0:0:
176,76,234383,2,0,L|96:80,2,63.3333333333333
335,74,234683,2,0,L|415:78,2,63.3333333333333
159,149,234983,5,0,0:0:0:0:
250,148,235083,1,0,0:0:0:0:
252,64,235183,1,0,0:0:0:0:
176,64,235283,1,0,0:0:0:0:
258,61,235383,1,0,0:0:0:0:
340,59,235483,1,0,0:0:0:0:
152,150,235583,5,0,0:0:0:0:
61,149,235683,1,0,0:0:0:0:
59,65,235783,1,0,0:0:0:0:
159,60,235883,2,0,L|47:64,2,63.3333333333333
333,60,236183,2,0,L|445:64,2,63.3333333333333
159,156,236483,6,0,L|160:57,1,63.3333333333333
241,96,236683,1,0,0:0:0:0:
159,92,236783,2,0,L|93:90,2,63.3333333333333
334,102,237083,5,0,0:0:0:0:
422,96,237183,1,0,0:0:0:0:
510,96,237283,1,0,0:0:0:0:
334,102,237383,1,0,0:0:0:0:
422,96,237483,1,0,0:0:0:0:
510,96,237583,1,0,0:0:0:0:
312,78,237683,6,0,L|206:78,2,63.3333333333333
130,77,237983,1,0,0:0:0:0:
212,73,238083,1,0,0:0:0:0:
298,67,238183,1,0,0:0:0:0:
492,199,238283,6,0,L|486:68,1,113.999996520996
328,84,238583,2,0,L|186:84,1,113.999996520996
442,118,238883,2,0,L|252:117,2,151.999995361328
135,174,239483,6,0,L|55:70,1,113.999996520996
310,175,239783,2,0,L|427:177,1,113.999996520996
193,108,240083,2,0,L|321:108,1,113.999996520996
75,182,240383,2,0,L|77:51,1,113.999996520996
398,71,240683,6,0,L|533:71,1,113.999996520996
269,73,240983,2,0,L|134:73,1,113.999996520996
392,184,241283,2,0,L|399:44,1,113.999996520996
120,184,241583,2,0,L|113:44,1,113.999996520996
465,184,241883,6,0,L|337:188,1,113.999996520996
94,186,242183,2,0,L|222:190,1,113.999996520996
441,205,242483,2,0,L|441:76,1,113.999996520996
204,118,242783,2,0,L|366:116,1,113.999996520996
77,187,243083,2,0,L|35:189,12,28.4999991302491
381,232,243683,1,0,0:0:0:0:
378,196,243720,1,0,0:0:0:0:
376,162,243758,1,0,0:0:0:0:
375,126,243795,1,0,0:0:0:0:
372,92,243833,1,0,0:0:0:0:
366,58,243870,1,0,0:0:0:0:
309,57,243908,1,0,0:0:0:0:
266,57,243945,1,0,0:0:0:0:
223,58,243983,1,0,0:0:0:0:
177,60,244020,1,0,0:0:0:0:
177,60,244058,1,0,0:0:0:0:
134,60,244095,1,0,0:0:0:0:
87,60,244133,1,0,0:0:0:0:
134,60,244170,1,0,0:0:0:0:
177,60,244208,1,0,0:0:0:0:
356,151,244283,6,0,L|444:144,1,56.9999982604981
344,145,244433,2,0,L|340:44,1,56.9999982604981
427,84,244583,2,0,L|511:80,1,56.9999982604981
302,79,244733,2,0,L|218:75,1,56.9999982604981
402,111,244883,5,0,0:0:0:0:
438,71,244958,1,0,0:0:0:0:
415,22,245033,1,0,0:0:0:0:
361,25,245108,1,0,0:0:0:0:
197,58,245183,2,0,L|111:59,1,56.9999982604981
308,53,245333,2,0,L|394:54,1,56.9999982604981
182,151,245483,6,0,L|94:144,1,56.9999982604981
194,145,245633,2,0,L|198:44,1,56.9999982604981
111,84,245783,2,0,L|27:80,1,56.9999982604981
236,79,245933,2,0,L|320:75,1,56.9999982604981
111,84,246083,2,0,L|28:82,2,56.9999982604981
185,82,246308,1,0,0:0:0:0:
356,88,246383,1,0,0:0:0:0:
481,85,246533,2,0,L|395:77,1,56.9999982604981
192,133,246683,6,0,L|127:131,2,56.9999982604981
266,133,246908,1,0,0:0:0:0:
92,127,246983,2,0,L|27:125,2,56.9999982604981
166,127,247208,1,0,0:0:0:0:
326,146,247283,5,0,0:0:0:0:
362,106,247358,1,0,0:0:0:0:
339,57,247433,1,0,0:0:0:0:
285,60,247508,1,0,0:0:0:0:
128,79,247583,1,0,0:0:0:0:
3,76,247733,2,0,L|89:68,1,56.9999982604981
215,75,247883,6,0,L|369:75,1,113.999996520996
342,148,248108,1,0,0:0:0:0:
167,75,248183,2,0,L|13:75,1,113.999996520996
40,148,248408,1,0,0:0:0:0:
367,147,248483,2,0,L|512:148,1,113.999996520996
410,148,248708,1,0,0:0:0:0:
145,146,248783,2,0,L|0:147,1,113.999996520996
93,143,249008,1,0,0:0:0:0:
266,149,249083,6,0,L|312:68,1,56.9999982604981
205,108,249233,2,0,L|159:27,1,56.9999982604981
360,91,249383,2,0,L|457:91,1,56.9999982604981
254,94,249533,2,0,L|158:99,2,56.9999982604981
428,94,249758,2,0,L|293:96,2,113.999996520996
364,94,250133,1,0,0:0:0:0:
301,92,250208,1,0,0:0:0:0:
121,149,250283,6,0,L|36:156,1,56.9999982604981
132,149,250433,2,0,L|214:146,1,56.9999982604981
99,142,250583,2,0,L|27:147,1,56.9999982604981
115,139,250733,2,0,L|195:134,1,56.9999982604981
342,132,250883,1,0,0:0:0:0:
398,134,250958,1,0,0:0:0:0:
401,77,251033,1,0,0:0:0:0:
345,74,251108,1,0,0:0:0:0:
180,70,251183,5,0,0:0:0:0:
293,77,251333,2,0,L|282:148,1,56.9999982604981
124,142,251483,2,0,L|-2:142,2,113.999996520996
50,145,251858,1,0,0:0:0:0:
124,142,251933,2,0,L|157:79,1,56.9999982604981
76,86,252083,2,0,L|43:23,1,56.9999982604981
223,88,252233,2,0,L|256:25,1,56.9999982604981
76,86,252383,2,0,L|43:23,1,56.9999982604981
223,88,252533,2,0,L|255:24,1,56.9999982604981
94,187,252683,5,0,0:0:0:0:
44,161,252758,1,0,0:0:0:0:
32,107,252833,1,0,0:0:0:0:
66,63,252908,1,0,0:0:0:0:
121,61,252983,1,0,0:0:0:0:
195,59,253058,1,0,0:0:0:0:
263,59,253133,1,0,0:0:0:0:
263,59,253208,1,0,0:0:0:0:
101,68,253283,6,0,L|44:68,2,56.9999982604981
169,69,253508,1,0,0:0:0:0:
347,66,253583,2,0,L|428:68,1,56.9999982604981
161,73,253733,2,0,L|80:75,1,56.9999982604981
332,157,253883,5,0,0:0:0:0:
318,95,253958,1,0,0:0:0:0:
262,66,254033,1,0,0:0:0:0:
199,71,254108,1,0,0:0:0:0:
380,194,254183,1,0,0:0:0:0:
435,195,254258,1,0,0:0:0:0:
475,156,254333,1,0,0:0:0:0:
475,101,254408,1,0,0:0:0:0:
302,99,254483,6,0,L|272:36,1,56.9999982604981
357,83,254633,2,0,L|387:20,1,56.9999982604981
209,63,254783,2,0,L|120:61,1,56.9999982604981
328,63,254933,2,0,L|392:61,1,56.9999982604981
222,155,255083,5,0,0:0:0:0:
159,160,255158,1,0,0:0:0:0:
103,131,255233,1,0,0:0:0:0:
89,69,255308,1,0,0:0:0:0:
275,134,255383,1,0,0:0:0:0:
250,82,255458,1,0,0:0:0:0:
194,67,255533,1,0,0:0:0:0:
137,67,255608,1,0,0:0:0:0:
328,64,255683,6,0,L|397:60,1,56.9999982604981
306,65,255833,2,0,L|218:58,1,56.9999982604981
430,71,255983,2,0,L|499:67,1,56.9999982604981
270,88,256133,2,0,L|182:81,1,56.9999982604981
385,175,256283,5,0,0:0:0:0:
370,119,256358,1,0,0:0:0:0:
318,95,256433,1,0,0:0:0:0:
262,106,256508,1,0,0:0:0:0:
103,138,256583,1,0,0:0:0:0:
118,82,256658,1,0,0:0:0:0:
170,58,256733,1,0,0:0:0:0:
226,69,256808,1,0,0:0:0:0:
396,185,256883,5,0,0:0:0:0:
450,171,256958,1,0,0:0:0:0:
482,125,257033,1,0,0:0:0:0:
475,70,257108,1,0,0:0:0:0:
299,81,257183,1,0,0:0:0:0:
412,85,257333,2,0,L|334:88,1,56.9999982604981
143,119,257483,6,0,L|281:114,1,113.999996520996
319,114,257708,1,0,0:0:0:0:
143,107,257783,2,0,L|6:113,1,113.999996520996
91,109,258008,1,0,0:0:0:0:
353,99,258083,2,0,L|233:94,1,113.999996520996
176,91,258308,1,0,0:0:0:0:
353,99,258383,2,0,L|490:105,1,113.999996520996
405,101,258608,1,0,0:0:0:0:
