osu file format v14

[General]
AudioFilename: audio.mp3
AudioLeadIn: 0
PreviewTime: -1
Countdown: 1
SampleSet: None
StackLeniency: 0.7
Mode: 3
LetterboxInBreaks: 0
SpecialStyle: 0
WidescreenStoryboard: 0

[Editor]
DistanceSpacing: 1.6
BeatDivisor: 4
GridSize: 4
TimelineZoom: 1

[Metadata]
Title:WalpurgisNacht
TitleUnicode:WalpurgisNacht
Artist:cosMo@P
ArtistUnicode:cosMo@暴走P
Creator:MrDorian
Version:some german words
Source:BMS
Tags:team grimoire of darkness
BeatmapID:1439171
BeatmapSetID:680672

[Difficulty]
HPDrainRate:9
CircleSize:4
OverallDifficulty:9
ApproachRate:5
SliderMultiplier:1.4
SliderTickRate:1

[Events]
//Background and Video events
//Break Periods
//Storyboard Layer 0 (Background)
//Storyboard Layer 1 (Fail)
//Storyboard Layer 2 (Pass)
//Storyboard Layer 3 (Foreground)
//Storyboard Sound Samples

[TimingPoints]
893,327.868852459016,4,1,0,15,1,0

[HitObjects]
64,192,2204,128,0,3515:0:0:0:0:
448,192,2204,1,0,0:0:0:0:
192,192,2204,1,0,0:0:0:0:
320,192,2313,1,0,0:0:0:0:
448,192,2423,1,0,0:0:0:0:
192,192,2532,1,0,0:0:0:0:
320,192,2641,1,0,0:0:0:0:
448,192,2750,1,0,0:0:0:0:
192,192,2860,1,0,0:0:0:0:
448,192,2969,1,0,0:0:0:0:
320,192,3078,1,0,0:0:0:0:
192,192,3188,1,0,0:0:0:0:
448,192,3297,1,0,0:0:0:0:
320,192,3406,1,0,0:0:0:0:
192,192,3515,128,0,4827:0:0:0:0:
320,192,3625,1,0,0:0:0:0:
448,192,3734,1,0,0:0:0:0:
64,192,3843,1,0,0:0:0:0:
320,192,3953,1,0,0:0:0:0:
448,192,4062,1,0,0:0:0:0:
320,192,4171,1,0,0:0:0:0:
64,192,4280,1,0,0:0:0:0:
448,192,4390,1,0,0:0:0:0:
320,192,4499,1,0,0:0:0:0:
64,192,4608,1,0,0:0:0:0:
448,192,4718,1,0,0:0:0:0:
320,192,4827,128,0,6138:0:0:0:0:
64,192,4936,1,0,0:0:0:0:
192,192,5046,1,0,0:0:0:0:
448,192,5155,1,0,0:0:0:0:
64,192,5264,1,0,0:0:0:0:
192,192,5373,1,0,0:0:0:0:
448,192,5483,1,0,0:0:0:0:
192,192,5592,1,0,0:0:0:0:
64,192,5701,1,0,0:0:0:0:
448,192,5811,1,0,0:0:0:0:
192,192,5920,1,0,0:0:0:0:
64,192,6029,1,0,0:0:0:0:
448,192,6138,128,0,7450:0:0:0:0:
192,192,6248,1,0,0:0:0:0:
320,192,6357,1,0,0:0:0:0:
64,192,6466,1,0,0:0:0:0:
192,192,6576,1,0,0:0:0:0:
320,192,6685,1,0,0:0:0:0:
64,192,6794,1,0,0:0:0:0:
320,192,6903,1,0,0:0:0:0:
192,192,7013,1,0,0:0:0:0:
64,192,7122,1,0,0:0:0:0:
320,192,7231,1,0,0:0:0:0:
192,192,7341,1,0,0:0:0:0:
64,192,7450,128,0,8761:0:0:0:0:
320,192,7450,1,0,0:0:0:0:
192,192,7559,1,0,0:0:0:0:
320,192,7668,1,0,0:0:0:0:
448,192,7778,1,0,0:0:0:0:
192,192,7887,1,0,0:0:0:0:
320,192,7996,1,0,0:0:0:0:
448,192,8106,1,0,0:0:0:0:
320,192,8215,1,0,0:0:0:0:
192,192,8324,1,0,0:0:0:0:
448,192,8433,1,0,0:0:0:0:
320,192,8543,1,0,0:0:0:0:
192,192,8652,1,0,0:0:0:0:
320,192,8761,128,0,10073:0:0:0:0:
448,192,8871,1,0,0:0:0:0:
64,192,8980,1,0,0:0:0:0:
192,192,9089,1,0,0:0:0:0:
448,192,9199,1,0,0:0:0:0:
64,192,9308,1,0,0:0:0:0:
192,192,9417,1,0,0:0:0:0:
64,192,9526,1,0,0:0:0:0:
448,192,9636,1,0,0:0:0:0:
192,192,9745,1,0,0:0:0:0:
64,192,9854,1,0,0:0:0:0:
448,192,9964,1,0,0:0:0:0:
192,192,10073,128,0,11384:0:0:0:0:
320,192,10182,1,0,0:0:0:0:
448,192,10291,1,0,0:0:0:0:
64,192,10401,1,0,0:0:0:0:
320,192,10510,1,0,0:0:0:0:
448,192,10619,1,0,0:0:0:0:
64,192,10729,1,0,0:0:0:0:
448,192,10838,1,0,0:0:0:0:
320,192,10947,1,0,0:0:0:0:
64,192,11056,1,0,0:0:0:0:
448,192,11166,1,0,0:0:0:0:
320,192,11275,1,0,0:0:0:0:
448,192,11384,128,0,12696:0:0:0:0:
64,192,11494,1,0,0:0:0:0:
192,192,11603,1,0,0:0:0:0:
320,192,11712,1,0,0:0:0:0:
64,192,11821,1,0,0:0:0:0:
192,192,11931,1,0,0:0:0:0:
320,192,12040,1,0,0:0:0:0:
192,192,12149,1,0,0:0:0:0:
64,192,12259,1,0,0:0:0:0:
320,192,12368,1,0,0:0:0:0:
192,192,12477,1,0,0:0:0:0:
320,192,12586,1,0,0:0:0:0:
64,192,12696,128,0,15319:0:0:0:0:
192,192,12696,1,0,0:0:0:0:
448,192,12805,1,0,0:0:0:0:
320,192,12914,1,0,0:0:0:0:
192,192,13024,1,0,0:0:0:0:
448,192,13133,1,0,0:0:0:0:
320,192,13242,1,0,0:0:0:0:
192,192,13352,1,0,0:0:0:0:
320,192,13461,1,0,0:0:0:0:
448,192,13570,1,0,0:0:0:0:
192,192,13679,1,0,0:0:0:0:
320,192,13789,1,0,0:0:0:0:
448,192,13898,1,0,0:0:0:0:
192,192,14007,1,0,0:0:0:0:
448,192,14117,1,0,0:0:0:0:
320,192,14226,1,0,0:0:0:0:
192,192,14335,1,0,0:0:0:0:
320,192,14444,1,0,0:0:0:0:
448,192,14554,1,0,0:0:0:0:
192,192,14663,1,0,0:0:0:0:
448,192,14772,1,0,0:0:0:0:
320,192,14882,1,0,0:0:0:0:
192,192,14991,1,0,0:0:0:0:
448,192,15100,1,0,0:0:0:0:
320,192,15209,1,0,0:0:0:0:
448,192,15319,128,0,16630:0:0:0:0:
64,192,15428,1,0,0:0:0:0:
192,192,15537,1,0,0:0:0:0:
320,192,15647,1,0,0:0:0:0:
64,192,15756,1,0,0:0:0:0:
320,192,15865,1,0,0:0:0:0:
192,192,15974,1,0,0:0:0:0:
64,192,16084,1,0,0:0:0:0:
192,192,16193,1,0,0:0:0:0:
320,192,16302,1,0,0:0:0:0:
64,192,16412,1,0,0:0:0:0:
320,192,16521,1,0,0:0:0:0:
192,192,16630,128,0,17942:0:0:0:0:
64,192,16739,1,0,0:0:0:0:
320,192,16849,1,0,0:0:0:0:
448,192,16958,1,0,0:0:0:0:
64,192,17067,1,0,0:0:0:0:
320,192,17177,1,0,0:0:0:0:
448,192,17286,1,0,0:0:0:0:
320,192,17395,1,0,0:0:0:0:
64,192,17505,1,0,0:0:0:0:
448,192,17614,1,0,0:0:0:0:
320,192,17723,1,0,0:0:0:0:
64,192,17832,1,0,0:0:0:0:
448,192,17942,1,0,0:0:0:0:
320,192,17942,128,0,20565:0:0:0:0:
64,192,18051,1,0,0:0:0:0:
192,192,18160,1,0,0:0:0:0:
448,192,18270,1,0,0:0:0:0:
64,192,18379,1,0,0:0:0:0:
192,192,18488,1,0,0:0:0:0:
448,192,18597,1,0,0:0:0:0:
192,192,18707,1,0,0:0:0:0:
64,192,18816,1,0,0:0:0:0:
448,192,18925,1,0,0:0:0:0:
192,192,19035,1,0,0:0:0:0:
64,192,19144,1,0,0:0:0:0:
448,192,19253,1,0,0:0:0:0:
192,192,19362,1,0,0:0:0:0:
64,192,19472,1,0,0:0:0:0:
448,192,19581,1,0,0:0:0:0:
192,192,19690,1,0,0:0:0:0:
64,192,19800,1,0,0:0:0:0:
448,192,19909,1,0,0:0:0:0:
64,192,20018,1,0,0:0:0:0:
192,192,20127,1,0,0:0:0:0:
448,192,20237,1,0,0:0:0:0:
64,192,20346,1,0,0:0:0:0:
192,192,20455,1,0,0:0:0:0:
64,192,20565,128,0,23188:0:0:0:0:
448,192,20565,1,0,0:0:0:0:
192,192,20674,1,0,0:0:0:0:
320,192,20783,1,0,0:0:0:0:
448,192,20892,1,0,0:0:0:0:
192,192,21002,1,0,0:0:0:0:
320,192,21111,1,0,0:0:0:0:
448,192,21220,1,0,0:0:0:0:
320,192,21330,1,0,0:0:0:0:
192,192,21439,1,0,0:0:0:0:
448,192,21548,1,0,0:0:0:0:
320,192,21658,1,0,0:0:0:0:
192,192,21767,1,0,0:0:0:0:
448,192,21876,1,0,0:0:0:0:
320,192,21958,1,0,0:0:0:0:
192,192,22040,1,0,0:0:0:0:
448,192,22122,1,0,0:0:0:0:
192,192,22204,1,0,0:0:0:0:
320,192,22286,1,0,0:0:0:0:
448,192,22368,1,0,0:0:0:0:
192,192,22450,1,0,0:0:0:0:
320,192,22532,1,0,0:0:0:0:
192,192,22614,1,0,0:0:0:0:
448,192,22696,1,0,0:0:0:0:
320,192,22778,1,0,0:0:0:0:
448,192,22860,1,0,0:0:0:0:
320,192,22942,1,0,0:0:0:0:
192,192,23024,1,0,0:0:0:0:
448,192,23106,1,0,0:0:0:0:
192,192,23188,1,0,0:0:0:0:
320,192,23270,1,0,0:0:0:0:
64,192,23352,1,0,0:0:0:0:
192,192,23433,1,0,0:0:0:0:
448,192,23515,1,0,0:0:0:0:
320,192,23597,1,0,0:0:0:0:
192,192,23679,1,0,0:0:0:0:
320,192,23761,1,0,0:0:0:0:
448,192,23843,1,0,0:0:0:0:
64,192,23843,1,0,0:0:0:0:
192,192,23925,1,0,0:0:0:0:
320,192,24007,1,0,0:0:0:0:
192,192,24089,1,0,0:0:0:0:
64,192,24171,1,0,0:0:0:0:
448,192,24171,1,0,0:0:0:0:
192,192,24253,1,0,0:0:0:0:
320,192,24335,1,0,0:0:0:0:
448,192,24417,1,0,0:0:0:0:
64,192,24499,1,0,0:0:0:0:
192,192,24499,1,0,0:0:0:0:
320,192,24499,1,0,0:0:0:0:
192,192,24663,1,0,0:0:0:0:
320,192,24745,1,0,0:0:0:0:
448,192,24827,1,0,0:0:0:0:
64,192,24827,1,0,0:0:0:0:
192,192,24991,1,0,0:0:0:0:
320,192,25155,1,0,0:0:0:0:
448,192,25155,1,0,0:0:0:0:
64,192,25319,1,0,0:0:0:0:
320,192,25483,1,0,0:0:0:0:
448,192,25483,1,0,0:0:0:0:
192,192,25647,1,0,0:0:0:0:
64,192,25811,1,0,0:0:0:0:
448,192,25811,1,0,0:0:0:0:
320,192,25974,1,0,0:0:0:0:
192,192,26029,1,0,0:0:0:0:
320,192,26084,1,0,0:0:0:0:
448,192,26138,1,0,0:0:0:0:
64,192,26138,1,0,0:0:0:0:
192,192,26302,1,0,0:0:0:0:
320,192,26466,1,0,0:0:0:0:
448,192,26466,1,0,0:0:0:0:
192,192,26630,1,0,0:0:0:0:
448,192,26794,1,0,0:0:0:0:
64,192,26794,1,0,0:0:0:0:
320,192,26958,1,0,0:0:0:0:
192,192,27122,1,0,0:0:0:0:
64,192,27122,1,0,0:0:0:0:
320,192,27286,1,0,0:0:0:0:
448,192,27368,1,0,0:0:0:0:
320,192,27450,1,0,0:0:0:0:
192,192,27450,1,0,0:0:0:0:
448,192,27614,1,0,0:0:0:0:
64,192,27778,1,0,0:0:0:0:
192,192,27778,1,0,0:0:0:0:
448,192,27942,1,0,0:0:0:0:
320,192,28106,1,0,0:0:0:0:
64,192,28106,1,0,0:0:0:0:
192,192,28270,1,0,0:0:0:0:
448,192,28433,1,0,0:0:0:0:
64,192,28433,1,0,0:0:0:0:
320,192,28597,1,0,0:0:0:0:
192,192,28761,1,0,0:0:0:0:
448,192,28761,1,0,0:0:0:0:
320,192,28925,1,0,0:0:0:0:
64,192,29089,1,0,0:0:0:0:
192,192,29089,1,0,0:0:0:0:
320,192,29253,1,0,0:0:0:0:
192,192,29308,1,0,0:0:0:0:
320,192,29362,1,0,0:0:0:0:
64,192,29417,1,0,0:0:0:0:
192,192,29417,1,0,0:0:0:0:
448,192,29417,1,0,0:0:0:0:
320,192,29581,1,0,0:0:0:0:
448,192,29745,1,0,0:0:0:0:
64,192,29745,1,0,0:0:0:0:
320,192,29745,1,0,0:0:0:0:
192,192,29909,1,0,0:0:0:0:
320,192,30073,1,0,0:0:0:0:
64,192,30073,1,0,0:0:0:0:
448,192,30237,1,0,0:0:0:0:
64,192,30401,1,0,0:0:0:0:
192,192,30401,1,0,0:0:0:0:
448,192,30565,1,0,0:0:0:0:
320,192,30619,1,0,0:0:0:0:
192,192,30674,1,0,0:0:0:0:
64,192,30729,1,0,0:0:0:0:
448,192,30729,1,0,0:0:0:0:
320,192,30892,1,0,0:0:0:0:
192,192,31056,1,0,0:0:0:0:
64,192,31056,1,0,0:0:0:0:
448,192,31220,1,0,0:0:0:0:
64,192,31384,1,0,0:0:0:0:
320,192,31384,1,0,0:0:0:0:
192,192,31507,1,0,0:0:0:0:
448,192,31548,1,0,0:0:0:0:
64,192,31712,1,0,0:0:0:0:
192,192,31712,1,0,0:0:0:0:
320,192,31876,1,0,0:0:0:0:
448,192,32040,1,0,0:0:0:0:
192,192,32040,1,0,0:0:0:0:
64,192,32204,1,0,0:0:0:0:
448,192,32368,1,0,0:0:0:0:
320,192,32368,1,0,0:0:0:0:
192,192,32532,1,0,0:0:0:0:
64,192,32696,1,0,0:0:0:0:
448,192,32696,1,0,0:0:0:0:
192,192,32860,1,0,0:0:0:0:
64,192,33024,1,0,0:0:0:0:
320,192,33024,1,0,0:0:0:0:
448,192,33188,1,0,0:0:0:0:
64,192,33352,1,0,0:0:0:0:
192,192,33352,1,0,0:0:0:0:
320,192,33515,1,0,0:0:0:0:
64,192,33679,1,0,0:0:0:0:
192,192,33679,1,0,0:0:0:0:
320,192,33734,1,0,0:0:0:0:
192,192,33789,1,0,0:0:0:0:
320,192,33843,1,0,0:0:0:0:
192,192,33898,1,0,0:0:0:0:
320,192,33953,1,0,0:0:0:0:
192,192,34007,1,0,0:0:0:0:
64,192,34007,1,0,0:0:0:0:
320,192,34089,1,0,0:0:0:0:
192,192,34171,1,0,0:0:0:0:
320,192,34253,1,0,0:0:0:0:
448,192,34335,1,0,0:0:0:0:
64,192,34335,1,0,0:0:0:0:
320,192,34499,1,0,0:0:0:0:
192,192,34581,1,0,0:0:0:0:
64,192,34663,1,0,0:0:0:0:
320,192,34663,1,0,0:0:0:0:
448,192,34663,1,0,0:0:0:0:
192,192,34827,1,0,0:0:0:0:
64,192,34827,1,0,0:0:0:0:
320,192,34909,1,0,0:0:0:0:
448,192,34909,1,0,0:0:0:0:
64,192,34991,1,0,0:0:0:0:
192,192,34991,1,0,0:0:0:0:
448,192,34991,1,0,0:0:0:0:
320,192,35155,1,0,0:0:0:0:
448,192,35319,1,0,0:0:0:0:
192,192,35319,1,0,0:0:0:0:
64,192,35319,1,0,0:0:0:0:
192,192,35483,1,0,0:0:0:0:
64,192,35647,1,0,0:0:0:0:
320,192,35647,1,0,0:0:0:0:
448,192,35647,1,0,0:0:0:0:
320,192,35811,1,0,0:0:0:0:
192,192,35865,1,0,0:0:0:0:
320,192,35920,1,0,0:0:0:0:
64,192,35974,1,0,0:0:0:0:
448,192,35974,1,0,0:0:0:0:
192,192,35974,1,0,0:0:0:0:
64,192,36138,1,0,0:0:0:0:
320,192,36138,1,0,0:0:0:0:
192,192,36220,1,0,0:0:0:0:
448,192,36220,1,0,0:0:0:0:
448,192,36302,1,0,0:0:0:0:
320,192,36302,1,0,0:0:0:0:
64,192,36302,1,0,0:0:0:0:
192,192,36466,1,0,0:0:0:0:
320,192,36466,1,0,0:0:0:0:
192,192,36548,1,0,0:0:0:0:
64,192,36548,1,0,0:0:0:0:
448,192,36548,1,0,0:0:0:0:
320,192,36630,1,0,0:0:0:0:
448,192,36794,1,0,0:0:0:0:
64,192,36794,1,0,0:0:0:0:
192,192,36958,1,0,0:0:0:0:
64,192,36958,1,0,0:0:0:0:
320,192,37122,1,0,0:0:0:0:
448,192,37286,1,0,0:0:0:0:
64,192,37286,1,0,0:0:0:0:
320,192,37450,1,0,0:0:0:0:
192,192,37614,1,0,0:0:0:0:
64,192,37614,1,0,0:0:0:0:
320,192,37696,1,0,0:0:0:0:
448,192,37696,1,0,0:0:0:0:
192,192,37778,1,0,0:0:0:0:
64,192,37778,1,0,0:0:0:0:
320,192,37860,1,0,0:0:0:0:
448,192,37860,1,0,0:0:0:0:
64,192,37942,1,0,0:0:0:0:
192,192,37942,1,0,0:0:0:0:
320,192,38106,1,0,0:0:0:0:
64,192,38270,1,0,0:0:0:0:
448,192,38270,1,0,0:0:0:0:
320,192,38270,1,0,0:0:0:0:
192,192,38433,1,0,0:0:0:0:
320,192,38597,1,0,0:0:0:0:
64,192,38597,1,0,0:0:0:0:
448,192,38761,1,0,0:0:0:0:
448,192,38925,1,0,0:0:0:0:
320,192,38925,1,0,0:0:0:0:
64,192,38925,1,0,0:0:0:0:
192,192,38980,1,0,0:0:0:0:
320,192,39035,1,0,0:0:0:0:
192,192,39089,1,0,0:0:0:0:
320,192,39144,1,0,0:0:0:0:
192,192,39199,1,0,0:0:0:0:
320,192,39253,1,0,0:0:0:0:
448,192,39253,1,0,0:0:0:0:
64,192,39253,1,0,0:0:0:0:
192,192,39335,1,0,0:0:0:0:
320,192,39417,1,0,0:0:0:0:
448,192,39417,1,0,0:0:0:0:
192,192,39499,1,0,0:0:0:0:
448,192,39581,1,0,0:0:0:0:
320,192,39581,1,0,0:0:0:0:
64,192,39581,1,0,0:0:0:0:
192,192,39663,1,0,0:0:0:0:
448,192,39745,1,0,0:0:0:0:
64,192,39745,1,0,0:0:0:0:
320,192,39827,1,0,0:0:0:0:
192,192,39827,1,0,0:0:0:0:
448,192,39909,1,0,0:0:0:0:
64,192,39909,1,0,0:0:0:0:
192,192,39991,1,0,0:0:0:0:
320,192,39991,1,0,0:0:0:0:
448,192,40073,1,0,0:0:0:0:
64,192,40073,1,0,0:0:0:0:
320,192,40155,1,0,0:0:0:0:
448,192,40237,1,0,0:0:0:0:
64,192,40237,1,0,0:0:0:0:
192,192,40237,1,0,0:0:0:0:
192,192,40401,1,0,0:0:0:0:
64,192,40401,1,0,0:0:0:0:
448,192,40483,1,0,0:0:0:0:
320,192,40483,1,0,0:0:0:0:
448,192,40565,1,0,0:0:0:0:
192,192,40565,1,0,0:0:0:0:
64,192,40565,1,0,0:0:0:0:
320,192,40729,1,0,0:0:0:0:
448,192,40892,1,0,0:0:0:0:
320,192,40974,1,0,0:0:0:0:
192,192,41056,1,0,0:0:0:0:
64,192,41056,1,0,0:0:0:0:
320,192,41138,1,0,0:0:0:0:
448,192,41220,1,0,0:0:0:0:
192,192,41220,1,0,0:0:0:0:
64,192,41220,1,0,0:0:0:0:
320,192,41302,1,0,0:0:0:0:
192,192,41384,1,0,0:0:0:0:
64,192,41466,1,0,0:0:0:0:
320,192,41548,1,0,0:0:0:0:
448,192,41548,1,0,0:0:0:0:
64,192,41630,1,0,0:0:0:0:
192,192,41712,1,0,0:0:0:0:
320,192,41794,1,0,0:0:0:0:
192,192,41876,1,0,0:0:0:0:
448,192,41876,1,0,0:0:0:0:
64,192,41876,1,0,0:0:0:0:
320,192,41931,1,0,0:0:0:0:
448,192,41985,1,0,0:0:0:0:
64,192,42040,1,0,0:0:0:0:
192,192,42040,1,0,0:0:0:0:
320,192,42095,1,0,0:0:0:0:
448,192,42149,1,0,0:0:0:0:
64,192,42204,1,0,0:0:0:0:
448,192,42286,1,0,0:0:0:0:
320,192,42286,1,0,0:0:0:0:
192,192,42368,1,0,0:0:0:0:
64,192,42368,1,0,0:0:0:0:
320,192,42532,1,0,0:0:0:0:
192,192,42532,1,0,0:0:0:0:
448,192,42532,1,0,0:0:0:0:
320,192,42696,1,0,0:0:0:0:
448,192,42860,1,0,0:0:0:0:
192,192,42860,1,0,0:0:0:0:
64,192,42860,1,0,0:0:0:0:
320,192,43024,1,0,0:0:0:0:
64,192,43024,1,0,0:0:0:0:
192,192,43106,1,0,0:0:0:0:
448,192,43106,1,0,0:0:0:0:
320,192,43188,1,0,0:0:0:0:
448,192,43188,1,0,0:0:0:0:
64,192,43188,1,0,0:0:0:0:
192,192,43270,1,0,0:0:0:0:
320,192,43352,1,0,0:0:0:0:
448,192,43433,1,0,0:0:0:0:
192,192,43515,1,0,0:0:0:0:
64,192,43597,1,0,0:0:0:0:
448,192,43679,1,0,0:0:0:0:
320,192,43679,1,0,0:0:0:0:
192,192,43761,1,0,0:0:0:0:
64,192,43843,1,0,0:0:0:0:
448,192,43843,1,0,0:0:0:0:
320,192,43843,1,0,0:0:0:0:
192,192,43925,1,0,0:0:0:0:
320,192,44007,1,0,0:0:0:0:
192,192,44089,1,0,0:0:0:0:
64,192,44171,1,0,0:0:0:0:
448,192,44171,1,0,0:0:0:0:
320,192,44171,1,0,0:0:0:0:
320,192,44335,1,0,0:0:0:0:
448,192,44335,1,0,0:0:0:0:
192,192,44417,1,0,0:0:0:0:
64,192,44417,1,0,0:0:0:0:
64,192,44499,1,0,0:0:0:0:
320,192,44499,1,0,0:0:0:0:
448,192,44499,1,0,0:0:0:0:
64,192,44663,1,0,0:0:0:0:
448,192,44663,1,0,0:0:0:0:
320,192,44745,1,0,0:0:0:0:
192,192,44745,1,0,0:0:0:0:
64,192,44827,1,0,0:0:0:0:
448,192,44827,1,0,0:0:0:0:
320,192,44827,1,0,0:0:0:0:
192,192,44991,1,0,0:0:0:0:
64,192,44991,1,0,0:0:0:0:
320,192,45073,1,0,0:0:0:0:
448,192,45155,1,0,0:0:0:0:
192,192,45155,1,0,0:0:0:0:
64,192,45155,1,0,0:0:0:0:
320,192,45237,1,0,0:0:0:0:
64,192,45319,1,0,0:0:0:0:
448,192,45319,1,0,0:0:0:0:
192,192,45401,1,0,0:0:0:0:
320,192,45483,1,0,0:0:0:0:
448,192,45483,1,0,0:0:0:0:
64,192,45483,1,0,0:0:0:0:
448,192,45647,1,0,0:0:0:0:
320,192,45647,1,0,0:0:0:0:
192,192,45729,1,0,0:0:0:0:
64,192,45729,1,0,0:0:0:0:
64,192,45811,1,0,0:0:0:0:
320,192,45811,1,0,0:0:0:0:
448,192,45811,1,0,0:0:0:0:
192,192,45974,1,0,0:0:0:0:
448,192,46138,1,0,0:0:0:0:
320,192,46220,1,0,0:0:0:0:
192,192,46302,1,0,0:0:0:0:
64,192,46302,1,0,0:0:0:0:
320,192,46384,1,0,0:0:0:0:
192,192,46466,1,0,0:0:0:0:
64,192,46466,1,0,0:0:0:0:
448,192,46466,1,0,0:0:0:0:
320,192,46548,1,0,0:0:0:0:
448,192,46630,1,0,0:0:0:0:
64,192,46712,1,0,0:0:0:0:
448,192,46794,1,0,0:0:0:0:
320,192,46794,1,0,0:0:0:0:
192,192,46876,1,0,0:0:0:0:
64,192,46958,1,0,0:0:0:0:
448,192,46958,1,0,0:0:0:0:
320,192,47040,1,0,0:0:0:0:
192,192,47122,1,0,0:0:0:0:
64,192,47122,1,0,0:0:0:0:
448,192,47122,1,0,0:0:0:0:
320,192,47177,1,0,0:0:0:0:
192,192,47231,1,0,0:0:0:0:
64,192,47286,1,0,0:0:0:0:
448,192,47286,1,0,0:0:0:0:
320,192,47341,1,0,0:0:0:0:
192,192,47395,1,0,0:0:0:0:
64,192,47450,1,0,0:0:0:0:
448,192,47532,1,0,0:0:0:0:
320,192,47532,1,0,0:0:0:0:
192,192,47614,1,0,0:0:0:0:
64,192,47614,1,0,0:0:0:0:
64,192,47778,1,0,0:0:0:0:
320,192,47778,1,0,0:0:0:0:
448,192,47778,1,0,0:0:0:0:
192,192,47942,1,0,0:0:0:0:
192,192,48106,1,0,0:0:0:0:
320,192,48106,1,0,0:0:0:0:
448,192,48106,1,0,0:0:0:0:
64,192,48270,1,0,0:0:0:0:
448,192,48270,1,0,0:0:0:0:
320,192,48352,1,0,0:0:0:0:
192,192,48352,1,0,0:0:0:0:
320,192,48433,1,0,0:0:0:0:
448,192,48433,1,0,0:0:0:0:
64,192,48433,1,0,0:0:0:0:
192,192,48515,1,0,0:0:0:0:
64,192,48597,1,0,0:0:0:0:
448,192,48679,1,0,0:0:0:0:
320,192,48761,1,0,0:0:0:0:
192,192,48761,1,0,0:0:0:0:
64,192,48761,1,0,0:0:0:0:
448,192,48843,1,0,0:0:0:0:
64,192,48925,1,0,0:0:0:0:
192,192,48925,1,0,0:0:0:0:
320,192,49007,1,0,0:0:0:0:
448,192,49089,1,0,0:0:0:0:
192,192,49089,1,0,0:0:0:0:
64,192,49089,1,0,0:0:0:0:
320,192,49171,1,0,0:0:0:0:
448,192,49253,1,0,0:0:0:0:
64,192,49335,1,0,0:0:0:0:
192,192,49335,1,0,0:0:0:0:
320,192,49417,1,0,0:0:0:0:
448,192,49417,1,0,0:0:0:0:
64,192,49417,1,0,0:0:0:0:
192,192,49499,1,0,0:0:0:0:
320,192,49581,1,0,0:0:0:0:
448,192,49581,1,0,0:0:0:0:
192,192,49663,1,0,0:0:0:0:
320,192,49745,1,0,0:0:0:0:
448,192,49745,1,0,0:0:0:0:
64,192,49745,1,0,0:0:0:0:
192,192,49827,1,0,0:0:0:0:
64,192,49909,1,0,0:0:0:0:
448,192,49909,1,0,0:0:0:0:
320,192,49991,1,0,0:0:0:0:
192,192,50073,1,0,0:0:0:0:
64,192,50073,1,0,0:0:0:0:
448,192,50073,1,0,0:0:0:0:
320,192,50155,1,0,0:0:0:0:
192,192,50237,1,0,0:0:0:0:
64,192,50237,1,0,0:0:0:0:
448,192,50319,1,0,0:0:0:0:
320,192,50401,1,0,0:0:0:0:
192,192,50401,1,0,0:0:0:0:
64,192,50401,1,0,0:0:0:0:
448,192,50483,1,0,0:0:0:0:
320,192,50565,1,0,0:0:0:0:
64,192,50565,1,0,0:0:0:0:
192,192,50647,1,0,0:0:0:0:
64,192,50729,1,0,0:0:0:0:
320,192,50729,1,0,0:0:0:0:
448,192,50729,1,0,0:0:0:0:
192,192,50892,1,0,0:0:0:0:
320,192,50974,1,0,0:0:0:0:
448,192,51056,1,0,0:0:0:0:
192,192,51056,1,0,0:0:0:0:
64,192,51056,1,0,0:0:0:0:
320,192,51220,1,0,0:0:0:0:
448,192,51384,1,0,0:0:0:0:
64,192,51384,1,0,0:0:0:0:
192,192,51548,1,0,0:0:0:0:
320,192,51712,1,0,0:0:0:0:
448,192,51712,1,0,0:0:0:0:
64,192,51712,1,0,0:0:0:0:
192,192,51876,1,0,0:0:0:0:
64,192,52040,1,0,0:0:0:0:
448,192,52040,1,0,0:0:0:0:
320,192,52204,1,0,0:0:0:0:
192,192,52259,1,0,0:0:0:0:
320,192,52313,1,0,0:0:0:0:
448,192,52368,1,0,0:0:0:0:
192,192,52368,1,0,0:0:0:0:
64,192,52368,1,0,0:0:0:0:
320,192,52532,1,0,0:0:0:0:
448,192,52696,1,0,0:0:0:0:
64,192,52696,1,0,0:0:0:0:
192,192,52860,1,0,0:0:0:0:
64,192,53024,1,0,0:0:0:0:
448,192,53024,1,0,0:0:0:0:
320,192,53024,1,0,0:0:0:0:
192,192,53188,1,0,0:0:0:0:
320,192,53352,1,0,0:0:0:0:
448,192,53352,1,0,0:0:0:0:
192,192,53515,1,0,0:0:0:0:
64,192,53597,1,0,0:0:0:0:
320,192,53679,1,0,0:0:0:0:
448,192,53679,1,0,0:0:0:0:
192,192,53679,1,0,0:0:0:0:
64,192,53843,1,0,0:0:0:0:
448,192,54007,1,0,0:0:0:0:
192,192,54007,1,0,0:0:0:0:
320,192,54171,1,0,0:0:0:0:
64,192,54335,1,0,0:0:0:0:
448,192,54335,1,0,0:0:0:0:
320,192,54499,1,0,0:0:0:0:
192,192,54663,1,0,0:0:0:0:
64,192,54663,1,0,0:0:0:0:
448,192,54827,1,0,0:0:0:0:
320,192,54991,1,0,0:0:0:0:
192,192,54991,1,0,0:0:0:0:
64,192,54991,1,0,0:0:0:0:
448,192,55155,1,0,0:0:0:0:
64,192,55319,1,0,0:0:0:0:
192,192,55319,1,0,0:0:0:0:
448,192,55483,1,0,0:0:0:0:
320,192,55537,1,0,0:0:0:0:
192,192,55592,1,0,0:0:0:0:
320,192,55647,1,0,0:0:0:0:
448,192,55647,1,0,0:0:0:0:
64,192,55647,1,0,0:0:0:0:
192,192,55811,1,0,0:0:0:0:
64,192,55974,1,0,0:0:0:0:
192,192,55974,1,0,0:0:0:0:
448,192,55974,1,0,0:0:0:0:
320,192,56138,1,0,0:0:0:0:
448,192,56302,1,0,0:0:0:0:
192,192,56302,1,0,0:0:0:0:
64,192,56302,1,0,0:0:0:0:
320,192,56466,1,0,0:0:0:0:
448,192,56630,1,0,0:0:0:0:
64,192,56630,1,0,0:0:0:0:
192,192,56794,1,0,0:0:0:0:
320,192,56849,1,0,0:0:0:0:
192,192,56903,1,0,0:0:0:0:
64,192,56958,1,0,0:0:0:0:
448,192,56958,1,0,0:0:0:0:
320,192,56958,1,0,0:0:0:0:
192,192,57122,1,0,0:0:0:0:
320,192,57286,1,0,0:0:0:0:
448,192,57286,1,0,0:0:0:0:
64,192,57450,1,0,0:0:0:0:
448,192,57614,1,0,0:0:0:0:
192,192,57614,1,0,0:0:0:0:
320,192,57614,1,0,0:0:0:0:
64,192,57737,1,0,0:0:0:0:
320,192,57778,1,0,0:0:0:0:
192,192,57942,1,0,0:0:0:0:
448,192,57942,1,0,0:0:0:0:
320,192,58106,1,0,0:0:0:0:
192,192,58270,1,0,0:0:0:0:
448,192,58270,1,0,0:0:0:0:
64,192,58270,1,0,0:0:0:0:
320,192,58433,1,0,0:0:0:0:
192,192,58597,1,0,0:0:0:0:
64,192,58597,1,0,0:0:0:0:
448,192,58761,1,0,0:0:0:0:
320,192,58925,1,0,0:0:0:0:
64,192,58925,1,0,0:0:0:0:
192,192,58925,1,0,0:0:0:0:
448,192,59089,1,0,0:0:0:0:
64,192,59253,1,0,0:0:0:0:
320,192,59253,1,0,0:0:0:0:
192,192,59417,1,0,0:0:0:0:
448,192,59581,1,0,0:0:0:0:
320,192,59581,1,0,0:0:0:0:
64,192,59581,1,0,0:0:0:0:
192,192,59745,1,0,0:0:0:0:
448,192,59909,1,0,0:0:0:0:
320,192,59909,1,0,0:0:0:0:
192,192,59964,1,0,0:0:0:0:
320,192,60018,1,0,0:0:0:0:
192,192,60073,1,0,0:0:0:0:
320,192,60127,1,0,0:0:0:0:
192,192,60182,1,0,0:0:0:0:
320,192,60237,1,0,0:0:0:0:
448,192,60237,1,0,0:0:0:0:
64,192,60237,1,0,0:0:0:0:
192,192,60319,1,0,0:0:0:0:
320,192,60401,1,0,0:0:0:0:
192,192,60483,1,0,0:0:0:0:
64,192,60565,1,0,0:0:0:0:
448,192,60565,1,0,0:0:0:0:
320,192,60729,1,0,0:0:0:0:
192,192,60811,1,0,0:0:0:0:
320,192,60892,1,0,0:0:0:0:
448,192,60892,1,0,0:0:0:0:
64,192,60892,1,0,0:0:0:0:
192,192,61056,1,0,0:0:0:0:
64,192,61056,1,0,0:0:0:0:
320,192,61138,1,0,0:0:0:0:
448,192,61138,1,0,0:0:0:0:
192,192,61220,1,0,0:0:0:0:
64,192,61220,1,0,0:0:0:0:
448,192,61220,1,0,0:0:0:0:
320,192,61384,1,0,0:0:0:0:
448,192,61548,1,0,0:0:0:0:
320,192,61548,1,0,0:0:0:0:
192,192,61548,1,0,0:0:0:0:
64,192,61712,1,0,0:0:0:0:
64,192,61876,1,0,0:0:0:0:
192,192,61876,1,0,0:0:0:0:
448,192,61876,1,0,0:0:0:0:
320,192,62040,1,0,0:0:0:0:
192,192,62095,1,0,0:0:0:0:
320,192,62149,1,0,0:0:0:0:
448,192,62204,1,0,0:0:0:0:
192,192,62204,1,0,0:0:0:0:
64,192,62204,1,0,0:0:0:0:
448,192,62368,1,0,0:0:0:0:
320,192,62368,1,0,0:0:0:0:
192,192,62450,1,0,0:0:0:0:
64,192,62450,1,0,0:0:0:0:
320,192,62532,1,0,0:0:0:0:
64,192,62532,1,0,0:0:0:0:
448,192,62532,1,0,0:0:0:0:
192,192,62696,1,0,0:0:0:0:
320,192,62778,1,0,0:0:0:0:
64,192,62778,1,0,0:0:0:0:
192,192,62860,1,0,0:0:0:0:
448,192,62860,1,0,0:0:0:0:
320,192,62860,1,0,0:0:0:0:
64,192,63024,1,0,0:0:0:0:
448,192,63024,1,0,0:0:0:0:
448,192,63188,1,0,0:0:0:0:
320,192,63188,1,0,0:0:0:0:
192,192,63352,1,0,0:0:0:0:
64,192,63515,1,0,0:0:0:0:
320,192,63515,1,0,0:0:0:0:
448,192,63515,1,0,0:0:0:0:
192,192,63679,1,0,0:0:0:0:
448,192,63843,1,0,0:0:0:0:
64,192,63843,1,0,0:0:0:0:
192,192,63843,1,0,0:0:0:0:
320,192,63925,1,0,0:0:0:0:
448,192,64007,1,0,0:0:0:0:
64,192,64007,1,0,0:0:0:0:
192,192,64089,1,0,0:0:0:0:
320,192,64171,1,0,0:0:0:0:
448,192,64171,1,0,0:0:0:0:
64,192,64253,1,0,0:0:0:0:
192,192,64335,1,0,0:0:0:0:
448,192,64335,1,0,0:0:0:0:
320,192,64417,1,0,0:0:0:0:
448,192,64499,1,0,0:0:0:0:
192,192,64499,1,0,0:0:0:0:
64,192,64499,1,0,0:0:0:0:
320,192,64581,1,0,0:0:0:0:
192,192,64663,1,0,0:0:0:0:
64,192,64663,1,0,0:0:0:0:
448,192,64745,1,0,0:0:0:0:
320,192,64827,1,0,0:0:0:0:
64,192,64827,1,0,0:0:0:0:
192,192,64909,1,0,0:0:0:0:
320,192,64991,1,0,0:0:0:0:
448,192,64991,1,0,0:0:0:0:
64,192,65073,1,0,0:0:0:0:
192,192,65155,1,0,0:0:0:0:
448,192,65155,1,0,0:0:0:0:
64,192,65319,1,0,0:0:0:0:
192,192,65483,1,0,0:0:0:0:
448,192,65647,1,0,0:0:0:0:
320,192,65811,1,0,0:0:0:0:
192,192,65892,1,0,0:0:0:0:
64,192,65974,1,0,0:0:0:0:
448,192,66138,1,0,0:0:0:0:
192,192,66302,1,0,0:0:0:0:
64,192,66466,1,0,0:0:0:0:
320,192,66466,1,0,0:0:0:0:
448,192,66466,1,0,0:0:0:0:
