osu file format v14

[General]
AudioFilename: doll.mp3
AudioLeadIn: 0
PreviewTime: 13095
Countdown: 0
SampleSet: Soft
StackLeniency: 0.3
Mode: 0
LetterboxInBreaks: 0
WidescreenStoryboard: 1

[Editor]
Bookmarks: 25582,42497,43454,47603,55901,59731,67550,67869,68189,68508,71220,88454,119093,120369,121646,124199,126752,129306,132497
DistanceSpacing: 0.9
BeatDivisor: 16
GridSize: 4
TimelineZoom: 1.800001

[Metadata]
Title:Doll wAndeRing iN tHe NighTmARe
TitleUnicode:ねぇ、壊れタ人形ハ何処へ棄テらレるノ?
Artist:cosMo@P
ArtistUnicode:
Creator:Arastelia
Version:WaNdeRing DoLl
Source:maimai murasaki
Tags:
BeatmapID:1760121
BeatmapSetID:840972

[Difficulty]
HPDrainRate:3
CircleSize:4
OverallDifficulty:8
ApproachRate:9.9
SliderMultiplier:2.2
SliderTickRate:1

[Events]
//Background and Video events
0,0,"dark-anime-2073.jpg",0,0
//Break Periods
2,79080,87959
//Storyboard Layer 0 (Background)
//Storyboard Layer 1 (Fail)
//Storyboard Layer 2 (Pass)
//Storyboard Layer 3 (Foreground)
//Storyboard Sound Samples

[TimingPoints]
689,319.148936170213,4,2,0,70,1,0
689,-200,4,2,0,70,0,0
6752,-133.333333333333,4,2,0,70,0,0
7710,-76.9230769230769,4,2,0,70,0,0
8029,-50,4,2,0,70,0,0
11061,-200,4,2,0,70,0,0
11220,-100,4,2,0,70,0,0
11859,-200,4,2,0,70,0,0
12178,-50,4,2,0,70,0,0
12816,-133.333333333333,4,2,0,70,0,0
13135,-200,4,2,0,70,0,0
13774,-66.6666666666667,4,2,0,70,0,0
14412,-200,4,2,0,70,0,0
14731,-55.5555555555556,4,2,0,70,0,0
15369,-133.333333333333,4,2,0,70,0,0
16646,-66.6666666666667,4,2,0,70,0,0
16965,-100,4,2,0,70,0,0
17603,-57.1428571428571,4,2,0,70,0,0
17923,-100,4,2,0,70,0,0
18242,-133.333333333333,4,2,0,70,0,0
18561,-58.8235294117647,4,2,0,70,0,0
18880,-50,4,2,0,70,0,0
19518,-200,4,2,0,70,0,0
19837,-100,4,2,0,70,0,0
20157,-71.4285714285714,4,2,0,70,0,0
21114,-133.333333333333,4,2,0,70,0,0
22391,-50,4,2,0,70,0,0
23029,-100,4,2,0,70,0,0
23348,-133.333333333333,4,2,0,70,0,0
23667,-100,4,2,0,70,0,0
25263,-50,4,2,0,70,0,0
26220,-55.5555555555556,4,2,0,70,0,0
27178,-83.3333333333333,4,2,0,70,0,0
28135,-200,4,2,0,70,0,0
29093,-50,4,2,0,70,0,0
33242,-66.6666666666667,4,2,0,70,0,0
33880,-50,4,2,0,70,0,0
34518,-100,4,2,0,70,0,0
34837,-66.6666666666667,4,2,0,70,0,0
35150,-50,4,2,0,70,0,0
42178,-100,4,2,0,70,0,0
44412,-100,4,2,0,70,0,0
54944,-200,4,2,0,70,0,0
55901,-83.3333333333333,4,2,0,70,0,0
88454,-200,4,2,0,70,0,0
88774,-100,4,2,0,70,0,0
89412,-200,4,2,0,70,0,0
89731,-100,4,2,0,70,0,0
91008,-200,4,2,0,70,0,0
91806,-100,4,2,0,70,0,0
108880,-66.6666666666667,4,2,0,70,0,0
119093,-133.333333333333,4,2,0,70,0,0
129306,-200,4,2,0,70,0,0

[Colours]
Combo1 : 255,255,255
Combo2 : 0,0,0
Combo3 : 192,192,192
Combo4 : 128,128,128

[HitObjects]
120,156,689,6,0,P|132:112|156:76,1,82.5
240,88,1008,2,0,P|228:44|200:12,1,82.5
220,176,1327,2,0,P|224:220|240:264,1,82.5
312,204,1646,2,0,P|344:240|392:224,1,82.5
384,136,1965,6,0,B|392:96|392:96|440:80,1,82.5
464,264,2284,2,0,B|456:304|456:304|408:320,1,82.5
144,212,2603,2,0,P|144:160|184:136,1,82.5
248,108,2923,2,0,P|216:76|136:56,2,110
352,256,3880,6,0,P|352:300|340:336,1,82.5
220,276,4199,2,0,P|224:248|228:208,1,55
204,212,4439,2,0,L|192:208,5,9.16666666666667
420,108,4837,6,0,L|374:28,1,82.5
300,40,5157,2,0,L|258:111,1,82.5
296,176,5476,2,0,L|384:176,1,82.5
336,252,5795,6,0,L|290:332,1,82.5
216,320,6115,2,0,L|174:249,1,82.5
212,184,6434,2,0,L|300:184,1,82.5
340,104,6752,2,0,P|292:84|220:96,1,123.750004720688
160,48,7071,2,0,P|125:86|113:158,1,123.750004720688
116,272,7391,6,0,L|136:336,1,41.2500015735627
206,224,7550,2,0,L|214:168,1,41.2500015735627
284,288,7710,2,0,P|392:276|300:248,1,285.99998690796
272,92,11061,5,0,0:0:0:0:
272,92,11114,2,0,L|284:64,2,18.3333333333333
348,136,11300,6,0,L|356:212,1,55
248,268,11460,2,0,L|316:260,1,55
148,216,11619,1,0,0:0:0:0:
148,216,11699,2,0,L|152:248,2,27.5
144,116,11859,6,0,L|140:96,3,13.75
172,136,12018,1,0,0:0:0:0:
212,144,12058,1,0,0:0:0:0:
284,92,12098,1,0,0:0:0:0:
376,80,12138,1,0,0:0:0:0:
460,124,12178,2,0,P|452:184|332:312,1,220
64,176,12497,2,0,P|72:236|192:364,1,220
305,189,12816,6,0,P|309:161|265:173,1,82.5000031471254
260,312,13135,5,0,0:0:0:0:
260,312,13454,1,0,0:0:0:0:
112,128,13774,6,0,L|64:48,1,82.5000031471254
196,124,13933,2,0,L|244:44,1,82.5000031471254
268,164,14093,6,0,P|248:204|140:180,1,165.000006294251
336,80,14332,5,0,0:0:0:0:
348,72,14412,2,0,P|384:80|396:104,1,55
320,104,14651,1,0,0:0:0:0:
328,88,14731,2,0,P|380:64|376:176,1,197.99999395752
336,196,14970,1,0,0:0:0:0:
296,264,15050,6,0,P|288:292|304:360,1,98.9999969787599
392,304,15210,5,0,0:0:0:0:
376,244,15290,1,0,0:0:0:0:
336,196,15369,2,0,P|300:184|248:204,1,82.5000031471254
164,208,15609,5,0,0:0:0:0:
108,148,15689,1,0,0:0:0:0:
136,72,15768,1,0,0:0:0:0:
216,52,15848,6,0,P|248:64|256:80,1,41.2500015735627
251,68,16008,2,0,P|236:55|216:52,1,41.2500015735627
215,52,16167,2,0,P|235:56|250:69,1,41.2500015735627
328,112,16327,6,0,P|356:132|416:124,1,82.5000031471254
456,76,16566,1,0,0:0:0:0:
400,152,16646,2,0,P|380:200|396:252,1,82.5000031471254
288,296,16806,2,0,P|308:248|292:196,1,82.5000031471254
184,260,16965,6,0,P|164:268|116:292,1,55
176,168,17125,2,0,P|196:176|244:200,1,55
164,48,17284,6,0,P|144:40|96:16,1,55
40,236,17444,2,0,P|60:228|108:204,1,55
288,124,17603,6,0,B|320:104|320:104|324:136|324:136|352:108|352:108|352:136|352:136|384:112|384:112|436:128|440:168|412:216|364:184,1,288.750002753735
344,256,17923,6,0,L|352:332,1,55
402,318,18082,2,0,L|408:264,1,55
340,264,18242,2,0,P|320:288|268:280,1,82.5000031471254
164,224,18481,1,0,0:0:0:0:
156,216,18561,2,0,P|180:168|308:212,1,187.000003566742
320,152,18800,5,0,0:0:0:0:
320,112,18880,2,0,P|236:64|172:176,1,220
244,248,19119,5,0,0:0:0:0:
272,283,19199,2,0,B|332:283|332:283|440:267|440:267|380:307,1,220
320,356,19439,5,0,0:0:0:0:
200,368,19518,5,0,0:0:0:0:
100,312,19598,1,0,0:0:0:0:
56,208,19678,1,0,0:0:0:0:
92,112,19758,1,0,0:0:0:0:
120,118,19837,6,0,P|154:128|169:162,1,55
216,244,19997,2,0,P|182:234|166:199,1,55
216,244,20157,6,0,P|284:228|352:152,1,153.999995300293
384,96,20476,5,0,0:0:0:0:
160,32,20635,1,0,0:0:0:0:
96,256,20795,1,0,0:0:0:0:
320,320,20954,1,0,0:0:0:0:
320,32,21114,5,0,0:0:0:0:
104,119,21273,1,0,0:0:0:0:
191,335,21433,1,0,0:0:0:0:
407,247,21592,1,0,0:0:0:0:
407,247,21673,1,0,0:0:0:0:
407,247,21752,2,0,P|416:192|396:164,1,82.5000031471254
328,108,21992,5,0,0:0:0:0:
232,88,22071,2,0,L|224:112,2,20.6250007867813
272,176,22231,6,0,P|276:208|268:232,1,41.2500015735627
176,184,22391,2,0,P|120:152|184:20,1,220
256,20,22630,5,0,0:0:0:0:
300,32,22710,1,0,0:0:0:0:
340,32,22790,1,0,0:0:0:0:
380,44,22869,2,0,P|412:92|428:148,1,110
376,216,23029,2,0,P|349:179|341:160,1,55
344,170,23188,2,0,P|356:195|375:215,1,55
456,256,23348,6,0,P|432:300|396:292,1,82.5000031471254
308,272,23587,5,0,0:0:0:0:
204,280,23667,2,0,B|136:276|96:304|96:304|112:248|112:248,1,165
160,192,23986,5,0,0:0:0:0:
236,152,24146,1,0,0:0:0:0:
320,136,24306,1,0,0:0:0:0:
400,152,24465,1,0,0:0:0:0:
376,296,24625,5,0,0:0:0:0:
336,220,24785,1,0,0:0:0:0:
320,136,24945,1,0,0:0:0:0:
336,56,25104,1,0,0:0:0:0:
256,56,25263,2,0,B|232:68|144:40|144:40|64:56|100:96|160:68|172:128,1,220
200,148,25582,5,0,0:0:0:0:
244,144,25662,1,0,0:0:0:0:
200,148,25742,5,0,0:0:0:0:
244,144,25822,1,0,0:0:0:0:
200,148,25901,5,0,0:0:0:0:
244,144,25981,1,0,0:0:0:0:
200,148,26061,5,0,0:0:0:0:
244,144,26141,1,0,0:0:0:0:
80,240,26220,5,0,0:0:0:0:
140,244,26300,1,0,0:0:0:0:
80,240,26380,5,0,0:0:0:0:
140,244,26460,1,0,0:0:0:0:
80,240,26539,5,0,0:0:0:0:
140,244,26619,1,0,0:0:0:0:
80,240,26699,5,0,0:0:0:0:
140,244,26779,1,0,0:0:0:0:
80,240,26859,5,0,0:0:0:0:
140,244,26939,1,0,0:0:0:0:
80,240,27018,5,0,0:0:0:0:
144,248,27098,1,0,0:0:0:0:
256,152,27178,5,0,0:0:0:0:
388,136,27258,1,0,0:0:0:0:
256,152,27337,5,0,0:0:0:0:
388,136,27417,1,0,0:0:0:0:
256,152,27497,5,0,0:0:0:0:
388,136,27577,1,0,0:0:0:0:
256,152,27657,5,0,0:0:0:0:
388,136,27737,1,0,0:0:0:0:
256,152,27816,5,0,0:0:0:0:
388,136,27896,1,0,0:0:0:0:
256,152,27976,5,0,0:0:0:0:
388,136,28056,1,0,0:0:0:0:
256,16,28135,5,0,0:0:0:0:
80,192,28295,1,0,0:0:0:0:
256,368,28454,1,0,0:0:0:0:
432,192,28614,1,0,0:0:0:0:
256,69,28774,6,0,L|256:157,1,82.5
280,144,29093,6,0,P|340:172|244:224,1,220
176,224,29332,1,0,0:0:0:0:
160,228,29412,2,0,B|124:292|156:376|156:376|176:304,1,220
176,128,29651,1,0,0:0:0:0:
196,100,29731,2,0,P|252:64|376:128,1,220
352,208,30050,5,0,0:0:0:0:
368,304,30130,1,0,0:0:0:0:
448,240,30210,1,0,0:0:0:0:
352,208,30290,1,0,0:0:0:0:
368,304,30369,2,0,P|420:248|428:184,1,110
375,127,30529,5,0,0:0:0:0:
312,84,30609,1,0,0:0:0:0:
244,60,30689,2,0,B|172:72|172:72|100:48|100:48|36:84,1,220
40,128,30928,1,0,0:0:0:0:
72,160,31008,2,0,B|144:172|144:172|216:148|216:148|280:184,1,220
296,216,31247,5,0,0:0:0:0:
296,252,31327,2,0,P|296:312|277:357,1,110
277,357,31486,2,0,P|297:306|296:252,1,110
392,208,31646,5,0,0:0:0:0:
416,160,31726,1,0,0:0:0:0:
424,108,31806,1,0,0:0:0:0:
416,56,31885,1,0,0:0:0:0:
396,4,31965,2,0,P|316:24|312:48,1,110
268,132,32125,2,0,P|348:112|352:88,1,110
228,60,32284,6,0,P|168:117|177:140,1,110
156,268,32444,2,0,P|215:210|206:187,1,110
96,108,32603,6,0,P|101:190|124:198,1,110
328,292,32763,2,0,P|322:209|299:201,1,110
268,132,32923,2,0,B|340:72|396:80|396:80|424:28|424:28|460:84,1,220
424,68,33162,5,0,0:0:0:0:
416,96,33242,2,0,P|412:160|424:184,1,82.5000031471254
492,216,33401,2,0,P|496:152|484:128,1,82.5000031471254
404,248,33561,2,0,B|356:268|344:304|344:304|316:280|244:296,1,165.000006294251
180,252,33800,5,0,0:0:0:0:
152,232,33880,2,0,B|96:192|96:192|124:148|84:112|84:112|60:64|60:64|68:84,1,220
152,72,34119,5,0,0:0:0:0:
228,88,34199,1,0,0:0:0:0:
304,80,34279,1,0,0:0:0:0:
372,112,34359,1,0,0:0:0:0:
408,176,34439,1,0,0:0:0:0:
404,248,34518,6,0,P|384:304|284:312,1,165
404,248,34837,2,0,P|392:316|248:276,1,247.500009441376
404,248,35157,2,0,P|396:316|224:228,1,330
256,96,35476,5,0,0:0:0:0:
313,124,35635,1,0,0:0:0:0:
285,181,35795,1,0,0:0:0:0:
227,153,35954,1,0,0:0:0:0:
356,16,36114,5,0,0:0:0:0:
410,235,36274,1,0,0:0:0:0:
191,290,36433,1,0,0:0:0:0:
136,70,36593,1,0,0:0:0:0:
430,112,36752,6,0,B|379:139|379:139|315:123|279:163|279:163|199:147,1,220
188,152,36992,1,0,0:0:0:0:
168,184,37071,2,0,B|136:240|192:296|192:296|248:256|312:288,1,220
364,256,37311,5,0,0:0:0:0:
428,196,37391,1,0,0:0:0:0:
432,112,37470,2,0,B|260:20|568:16|300:100,1,220
312,88,37710,2,0,B|232:96|208:32|136:36|108:132,1,220
64,184,37949,5,0,0:0:0:0:
144,236,38029,2,0,B|204:248|204:248|292:220|292:220|220:208,1,220
188,144,38268,1,0,0:0:0:0:
228,72,38348,2,0,P|284:12|400:88,2,220
276,132,38747,5,0,0:0:0:0:
340,168,38827,1,0,0:0:0:0:
416,184,38907,1,0,0:0:0:0:
488,176,38986,1,0,0:0:0:0:
416,184,39066,5,0,0:0:0:0:
343,197,39146,1,0,0:0:0:0:
275,234,39226,1,0,0:0:0:0:
225,286,39306,6,0,P|164:272|136:232,1,110
112,128,39465,2,0,P|173:142|201:182,1,110
86,336,39625,2,0,P|147:322|175:282,1,110
199,178,39784,2,0,P|138:192|110:232,1,110
36,160,39944,6,0,P|60:64|92:36,1,110
228,75,40103,2,0,P|204:171|172:199,1,110
412,124,40263,6,0,P|388:28|356:0,1,110
228,75,40422,2,0,P|252:171|284:199,1,110
328,220,40582,5,0,0:0:0:0:
360,232,40662,1,0,0:0:0:0:
392,228,40742,1,0,0:0:0:0:
420,212,40821,1,0,0:0:0:0:
448,192,40901,5,0,0:0:0:0:
480,200,40981,1,0,0:0:0:0:
496,224,41061,1,0,0:0:0:0:
488,256,41141,1,0,0:0:0:0:
480,268,41220,5,0,0:0:0:0:
472,276,41300,1,0,0:0:0:0:
464,284,41380,1,0,0:0:0:0:
456,292,41460,1,0,0:0:0:0:
408,312,41540,5,0,0:0:0:0:
360,316,41619,1,0,0:0:0:0:
312,304,41699,1,0,0:0:0:0:
272,276,41779,1,0,0:0:0:0:
248,232,41859,1,0,0:0:0:0:
260,184,41939,1,0,0:0:0:0:
288,144,42018,1,0,0:0:0:0:
298,95,42098,1,0,0:0:0:0:
274,52,42178,2,0,L|232:8,3,55
404,116,42497,6,0,L|460:144,17,36.6666666666667
160,140,43454,6,0,L|112:160,23,27.5
272,188,44412,6,0,L|280:220,23,27.5
208,144,45369,6,0,L|176:136,36,18.3333333333333
368,88,47603,5,0,0:0:0:0:
404,168,47710,1,0,0:0:0:0:
376,248,47816,1,0,0:0:0:0:
368,88,47923,5,0,0:0:0:0:
404,168,48030,1,0,0:0:0:0:
376,248,48136,1,0,0:0:0:0:
300,232,48242,5,0,0:0:0:0:
224,236,48348,1,0,0:0:0:0:
152,264,48454,1,0,0:0:0:0:
96,312,48561,5,0,0:0:0:0:
72,240,48667,1,0,0:0:0:0:
84,164,48774,1,0,0:0:0:0:
124,100,48880,2,0,L|196:48,2,73.3333333333333
204,140,49199,5,0,0:0:0:0:
304,88,49306,1,0,0:0:0:0:
416,108,49412,1,0,0:0:0:0:
392,192,49518,1,0,0:0:0:0:
380,268,49625,1,0,0:0:0:0:
404,340,49731,1,0,0:0:0:0:
476,312,49837,1,0,0:0:0:0:
452,240,49944,1,0,0:0:0:0:
380,268,50050,1,0,0:0:0:0:
320,320,50157,6,0,P|224:340|216:324,2,73.3333333333333
264,220,50476,2,0,P|360:200|368:216,2,73.3333333333333
180,256,50795,5,0,0:0:0:0:
108,232,50901,1,0,0:0:0:0:
60,176,51008,1,0,0:0:0:0:
84,104,51114,5,0,0:0:0:0:
156,44,51220,1,0,0:0:0:0:
172,136,51327,1,0,0:0:0:0:
84,104,51433,5,0,0:0:0:0:
156,44,51539,1,0,0:0:0:0:
172,136,51646,1,0,0:0:0:0:
84,104,51752,5,0,0:0:0:0:
156,44,51858,1,0,0:0:0:0:
172,136,51965,1,0,0:0:0:0:
252,76,52071,6,0,L|244:-8,2,73.3333333333333
324,156,52391,2,0,L|332:240,2,73.3333333333333
165,196,52710,5,0,0:0:0:0:
241,213,52816,1,0,0:0:0:0:
324,156,52923,1,0,0:0:0:0:
291,69,53029,5,0,0:0:0:0:
195,80,53135,1,0,0:0:0:0:
108,31,53242,1,0,0:0:0:0:
34,90,53348,5,0,0:0:0:0:
51,177,53454,1,0,0:0:0:0:
120,120,53561,1,0,0:0:0:0:
51,177,53667,5,0,0:0:0:0:
64,256,53773,1,0,0:0:0:0:
68,336,53880,1,0,0:0:0:0:
144,297,53986,5,0,0:0:0:0:
216,251,54093,1,0,0:0:0:0:
301,250,54199,1,0,0:0:0:0:
386,267,54306,1,0,0:0:0:0:
459,220,54412,1,0,0:0:0:0:
405,153,54518,1,0,0:0:0:0:
318,145,54625,5,0,0:0:0:0:
369,74,54731,1,0,0:0:0:0:
282,67,54837,1,0,0:0:0:0:
226,135,54943,1,0,0:0:0:0:
116,104,55582,6,0,P|72:88|80:52,1,82.5
144,108,55901,6,0,L|128:192,1,65.9999979858399
212,164,56061,2,0,L|228:248,1,65.9999979858399
196,304,56220,2,0,P|240:320|276:312,1,65.9999979858399
412,300,56380,2,0,P|368:316|332:308,1,65.9999979858399
304,228,56540,2,0,P|320:160|320:92,1,131.99999597168
264,40,56779,5,0,0:0:0:0:
212,36,56859,1,0,0:0:0:0:
168,60,56939,1,0,0:0:0:0:
144,108,57018,1,0,0:0:0:0:
156,156,57098,1,0,0:0:0:0:
144,204,57178,6,0,P|224:196|272:116,1,131.99999597168
424,108,57417,1,0,0:0:0:0:
418,185,57497,2,0,P|338:193|290:273,1,131.99999597168
320,276,57736,1,0,0:0:0:0:
264,292,57816,1,0,0:0:0:0:
216,268,57896,1,0,0:0:0:0:
164,272,57976,6,0,P|156:320|164:348,1,65.9999979858399
159,336,58135,2,0,P|155:303|164:272,1,65.9999979858399
164,272,58295,2,0,P|156:320|164:348,1,65.9999979858399
72,292,58454,5,0,0:0:0:0:
80,228,58534,1,0,0:0:0:0:
116,176,58614,5,0,0:0:0:0:
204,152,58694,1,0,0:0:0:0:
288,176,58774,1,0,0:0:0:0:
376,176,58853,5,0,0:0:0:0:
396,160,58933,1,0,0:0:0:0:
404,132,59013,1,0,0:0:0:0:
392,116,59093,1,0,0:0:0:0:
392,124,59173,1,0,0:0:0:0:
392,136,59252,1,0,0:0:0:0:
392,144,59332,1,0,0:0:0:0:
392,156,59412,1,0,0:0:0:0:
312,20,59571,5,0,0:0:0:0:
204,108,59731,5,0,0:0:0:0:
444,76,59891,1,0,0:0:0:0:
236,280,60050,1,0,0:0:0:0:
312,20,60210,1,0,0:0:0:0:
424,248,60369,1,0,0:0:0:0:
120,128,60529,5,0,0:0:0:0:
93,116,60609,1,0,0:0:0:0:
73,96,60689,1,0,0:0:0:0:
360,112,60848,1,0,0:0:0:0:
84,232,61008,1,0,0:0:0:0:
456,176,61167,1,0,0:0:0:0:
232,36,61327,5,0,0:0:0:0:
192,312,61486,1,0,0:0:0:0:
368,216,61646,5,0,0:0:0:0:
328,176,61726,1,0,0:0:0:0:
280,156,61806,1,0,0:0:0:0:
228,152,61885,1,0,0:0:0:0:
176,172,61965,1,0,0:0:0:0:
132,208,62045,1,0,0:0:0:0:
80,224,62125,1,0,0:0:0:0:
28,208,62204,1,0,0:0:0:0:
20,152,62284,2,0,L|16:104,2,32.99999899292
76,132,62444,5,0,0:0:0:0:
128,140,62524,1,0,0:0:0:0:
176,172,62603,1,0,0:0:0:0:
200,224,62683,1,0,0:0:0:0:
200,280,62763,1,0,0:0:0:0:
224,332,62843,1,0,0:0:0:0:
280,340,62923,1,0,0:0:0:0:
332,320,63002,1,0,0:0:0:0:
356,272,63082,1,0,0:0:0:0:
352,192,63162,1,0,0:0:0:0:
340,112,63242,2,0,L|332:64,6,32.99999899292
256,96,63561,5,0,0:0:0:0:
96,284,64518,5,0,0:0:0:0:
376,184,65476,5,0,0:0:0:0:
296,132,65635,1,0,0:0:0:0:
208,116,65795,1,0,0:0:0:0:
120,132,65954,1,0,0:0:0:0:
264,300,66593,1,0,0:0:0:0:
368,120,67231,5,0,0:0:0:0:
152,132,67391,5,0,0:0:0:0:
152,172,67470,1,0,0:0:0:0:
152,212,67550,2,0,L|152:284,1,65.9999979858399
268,224,67710,2,0,L|268:152,1,65.9999979858399
172,236,67869,2,0,L|172:308,1,65.9999979858399
264,308,68029,5,0,0:0:0:0:
304,296,68109,1,0,0:0:0:0:
336,268,68189,1,0,0:0:0:0:
352,228,68268,1,0,0:0:0:0:
356,184,68348,6,0,L|356:112,1,65.9999979858399
448,168,68508,2,0,L|448:240,1,65.9999979858399
336,164,68667,6,0,L|336:92,1,65.9999979858399
428,148,68827,2,0,L|428:220,1,65.9999979858399
260,80,68986,6,0,L|260:-12,1,65.9999979858399
176,60,69146,2,0,L|176:152,1,65.9999979858399
88,128,69306,5,0,0:0:0:0:
88,144,69386,1,0,0:0:0:0:
88,160,69465,1,0,0:0:0:0:
88,176,69545,1,0,0:0:0:0:
88,192,69625,1,0,0:0:0:0:
88,208,69705,1,0,0:0:0:0:
88,216,69784,1,0,0:0:0:0:
88,232,69864,1,0,0:0:0:0:
88,248,69944,2,0,L|88:320,1,65.9999979858399
184,372,70103,2,0,L|184:300,1,65.9999979858399
288,324,70263,5,0,0:0:0:0:
304,304,70343,1,0,0:0:0:0:
288,292,70422,5,0,0:0:0:0:
304,272,70501,1,0,0:0:0:0:
288,260,70582,5,0,0:0:0:0:
304,240,70661,1,0,0:0:0:0:
288,236,70741,5,0,0:0:0:0:
304,216,70820,1,0,0:0:0:0:
288,204,70900,5,0,0:0:0:0:
304,184,70979,1,0,0:0:0:0:
288,172,71060,5,0,0:0:0:0:
304,152,71139,1,0,0:0:0:0:
289,135,71220,5,0,0:0:0:0:
159,254,71380,1,0,0:0:0:0:
343,37,71540,1,0,0:0:0:0:
380,316,71699,1,0,0:0:0:0:
128,98,71859,1,0,0:0:0:0:
433,183,72018,1,0,0:0:0:0:
79,297,72178,5,0,0:0:0:0:
456,264,72337,1,0,0:0:0:0:
119,178,72497,1,0,0:0:0:0:
469,106,72657,1,0,0:0:0:0:
68,36,72816,1,0,0:0:0:0:
456,19,72976,1,0,0:0:0:0:
325,332,73135,5,0,0:0:0:0:
266,23,73295,1,0,0:0:0:0:
237,361,73454,1,0,0:0:0:0:
362,50,73614,1,0,0:0:0:0:
445,330,73774,1,0,0:0:0:0:
456,19,73933,1,0,0:0:0:0:
144,232,74093,5,0,0:0:0:0:
480,180,74252,1,0,0:0:0:0:
153,89,74412,1,0,0:0:0:0:
342,312,74571,1,0,0:0:0:0:
45,163,74731,1,0,0:0:0:0:
456,19,74891,1,0,0:0:0:0:
256,324,75050,5,0,0:0:0:0:
220,336,75130,1,0,0:0:0:0:
184,332,75210,1,0,0:0:0:0:
152,316,75290,1,0,0:0:0:0:
128,288,75369,1,0,0:0:0:0:
120,252,75449,1,0,0:0:0:0:
132,216,75529,1,0,0:0:0:0:
164,196,75609,1,0,0:0:0:0:
188,224,75689,1,0,0:0:0:0:
220,244,75768,1,0,0:0:0:0:
256,248,75848,1,0,0:0:0:0:
292,240,75928,1,0,0:0:0:0:
324,220,76008,5,0,0:0:0:0:
360,164,76087,1,0,0:0:0:0:
376,100,76167,1,0,0:0:0:0:
360,36,76247,1,0,0:0:0:0:
312,82,76327,1,0,0:0:0:0:
257,120,76407,1,0,0:0:0:0:
192,129,76487,1,0,0:0:0:0:
128,116,76566,1,0,0:0:0:0:
72,82,76646,1,0,0:0:0:0:
38,26,76726,1,0,0:0:0:0:
92,64,76806,1,0,0:0:0:0:
140,112,76886,1,0,0:0:0:0:
152,188,76966,5,0,0:0:0:0:
206,256,77045,1,0,0:0:0:0:
294,272,77125,1,0,0:0:0:0:
366,228,77204,1,0,0:0:0:0:
380,144,77284,1,0,0:0:0:0:
334,69,77364,1,0,0:0:0:0:
254,42,77443,1,0,0:0:0:0:
252,80,77524,1,0,0:0:0:0:
252,112,77603,1,0,0:0:0:0:
252,136,77683,1,0,0:0:0:0:
252,152,77763,1,0,0:0:0:0:
252,164,77843,1,0,0:0:0:0:
252,172,77923,6,0,L|252:228,24,32.99999899292
152,156,88454,6,0,L|152:220,1,55
272,184,88694,5,0,0:0:0:0:
272,184,88774,2,0,L|272:112,1,55
372,144,88933,1,0,0:0:0:0:
368,276,89252,2,0,L|368:348,1,55
468,224,89412,6,0,L|468:160,1,55
372,89,89651,1,0,0:0:0:0:
372,89,89731,2,0,L|372:153,1,55
260,132,89891,1,0,0:0:0:0:
260,104,89970,1,0,0:0:0:0:
260,72,90050,1,0,0:0:0:0:
140,56,90210,5,0,0:0:0:0:
140,168,90369,5,0,0:0:0:0:
140,208,90449,1,0,0:0:0:0:
140,248,90529,2,0,L|140:320,1,55
232,268,90689,2,0,L|232:196,1,55
320,236,90848,2,0,L|320:291,1,55
392,188,91008,6,0,L|392:132,1,55
392,133,91247,1,0,0:0:0:0:
392,133,91327,1,0,0:0:0:0:
308,56,91486,5,0,0:0:0:0:
144,56,91806,6,0,L|144:128,1,55
64,204,91965,2,0,L|64:132,1,55
144,196,92125,5,0,0:0:0:0:
144,224,92204,1,0,0:0:0:0:
144,256,92284,1,0,0:0:0:0:
248,180,92444,5,0,0:0:0:0:
248,200,92524,1,0,0:0:0:0:
248,220,92603,2,0,L|248:280,1,55
344,204,92763,2,0,L|344:144,1,55
260,32,92923,5,0,0:0:0:0:
260,32,93002,1,0,0:0:0:0:
260,32,93082,2,0,L|260:92,1,55
348,56,93241,2,0,L|348:-4,1,55
444,52,93401,5,0,0:0:0:0:
444,52,93481,2,0,L|444:132,1,55
444,188,93720,1,0,0:0:0:0:
444,224,93800,1,0,0:0:0:0:
444,260,93880,1,0,0:0:0:0:
320,312,94040,5,0,0:0:0:0:
320,220,94359,5,0,0:0:0:0:
200,192,94439,2,0,L|200:260,1,55
96,292,94598,5,0,0:0:0:0:
96,292,94678,2,0,L|96:220,1,55
96,152,94837,6,0,P|107:99|124:82,1,55
272,152,94997,2,0,P|260:99|243:82,1,55
96,152,95157,6,0,P|136:116|160:112,1,55
272,152,95317,2,0,P|232:116|208:112,1,55
184,48,95476,5,0,0:0:0:0:
204,28,95556,1,0,0:0:0:0:
236,24,95635,2,0,L|300:24,1,55
372,40,95795,5,0,0:0:0:0:
420,96,95875,1,0,0:0:0:0:
404,168,95954,2,0,L|376:240,1,55
356,288,96114,5,0,0:0:0:0:
288,332,96194,1,0,0:0:0:0:
208,336,96274,1,0,0:0:0:0:
136,300,96353,1,0,0:0:0:0:
100,228,96433,5,0,0:0:0:0:
124,220,96513,1,0,0:0:0:0:
148,212,96593,1,0,0:0:0:0:
172,204,96673,1,0,0:0:0:0:
196,196,96752,5,0,0:0:0:0:
172,180,96832,1,0,0:0:0:0:
148,160,96912,1,0,0:0:0:0:
124,140,96992,1,0,0:0:0:0:
160,124,97071,5,0,0:0:0:0:
200,120,97151,1,0,0:0:0:0:
240,128,97231,1,0,0:0:0:0:
276,148,97311,1,0,0:0:0:0:
304,176,97391,6,0,P|304:212|288:240,1,55
216,336,97550,2,0,P|216:300|232:272,1,55
348,324,97710,6,0,P|312:324|284:308,1,55
376,240,97869,2,0,P|412:240|440:256,1,55
488,132,98029,2,0,P|489:159|480:184,1,55
400,144,98189,2,0,P|398:116|407:91,1,55
476,52,98348,5,0,0:0:0:0:
471,41,98428,1,0,0:0:0:0:
466,31,98508,2,0,P|441:19|413:18,1,55
316,32,98667,5,0,0:0:0:0:
308,52,98747,1,0,0:0:0:0:
304,76,98827,2,0,L|308:136,1,55
216,124,98986,5,0,0:0:0:0:
208,104,99066,1,0,0:0:0:0:
204,80,99146,2,0,L|208:20,1,55
120,64,99306,5,0,0:0:0:0:
112,84,99386,1,0,0:0:0:0:
108,108,99466,2,0,L|112:168,1,55
16,112,99625,5,0,0:0:0:0:
24,132,99705,1,0,0:0:0:0:
28,156,99785,2,0,L|24:216,1,55
88,288,99944,5,0,0:0:0:0:
112,304,100024,1,0,0:0:0:0:
108,280,100103,1,0,0:0:0:0:
92,308,100183,1,0,0:0:0:0:
224,252,100263,5,0,0:0:0:0:
200,268,100343,1,0,0:0:0:0:
204,244,100422,1,0,0:0:0:0:
220,272,100502,1,0,0:0:0:0:
272,148,100582,5,0,0:0:0:0:
296,164,100662,1,0,0:0:0:0:
292,140,100741,1,0,0:0:0:0:
276,168,100821,1,0,0:0:0:0:
396,176,100901,5,0,0:0:0:0:
420,192,100981,1,0,0:0:0:0:
416,168,101060,1,0,0:0:0:0:
400,196,101140,1,0,0:0:0:0:
344,260,101220,6,0,P|340:292|352:336,1,55
264,256,101380,2,0,P|274:286|304:320,1,55
192,264,101540,2,0,P|214:286|256:304,1,55
104,296,101699,6,0,P|88:228|92:180,1,110
116,160,101939,1,0,0:0:0:0:
156,156,102018,1,0,0:0:0:0:
192,172,102098,1,0,0:0:0:0:
232,168,102178,2,0,P|264:160|296:84,1,110
288,72,102417,5,0,0:0:0:0:
316,64,102497,2,0,P|364:80|384:88,1,55
396,104,102657,5,0,0:0:0:0:
416,136,102736,1,0,0:0:0:0:
416,176,102816,1,0,0:0:0:0:
400,212,102896,1,0,0:0:0:0:
368,236,102976,1,0,0:0:0:0:
328,236,103056,1,0,0:0:0:0:
288,248,103135,5,0,0:0:0:0:
248,312,103215,1,0,0:0:0:0:
172,320,103295,1,0,0:0:0:0:
120,264,103375,1,0,0:0:0:0:
136,188,103454,1,0,0:0:0:0:
208,160,103534,1,0,0:0:0:0:
232,88,103614,2,0,P|204:68|168:56,1,55
296,48,103774,2,0,P|324:68|360:80,1,55
416,100,103933,5,0,0:0:0:0:
436,140,104013,1,0,0:0:0:0:
444,184,104093,1,0,0:0:0:0:
436,228,104173,1,0,0:0:0:0:
416,268,104252,1,0,0:0:0:0:
376,288,104332,1,0,0:0:0:0:
356,280,104412,5,0,0:0:0:0:
336,272,104492,1,0,0:0:0:0:
320,264,104571,1,0,0:0:0:0:
300,256,104651,1,0,0:0:0:0:
280,248,104731,5,0,0:0:0:0:
300,224,104811,1,0,0:0:0:0:
324,200,104891,1,0,0:0:0:0:
348,176,104970,1,0,0:0:0:0:
320,156,105050,5,0,0:0:0:0:
292,136,105130,1,0,0:0:0:0:
264,120,105210,2,0,P|216:112|148:140,1,110
112,208,105449,2,0,P|160:216|228:188,1,110
120,192,105689,2,0,P|116:240|124:256,1,55
128,272,105848,5,0,0:0:0:0:
152,288,105928,1,0,0:0:0:0:
180,288,106008,1,0,0:0:0:0:
208,272,106087,1,0,0:0:0:0:
236,264,106167,1,0,0:0:0:0:
264,268,106247,1,0,0:0:0:0:
292,280,106327,5,0,0:0:0:0:
368,276,106407,1,0,0:0:0:0:
412,212,106486,1,0,0:0:0:0:
384,140,106566,1,0,0:0:0:0:
308,148,106646,1,0,0:0:0:0:
244,104,106726,1,0,0:0:0:0:
168,108,106806,1,0,0:0:0:0:
128,172,106885,1,0,0:0:0:0:
140,176,106965,5,0,0:0:0:0:
152,184,107045,1,0,0:0:0:0:
164,200,107125,1,0,0:0:0:0:
172,216,107204,1,0,0:0:0:0:
172,236,107284,5,0,0:0:0:0:
116,264,107364,1,0,0:0:0:0:
60,240,107444,1,0,0:0:0:0:
48,176,107524,1,0,0:0:0:0:
72,116,107603,6,0,P|84:76|80:48,1,55
156,80,107763,2,0,P|208:60|268:76,1,110
295,89,108002,2,0,L|291:149,1,55
376,88,108162,2,0,L|380:28,1,55
375,170,108321,5,0,0:0:0:0:
372,256,108401,2,0,L|372:308,4,27.5
464,216,108641,2,0,L|460:152,1,55
456,80,108800,1,0,0:0:0:0:
376,88,108880,6,0,P|376:160|372:204,1,82.5000031471254
292,144,109040,2,0,P|292:216|296:260,1,82.5000031471254
372,283,109199,1,0,0:0:0:0:
124,200,109359,5,0,0:0:0:0:
100,132,109439,1,0,0:0:0:0:
124,64,109518,1,0,0:0:0:0:
184,144,109678,2,0,P|208:196|204:240,1,82.5000031471254
80,312,109837,2,0,P|56:260|60:216,1,82.5000031471254
160,288,109997,5,0,0:0:0:0:
160,288,110316,5,0,0:0:0:0:
244,312,110396,1,0,0:0:0:0:
328,288,110476,1,0,0:0:0:0:
384,188,110556,1,0,0:0:0:0:
368,64,110635,1,0,0:0:0:0:
264,128,110715,1,0,0:0:0:0:
144,116,110795,6,0,P|96:108|56:96,1,82.5000031471254
196,184,110954,2,0,P|242:197|283:204,1,82.5000031471254
108,232,111114,6,0,P|60:224|20:212,1,82.5000031471254
160,288,111274,2,0,P|206:301|247:308,1,82.5000031471254
384,312,111433,5,0,0:0:0:0:
384,188,111593,5,0,0:0:0:0:
392,108,111673,1,0,0:0:0:0:
344,44,111752,1,0,0:0:0:0:
264,36,111832,1,0,0:0:0:0:
196,80,111912,1,0,0:0:0:0:
269,115,111992,5,0,0:0:0:0:
196,80,112072,1,0,0:0:0:0:
120,103,112151,1,0,0:0:0:0:
85,175,112231,1,0,0:0:0:0:
103,254,112311,1,0,0:0:0:0:
136,264,112391,5,0,0:0:0:0:
168,276,112470,1,0,0:0:0:0:
200,288,112550,1,0,0:0:0:0:
232,300,112630,1,0,0:0:0:0:
312,284,112710,5,0,0:0:0:0:
376,232,112790,1,0,0:0:0:0:
404,156,112869,1,0,0:0:0:0:
376,80,112949,1,0,0:0:0:0:
312,24,113029,2,0,P|244:24|216:44,1,82.5000031471254
144,52,113189,6,0,B|160:100|176:108|176:108|224:148|288:104|264:148|224:120|177:124|128:160,1,247.500009441376
72,144,113508,2,0,P|60:192|84:240,1,82.5000031471254
148,220,113667,5,0,0:0:0:0:
160,264,113747,1,0,0:0:0:0:
152,308,113827,2,0,P|116:328|80:288,1,82.5000031471254
232,288,113986,5,0,0:0:0:0:
268,284,114066,1,0,0:0:0:0:
304,292,114146,1,0,0:0:0:0:
336,312,114226,1,0,0:0:0:0:
356,340,114306,2,0,P|392:352|436:332,1,82.5000031471254
468,248,114465,2,0,P|432:236|388:256,1,82.5000031471254
320,212,114625,5,0,0:0:0:0:
292,196,114704,1,0,0:0:0:0:
304,164,114784,1,0,0:0:0:0:
276,148,114863,1,0,0:0:0:0:
256,180,114944,2,0,P|192:208|164:196,1,82.5000031471254
200,96,115103,2,0,P|264:68|292:80,1,82.5000031471254
356,100,115263,5,0,0:0:0:0:
380,124,115343,1,0,0:0:0:0:
396,156,115423,1,0,0:0:0:0:
404,188,115502,1,0,0:0:0:0:
412,160,115582,5,0,0:0:0:0:
424,132,115662,1,0,0:0:0:0:
436,104,115742,1,0,0:0:0:0:
444,76,115821,1,0,0:0:0:0:
456,48,115901,2,0,L|484:132,1,82.5000031471254
344,264,116061,2,0,L|316:180,1,82.5000031471254
353,45,116220,2,0,L|381:129,1,82.5000031471254
241,261,116380,2,0,L|213:177,1,82.5000031471254
120,52,116540,5,0,0:0:0:0:
128,304,116699,1,0,0:0:0:0:
352,44,116859,1,0,0:0:0:0:
380,332,117018,1,0,0:0:0:0:
68,132,117178,5,0,0:0:0:0:
424,144,117337,1,0,0:0:0:0:
44,284,117497,1,0,0:0:0:0:
456,308,117657,1,0,0:0:0:0:
196,124,117816,5,0,0:0:0:0:
176,88,117896,1,0,0:0:0:0:
184,48,117976,1,0,0:0:0:0:
224,36,118056,1,0,0:0:0:0:
260,56,118135,1,0,0:0:0:0:
256,96,118215,1,0,0:0:0:0:
236,132,118295,1,0,0:0:0:0:
236,172,118375,1,0,0:0:0:0:
244,212,118454,6,0,L|260:296,3,82.5000031471254
336,228,118774,2,0,L|352:144,3,82.5000031471254
259,293,119093,6,0,B|203:253|203:181|203:181|255:133|199:85|299:61|299:61|443:33|531:173|408:276,1,618.75002360344
308,204,120369,6,0,B|280:104|288:56|288:56|232:96|232:96|144:72|96:160|168:288|144:376|144:376|200:364|204:324,1,618.75002360344
52,320,121646,6,0,B|123:225|228:257|228:257|189:354|189:354|143:88|246:32|246:32|305:92|299:213|299:213|382:47|412:12|412:12|372:120|372:212,1,1278.75004878044
48,192,124199,6,0,B|152:204|208:64|160:-16|0:24|80:124|80:124|200:120|304:136|384:168|464:300|248:328|132:284|120:192|276:116|424:52|460:140|440:240|440:240|408:312|352:340|264:336|264:336,1,1278.75004878044
220,136,126752,6,0,B|260:56|356:48|356:48|344:112|344:112|420:132|404:76|476:136|500:240|384:232|384:232|468:284|492:384|376:384|340:276|340:276|324:272|284:332|216:344|212:304|132:280|64:304|52:312|28:252|28:248|4:140|20:76|68:84|88:148,1,1278.75004878044
248,232,129306,6,0,B|304:216|312:164|312:164|312:72|376:60|376:60|416:92|408:144|372:172|372:172|292:132|208:112|44:88|20:248|52:356|180:360|180:288|296:292|344:376|340:280|336:252|368:228|408:248|408:356,1,1100
256,192,132537,12,0,135050,0:0:0:0:
