osu file format v14

[General]
AudioFilename: audio.mp3
AudioLeadIn: 0
PreviewTime: 55983
Countdown: 0
SampleSet: None
StackLeniency: 0.7
Mode: 1
LetterboxInBreaks: 0
WidescreenStoryboard: 1

[Editor]
DistanceSpacing: 1
BeatDivisor: 4
GridSize: 8
TimelineZoom: 1

[Metadata]
Title:Anti the EuphoriaHOLiC
TitleUnicode:Anti the EuphoriaHOLiC
Artist:cosMo@P
ArtistUnicode:cosMo@暴走P
Creator:Nofool
Version:Insane Oni (noSVC)
Source:Star Girl and The Illusion Paradise Series
Tags:Kagamine rin IA Camui Gackpo cosmop 暴走p syuri22 gaia 星ノ少女ト幻奏楽土
BeatmapID:1793978
BeatmapSetID:858382

[Difficulty]
HPDrainRate:5
CircleSize:6
OverallDifficulty:6
ApproachRate:8
SliderMultiplier:1.4
SliderTickRate:1

[Events]
//Background and Video events
0,0,"BG89.jpg",0,0
//Break Periods
//Storyboard Layer 0 (Background)
//Storyboard Layer 1 (Fail)
//Storyboard Layer 2 (Pass)
//Storyboard Layer 3 (Foreground)
//Storyboard Sound Samples

[TimingPoints]
1317,333.333333333333,4,1,0,80,1,0
61316,-100,4,1,0,80,0,1
82650,-100,4,1,0,80,0,0
146650,-100,4,1,0,80,0,1
167983,-100,4,1,0,80,0,0
202983,-100,4,1,0,80,0,1
223983,-100,4,1,0,80,0,0

[HitObjects]
256,192,1317,5,0,0:0:0:0:
256,192,1650,1,0,0:0:0:0:
256,192,1733,1,8,0:0:0:0:
256,192,1816,1,8,0:0:0:0:
256,192,1900,1,0,0:0:0:0:
256,192,1983,1,8,0:0:0:0:
256,192,2066,1,0,0:0:0:0:
256,192,2150,1,0,0:0:0:0:
256,192,2233,1,0,0:0:0:0:
256,192,2316,1,8,0:0:0:0:
256,192,2400,1,0,0:0:0:0:
256,192,2483,1,8,0:0:0:0:
256,192,2566,1,8,0:0:0:0:
256,192,2650,1,0,0:0:0:0:
256,192,2733,1,0,0:0:0:0:
256,192,2983,1,0,0:0:0:0:
256,192,3066,1,0,0:0:0:0:
256,192,3316,1,12,0:0:0:0:
256,192,3483,1,12,0:0:0:0:
256,192,3650,1,4,0:0:0:0:
256,192,3816,1,12,0:0:0:0:
256,192,3983,1,0,0:0:0:0:
256,192,4066,1,0,0:0:0:0:
256,192,4316,1,0,0:0:0:0:
256,192,4400,1,0,0:0:0:0:
256,192,4650,1,0,0:0:0:0:
256,192,4733,1,8,0:0:0:0:
256,192,4816,1,0,0:0:0:0:
256,192,4900,1,0,0:0:0:0:
256,192,4983,1,8,0:0:0:0:
256,192,5316,1,0,0:0:0:0:
256,192,5400,1,0,0:0:0:0:
256,192,5650,1,0,0:0:0:0:
256,192,5733,1,0,0:0:0:0:
256,192,5983,1,12,0:0:0:0:
256,192,6150,1,12,0:0:0:0:
256,192,6316,1,4,0:0:0:0:
256,192,6483,1,4,0:0:0:0:
256,192,6650,1,8,0:0:0:0:
256,192,6733,1,8,0:0:0:0:
256,192,6816,1,8,0:0:0:0:
256,192,6900,1,0,0:0:0:0:
256,192,6983,1,8,0:0:0:0:
256,192,7066,1,0,0:0:0:0:
256,192,7150,1,8,0:0:0:0:
256,192,7233,1,8,0:0:0:0:
256,192,7316,1,0,0:0:0:0:
256,192,7400,1,8,0:0:0:0:
256,192,7483,1,0,0:0:0:0:
256,192,7566,1,0,0:0:0:0:
256,192,7650,1,8,0:0:0:0:
256,192,7983,1,0,0:0:0:0:
256,192,8066,1,8,0:0:0:0:
256,192,8150,1,8,0:0:0:0:
256,192,8233,1,0,0:0:0:0:
256,192,8316,1,8,0:0:0:0:
256,192,8400,1,8,0:0:0:0:
256,192,8483,1,0,0:0:0:0:
256,192,8566,1,0,0:0:0:0:
256,192,8650,1,8,0:0:0:0:
256,192,8733,1,0,0:0:0:0:
256,192,8816,1,8,0:0:0:0:
256,192,8900,1,0,0:0:0:0:
256,192,8983,1,8,0:0:0:0:
256,192,9039,1,8,0:0:0:0:
256,192,9094,1,8,0:0:0:0:
256,192,9150,1,0,0:0:0:0:
256,192,9205,1,0,0:0:0:0:
256,192,9261,1,0,0:0:0:0:
256,192,9316,1,8,0:0:0:0:
256,192,9400,1,0,0:0:0:0:
256,192,9483,1,8,0:0:0:0:
256,192,9566,1,8,0:0:0:0:
256,192,9650,1,8,0:0:0:0:
256,192,9733,1,0,0:0:0:0:
256,192,9816,1,8,0:0:0:0:
256,192,9900,1,8,0:0:0:0:
256,192,9983,1,0,0:0:0:0:
256,192,10066,1,8,0:0:0:0:
256,192,10150,1,0,0:0:0:0:
256,192,10205,1,0,0:0:0:0:
256,192,10261,1,0,0:0:0:0:
256,192,10316,1,8,0:0:0:0:
256,192,10483,1,0,0:0:0:0:
256,192,10566,1,0,0:0:0:0:
256,192,10650,1,8,0:0:0:0:
256,192,10733,1,0,0:0:0:0:
256,192,10816,1,8,0:0:0:0:
256,192,10872,1,8,0:0:0:0:
256,192,10928,1,8,0:0:0:0:
256,192,10983,1,0,0:0:0:0:
256,192,11066,1,0,0:0:0:0:
256,192,11150,1,8,0:0:0:0:
256,192,11205,1,0,0:0:0:0:
256,192,11261,1,0,0:0:0:0:
256,192,11316,1,8,0:0:0:0:
256,192,11400,1,8,0:0:0:0:
256,192,11483,1,0,0:0:0:0:
256,192,11566,1,8,0:0:0:0:
256,192,11650,1,0,0:0:0:0:
256,192,11733,1,8,0:0:0:0:
256,192,11816,1,0,0:0:0:0:
256,192,11900,1,0,0:0:0:0:
256,192,11983,1,8,0:0:0:0:
256,192,12066,1,8,0:0:0:0:
256,192,12233,1,8,0:0:0:0:
256,192,12400,1,8,0:0:0:0:
256,192,12483,1,8,0:0:0:0:
256,192,12566,1,8,0:0:0:0:
256,192,12650,1,8,0:0:0:0:
256,192,12983,1,0,0:0:0:0:
256,192,13066,1,0,0:0:0:0:
256,192,13150,1,8,0:0:0:0:
256,192,13233,1,8,0:0:0:0:
256,192,13316,1,0,0:0:0:0:
256,192,13483,1,0,0:0:0:0:
256,192,13566,1,0,0:0:0:0:
256,192,13650,1,8,0:0:0:0:
256,192,13816,1,0,0:0:0:0:
256,192,13983,1,0,0:0:0:0:
256,192,14066,1,0,0:0:0:0:
256,192,14233,1,0,0:0:0:0:
256,192,14316,1,8,0:0:0:0:
256,192,14483,1,0,0:0:0:0:
256,192,14566,1,8,0:0:0:0:
256,192,14650,1,0,0:0:0:0:
256,192,14816,1,0,0:0:0:0:
256,192,14983,1,8,0:0:0:0:
256,192,15150,1,0,0:0:0:0:
256,192,15233,1,0,0:0:0:0:
256,192,15316,1,8,0:0:0:0:
256,192,15400,1,8,0:0:0:0:
256,192,15566,1,0,0:0:0:0:
256,192,15650,1,8,0:0:0:0:
256,192,15733,1,8,0:0:0:0:
256,192,15816,1,8,0:0:0:0:
256,192,15983,1,0,0:0:0:0:
256,192,16150,1,0,0:0:0:0:
256,192,16233,1,0,0:0:0:0:
256,192,16316,1,8,0:0:0:0:
256,192,16483,1,0,0:0:0:0:
256,192,16566,1,8,0:0:0:0:
256,192,16733,1,8,0:0:0:0:
256,192,16816,1,0,0:0:0:0:
256,192,16983,1,8,0:0:0:0:
256,192,17150,1,0,0:0:0:0:
256,192,17233,1,0,0:0:0:0:
256,192,17316,1,0,0:0:0:0:
256,192,17483,1,0,0:0:0:0:
256,192,17566,1,0,0:0:0:0:
256,192,17650,1,8,0:0:0:0:
256,192,17816,1,0,0:0:0:0:
256,192,17983,1,8,0:0:0:0:
256,192,18066,1,8,0:0:0:0:
256,192,18150,1,8,0:0:0:0:
256,192,18233,1,0,0:0:0:0:
256,192,18316,1,8,0:0:0:0:
256,192,18483,1,8,0:0:0:0:
256,192,18566,1,8,0:0:0:0:
256,192,18650,1,0,0:0:0:0:
256,192,18816,1,8,0:0:0:0:
256,192,18983,1,0,0:0:0:0:
256,192,19150,1,8,0:0:0:0:
256,192,19205,1,8,0:0:0:0:
256,192,19261,1,8,0:0:0:0:
256,192,19316,1,0,0:0:0:0:
256,192,19483,1,8,0:0:0:0:
256,192,19566,1,8,0:0:0:0:
256,192,19650,1,0,0:0:0:0:
256,192,19816,1,8,0:0:0:0:
256,192,19983,1,0,0:0:0:0:
256,192,20150,1,8,0:0:0:0:
256,192,20233,1,0,0:0:0:0:
256,192,20316,1,0,0:0:0:0:
256,192,20483,1,8,0:0:0:0:
256,192,20566,1,8,0:0:0:0:
256,192,20650,1,0,0:0:0:0:
256,192,20733,1,8,0:0:0:0:
256,192,20900,1,8,0:0:0:0:
256,192,20983,1,0,0:0:0:0:
256,192,21066,1,0,0:0:0:0:
256,192,21150,1,8,0:0:0:0:
256,192,21316,1,0,0:0:0:0:
256,192,21483,1,8,0:0:0:0:
256,192,21566,1,0,0:0:0:0:
256,192,21650,1,8,0:0:0:0:
256,192,21816,1,0,0:0:0:0:
256,192,21872,1,8,0:0:0:0:
256,192,21928,1,8,0:0:0:0:
256,192,21983,1,0,0:0:0:0:
256,192,22066,1,0,0:0:0:0:
256,192,22150,1,8,0:0:0:0:
256,192,22233,1,0,0:0:0:0:
256,192,22316,1,8,0:0:0:0:
256,192,22483,1,8,0:0:0:0:
256,192,22650,1,0,0:0:0:0:
256,192,22816,1,8,0:0:0:0:
256,192,22900,1,8,0:0:0:0:
256,192,22983,1,8,0:0:0:0:
256,192,23150,1,8,0:0:0:0:
256,192,23316,1,0,0:0:0:0:
256,192,23400,1,0,0:0:0:0:
256,192,23483,1,8,0:0:0:0:
256,192,23566,1,0,0:0:0:0:
256,192,23650,1,8,0:0:0:0:
256,192,23733,1,8,0:0:0:0:
256,192,23816,1,8,0:0:0:0:
256,192,23900,1,8,0:0:0:0:
256,192,23983,1,0,0:0:0:0:
256,192,24066,1,0,0:0:0:0:
256,192,24150,1,8,0:0:0:0:
256,192,24233,1,0,0:0:0:0:
256,192,24316,1,8,0:0:0:0:
256,192,24400,1,8,0:0:0:0:
256,192,24483,1,8,0:0:0:0:
256,192,24566,1,0,0:0:0:0:
256,192,24650,1,8,0:0:0:0:
256,192,24733,1,8,0:0:0:0:
256,192,24816,1,0,0:0:0:0:
256,192,24900,1,0,0:0:0:0:
256,192,24983,1,8,0:0:0:0:
256,192,25066,1,0,0:0:0:0:
256,192,25150,1,8,0:0:0:0:
256,192,25233,1,8,0:0:0:0:
256,192,25316,1,0,0:0:0:0:
256,192,25400,1,0,0:0:0:0:
256,192,25483,1,8,0:0:0:0:
256,192,25566,1,0,0:0:0:0:
256,192,25650,1,8,0:0:0:0:
256,192,25733,1,8,0:0:0:0:
256,192,25816,1,0,0:0:0:0:
256,192,25900,1,0,0:0:0:0:
256,192,25983,1,8,0:0:0:0:
256,192,26066,1,8,0:0:0:0:
256,192,26150,1,8,0:0:0:0:
256,192,26233,1,0,0:0:0:0:
256,192,26316,1,8,0:0:0:0:
256,192,26400,1,8,0:0:0:0:
256,192,26483,1,0,0:0:0:0:
256,192,26566,1,0,0:0:0:0:
256,192,26650,1,8,0:0:0:0:
256,192,26705,1,8,0:0:0:0:
256,192,26761,1,8,0:0:0:0:
256,192,26816,1,0,0:0:0:0:
256,192,26900,1,0,0:0:0:0:
256,192,26983,1,8,0:0:0:0:
256,192,27039,1,0,0:0:0:0:
256,192,27094,1,0,0:0:0:0:
256,192,27150,1,8,0:0:0:0:
256,192,27233,1,0,0:0:0:0:
256,192,27316,1,8,0:0:0:0:
256,192,27372,1,8,0:0:0:0:
256,192,27428,1,0,0:0:0:0:
256,192,27483,1,0,0:0:0:0:
256,192,27566,1,0,0:0:0:0:
256,192,27650,1,8,0:0:0:0:
256,192,27705,1,8,0:0:0:0:
256,192,27761,1,0,0:0:0:0:
256,192,27816,1,0,0:0:0:0:
256,192,27872,1,8,0:0:0:0:
256,192,27928,1,8,0:0:0:0:
256,192,27983,1,0,0:0:0:0:
256,192,28150,1,0,0:0:0:0:
256,192,28233,1,0,0:0:0:0:
256,192,28316,1,8,0:0:0:0:
256,192,28372,1,8,0:0:0:0:
256,192,28428,1,8,0:0:0:0:
256,192,28483,1,0,0:0:0:0:
256,192,28539,1,0,0:0:0:0:
256,192,28594,1,0,0:0:0:0:
256,192,28650,1,8,0:0:0:0:
256,192,28733,1,0,0:0:0:0:
256,192,28816,1,8,0:0:0:0:
256,192,28900,1,0,0:0:0:0:
256,192,28983,1,8,0:0:0:0:
256,192,29066,1,0,0:0:0:0:
256,192,29150,1,8,0:0:0:0:
256,192,29233,1,8,0:0:0:0:
256,192,29316,1,0,0:0:0:0:
256,192,29483,1,0,0:0:0:0:
256,192,29650,1,8,0:0:0:0:
256,192,29816,1,0,0:0:0:0:
256,192,29900,1,0,0:0:0:0:
256,192,29983,1,8,0:0:0:0:
256,192,30150,1,0,0:0:0:0:
256,192,30233,1,0,0:0:0:0:
256,192,30400,1,0,0:0:0:0:
256,192,30483,1,8,0:0:0:0:
256,192,30650,1,0,0:0:0:0:
256,192,30816,1,8,0:0:0:0:
256,192,30900,1,8,0:0:0:0:
256,192,30983,1,8,0:0:0:0:
256,192,31150,1,0,0:0:0:0:
256,192,31316,1,8,0:0:0:0:
256,192,31400,1,8,0:0:0:0:
256,192,31483,1,0,0:0:0:0:
256,192,31566,1,0,0:0:0:0:
256,192,31650,1,8,0:0:0:0:
256,192,31733,1,0,0:0:0:0:
256,192,31816,1,8,0:0:0:0:
256,192,31900,1,0,0:0:0:0:
256,192,31983,1,8,0:0:0:0:
256,192,32150,1,0,0:0:0:0:
256,192,32316,1,8,0:0:0:0:
256,192,32400,1,8,0:0:0:0:
256,192,32566,1,0,0:0:0:0:
256,192,32650,1,8,0:0:0:0:
256,192,32733,1,8,0:0:0:0:
256,192,32816,1,8,0:0:0:0:
256,192,32900,1,0,0:0:0:0:
256,192,32983,1,8,0:0:0:0:
256,192,33150,1,8,0:0:0:0:
256,192,33233,1,8,0:0:0:0:
256,192,33316,1,0,0:0:0:0:
256,192,33483,1,0,0:0:0:0:
256,192,33566,1,0,0:0:0:0:
256,192,33650,1,8,0:0:0:0:
256,192,33816,1,8,0:0:0:0:
256,192,33983,1,0,0:0:0:0:
256,192,34066,1,0,0:0:0:0:
256,192,34150,1,0,0:0:0:0:
256,192,34233,1,0,0:0:0:0:
256,192,34316,1,8,0:0:0:0:
256,192,34483,1,0,0:0:0:0:
256,192,34650,1,0,0:0:0:0:
256,192,34816,1,8,0:0:0:0:
256,192,34900,1,8,0:0:0:0:
256,192,34983,1,8,0:0:0:0:
256,192,35066,1,0,0:0:0:0:
256,192,35150,1,8,0:0:0:0:
256,192,35316,1,0,0:0:0:0:
256,192,35483,1,8,0:0:0:0:
256,192,35566,1,0,0:0:0:0:
256,192,35733,1,0,0:0:0:0:
256,192,35816,1,8,0:0:0:0:
256,192,35900,1,8,0:0:0:0:
256,192,35983,1,0,0:0:0:0:
256,192,36150,1,8,0:0:0:0:
256,192,36233,1,0,0:0:0:0:
256,192,36316,1,8,0:0:0:0:
256,192,36400,1,8,0:0:0:0:
256,192,36483,1,0,0:0:0:0:
256,192,36650,1,8,0:0:0:0:
256,192,36733,1,8,0:0:0:0:
256,192,36816,1,0,0:0:0:0:
256,192,36900,1,0,0:0:0:0:
256,192,36983,1,8,0:0:0:0:
256,192,37066,1,0,0:0:0:0:
256,192,37150,1,8,0:0:0:0:
256,192,37233,1,0,0:0:0:0:
256,192,37316,1,8,0:0:0:0:
256,192,37483,1,0,0:0:0:0:
256,192,37566,1,0,0:0:0:0:
256,192,37650,1,8,0:0:0:0:
256,192,37733,1,8,0:0:0:0:
256,192,37900,1,0,0:0:0:0:
256,192,37983,1,8,0:0:0:0:
256,192,38066,1,8,0:0:0:0:
256,192,38150,1,0,0:0:0:0:
256,192,38233,1,0,0:0:0:0:
256,192,38316,1,8,0:0:0:0:
256,192,38400,1,0,0:0:0:0:
256,192,38483,1,0,0:0:0:0:
256,192,38650,1,8,0:0:0:0:
256,192,38816,1,0,0:0:0:0:
256,192,38900,1,0,0:0:0:0:
256,192,38983,1,8,0:0:0:0:
256,192,39150,1,0,0:0:0:0:
256,192,39233,1,8,0:0:0:0:
256,192,39316,1,8,0:0:0:0:
256,192,39400,1,0,0:0:0:0:
256,192,39483,1,8,0:0:0:0:
256,192,39566,1,8,0:0:0:0:
256,192,39650,1,8,0:0:0:0:
256,192,39733,1,0,0:0:0:0:
256,192,39816,1,0,0:0:0:0:
256,192,39900,1,8,0:0:0:0:
256,192,39983,1,0,0:0:0:0:
256,192,40150,1,8,0:0:0:0:
256,192,40233,1,8,0:0:0:0:
256,192,40316,1,8,0:0:0:0:
256,192,40483,1,8,0:0:0:0:
256,192,40650,1,4,0:0:0:0:
256,192,40816,1,4,0:0:0:0:
256,192,40983,1,12,0:0:0:0:
256,192,41150,1,12,0:0:0:0:
256,192,41316,1,0,0:0:0:0:
256,192,41400,1,0,0:0:0:0:
256,192,41483,1,8,0:0:0:0:
256,192,41566,1,0,0:0:0:0:
256,192,41650,1,8,0:0:0:0:
256,192,41733,1,8,0:0:0:0:
256,192,41816,1,8,0:0:0:0:
256,192,41900,1,0,0:0:0:0:
256,192,41983,1,8,0:0:0:0:
256,192,42066,1,8,0:0:0:0:
256,192,42233,1,8,0:0:0:0:
256,192,42316,1,8,0:0:0:0:
256,192,42483,1,0,0:0:0:0:
256,192,42650,1,4,0:0:0:0:
256,192,42816,1,8,0:0:0:0:
256,192,42900,1,0,0:0:0:0:
256,192,42983,1,8,0:0:0:0:
256,192,43066,1,8,0:0:0:0:
256,192,43150,1,0,0:0:0:0:
256,192,43233,1,8,0:0:0:0:
256,192,43316,1,8,0:0:0:0:
256,192,43483,1,4,0:0:0:0:
256,192,43650,1,12,0:0:0:0:
256,192,43816,1,12,0:0:0:0:
256,192,43983,1,0,0:0:0:0:
256,192,44066,1,8,0:0:0:0:
256,192,44150,1,0,0:0:0:0:
256,192,44233,1,0,0:0:0:0:
256,192,44316,1,8,0:0:0:0:
256,192,44428,1,8,0:0:0:0:
256,192,44539,1,8,0:0:0:0:
256,192,44650,1,0,0:0:0:0:
256,192,44761,1,0,0:0:0:0:
256,192,44872,1,0,0:0:0:0:
256,192,44983,1,8,0:0:0:0:
256,192,45205,1,0,0:0:0:0:
256,192,45316,1,8,0:0:0:0:
256,192,45483,1,0,0:0:0:0:
256,192,45566,1,0,0:0:0:0:
256,192,45650,1,8,0:0:0:0:
256,192,45761,1,8,0:0:0:0:
256,192,45872,1,0,0:0:0:0:
256,192,45983,1,8,0:0:0:0:
256,192,46150,1,0,0:0:0:0:
256,192,46316,1,8,0:0:0:0:
256,192,46400,1,0,0:0:0:0:
256,192,46483,1,8,0:0:0:0:
256,192,46566,1,8,0:0:0:0:
256,192,46650,1,0,0:0:0:0:
256,192,46816,1,0,0:0:0:0:
256,192,46983,1,8,0:0:0:0:
256,192,47066,1,8,0:0:0:0:
256,192,47150,1,8,0:0:0:0:
256,192,47233,1,0,0:0:0:0:
256,192,47316,1,8,0:0:0:0:
256,192,47400,1,0,0:0:0:0:
256,192,47566,1,0,0:0:0:0:
256,192,47650,1,8,0:0:0:0:
256,192,47733,1,8,0:0:0:0:
256,192,47816,1,0,0:0:0:0:
256,192,47983,1,8,0:0:0:0:
256,192,48066,1,8,0:0:0:0:
256,192,48150,1,8,0:0:0:0:
256,192,48233,1,0,0:0:0:0:
256,192,48316,1,8,0:0:0:0:
256,192,48428,1,8,0:0:0:0:
256,192,48539,1,0,0:0:0:0:
256,192,48650,1,8,0:0:0:0:
256,192,48816,1,0,0:0:0:0:
256,192,48983,1,12,0:0:0:0:
256,192,49150,1,12,0:0:0:0:
256,192,49316,1,0,0:0:0:0:
256,192,49400,1,0,0:0:0:0:
256,192,49483,1,8,0:0:0:0:
256,192,49566,1,0,0:0:0:0:
256,192,49650,1,8,0:0:0:0:
256,192,49816,1,0,0:0:0:0:
256,192,49983,1,8,0:0:0:0:
256,192,50150,1,8,0:0:0:0:
256,192,50316,1,8,0:0:0:0:
256,192,50483,1,8,0:0:0:0:
256,192,50650,1,4,0:0:0:0:
256,192,50983,1,0,0:0:0:0:
256,192,51316,1,0,0:0:0:0:
256,192,51428,1,0,0:0:0:0:
256,192,51539,1,0,0:0:0:0:
256,192,51650,1,0,0:0:0:0:
256,192,51872,1,0,0:0:0:0:
256,192,52094,1,8,0:0:0:0:
256,192,52316,1,8,0:0:0:0:
256,192,52539,1,0,0:0:0:0:
256,192,52650,1,8,0:0:0:0:
256,192,52705,1,8,0:0:0:0:
256,192,52761,1,8,0:0:0:0:
256,192,52872,1,0,0:0:0:0:
256,192,52983,1,8,0:0:0:0:
256,192,53205,1,8,0:0:0:0:
256,192,53316,1,0,0:0:0:0:
256,192,53539,1,0,0:0:0:0:
256,192,53650,1,0,0:0:0:0:
256,192,53872,1,8,0:0:0:0:
256,192,53983,1,0,0:0:0:0:
256,192,54039,1,0,0:0:0:0:
256,192,54094,1,0,0:0:0:0:
256,192,54205,1,0,0:0:0:0:
256,192,54316,1,0,0:0:0:0:
256,192,54539,1,8,0:0:0:0:
256,192,54650,1,0,0:0:0:0:
256,192,54761,1,0,0:0:0:0:
256,192,54983,1,0,0:0:0:0:
256,192,55205,1,8,0:0:0:0:
256,192,55316,1,0,0:0:0:0:
256,192,55400,1,0,0:0:0:0:
256,192,55483,1,0,0:0:0:0:
256,192,55566,1,0,0:0:0:0:
256,192,55650,1,8,0:0:0:0:
256,192,55733,1,8,0:0:0:0:
256,192,55816,1,8,0:0:0:0:
256,192,55900,1,8,0:0:0:0:
256,192,55983,1,0,0:0:0:0:
256,192,56150,1,0,0:0:0:0:
256,192,56233,1,0,0:0:0:0:
256,192,56316,1,8,0:0:0:0:
256,192,56483,1,0,0:0:0:0:
256,192,56650,1,12,0:0:0:0:
256,192,56983,1,4,0:0:0:0:
256,192,57316,1,12,0:0:0:0:
256,192,57650,1,4,0:0:0:0:
256,192,57983,1,12,0:0:0:0:
256,192,58316,1,12,0:0:0:0:
256,192,58650,1,0,0:0:0:0:
256,192,58733,1,8,0:0:0:0:
256,192,58816,1,0,0:0:0:0:
256,192,58900,1,0,0:0:0:0:
256,192,58983,1,8,0:0:0:0:
256,192,59066,1,8,0:0:0:0:
256,192,59150,1,0,0:0:0:0:
256,192,59233,1,8,0:0:0:0:
256,192,59316,1,0,0:0:0:0:
256,192,59400,1,8,0:0:0:0:
256,192,59483,1,0,0:0:0:0:
256,192,59566,1,0,0:0:0:0:
256,192,59650,1,8,0:0:0:0:
256,192,59733,1,0,0:0:0:0:
256,192,59816,1,8,0:0:0:0:
256,192,59900,1,8,0:0:0:0:
256,192,59983,1,0,0:0:0:0:
256,192,60066,1,8,0:0:0:0:
256,192,60150,1,0,0:0:0:0:
256,192,60233,1,0,0:0:0:0:
256,192,60316,1,8,0:0:0:0:
256,192,60400,1,8,0:0:0:0:
256,192,60483,1,8,0:0:0:0:
256,192,60566,1,0,0:0:0:0:
256,192,60650,1,8,0:0:0:0:
256,192,60733,1,8,0:0:0:0:
256,192,60816,1,0,0:0:0:0:
256,192,60900,1,0,0:0:0:0:
256,192,60983,1,8,0:0:0:0:
256,192,61066,1,8,0:0:0:0:
256,192,61150,1,0,0:0:0:0:
256,192,61233,1,0,0:0:0:0:
256,192,61316,1,0,0:0:0:0:
256,192,61483,1,0,0:0:0:0:
256,192,61566,1,8,0:0:0:0:
256,192,61650,1,8,0:0:0:0:
256,192,61816,1,8,0:0:0:0:
256,192,61983,1,0,0:0:0:0:
256,192,62150,1,0,0:0:0:0:
256,192,62233,1,0,0:0:0:0:
256,192,62316,1,8,0:0:0:0:
256,192,62483,1,8,0:0:0:0:
256,192,62650,1,0,0:0:0:0:
256,192,62733,1,8,0:0:0:0:
256,192,62816,1,0,0:0:0:0:
256,192,62900,1,0,0:0:0:0:
256,192,62983,1,8,0:0:0:0:
256,192,63066,1,8,0:0:0:0:
256,192,63150,1,0,0:0:0:0:
256,192,63233,1,0,0:0:0:0:
256,192,63316,1,8,0:0:0:0:
256,192,63400,1,8,0:0:0:0:
256,192,63483,1,8,0:0:0:0:
256,192,63566,1,0,0:0:0:0:
256,192,63650,1,8,0:0:0:0:
256,192,63733,1,0,0:0:0:0:
256,192,63816,1,0,0:0:0:0:
256,192,63900,1,8,0:0:0:0:
256,192,63983,1,8,0:0:0:0:
256,192,64150,1,0,0:0:0:0:
256,192,64233,1,8,0:0:0:0:
256,192,64316,1,8,0:0:0:0:
256,192,64400,1,0,0:0:0:0:
256,192,64483,1,0,0:0:0:0:
256,192,64566,1,8,0:0:0:0:
256,192,64650,1,8,0:0:0:0:
256,192,64816,1,0,0:0:0:0:
256,192,64900,1,8,0:0:0:0:
256,192,64983,1,8,0:0:0:0:
256,192,65066,1,0,0:0:0:0:
256,192,65150,1,0,0:0:0:0:
256,192,65316,1,12,0:0:0:0:
256,192,65566,1,4,0:0:0:0:
256,192,65816,1,4,0:0:0:0:
256,192,65983,1,12,0:0:0:0:
256,192,66150,1,0,0:0:0:0:
256,192,66316,1,8,0:0:0:0:
256,192,66400,1,0,0:0:0:0:
256,192,66483,1,0,0:0:0:0:
256,192,66566,1,0,0:0:0:0:
256,192,66650,1,0,0:0:0:0:
256,192,66816,1,0,0:0:0:0:
256,192,66900,1,8,0:0:0:0:
256,192,66983,1,8,0:0:0:0:
256,192,67150,1,8,0:0:0:0:
256,192,67316,1,0,0:0:0:0:
256,192,67400,1,8,0:0:0:0:
256,192,67483,1,0,0:0:0:0:
256,192,67566,1,8,0:0:0:0:
256,192,67650,1,8,0:0:0:0:
256,192,67816,1,0,0:0:0:0:
256,192,67983,1,8,0:0:0:0:
256,192,68066,1,8,0:0:0:0:
256,192,68150,1,0,0:0:0:0:
256,192,68233,1,8,0:0:0:0:
256,192,68316,1,8,0:0:0:0:
256,192,68483,1,8,0:0:0:0:
256,192,68650,1,0,0:0:0:0:
256,192,68733,1,0,0:0:0:0:
256,192,68816,1,0,0:0:0:0:
256,192,68900,1,8,0:0:0:0:
256,192,68983,1,8,0:0:0:0:
256,192,69150,1,8,0:0:0:0:
256,192,69316,1,0,0:0:0:0:
256,192,69400,1,0,0:0:0:0:
256,192,69483,1,8,0:0:0:0:
256,192,69566,1,0,0:0:0:0:
256,192,69650,1,8,0:0:0:0:
256,192,69733,1,8,0:0:0:0:
256,192,69816,1,0,0:0:0:0:
256,192,69900,1,8,0:0:0:0:
256,192,69983,1,8,0:0:0:0:
256,192,70066,1,0,0:0:0:0:
256,192,70150,1,8,0:0:0:0:
256,192,70233,1,0,0:0:0:0:
256,192,70316,1,0,0:0:0:0:
256,192,70400,1,8,0:0:0:0:
256,192,70483,1,0,0:0:0:0:
256,192,70650,1,0,0:0:0:0:
256,192,70733,1,0,0:0:0:0:
256,192,70900,1,8,0:0:0:0:
256,192,71066,1,0,0:0:0:0:
256,192,71150,1,0,0:0:0:0:
256,192,71233,1,8,0:0:0:0:
256,192,71316,1,8,0:0:0:0:
256,192,71428,1,0,0:0:0:0:
256,192,71539,1,8,0:0:0:0:
256,192,71650,1,8,0:0:0:0:
256,192,71816,1,8,0:0:0:0:
256,192,71983,1,4,0:0:0:0:
256,192,72150,1,0,0:0:0:0:
256,192,72233,1,8,0:0:0:0:
256,192,72316,1,8,0:0:0:0:
256,192,72400,1,0,0:0:0:0:
256,192,72483,1,8,0:0:0:0:
256,192,72650,1,0,0:0:0:0:
256,192,72816,1,8,0:0:0:0:
256,192,72900,1,0,0:0:0:0:
256,192,72983,1,0,0:0:0:0:
256,192,73150,1,8,0:0:0:0:
256,192,73316,1,8,0:0:0:0:
256,192,73400,1,0,0:0:0:0:
256,192,73483,1,0,0:0:0:0:
256,192,73566,1,8,0:0:0:0:
256,192,73650,1,8,0:0:0:0:
256,192,73733,1,8,0:0:0:0:
256,192,73816,1,0,0:0:0:0:
256,192,73900,1,0,0:0:0:0:
256,192,73983,1,8,0:0:0:0:
256,192,74066,1,8,0:0:0:0:
256,192,74150,1,0,0:0:0:0:
256,192,74233,1,0,0:0:0:0:
256,192,74316,1,8,0:0:0:0:
256,192,74483,1,8,0:0:0:0:
256,192,74650,1,0,0:0:0:0:
256,192,74733,1,0,0:0:0:0:
256,192,74816,1,0,0:0:0:0:
256,192,74900,1,0,0:0:0:0:
256,192,74983,1,8,0:0:0:0:
256,192,75066,1,8,0:0:0:0:
256,192,75150,1,8,0:0:0:0:
256,192,75233,1,8,0:0:0:0:
256,192,75316,1,0,0:0:0:0:
256,192,75483,1,0,0:0:0:0:
256,192,75650,1,8,0:0:0:0:
256,192,75733,1,8,0:0:0:0:
256,192,75816,1,8,0:0:0:0:
256,192,75983,1,12,0:0:0:0:
256,192,76233,1,12,0:0:0:0:
256,192,76483,1,12,0:0:0:0:
256,192,76650,1,4,0:0:0:0:
256,192,76816,1,0,0:0:0:0:
256,192,76983,1,8,0:0:0:0:
256,192,77066,1,8,0:0:0:0:
256,192,77150,1,8,0:0:0:0:
256,192,77233,1,8,0:0:0:0:
256,192,77316,1,0,0:0:0:0:
256,192,77483,1,0,0:0:0:0:
256,192,77566,1,8,0:0:0:0:
256,192,77650,1,8,0:0:0:0:
256,192,77816,1,8,0:0:0:0:
256,192,77983,1,0,0:0:0:0:
256,192,78066,1,8,0:0:0:0:
256,192,78150,1,0,0:0:0:0:
256,192,78233,1,8,0:0:0:0:
256,192,78316,1,8,0:0:0:0:
256,192,78483,1,0,0:0:0:0:
256,192,78650,1,8,0:0:0:0:
256,192,78733,1,8,0:0:0:0:
256,192,78816,1,0,0:0:0:0:
256,192,78900,1,8,0:0:0:0:
256,192,78983,1,8,0:0:0:0:
256,192,79150,1,0,0:0:0:0:
256,192,79316,1,8,0:0:0:0:
256,192,79400,1,0,0:0:0:0:
256,192,79483,1,0,0:0:0:0:
256,192,79566,1,8,0:0:0:0:
256,192,79650,1,8,0:0:0:0:
256,192,79816,1,8,0:0:0:0:
256,192,79983,1,0,0:0:0:0:
256,192,80066,1,0,0:0:0:0:
256,192,80150,1,8,0:0:0:0:
256,192,80233,1,0,0:0:0:0:
256,192,80316,1,8,0:0:0:0:
256,192,80400,1,8,0:0:0:0:
256,192,80483,1,0,0:0:0:0:
256,192,80566,1,8,0:0:0:0:
256,192,80650,1,8,0:0:0:0:
256,192,80733,1,0,0:0:0:0:
256,192,80816,1,8,0:0:0:0:
256,192,80900,1,0,0:0:0:0:
256,192,80983,1,0,0:0:0:0:
256,192,81066,1,8,0:0:0:0:
256,192,81150,1,0,0:0:0:0:
256,192,81233,1,8,0:0:0:0:
256,192,81316,1,0,0:0:0:0:
256,192,81400,1,0,0:0:0:0:
256,192,81483,1,0,0:0:0:0:
256,192,81566,1,8,0:0:0:0:
256,192,81650,1,0,0:0:0:0:
256,192,81733,1,0,0:0:0:0:
256,192,81816,1,8,0:0:0:0:
256,192,81900,1,0,0:0:0:0:
256,192,81983,1,8,0:0:0:0:
256,192,82066,1,8,0:0:0:0:
256,192,82150,1,0,0:0:0:0:
256,192,82233,1,0,0:0:0:0:
256,192,82316,1,8,0:0:0:0:
256,192,82400,1,0,0:0:0:0:
256,192,82483,1,0,0:0:0:0:
256,192,82566,1,0,0:0:0:0:
256,192,82650,1,0,0:0:0:0:
256,192,82761,1,0,0:0:0:0:
256,192,82872,1,0,0:0:0:0:
256,192,82983,1,8,0:0:0:0:
256,192,83094,1,0,0:0:0:0:
256,192,83205,1,8,0:0:0:0:
256,192,83316,1,8,0:0:0:0:
256,192,83428,1,0,0:0:0:0:
256,192,83539,1,0,0:0:0:0:
256,192,83650,1,8,0:0:0:0:
256,192,83761,1,0,0:0:0:0:
256,192,83872,1,0,0:0:0:0:
256,192,83983,1,8,0:0:0:0:
256,192,84094,1,8,0:0:0:0:
256,192,84205,1,0,0:0:0:0:
256,192,84316,1,8,0:0:0:0:
256,192,84428,1,8,0:0:0:0:
256,192,84539,1,0,0:0:0:0:
256,192,84650,1,0,0:0:0:0:
256,192,84761,1,8,0:0:0:0:
256,192,84872,1,0,0:0:0:0:
256,192,84983,1,0,0:0:0:0:
256,192,85094,1,8,0:0:0:0:
256,192,85150,1,8,0:0:0:0:
256,192,85205,1,8,0:0:0:0:
256,192,85316,1,0,0:0:0:0:
256,192,85428,1,0,0:0:0:0:
256,192,85539,1,0,0:0:0:0:
256,192,85650,1,8,0:0:0:0:
256,192,85761,1,0,0:0:0:0:
256,192,85872,1,8,0:0:0:0:
256,192,85983,1,8,0:0:0:0:
256,192,86094,1,0,0:0:0:0:
256,192,86205,1,0,0:0:0:0:
256,192,86316,1,8,0:0:0:0:
256,192,86428,1,8,0:0:0:0:
256,192,86539,1,8,0:0:0:0:
256,192,86650,1,0,0:0:0:0:
256,192,86761,1,0,0:0:0:0:
256,192,86872,1,0,0:0:0:0:
256,192,86983,1,8,0:0:0:0:
256,192,87094,1,8,0:0:0:0:
256,192,87205,1,0,0:0:0:0:
256,192,87316,1,0,0:0:0:0:
256,192,87428,1,8,0:0:0:0:
256,192,87483,1,8,0:0:0:0:
256,192,87539,1,0,0:0:0:0:
256,192,87594,1,0,0:0:0:0:
256,192,87650,1,8,0:0:0:0:
256,192,87733,1,8,0:0:0:0:
256,192,87816,1,8,0:0:0:0:
256,192,87900,1,8,0:0:0:0:
256,192,87983,1,0,0:0:0:0:
256,192,88066,1,0,0:0:0:0:
256,192,88150,1,8,0:0:0:0:
256,192,88233,1,8,0:0:0:0:
256,192,88316,1,0,0:0:0:0:
256,192,88400,1,8,0:0:0:0:
256,192,88483,1,0,0:0:0:0:
256,192,88566,1,0,0:0:0:0:
256,192,88650,1,8,0:0:0:0:
256,192,88733,1,0,0:0:0:0:
256,192,88816,1,0,0:0:0:0:
256,192,88900,1,8,0:0:0:0:
256,192,88983,1,0,0:0:0:0:
256,192,89066,1,8,0:0:0:0:
256,192,89150,1,8,0:0:0:0:
256,192,89233,1,0,0:0:0:0:
256,192,89316,1,8,0:0:0:0:
256,192,89400,1,8,0:0:0:0:
256,192,89483,1,0,0:0:0:0:
256,192,89566,1,0,0:0:0:0:
256,192,89650,1,8,0:0:0:0:
256,192,89733,1,0,0:0:0:0:
256,192,89816,1,8,0:0:0:0:
256,192,89900,1,8,0:0:0:0:
256,192,89983,1,0,0:0:0:0:
256,192,90094,1,8,0:0:0:0:
256,192,90205,1,0,0:0:0:0:
256,192,90261,1,0,0:0:0:0:
256,192,90316,1,8,0:0:0:0:
256,192,90400,1,0,0:0:0:0:
256,192,90483,1,0,0:0:0:0:
256,192,90566,1,8,0:0:0:0:
256,192,90650,1,8,0:0:0:0:
256,192,90733,1,0,0:0:0:0:
256,192,90816,1,8,0:0:0:0:
256,192,90900,1,8,0:0:0:0:
256,192,90983,1,0,0:0:0:0:
256,192,91066,1,0,0:0:0:0:
256,192,91150,1,8,0:0:0:0:
256,192,91233,1,0,0:0:0:0:
256,192,91316,1,0,0:0:0:0:
256,192,91400,1,8,0:0:0:0:
256,192,91483,1,8,0:0:0:0:
256,192,91566,1,8,0:0:0:0:
256,192,91650,1,0,0:0:0:0:
256,192,91733,1,0,0:0:0:0:
256,192,91816,1,8,0:0:0:0:
256,192,91900,1,0,0:0:0:0:
256,192,91983,1,8,0:0:0:0:
256,192,92039,1,0,0:0:0:0:
256,192,92094,1,0,0:0:0:0:
256,192,92150,1,8,0:0:0:0:
256,192,92233,1,0,0:0:0:0:
256,192,92316,1,8,0:0:0:0:
256,192,92372,1,8,0:0:0:0:
256,192,92428,1,8,0:0:0:0:
256,192,92483,1,0,0:0:0:0:
256,192,92539,1,0,0:0:0:0:
256,192,92594,1,0,0:0:0:0:
256,192,92650,1,8,0:0:0:0:
256,192,92733,1,0,0:0:0:0:
256,192,92816,1,8,0:0:0:0:
256,192,92872,1,8,0:0:0:0:
256,192,92928,1,0,0:0:0:0:
256,192,92983,1,8,0:0:0:0:
256,192,93066,1,0,0:0:0:0:
256,192,93150,1,8,0:0:0:0:
256,192,93205,1,0,0:0:0:0:
256,192,93261,1,8,0:0:0:0:
256,192,93316,1,8,0:0:0:0:
256,192,93483,1,8,0:0:0:0:
256,192,93566,1,8,0:0:0:0:
256,192,93650,1,0,0:0:0:0:
256,192,93733,1,0,0:0:0:0:
256,192,93816,1,8,0:0:0:0:
256,192,93983,1,0,0:0:0:0:
256,192,94150,1,8,0:0:0:0:
256,192,94233,1,0,0:0:0:0:
256,192,94316,1,8,0:0:0:0:
256,192,94483,1,8,0:0:0:0:
256,192,94650,1,0,0:0:0:0:
256,192,94733,1,0,0:0:0:0:
256,192,94900,1,0,0:0:0:0:
256,192,94983,1,8,0:0:0:0:
256,192,95150,1,8,0:0:0:0:
256,192,95233,1,8,0:0:0:0:
256,192,95316,1,0,0:0:0:0:
256,192,95400,1,0,0:0:0:0:
256,192,95566,1,0,0:0:0:0:
256,192,95650,1,8,0:0:0:0:
256,192,95816,1,0,0:0:0:0:
256,192,95900,1,8,0:0:0:0:
256,192,95983,1,8,0:0:0:0:
256,192,96066,1,0,0:0:0:0:
256,192,96150,1,0,0:0:0:0:
256,192,96233,1,8,0:0:0:0:
256,192,96316,1,0,0:0:0:0:
256,192,96483,1,8,0:0:0:0:
256,192,96566,1,8,0:0:0:0:
256,192,96650,1,0,0:0:0:0:
256,192,96733,1,0,0:0:0:0:
256,192,96816,1,8,0:0:0:0:
256,192,96983,1,8,0:0:0:0:
256,192,97150,1,0,0:0:0:0:
256,192,97316,1,8,0:0:0:0:
256,192,97400,1,8,0:0:0:0:
256,192,97566,1,0,0:0:0:0:
256,192,97650,1,8,0:0:0:0:
256,192,97733,1,8,0:0:0:0:
256,192,97816,1,0,0:0:0:0:
256,192,97983,1,8,0:0:0:0:
256,192,98150,1,0,0:0:0:0:
256,192,98233,1,0,0:0:0:0:
256,192,98316,1,8,0:0:0:0:
256,192,98483,1,8,0:0:0:0:
256,192,98566,1,8,0:0:0:0:
256,192,98650,1,0,0:0:0:0:
256,192,98761,1,0,0:0:0:0:
256,192,98872,1,0,0:0:0:0:
256,192,98983,1,8,0:0:0:0:
256,192,99094,1,0,0:0:0:0:
256,192,99205,1,8,0:0:0:0:
256,192,99316,1,0,0:0:0:0:
256,192,99400,1,8,0:0:0:0:
256,192,99483,1,0,0:0:0:0:
256,192,99566,1,0,0:0:0:0:
256,192,99650,1,8,0:0:0:0:
256,192,99816,1,0,0:0:0:0:
256,192,99900,1,0,0:0:0:0:
256,192,99983,1,8,0:0:0:0:
256,192,100066,1,8,0:0:0:0:
256,192,100150,1,8,0:0:0:0:
256,192,100316,1,8,0:0:0:0:
256,192,100483,1,0,0:0:0:0:
256,192,100650,1,8,0:0:0:0:
256,192,100733,1,0,0:0:0:0:
256,192,100816,1,8,0:0:0:0:
256,192,100900,1,8,0:0:0:0:
256,192,100983,1,0,0:0:0:0:
256,192,101150,1,8,0:0:0:0:
256,192,101316,1,0,0:0:0:0:
256,192,101483,1,0,0:0:0:0:
256,192,101650,1,12,0:0:0:0:
256,192,101816,1,0,0:0:0:0:
256,192,101983,1,0,0:0:0:0:
256,192,102150,1,0,0:0:0:0:
256,192,102316,1,12,0:0:0:0:
256,192,102483,1,0,0:0:0:0:
256,192,102650,1,0,0:0:0:0:
256,192,102733,1,0,0:0:0:0:
256,192,102816,1,8,0:0:0:0:
256,192,102900,1,8,0:0:0:0:
256,192,102983,1,0,0:0:0:0:
256,192,103066,1,8,0:0:0:0:
256,192,103150,1,0,0:0:0:0:
256,192,103233,1,0,0:0:0:0:
256,192,103316,1,8,0:0:0:0:
256,192,103400,1,0,0:0:0:0:
256,192,103483,1,8,0:0:0:0:
256,192,103566,1,0,0:0:0:0:
256,192,103650,1,8,0:0:0:0:
256,192,103761,1,8,0:0:0:0:
256,192,103872,1,8,0:0:0:0:
256,192,103983,1,0,0:0:0:0:
256,192,104150,1,0,0:0:0:0:
256,192,104233,1,0,0:0:0:0:
256,192,104316,1,8,0:0:0:0:
256,192,104400,1,8,0:0:0:0:
256,192,104483,1,0,0:0:0:0:
256,192,104650,1,12,0:0:0:0:
256,192,104816,1,12,0:0:0:0:
256,192,104983,1,4,0:0:0:0:
256,192,105150,1,12,0:0:0:0:
256,192,105316,1,0,0:0:0:0:
256,192,105483,1,0,0:0:0:0:
256,192,105566,1,0,0:0:0:0:
256,192,105650,1,8,0:0:0:0:
256,192,105816,1,0,0:0:0:0:
256,192,105900,1,8,0:0:0:0:
256,192,105983,1,8,0:0:0:0:
256,192,106066,1,8,0:0:0:0:
256,192,106150,1,0,0:0:0:0:
256,192,106233,1,0,0:0:0:0:
256,192,106316,1,8,0:0:0:0:
256,192,106650,1,0,0:0:0:0:
256,192,106733,1,0,0:0:0:0:
256,192,106983,1,0,0:0:0:0:
256,192,107066,1,0,0:0:0:0:
256,192,107316,1,12,0:0:0:0:
256,192,107483,1,12,0:0:0:0:
256,192,107650,1,4,0:0:0:0:
256,192,107816,1,4,0:0:0:0:
256,192,107983,1,8,0:0:0:0:
256,192,108066,1,8,0:0:0:0:
256,192,108150,1,8,0:0:0:0:
256,192,108233,1,0,0:0:0:0:
256,192,108316,1,8,0:0:0:0:
256,192,108400,1,0,0:0:0:0:
256,192,108483,1,8,0:0:0:0:
256,192,108566,1,8,0:0:0:0:
256,192,108650,1,0,0:0:0:0:
256,192,108761,1,0,0:0:0:0:
256,192,108872,1,0,0:0:0:0:
256,192,108983,1,8,0:0:0:0:
256,192,109316,1,0,0:0:0:0:
256,192,109400,1,8,0:0:0:0:
256,192,109483,1,8,0:0:0:0:
256,192,109566,1,0,0:0:0:0:
256,192,109650,1,8,0:0:0:0:
256,192,109733,1,8,0:0:0:0:
256,192,109816,1,0,0:0:0:0:
256,192,109900,1,0,0:0:0:0:
256,192,109983,1,8,0:0:0:0:
256,192,110066,1,0,0:0:0:0:
256,192,110150,1,8,0:0:0:0:
256,192,110233,1,0,0:0:0:0:
256,192,110316,1,8,0:0:0:0:
256,192,110372,1,8,0:0:0:0:
256,192,110428,1,8,0:0:0:0:
256,192,110483,1,0,0:0:0:0:
256,192,110539,1,0,0:0:0:0:
256,192,110594,1,0,0:0:0:0:
256,192,110650,1,8,0:0:0:0:
256,192,110733,1,0,0:0:0:0:
256,192,110816,1,8,0:0:0:0:
256,192,110900,1,8,0:0:0:0:
256,192,110983,1,8,0:0:0:0:
256,192,111066,1,0,0:0:0:0:
256,192,111150,1,8,0:0:0:0:
256,192,111233,1,8,0:0:0:0:
256,192,111316,1,0,0:0:0:0:
256,192,111400,1,8,0:0:0:0:
256,192,111483,1,0,0:0:0:0:
256,192,111539,1,0,0:0:0:0:
256,192,111594,1,0,0:0:0:0:
256,192,111650,1,8,0:0:0:0:
256,192,111816,1,0,0:0:0:0:
256,192,111900,1,0,0:0:0:0:
256,192,111983,1,8,0:0:0:0:
256,192,112066,1,0,0:0:0:0:
256,192,112150,1,8,0:0:0:0:
256,192,112205,1,8,0:0:0:0:
256,192,112261,1,8,0:0:0:0:
256,192,112316,1,0,0:0:0:0:
256,192,112400,1,0,0:0:0:0:
256,192,112483,1,8,0:0:0:0:
256,192,112539,1,0,0:0:0:0:
256,192,112594,1,0,0:0:0:0:
256,192,112650,1,8,0:0:0:0:
256,192,112733,1,8,0:0:0:0:
256,192,112816,1,0,0:0:0:0:
256,192,112900,1,8,0:0:0:0:
256,192,112983,1,0,0:0:0:0:
256,192,113066,1,8,0:0:0:0:
256,192,113150,1,0,0:0:0:0:
256,192,113233,1,0,0:0:0:0:
256,192,113316,1,8,0:0:0:0:
256,192,113400,1,8,0:0:0:0:
256,192,113566,1,8,0:0:0:0:
256,192,113733,1,8,0:0:0:0:
256,192,113816,1,8,0:0:0:0:
256,192,113900,1,8,0:0:0:0:
256,192,113983,1,8,0:0:0:0:
256,192,114650,1,0,0:0:0:0:
256,192,114816,1,0,0:0:0:0:
256,192,114983,1,8,0:0:0:0:
256,192,115316,1,0,0:0:0:0:
256,192,115566,1,0,0:0:0:0:
256,192,115816,1,8,0:0:0:0:
256,192,116150,1,8,0:0:0:0:
256,192,116316,1,8,0:0:0:0:
256,192,116650,1,0,0:0:0:0:
256,192,116816,1,0,0:0:0:0:
256,192,116983,1,8,0:0:0:0:
256,192,117150,1,0,0:0:0:0:
256,192,117316,1,0,0:0:0:0:
256,192,117650,1,8,0:0:0:0:
256,192,117983,1,8,0:0:0:0:
256,192,118233,1,0,0:0:0:0:
256,192,118483,1,8,0:0:0:0:
256,192,118650,1,0,0:0:0:0:
256,192,118816,1,8,0:0:0:0:
256,192,118983,1,0,0:0:0:0:
256,192,119150,1,0,0:0:0:0:
256,192,119316,1,8,0:0:0:0:
256,192,119483,1,0,0:0:0:0:
256,192,119650,1,8,0:0:0:0:
256,192,119733,1,8,0:0:0:0:
256,192,119816,1,8,0:0:0:0:
256,192,119900,1,8,0:0:0:0:
256,192,119983,1,0,0:0:0:0:
256,192,120150,1,8,0:0:0:0:
256,192,120233,1,8,0:0:0:0:
256,192,120316,1,0,0:0:0:0:
256,192,120483,1,8,0:0:0:0:
256,192,120566,1,8,0:0:0:0:
256,192,120650,1,0,0:0:0:0:
256,192,120816,1,8,0:0:0:0:
256,192,120900,1,8,0:0:0:0:
256,192,120983,1,0,0:0:0:0:
256,192,121150,1,8,0:0:0:0:
256,192,121233,1,8,0:0:0:0:
256,192,121316,1,8,0:0:0:0:
256,192,121483,1,0,0:0:0:0:
256,192,121566,1,0,0:0:0:0:
256,192,121650,1,8,0:0:0:0:
256,192,121733,1,0,0:0:0:0:
256,192,121816,1,8,0:0:0:0:
256,192,121900,1,8,0:0:0:0:
256,192,121983,1,0,0:0:0:0:
256,192,122150,1,8,0:0:0:0:
256,192,122233,1,8,0:0:0:0:
256,192,122316,1,8,0:0:0:0:
256,192,122400,1,0,0:0:0:0:
256,192,122483,1,8,0:0:0:0:
256,192,122650,1,0,0:0:0:0:
256,192,122733,1,0,0:0:0:0:
256,192,122816,1,8,0:0:0:0:
256,192,122900,1,0,0:0:0:0:
256,192,122983,1,8,0:0:0:0:
256,192,123066,1,8,0:0:0:0:
256,192,123150,1,0,0:0:0:0:
256,192,123233,1,0,0:0:0:0:
256,192,123316,1,0,0:0:0:0:
256,192,123483,1,0,0:0:0:0:
256,192,123566,1,8,0:0:0:0:
256,192,123650,1,8,0:0:0:0:
256,192,123816,1,0,0:0:0:0:
256,192,123900,1,0,0:0:0:0:
256,192,123983,1,8,0:0:0:0:
256,192,124094,1,0,0:0:0:0:
256,192,124205,1,0,0:0:0:0:
256,192,124316,1,8,0:0:0:0:
256,192,124428,1,0,0:0:0:0:
256,192,124539,1,0,0:0:0:0:
256,192,124650,1,8,0:0:0:0:
256,192,124733,1,0,0:0:0:0:
256,192,124816,1,0,0:0:0:0:
256,192,124900,1,8,0:0:0:0:
256,192,125316,1,4,0:0:0:0:
256,192,125483,1,8,0:0:0:0:
256,192,125566,1,8,0:0:0:0:
256,192,125650,1,8,0:0:0:0:
256,192,125816,1,8,0:0:0:0:
256,192,125983,1,4,0:0:0:0:
256,192,126150,1,4,0:0:0:0:
256,192,126316,1,12,0:0:0:0:
256,192,126483,1,12,0:0:0:0:
256,192,126650,1,0,0:0:0:0:
256,192,126733,1,0,0:0:0:0:
256,192,126816,1,8,0:0:0:0:
256,192,126900,1,0,0:0:0:0:
256,192,126983,1,8,0:0:0:0:
256,192,127066,1,8,0:0:0:0:
256,192,127150,1,8,0:0:0:0:
256,192,127233,1,0,0:0:0:0:
256,192,127316,1,8,0:0:0:0:
256,192,127400,1,8,0:0:0:0:
256,192,127566,1,8,0:0:0:0:
256,192,127650,1,8,0:0:0:0:
256,192,127816,1,0,0:0:0:0:
256,192,127983,1,4,0:0:0:0:
256,192,128150,1,8,0:0:0:0:
256,192,128233,1,0,0:0:0:0:
256,192,128316,1,8,0:0:0:0:
256,192,128400,1,8,0:0:0:0:
256,192,128483,1,0,0:0:0:0:
256,192,128566,1,8,0:0:0:0:
256,192,128650,1,8,0:0:0:0:
256,192,128816,1,4,0:0:0:0:
256,192,128983,1,12,0:0:0:0:
256,192,129150,1,12,0:0:0:0:
256,192,129316,1,0,0:0:0:0:
256,192,129400,1,8,0:0:0:0:
256,192,129483,1,0,0:0:0:0:
256,192,129566,1,0,0:0:0:0:
256,192,129650,1,8,0:0:0:0:
256,192,129761,1,8,0:0:0:0:
256,192,129872,1,8,0:0:0:0:
256,192,129983,1,0,0:0:0:0:
256,192,130094,1,8,0:0:0:0:
256,192,130205,1,0,0:0:0:0:
256,192,130316,1,8,0:0:0:0:
256,192,130539,1,0,0:0:0:0:
256,192,130650,1,8,0:0:0:0:
256,192,130816,1,0,0:0:0:0:
256,192,130900,1,0,0:0:0:0:
256,192,130983,1,8,0:0:0:0:
256,192,131094,1,8,0:0:0:0:
256,192,131205,1,0,0:0:0:0:
256,192,131316,1,8,0:0:0:0:
256,192,131483,1,0,0:0:0:0:
256,192,131650,1,8,0:0:0:0:
256,192,131733,1,8,0:0:0:0:
256,192,131816,1,0,0:0:0:0:
256,192,131900,1,0,0:0:0:0:
256,192,131983,1,8,0:0:0:0:
256,192,132150,1,0,0:0:0:0:
256,192,132316,1,8,0:0:0:0:
256,192,132400,1,8,0:0:0:0:
256,192,132483,1,8,0:0:0:0:
256,192,132566,1,0,0:0:0:0:
256,192,132650,1,8,0:0:0:0:
256,192,132733,1,0,0:0:0:0:
256,192,132900,1,0,0:0:0:0:
256,192,132983,1,8,0:0:0:0:
256,192,133066,1,8,0:0:0:0:
256,192,133150,1,0,0:0:0:0:
256,192,133316,1,8,0:0:0:0:
256,192,133400,1,8,0:0:0:0:
256,192,133483,1,8,0:0:0:0:
256,192,133566,1,0,0:0:0:0:
256,192,133650,1,8,0:0:0:0:
256,192,133733,1,8,0:0:0:0:
256,192,133816,1,0,0:0:0:0:
256,192,133900,1,0,0:0:0:0:
256,192,133983,1,8,0:0:0:0:
256,192,134150,1,0,0:0:0:0:
256,192,134316,1,12,0:0:0:0:
256,192,134483,1,12,0:0:0:0:
256,192,134650,1,0,0:0:0:0:
256,192,134733,1,0,0:0:0:0:
256,192,134816,1,8,0:0:0:0:
256,192,134900,1,0,0:0:0:0:
256,192,134983,1,8,0:0:0:0:
256,192,135150,1,0,0:0:0:0:
256,192,135316,1,8,0:0:0:0:
256,192,135483,1,8,0:0:0:0:
256,192,135650,1,8,0:0:0:0:
256,192,135816,1,8,0:0:0:0:
256,192,135983,1,4,0:0:0:0:
256,192,136316,1,0,0:0:0:0:
256,192,136650,1,0,0:0:0:0:
256,192,136761,1,0,0:0:0:0:
256,192,136872,1,0,0:0:0:0:
256,192,136983,1,0,0:0:0:0:
256,192,137205,1,0,0:0:0:0:
256,192,137428,1,8,0:0:0:0:
256,192,137650,1,8,0:0:0:0:
256,192,137872,1,0,0:0:0:0:
256,192,137983,1,8,0:0:0:0:
256,192,138039,1,8,0:0:0:0:
256,192,138094,1,0,0:0:0:0:
256,192,138205,1,0,0:0:0:0:
256,192,138316,1,8,0:0:0:0:
256,192,138539,1,8,0:0:0:0:
256,192,138650,1,0,0:0:0:0:
256,192,138872,1,0,0:0:0:0:
256,192,138983,1,0,0:0:0:0:
256,192,139205,1,8,0:0:0:0:
256,192,139316,1,0,0:0:0:0:
256,192,139372,1,0,0:0:0:0:
256,192,139427,1,8,0:0:0:0:
256,192,139539,1,0,0:0:0:0:
256,192,139650,1,0,0:0:0:0:
256,192,139872,1,8,0:0:0:0:
256,192,139983,1,0,0:0:0:0:
256,192,140094,1,0,0:0:0:0:
256,192,140316,1,8,0:0:0:0:
256,192,140539,1,0,0:0:0:0:
256,192,140650,1,8,0:0:0:0:
256,192,140733,1,8,0:0:0:0:
256,192,140816,1,0,0:0:0:0:
256,192,140900,1,0,0:0:0:0:
256,192,140983,1,8,0:0:0:0:
256,192,141066,1,0,0:0:0:0:
256,192,141150,1,8,0:0:0:0:
256,192,141233,1,8,0:0:0:0:
256,192,141316,1,0,0:0:0:0:
256,192,141483,1,0,0:0:0:0:
256,192,141566,1,0,0:0:0:0:
256,192,141650,1,8,0:0:0:0:
256,192,141816,1,0,0:0:0:0:
256,192,141983,1,12,0:0:0:0:
256,192,142316,1,4,0:0:0:0:
256,192,142650,1,12,0:0:0:0:
256,192,142983,1,12,0:0:0:0:
256,192,143316,1,12,0:0:0:0:
256,192,143650,1,4,0:0:0:0:
256,192,143983,1,0,0:0:0:0:
256,192,144066,1,8,0:0:0:0:
256,192,144150,1,0,0:0:0:0:
256,192,144233,1,0,0:0:0:0:
256,192,144316,1,8,0:0:0:0:
256,192,144400,1,8,0:0:0:0:
256,192,144483,1,0,0:0:0:0:
256,192,144566,1,8,0:0:0:0:
256,192,144650,1,0,0:0:0:0:
256,192,144733,1,8,0:0:0:0:
256,192,144816,1,0,0:0:0:0:
256,192,144900,1,0,0:0:0:0:
256,192,144983,1,8,0:0:0:0:
256,192,145066,1,0,0:0:0:0:
256,192,145150,1,8,0:0:0:0:
256,192,145233,1,8,0:0:0:0:
256,192,145316,1,0,0:0:0:0:
256,192,145400,1,8,0:0:0:0:
256,192,145483,1,0,0:0:0:0:
256,192,145566,1,0,0:0:0:0:
256,192,145650,1,8,0:0:0:0:
256,192,145733,1,8,0:0:0:0:
256,192,145816,1,8,0:0:0:0:
256,192,145900,1,0,0:0:0:0:
256,192,145983,1,8,0:0:0:0:
256,192,146039,1,8,0:0:0:0:
256,192,146094,1,8,0:0:0:0:
256,192,146150,1,0,0:0:0:0:
256,192,146233,1,0,0:0:0:0:
256,192,146316,1,8,0:0:0:0:
256,192,146372,1,8,0:0:0:0:
256,192,146428,1,8,0:0:0:0:
256,192,146483,1,0,0:0:0:0:
256,192,146566,1,0,0:0:0:0:
256,192,146650,1,0,0:0:0:0:
256,192,146816,1,0,0:0:0:0:
256,192,146900,1,8,0:0:0:0:
256,192,146983,1,8,0:0:0:0:
256,192,147150,1,8,0:0:0:0:
256,192,147316,1,0,0:0:0:0:
256,192,147483,1,0,0:0:0:0:
256,192,147566,1,0,0:0:0:0:
256,192,147650,1,8,0:0:0:0:
256,192,147816,1,8,0:0:0:0:
256,192,147983,1,0,0:0:0:0:
256,192,148066,1,8,0:0:0:0:
256,192,148150,1,0,0:0:0:0:
256,192,148233,1,0,0:0:0:0:
256,192,148316,1,8,0:0:0:0:
256,192,148400,1,8,0:0:0:0:
256,192,148483,1,0,0:0:0:0:
256,192,148566,1,0,0:0:0:0:
256,192,148650,1,8,0:0:0:0:
256,192,148733,1,8,0:0:0:0:
256,192,148816,1,8,0:0:0:0:
256,192,148900,1,0,0:0:0:0:
256,192,148983,1,8,0:0:0:0:
256,192,149066,1,0,0:0:0:0:
256,192,149150,1,0,0:0:0:0:
256,192,149233,1,8,0:0:0:0:
256,192,149316,1,8,0:0:0:0:
256,192,149483,1,0,0:0:0:0:
256,192,149566,1,8,0:0:0:0:
256,192,149650,1,8,0:0:0:0:
256,192,149733,1,0,0:0:0:0:
256,192,149816,1,0,0:0:0:0:
256,192,149900,1,8,0:0:0:0:
256,192,149983,1,8,0:0:0:0:
256,192,150150,1,0,0:0:0:0:
256,192,150233,1,8,0:0:0:0:
256,192,150316,1,8,0:0:0:0:
256,192,150400,1,0,0:0:0:0:
256,192,150483,1,0,0:0:0:0:
256,192,150650,1,12,0:0:0:0:
256,192,150900,1,4,0:0:0:0:
256,192,151150,1,4,0:0:0:0:
256,192,151316,1,12,0:0:0:0:
256,192,151483,1,0,0:0:0:0:
256,192,151650,1,8,0:0:0:0:
256,192,151733,1,0,0:0:0:0:
256,192,151816,1,0,0:0:0:0:
256,192,151900,1,0,0:0:0:0:
256,192,151983,1,0,0:0:0:0:
256,192,152150,1,0,0:0:0:0:
256,192,152233,1,8,0:0:0:0:
256,192,152316,1,8,0:0:0:0:
256,192,152483,1,8,0:0:0:0:
256,192,152650,1,0,0:0:0:0:
256,192,152733,1,8,0:0:0:0:
256,192,152900,1,8,0:0:0:0:
256,192,152983,1,8,0:0:0:0:
256,192,153066,1,8,0:0:0:0:
256,192,153150,1,0,0:0:0:0:
256,192,153316,1,8,0:0:0:0:
256,192,153400,1,8,0:0:0:0:
256,192,153566,1,0,0:0:0:0:
256,192,153650,1,8,0:0:0:0:
256,192,153816,1,8,0:0:0:0:
256,192,153983,1,0,0:0:0:0:
256,192,154066,1,0,0:0:0:0:
256,192,154150,1,0,0:0:0:0:
256,192,154233,1,8,0:0:0:0:
256,192,154316,1,8,0:0:0:0:
256,192,154483,1,8,0:0:0:0:
256,192,154650,1,0,0:0:0:0:
256,192,154733,1,0,0:0:0:0:
256,192,154816,1,8,0:0:0:0:
256,192,154900,1,0,0:0:0:0:
256,192,154983,1,8,0:0:0:0:
256,192,155066,1,8,0:0:0:0:
256,192,155150,1,0,0:0:0:0:
256,192,155233,1,8,0:0:0:0:
256,192,155316,1,8,0:0:0:0:
256,192,155400,1,0,0:0:0:0:
256,192,155483,1,8,0:0:0:0:
256,192,155566,1,0,0:0:0:0:
256,192,155650,1,0,0:0:0:0:
256,192,155733,1,8,0:0:0:0:
256,192,155816,1,0,0:0:0:0:
256,192,155983,1,0,0:0:0:0:
256,192,156066,1,0,0:0:0:0:
256,192,156233,1,8,0:0:0:0:
256,192,156400,1,0,0:0:0:0:
256,192,156483,1,0,0:0:0:0:
256,192,156566,1,8,0:0:0:0:
256,192,156650,1,8,0:0:0:0:
256,192,156761,1,0,0:0:0:0:
256,192,156872,1,8,0:0:0:0:
256,192,156983,1,8,0:0:0:0:
256,192,157150,1,8,0:0:0:0:
256,192,157316,1,4,0:0:0:0:
256,192,157483,1,0,0:0:0:0:
256,192,157566,1,8,0:0:0:0:
256,192,157650,1,8,0:0:0:0:
256,192,157733,1,0,0:0:0:0:
256,192,157816,1,8,0:0:0:0:
256,192,157983,1,0,0:0:0:0:
256,192,158150,1,8,0:0:0:0:
256,192,158233,1,0,0:0:0:0:
256,192,158316,1,0,0:0:0:0:
256,192,158483,1,8,0:0:0:0:
256,192,158650,1,8,0:0:0:0:
256,192,158733,1,0,0:0:0:0:
256,192,158816,1,0,0:0:0:0:
256,192,158900,1,8,0:0:0:0:
256,192,158983,1,8,0:0:0:0:
256,192,159066,1,8,0:0:0:0:
256,192,159150,1,0,0:0:0:0:
256,192,159233,1,0,0:0:0:0:
256,192,159316,1,8,0:0:0:0:
256,192,159400,1,8,0:0:0:0:
256,192,159483,1,0,0:0:0:0:
256,192,159566,1,0,0:0:0:0:
256,192,159650,1,8,0:0:0:0:
256,192,159816,1,8,0:0:0:0:
256,192,159983,1,0,0:0:0:0:
256,192,160066,1,0,0:0:0:0:
256,192,160150,1,0,0:0:0:0:
256,192,160233,1,0,0:0:0:0:
256,192,160316,1,0,0:0:0:0:
256,192,160400,1,0,0:0:0:0:
256,192,160483,1,8,0:0:0:0:
256,192,160566,1,8,0:0:0:0:
256,192,160650,1,0,0:0:0:0:
256,192,160816,1,0,0:0:0:0:
256,192,160983,1,8,0:0:0:0:
256,192,161066,1,8,0:0:0:0:
256,192,161150,1,8,0:0:0:0:
256,192,161316,1,4,0:0:0:0:
256,192,161566,1,12,0:0:0:0:
256,192,161816,1,12,0:0:0:0:
256,192,161983,1,4,0:0:0:0:
256,192,162150,1,0,0:0:0:0:
256,192,162316,1,8,0:0:0:0:
256,192,162400,1,8,0:0:0:0:
256,192,162483,1,8,0:0:0:0:
256,192,162566,1,8,0:0:0:0:
256,192,162650,1,0,0:0:0:0:
256,192,162816,1,0,0:0:0:0:
256,192,162900,1,8,0:0:0:0:
256,192,162983,1,8,0:0:0:0:
256,192,163150,1,8,0:0:0:0:
256,192,163316,1,0,0:0:0:0:
256,192,163400,1,8,0:0:0:0:
256,192,163566,1,0,0:0:0:0:
256,192,163650,1,8,0:0:0:0:
256,192,163733,1,8,0:0:0:0:
256,192,163816,1,0,0:0:0:0:
256,192,163983,1,8,0:0:0:0:
256,192,164066,1,8,0:0:0:0:
256,192,164233,1,0,0:0:0:0:
256,192,164316,1,8,0:0:0:0:
256,192,164483,1,0,0:0:0:0:
256,192,164650,1,8,0:0:0:0:
256,192,164733,1,0,0:0:0:0:
256,192,164816,1,0,0:0:0:0:
256,192,164900,1,8,0:0:0:0:
256,192,164983,1,8,0:0:0:0:
256,192,165150,1,8,0:0:0:0:
256,192,165316,1,0,0:0:0:0:
256,192,165400,1,0,0:0:0:0:
256,192,165483,1,8,0:0:0:0:
256,192,165566,1,0,0:0:0:0:
256,192,165650,1,8,0:0:0:0:
256,192,165733,1,8,0:0:0:0:
256,192,165816,1,0,0:0:0:0:
256,192,165900,1,8,0:0:0:0:
256,192,165983,1,8,0:0:0:0:
256,192,166066,1,8,0:0:0:0:
256,192,166150,1,0,0:0:0:0:
256,192,166233,1,0,0:0:0:0:
256,192,166316,1,8,0:0:0:0:
256,192,166400,1,0,0:0:0:0:
256,192,166483,1,8,0:0:0:0:
256,192,166566,1,8,0:0:0:0:
256,192,166650,1,0,0:0:0:0:
256,192,166733,1,0,0:0:0:0:
256,192,166816,1,0,0:0:0:0:
256,192,166900,1,0,0:0:0:0:
256,192,166983,1,0,0:0:0:0:
256,192,167066,1,0,0:0:0:0:
256,192,167150,1,0,0:0:0:0:
256,192,167233,1,0,0:0:0:0:
256,192,167316,1,8,0:0:0:0:
256,192,167400,1,8,0:0:0:0:
256,192,167483,1,8,0:0:0:0:
256,192,167566,1,8,0:0:0:0:
256,192,167650,1,8,0:0:0:0:
256,192,167733,1,8,0:0:0:0:
256,192,167816,1,8,0:0:0:0:
256,192,167900,1,8,0:0:0:0:
256,192,167983,1,0,0:0:0:0:
256,192,168066,12,0,171650,0:0:0:0:
256,192,171983,5,0,0:0:0:0:
256,192,172316,1,0,0:0:0:0:
256,192,172483,1,0,0:0:0:0:
256,192,172650,1,0,0:0:0:0:
256,192,172983,1,0,0:0:0:0:
256,192,173150,1,0,0:0:0:0:
256,192,173316,1,8,0:0:0:0:
256,192,173650,1,0,0:0:0:0:
256,192,173983,1,8,0:0:0:0:
256,192,174316,1,0,0:0:0:0:
256,192,174650,1,8,0:0:0:0:
256,192,174816,1,8,0:0:0:0:
256,192,174983,1,0,0:0:0:0:
256,192,175150,1,0,0:0:0:0:
256,192,175316,1,8,0:0:0:0:
256,192,175650,1,0,0:0:0:0:
256,192,175983,1,0,0:0:0:0:
256,192,176233,1,8,0:0:0:0:
256,192,176316,1,0,0:0:0:0:
256,192,176566,1,0,0:0:0:0:
256,192,176650,1,0,0:0:0:0:
256,192,176816,1,0,0:0:0:0:
256,192,176900,1,0,0:0:0:0:
256,192,176983,1,8,0:0:0:0:
256,192,177066,1,0,0:0:0:0:
256,192,177150,1,8,0:0:0:0:
256,192,177233,1,8,0:0:0:0:
256,192,177316,1,0,0:0:0:0:
256,192,177483,1,0,0:0:0:0:
256,192,177566,1,8,0:0:0:0:
256,192,177733,1,8,0:0:0:0:
256,192,177900,1,0,0:0:0:0:
256,192,177983,1,8,0:0:0:0:
256,192,178039,1,8,0:0:0:0:
256,192,178094,1,8,0:0:0:0:
256,192,178150,1,0,0:0:0:0:
256,192,178233,1,0,0:0:0:0:
256,192,178316,1,8,0:0:0:0:
256,192,178372,1,8,0:0:0:0:
256,192,178428,1,0,0:0:0:0:
256,192,178483,1,0,0:0:0:0:
256,192,178650,1,4,0:0:0:0:
256,192,178816,1,8,0:0:0:0:
256,192,178983,1,0,0:0:0:0:
256,192,179066,1,8,0:0:0:0:
256,192,179233,1,0,0:0:0:0:
256,192,179316,1,8,0:0:0:0:
256,192,179483,1,8,0:0:0:0:
256,192,179566,1,8,0:0:0:0:
256,192,179650,1,0,0:0:0:0:
256,192,179816,1,8,0:0:0:0:
256,192,179983,1,0,0:0:0:0:
256,192,180066,1,8,0:0:0:0:
256,192,180150,1,8,0:0:0:0:
256,192,180233,1,8,0:0:0:0:
256,192,180316,1,0,0:0:0:0:
256,192,180400,1,0,0:0:0:0:
256,192,180483,1,8,0:0:0:0:
256,192,180566,1,0,0:0:0:0:
256,192,180650,1,8,0:0:0:0:
256,192,180705,1,8,0:0:0:0:
256,192,180761,1,8,0:0:0:0:
256,192,180816,1,0,0:0:0:0:
256,192,180872,1,0,0:0:0:0:
256,192,180928,1,8,0:0:0:0:
256,192,180983,1,0,0:0:0:0:
256,192,181066,1,0,0:0:0:0:
256,192,181150,1,8,0:0:0:0:
256,192,181233,1,8,0:0:0:0:
256,192,181316,1,0,0:0:0:0:
256,192,181483,1,8,0:0:0:0:
256,192,181650,1,0,0:0:0:0:
256,192,181733,1,8,0:0:0:0:
256,192,181900,1,8,0:0:0:0:
256,192,181983,1,0,0:0:0:0:
256,192,182039,1,0,0:0:0:0:
256,192,182094,1,0,0:0:0:0:
256,192,182150,1,8,0:0:0:0:
256,192,182233,1,8,0:0:0:0:
256,192,182316,1,0,0:0:0:0:
256,192,182483,1,8,0:0:0:0:
256,192,182650,1,0,0:0:0:0:
256,192,182733,1,0,0:0:0:0:
256,192,182900,1,8,0:0:0:0:
256,192,182983,1,0,0:0:0:0:
256,192,183066,1,0,0:0:0:0:
256,192,183150,1,8,0:0:0:0:
256,192,183205,1,8,0:0:0:0:
256,192,183261,1,0,0:0:0:0:
256,192,183316,1,8,0:0:0:0:
256,192,183483,1,0,0:0:0:0:
256,192,183650,1,8,0:0:0:0:
256,192,183733,1,8,0:0:0:0:
256,192,183816,1,8,0:0:0:0:
256,192,183983,1,0,0:0:0:0:
256,192,184039,1,0,0:0:0:0:
256,192,184094,1,8,0:0:0:0:
256,192,184150,1,0,0:0:0:0:
256,192,184233,1,8,0:0:0:0:
256,192,184316,1,8,0:0:0:0:
256,192,184400,1,0,0:0:0:0:
256,192,184483,1,0,0:0:0:0:
256,192,184566,1,8,0:0:0:0:
256,192,184650,1,8,0:0:0:0:
256,192,184705,1,0,0:0:0:0:
256,192,184761,1,0,0:0:0:0:
256,192,184816,1,8,0:0:0:0:
256,192,184900,1,8,0:0:0:0:
256,192,184983,1,8,0:0:0:0:
256,192,185066,1,0,0:0:0:0:
256,192,185150,1,8,0:0:0:0:
256,192,185233,1,8,0:0:0:0:
256,192,185316,1,0,0:0:0:0:
256,192,185483,1,8,0:0:0:0:
256,192,185566,1,0,0:0:0:0:
256,192,185650,1,0,0:0:0:0:
256,192,185816,1,8,0:0:0:0:
256,192,185983,1,0,0:0:0:0:
256,192,186039,1,0,0:0:0:0:
256,192,186094,1,0,0:0:0:0:
256,192,186150,1,8,0:0:0:0:
256,192,186233,1,8,0:0:0:0:
256,192,186316,1,0,0:0:0:0:
256,192,186400,1,8,0:0:0:0:
256,192,186483,1,8,0:0:0:0:
256,192,186566,1,8,0:0:0:0:
256,192,186650,1,0,0:0:0:0:
256,192,186816,1,8,0:0:0:0:
256,192,186900,1,0,0:0:0:0:
256,192,186983,1,0,0:0:0:0:
256,192,187150,1,8,0:0:0:0:
256,192,187316,1,0,0:0:0:0:
256,192,187400,1,8,0:0:0:0:
256,192,187566,1,8,0:0:0:0:
256,192,187650,1,0,0:0:0:0:
256,192,187733,1,0,0:0:0:0:
256,192,187816,1,8,0:0:0:0:
256,192,187983,1,8,0:0:0:0:
256,192,188066,1,0,0:0:0:0:
256,192,188150,1,8,0:0:0:0:
256,192,188233,1,8,0:0:0:0:
256,192,188316,1,0,0:0:0:0:
256,192,188400,1,8,0:0:0:0:
256,192,188483,1,8,0:0:0:0:
256,192,188566,1,0,0:0:0:0:
256,192,188650,1,8,0:0:0:0:
256,192,188705,1,8,0:0:0:0:
256,192,188761,1,8,0:0:0:0:
256,192,188816,1,0,0:0:0:0:
256,192,188900,1,0,0:0:0:0:
256,192,188983,1,8,0:0:0:0:
256,192,189039,1,0,0:0:0:0:
256,192,189094,1,0,0:0:0:0:
256,192,189150,1,8,0:0:0:0:
256,192,189233,1,8,0:0:0:0:
256,192,189316,1,0,0:0:0:0:
256,192,189983,1,8,0:0:0:0:
256,192,190316,1,0,0:0:0:0:
256,192,190650,1,0,0:0:0:0:
256,192,191316,1,0,0:0:0:0:
256,192,191983,1,0,0:0:0:0:
256,192,192650,1,8,0:0:0:0:
256,192,192983,1,8,0:0:0:0:
256,192,193316,1,0,0:0:0:0:
256,192,193428,1,8,0:0:0:0:
256,192,193650,1,8,0:0:0:0:
256,192,193872,1,8,0:0:0:0:
256,192,193983,1,0,0:0:0:0:
256,192,194066,1,0,0:0:0:0:
256,192,194150,1,0,0:0:0:0:
256,192,194233,1,0,0:0:0:0:
256,192,194316,1,8,0:0:0:0:
256,192,194400,1,8,0:0:0:0:
256,192,194483,1,8,0:0:0:0:
256,192,194566,1,8,0:0:0:0:
256,192,194650,1,0,0:0:0:0:
256,192,194816,1,0,0:0:0:0:
256,192,194900,1,0,0:0:0:0:
256,192,194983,1,8,0:0:0:0:
256,192,195150,1,0,0:0:0:0:
256,192,195316,1,12,0:0:0:0:
256,192,195650,1,4,0:0:0:0:
256,192,195983,1,12,0:0:0:0:
256,192,196316,1,4,0:0:0:0:
256,192,196650,1,12,0:0:0:0:
256,192,196983,1,12,0:0:0:0:
256,192,197316,1,0,0:0:0:0:
256,192,197400,1,8,0:0:0:0:
256,192,197483,1,0,0:0:0:0:
256,192,197566,1,0,0:0:0:0:
256,192,197650,1,8,0:0:0:0:
256,192,197733,1,8,0:0:0:0:
256,192,197816,1,0,0:0:0:0:
256,192,197900,1,8,0:0:0:0:
256,192,197983,1,0,0:0:0:0:
256,192,198066,1,8,0:0:0:0:
256,192,198150,1,0,0:0:0:0:
256,192,198233,1,0,0:0:0:0:
256,192,198316,1,8,0:0:0:0:
256,192,198400,1,0,0:0:0:0:
256,192,198483,1,8,0:0:0:0:
256,192,198566,1,8,0:0:0:0:
256,192,198650,1,0,0:0:0:0:
256,192,198733,1,8,0:0:0:0:
256,192,198816,1,0,0:0:0:0:
256,192,198900,1,0,0:0:0:0:
256,192,198983,1,8,0:0:0:0:
256,192,199066,1,8,0:0:0:0:
256,192,199150,1,8,0:0:0:0:
256,192,199233,1,0,0:0:0:0:
256,192,199316,1,8,0:0:0:0:
256,192,199372,1,0,0:0:0:0:
256,192,199428,1,0,0:0:0:0:
256,192,199483,1,8,0:0:0:0:
256,192,199566,1,8,0:0:0:0:
256,192,199650,1,0,0:0:0:0:
256,192,199705,1,0,0:0:0:0:
256,192,199761,1,0,0:0:0:0:
256,192,199816,1,8,0:0:0:0:
256,192,199900,1,8,0:0:0:0:
256,192,199982,1,0,0:0:0:0:
256,192,200233,1,0,0:0:0:0:
256,192,200316,1,0,0:0:0:0:
256,192,200650,12,0,201150,0:0:0:0:
256,192,201316,5,8,0:0:0:0:
256,192,201650,1,8,0:0:0:0:
256,192,201983,1,0,0:0:0:0:
256,192,202094,1,0,0:0:0:0:
256,192,202205,1,8,0:0:0:0:
256,192,202316,1,8,0:0:0:0:
256,192,202983,1,12,0:0:0:0:
256,192,203150,1,8,0:0:0:0:
256,192,203233,1,8,0:0:0:0:
256,192,203316,1,0,0:0:0:0:
256,192,203483,1,0,0:0:0:0:
256,192,203566,1,0,0:0:0:0:
256,192,203650,1,8,0:0:0:0:
256,192,203816,1,8,0:0:0:0:
256,192,203983,1,0,0:0:0:0:
256,192,204066,1,8,0:0:0:0:
256,192,204150,1,0,0:0:0:0:
256,192,204233,1,0,0:0:0:0:
256,192,204316,1,8,0:0:0:0:
256,192,204400,1,8,0:0:0:0:
256,192,204483,1,0,0:0:0:0:
256,192,204566,1,0,0:0:0:0:
256,192,204650,1,8,0:0:0:0:
256,192,204733,1,8,0:0:0:0:
256,192,204816,1,8,0:0:0:0:
256,192,204900,1,0,0:0:0:0:
256,192,204983,1,8,0:0:0:0:
256,192,205066,1,0,0:0:0:0:
256,192,205150,1,0,0:0:0:0:
256,192,205233,1,8,0:0:0:0:
256,192,205316,1,8,0:0:0:0:
256,192,205483,1,0,0:0:0:0:
256,192,205566,1,8,0:0:0:0:
256,192,205650,1,8,0:0:0:0:
256,192,205733,1,0,0:0:0:0:
256,192,205816,1,0,0:0:0:0:
256,192,205900,1,8,0:0:0:0:
256,192,205983,1,8,0:0:0:0:
256,192,206150,1,0,0:0:0:0:
256,192,206233,1,8,0:0:0:0:
256,192,206316,1,8,0:0:0:0:
256,192,206400,1,0,0:0:0:0:
256,192,206483,1,0,0:0:0:0:
256,192,206650,1,4,0:0:0:0:
256,192,206900,1,12,0:0:0:0:
256,192,207150,1,12,0:0:0:0:
256,192,207316,1,4,0:0:0:0:
256,192,207483,1,0,0:0:0:0:
256,192,207650,1,8,0:0:0:0:
256,192,207733,1,0,0:0:0:0:
256,192,207816,1,0,0:0:0:0:
256,192,207900,1,0,0:0:0:0:
256,192,207983,1,0,0:0:0:0:
256,192,208150,1,0,0:0:0:0:
256,192,208233,1,8,0:0:0:0:
256,192,208316,1,8,0:0:0:0:
256,192,208483,1,8,0:0:0:0:
256,192,208650,1,0,0:0:0:0:
256,192,208733,1,8,0:0:0:0:
256,192,208816,1,0,0:0:0:0:
256,192,208900,1,8,0:0:0:0:
256,192,208983,1,8,0:0:0:0:
256,192,209150,1,0,0:0:0:0:
256,192,209316,1,8,0:0:0:0:
256,192,209400,1,8,0:0:0:0:
256,192,209483,1,0,0:0:0:0:
256,192,209566,1,8,0:0:0:0:
256,192,209650,1,8,0:0:0:0:
256,192,209816,1,8,0:0:0:0:
256,192,209983,1,0,0:0:0:0:
256,192,210066,1,0,0:0:0:0:
256,192,210150,1,0,0:0:0:0:
256,192,210233,1,8,0:0:0:0:
256,192,210316,1,8,0:0:0:0:
256,192,210483,1,8,0:0:0:0:
256,192,210650,1,0,0:0:0:0:
256,192,210733,1,0,0:0:0:0:
256,192,210816,1,8,0:0:0:0:
256,192,210900,1,0,0:0:0:0:
256,192,210983,1,8,0:0:0:0:
256,192,211066,1,8,0:0:0:0:
256,192,211150,1,0,0:0:0:0:
256,192,211233,1,8,0:0:0:0:
256,192,211316,1,8,0:0:0:0:
256,192,211400,1,0,0:0:0:0:
256,192,211483,1,8,0:0:0:0:
256,192,211566,1,0,0:0:0:0:
256,192,211650,1,0,0:0:0:0:
256,192,211733,1,8,0:0:0:0:
256,192,211816,1,0,0:0:0:0:
256,192,211983,1,0,0:0:0:0:
256,192,212066,1,0,0:0:0:0:
256,192,212233,1,8,0:0:0:0:
256,192,212316,1,8,0:0:0:0:
256,192,212400,1,0,0:0:0:0:
256,192,212483,1,0,0:0:0:0:
256,192,212566,1,8,0:0:0:0:
256,192,212650,1,8,0:0:0:0:
256,192,212761,1,0,0:0:0:0:
256,192,212872,1,8,0:0:0:0:
256,192,212983,1,8,0:0:0:0:
256,192,213150,1,8,0:0:0:0:
256,192,213316,1,4,0:0:0:0:
256,192,213483,1,0,0:0:0:0:
256,192,213566,1,8,0:0:0:0:
256,192,213650,1,8,0:0:0:0:
256,192,213733,1,0,0:0:0:0:
256,192,213816,1,8,0:0:0:0:
256,192,213983,1,0,0:0:0:0:
256,192,214150,1,8,0:0:0:0:
256,192,214233,1,0,0:0:0:0:
256,192,214316,1,0,0:0:0:0:
256,192,214483,1,8,0:0:0:0:
256,192,214650,1,8,0:0:0:0:
256,192,214733,1,0,0:0:0:0:
256,192,214816,1,0,0:0:0:0:
256,192,214900,1,8,0:0:0:0:
256,192,214983,1,8,0:0:0:0:
256,192,215066,1,8,0:0:0:0:
256,192,215150,1,0,0:0:0:0:
256,192,215233,1,0,0:0:0:0:
256,192,215316,1,8,0:0:0:0:
256,192,215400,1,8,0:0:0:0:
256,192,215483,1,0,0:0:0:0:
256,192,215566,1,0,0:0:0:0:
256,192,215650,1,8,0:0:0:0:
256,192,215816,1,8,0:0:0:0:
256,192,215983,1,0,0:0:0:0:
256,192,216066,1,0,0:0:0:0:
256,192,216150,1,0,0:0:0:0:
256,192,216233,1,0,0:0:0:0:
256,192,216316,1,8,0:0:0:0:
256,192,216400,1,0,0:0:0:0:
256,192,216483,1,8,0:0:0:0:
256,192,216566,1,8,0:0:0:0:
256,192,216650,1,0,0:0:0:0:
256,192,216816,1,0,0:0:0:0:
256,192,216983,1,8,0:0:0:0:
256,192,217066,1,8,0:0:0:0:
256,192,217150,1,8,0:0:0:0:
256,192,217316,1,12,0:0:0:0:
256,192,217566,1,4,0:0:0:0:
256,192,217816,1,4,0:0:0:0:
256,192,217983,1,12,0:0:0:0:
256,192,218150,1,0,0:0:0:0:
256,192,218316,1,8,0:0:0:0:
256,192,218400,1,8,0:0:0:0:
256,192,218483,1,8,0:0:0:0:
256,192,218566,1,8,0:0:0:0:
256,192,218650,1,0,0:0:0:0:
256,192,218816,1,0,0:0:0:0:
256,192,218900,1,8,0:0:0:0:
256,192,218983,1,8,0:0:0:0:
256,192,219150,1,8,0:0:0:0:
256,192,219316,1,0,0:0:0:0:
256,192,219400,1,8,0:0:0:0:
256,192,219566,1,0,0:0:0:0:
256,192,219650,1,8,0:0:0:0:
256,192,219733,1,8,0:0:0:0:
256,192,219816,1,0,0:0:0:0:
256,192,219983,1,8,0:0:0:0:
256,192,220066,1,8,0:0:0:0:
256,192,220233,1,0,0:0:0:0:
256,192,220316,1,8,0:0:0:0:
256,192,220483,1,0,0:0:0:0:
256,192,220650,1,8,0:0:0:0:
256,192,220733,1,0,0:0:0:0:
256,192,220816,1,0,0:0:0:0:
256,192,220900,1,8,0:0:0:0:
256,192,220983,1,8,0:0:0:0:
256,192,221150,1,8,0:0:0:0:
256,192,221316,1,0,0:0:0:0:
256,192,221400,1,0,0:0:0:0:
256,192,221483,1,8,0:0:0:0:
256,192,221566,1,0,0:0:0:0:
256,192,221650,1,8,0:0:0:0:
256,192,221733,1,8,0:0:0:0:
256,192,221816,1,0,0:0:0:0:
256,192,221900,1,8,0:0:0:0:
256,192,221983,1,8,0:0:0:0:
256,192,222066,1,0,0:0:0:0:
256,192,222150,1,8,0:0:0:0:
256,192,222233,1,0,0:0:0:0:
256,192,222316,1,0,0:0:0:0:
256,192,222400,1,8,0:0:0:0:
256,192,222483,1,0,0:0:0:0:
256,192,222566,1,0,0:0:0:0:
256,192,222650,1,8,0:0:0:0:
256,192,222733,1,8,0:0:0:0:
256,192,222816,1,8,0:0:0:0:
256,192,222900,1,8,0:0:0:0:
256,192,222983,1,0,0:0:0:0:
256,192,223066,1,0,0:0:0:0:
256,192,223150,1,8,0:0:0:0:
256,192,223233,1,0,0:0:0:0:
256,192,223316,1,8,0:0:0:0:
256,192,223400,1,8,0:0:0:0:
256,192,223483,1,8,0:0:0:0:
256,192,223566,1,0,0:0:0:0:
256,192,223650,1,8,0:0:0:0:
256,192,223733,1,0,0:0:0:0:
256,192,223816,1,8,0:0:0:0:
256,192,223900,1,8,0:0:0:0:
256,192,223983,1,0,0:0:0:0:
256,192,224066,12,0,226483,0:0:0:0:
256,192,226650,5,4,0:0:0:0:
256,192,226983,1,12,0:0:0:0:
256,192,227316,1,4,0:0:0:0:
256,192,227650,1,12,0:0:0:0:
256,192,227983,1,4,0:0:0:0:
256,192,228233,1,12,0:0:0:0:
256,192,228483,1,12,0:0:0:0:
256,192,228650,1,4,0:0:0:0:
256,192,228983,1,8,0:0:0:0:
256,192,229066,1,8,0:0:0:0:
256,192,229150,1,8,0:0:0:0:
256,192,229233,1,8,0:0:0:0:
256,192,229316,1,0,0:0:0:0:
256,192,229483,1,0,0:0:0:0:
256,192,229566,1,8,0:0:0:0:
256,192,229650,1,8,0:0:0:0:
256,192,229733,1,0,0:0:0:0:
256,192,229816,1,8,0:0:0:0:
256,192,229983,1,8,0:0:0:0:
256,192,230066,1,8,0:0:0:0:
256,192,230150,1,0,0:0:0:0:
256,192,230233,1,0,0:0:0:0:
256,192,230316,1,8,0:0:0:0:
256,192,230400,1,0,0:0:0:0:
256,192,230483,1,8,0:0:0:0:
256,192,230566,1,8,0:0:0:0:
256,192,230650,1,0,0:0:0:0:
256,192,230733,1,0,0:0:0:0:
256,192,230900,1,0,0:0:0:0:
256,192,230983,1,8,0:0:0:0:
256,192,231150,1,0,0:0:0:0:
256,192,231316,1,0,0:0:0:0:
256,192,231400,1,8,0:0:0:0:
256,192,231483,1,8,0:0:0:0:
256,192,231566,1,0,0:0:0:0:
256,192,231650,1,8,0:0:0:0:
256,192,231733,1,0,0:0:0:0:
256,192,231816,1,8,0:0:0:0:
256,192,231900,1,8,0:0:0:0:
256,192,231983,1,0,0:0:0:0:
256,192,232150,1,0,0:0:0:0:
256,192,232316,1,12,0:0:0:0:
256,192,232483,1,0,0:0:0:0:
256,192,232650,1,0,0:0:0:0:
256,192,232816,1,0,0:0:0:0:
256,192,232983,1,12,0:0:0:0:
256,192,233150,1,0,0:0:0:0:
256,192,233316,1,8,0:0:0:0:
256,192,233372,1,8,0:0:0:0:
256,192,233428,1,8,0:0:0:0:
256,192,233483,1,0,0:0:0:0:
256,192,233566,1,0,0:0:0:0:
256,192,233650,1,8,0:0:0:0:
256,192,233705,1,8,0:0:0:0:
256,192,233761,1,0,0:0:0:0:
256,192,233816,1,0,0:0:0:0:
256,192,233900,1,0,0:0:0:0:
256,192,233983,1,8,0:0:0:0:
256,192,234039,1,0,0:0:0:0:
256,192,234094,1,0,0:0:0:0:
256,192,234150,1,8,0:0:0:0:
256,192,234205,1,0,0:0:0:0:
256,192,234261,1,0,0:0:0:0:
256,192,234316,1,8,0:0:0:0:
256,192,234400,1,0,0:0:0:0:
256,192,234483,1,8,0:0:0:0:
256,192,234539,1,8,0:0:0:0:
256,192,234594,1,8,0:0:0:0:
256,192,234650,1,0,0:0:0:0:
256,192,234872,1,0,0:0:0:0:
256,192,234983,1,8,0:0:0:0:
256,192,235205,1,8,0:0:0:0:
256,192,235316,1,0,0:0:0:0:
256,192,235428,1,8,0:0:0:0:
256,192,235539,1,8,0:0:0:0:
256,192,235650,1,0,0:0:0:0:
256,192,235761,1,0,0:0:0:0:
256,192,235872,1,8,0:0:0:0:
256,192,235983,1,0,0:0:0:0:
256,192,236205,1,0,0:0:0:0:
256,192,236316,1,8,0:0:0:0:
256,192,236539,1,8,0:0:0:0:
256,192,236650,1,0,0:0:0:0:
256,192,236761,1,0,0:0:0:0:
256,192,236872,1,0,0:0:0:0:
256,192,236983,1,12,0:0:0:0:
256,192,237316,1,0,0:0:0:0:
256,192,237539,1,0,0:0:0:0:
256,192,237650,1,8,0:0:0:0:
256,192,237872,1,8,0:0:0:0:
256,192,237983,1,4,0:0:0:0:
256,192,238150,1,4,0:0:0:0:
256,192,238316,1,12,0:0:0:0:
256,192,238483,1,12,0:0:0:0:
256,192,238650,1,0,0:0:0:0:
256,192,238761,1,0,0:0:0:0:
256,192,238872,1,0,0:0:0:0:
256,192,238983,1,8,0:0:0:0:
256,192,239094,1,8,0:0:0:0:
256,192,239205,1,8,0:0:0:0:
256,192,239316,1,0,0:0:0:0:
256,192,239428,1,0,0:0:0:0:
256,192,239539,1,0,0:0:0:0:
256,192,239650,1,8,0:0:0:0:
256,192,239983,1,0,0:0:0:0:
256,192,240066,1,8,0:0:0:0:
256,192,240150,1,0,0:0:0:0:
256,192,240233,1,0,0:0:0:0:
256,192,240316,1,8,0:0:0:0:
256,192,240400,1,0,0:0:0:0:
256,192,240483,1,8,0:0:0:0:
256,192,240566,1,8,0:0:0:0:
256,192,240650,1,0,0:0:0:0:
256,192,240733,1,0,0:0:0:0:
256,192,240816,1,8,0:0:0:0:
256,192,240900,1,8,0:0:0:0:
256,192,240983,1,0,0:0:0:0:
256,192,241066,1,8,0:0:0:0:
256,192,241150,1,0,0:0:0:0:
256,192,241233,1,8,0:0:0:0:
256,192,241316,1,8,0:0:0:0:
256,192,241400,1,0,0:0:0:0:
256,192,241483,1,8,0:0:0:0:
256,192,241566,1,8,0:0:0:0:
256,192,241650,1,0,0:0:0:0:
256,192,241733,1,0,0:0:0:0:
256,192,241816,1,8,0:0:0:0:
256,192,241900,1,8,0:0:0:0:
256,192,241983,1,0,0:0:0:0:
256,192,242039,1,8,0:0:0:0:
256,192,242094,1,8,0:0:0:0:
256,192,242150,1,0,0:0:0:0:
256,192,242205,1,0,0:0:0:0:
256,192,242261,1,8,0:0:0:0:
256,192,242316,1,0,0:0:0:0:
256,192,242372,1,8,0:0:0:0:
256,192,242428,1,8,0:0:0:0:
256,192,242483,1,0,0:0:0:0:
256,192,242539,1,0,0:0:0:0:
256,192,242594,1,0,0:0:0:0:
256,192,242650,1,8,0:0:0:0:
256,192,242733,1,8,0:0:0:0:
256,192,242900,1,8,0:0:0:0:
256,192,242983,1,8,0:0:0:0:
256,192,243150,1,8,0:0:0:0:
256,192,243233,1,8,0:0:0:0:
256,192,243400,1,8,0:0:0:0:
256,192,243483,1,8,0:0:0:0:
256,192,243650,1,8,0:0:0:0:
256,192,243733,1,8,0:0:0:0:
256,192,243816,1,8,0:0:0:0:
256,192,244316,12,8,249650,0:0:0:0:
