osu file format v14

[General]
AudioFilename: audio.mp3
AudioLeadIn: 0
PreviewTime: 107390
Countdown: 0
SampleSet: Normal
StackLeniency: 0.3
Mode: 0
LetterboxInBreaks: 0
WidescreenStoryboard: 0

[Editor]
Bookmarks: 117667
DistanceSpacing: 0.8
BeatDivisor: 4
GridSize: 4
TimelineZoom: 1

[Metadata]
Title:Lapin Noir
TitleUnicode:ラパンノワール
Artist:cosMo@BousouP feat.Usagi Aikoukai
ArtistUnicode:cosMo@暴走P feat. うさぎ愛好会
Creator:sonic8889
Version:Please wait.
Source:
Tags:CHEMICAL SYSTEM LE CHEM-09 うさぎ愛好会ジャッジメントディスク cosMo cosMoP cosMo@P black rabbit
BeatmapID:1514513
BeatmapSetID:716774

[Difficulty]
HPDrainRate:6
CircleSize:4
OverallDifficulty:9
ApproachRate:9.6
SliderMultiplier:2.2
SliderTickRate:1

[Events]
//Background and Video events
0,0,"sheprettyWHOthegirlreadingthis.jpg",0,0
//Break Periods
//Storyboard Layer 0 (Background)
//Storyboard Layer 1 (Fail)
//Storyboard Layer 2 (Pass)
//Storyboard Layer 3 (Foreground)
//Storyboard Sound Samples

[TimingPoints]
1140,277.777777777778,4,1,0,5,1,0
4473,-133.333333333333,4,1,0,5,0,0
5862,-100,4,1,0,5,0,0
8778,-133.333333333333,4,1,0,5,0,0
10028,-100,4,1,0,50,0,1
11834,-200,4,1,0,50,0,1
12112,-66.6666666666667,4,1,0,50,0,1
12667,-100,4,1,0,50,0,1
13778,-66.6666666666667,4,1,0,50,0,1
14473,-100,4,1,0,50,0,1
16278,-200,4,1,0,50,0,1
16556,-66.6666666666667,4,1,0,50,0,1
17112,-100,4,1,0,50,0,1
20723,-200,4,1,0,50,0,1
21001,-66.6666666666667,4,1,0,50,0,1
21556,-100,4,1,0,50,0,1
22667,-66.6666666666667,4,1,0,50,0,1
23362,-200,4,1,0,50,0,1
25584,-100,4,1,0,50,0,1
26001,-66.6666666666667,4,1,0,50,0,1
26417,-100,4,1,0,50,0,1
26834,-66.6666666666667,4,1,0,50,0,1
27251,-133.333333333333,4,1,0,50,0,1
27806,-133.333333333333,4,1,0,50,0,0
30584,-100,4,1,0,50,0,0
31556,-80,4,1,0,50,0,0
31973,-50,4,1,0,50,0,0
32251,-133.333333333333,4,1,0,50,0,0
35306,-100,4,1,0,50,0,0
35584,-66.6666666666667,4,1,0,50,0,0
36695,-80,4,1,0,50,0,1
41140,-57.1428571428571,4,1,0,50,0,1
41417,-100,4,1,0,50,0,1
43084,-57.1428571428571,4,1,0,50,0,1
43362,-80,4,1,0,50,0,1
44333,-200,4,1,0,50,0,1
44751,-66.6666666666667,4,1,0,50,0,1
45306,-200,4,1,0,50,0,1
45584,-100,4,1,0,50,0,0
47390,-200,4,1,0,50,0,0
47668,-66.6666666666667,4,1,0,50,0,0
48223,-100,4,1,0,50,0,0
49334,-66.6666666666667,4,1,0,50,0,0
50028,-100,4,1,0,50,0,0
51834,-200,4,1,0,50,0,0
52112,-66.6666666666667,4,1,0,50,0,0
52667,-100,4,1,0,50,0,0
56557,-66.6666666666667,4,1,0,50,0,0
57112,-100,4,1,0,50,0,0
61001,-66.6666666666667,4,1,0,50,0,0
61556,-100,4,1,0,50,0,0
62945,-66.6666666666667,4,1,0,50,0,0
63362,-133.333333333333,4,1,0,50,0,0
66695,-100,4,1,0,50,0,0
67111,-80,4,1,0,50,0,0
67528,-50,4,1,0,50,0,0
67806,-133.333333333333,4,1,0,50,0,0
70862,-200,4,1,0,50,0,0
71140,-66.6666666666667,4,1,0,50,0,0
72251,-80,4,1,0,50,0,1
76695,-57.1428571428571,4,1,0,50,0,1
76973,-100,4,1,0,50,0,1
78917,-57.1428571428571,4,1,0,50,0,1
79890,-200,4,1,0,50,0,1
80306,-50,4,1,0,50,0,1
80862,-200,4,1,0,50,0,1
81140,-200,4,1,0,50,0,0
87806,-80,4,1,0,50,0,0
90028,-80,4,1,0,50,0,1
94473,-66.6666666666667,4,1,0,50,0,1
98640,-200,4,1,0,50,0,1
98917,-66.6666666666667,4,1,0,50,0,0
103362,-200,4,1,0,50,0,0
103640,-66.6666666666667,4,1,0,50,0,0
105445,-133.333333333333,4,1,0,50,0,0
107251,-133.333333333333,4,1,0,50,0,0
107806,-66.6666666666667,4,1,0,50,0,1
111973,-200,4,1,0,50,0,0
112251,-50,4,1,0,50,0,1
112528,-66.6666666666667,4,1,0,50,0,1
115445,-50,4,1,0,50,0,1
115862,-66.6666666666667,4,1,0,50,0,1
116417,-66.6666666666667,4,1,0,50,0,0
116695,-66.6666666666667,4,1,0,50,0,1
121140,-50,4,1,0,50,0,1
125584,-100,4,1,0,50,0,1

[Colours]
Combo1 : 208,169,235
Combo2 : 113,97,133
Combo3 : 89,105,162

[HitObjects]
317,124,1417,6,0,L|314:156,1,27.5
312,178,1556,1,0,0:0:0:0:
190,257,2528,6,0,L|192:224,1,27.5
194,202,2667,1,0,0:0:0:0:
194,202,3084,2,0,L|191:234,1,27.5
190,257,3223,1,0,0:0:0:0:
340,144,4056,6,0,L|337:176,1,27.5
336,199,4195,1,0,0:0:0:0:
340,144,4334,1,0,0:0:0:0:
336,199,4473,6,0,P|290:212|234:187,1,82.5000031471254
292,131,4751,1,0,0:0:0:0:
292,131,4890,2,0,P|251:123|213:135,1,82.5000031471254
222,275,5167,2,0,P|262:283|301:271,1,82.5000031471254
126,301,5862,6,0,L|128:268,1,27.5
130,246,6001,1,0,0:0:0:0:
253,168,6973,6,0,L|250:200,1,27.5
249,223,7112,1,0,0:0:0:0:
249,223,7529,2,0,L|251:190,1,27.5
253,168,7668,1,0,0:0:0:0:
124,331,8501,6,0,L|126:298,1,27.5
128,276,8640,1,0,0:0:0:0:
124,331,8778,2,0,P|157:355|227:348,1,82.5000031471254
246,229,9056,2,0,P|213:205|143:212,1,82.5000031471254
236,341,9334,2,0,P|260:308|253:238,1,82.5000031471254
134,218,9612,5,0,0:0:0:0:
120,232,9681,1,0,0:0:0:0:
110,249,9750,1,0,0:0:0:0:
151,259,9820,1,0,0:0:0:0:
192,254,9889,1,0,0:0:0:0:
229,237,9959,1,0,0:0:0:0:
259,210,10028,6,0,P|291:154|261:70,1,110
261,62,10306,1,0,0:0:0:0:
82,150,10445,2,0,P|80:204|110:249,1,110
258,362,10723,2,0,P|179:287|158:180,1,220
178,111,11140,6,0,P|225:68|313:79,1,110
299,80,11417,1,0,0:0:0:0:
372,315,11556,2,0,P|319:327|268:307,1,110
141,174,11834,2,0,P|151:227|191:258,1,82.5
111,86,12112,6,0,P|80:248|259:325,1,330.000012588502
277,321,12528,1,0,0:0:0:0:
326,199,12667,6,0,P|317:135|242:88,1,110
140,163,12945,2,0,P|148:226|223:273,1,110
232,181,13223,2,0,L|189:71,1,110
237,196,13501,1,0,0:0:0:0:
186,63,13640,1,0,0:0:0:0:
378,252,13778,6,0,L|318:99,1,165.000006294251
390,290,14056,1,0,0:0:0:0:
307,68,14195,1,0,0:0:0:0:
307,68,14265,1,0,0:0:0:0:
307,68,14334,1,0,0:0:0:0:
247,245,14473,6,0,P|303:277|387:247,1,110
395,247,14751,1,0,0:0:0:0:
307,68,14890,2,0,P|253:66|208:96,1,110
95,244,15168,2,0,P|170:165|277:144,1,220
350,161,15584,6,0,P|402:199|408:288,1,110
412,295,15862,1,0,0:0:0:0:
130,247,16001,2,0,P|157:200|207:177,1,110
421,192,16278,2,0,P|376:161|326:167,1,82.5
504,233,16556,6,0,P|411:96|230:168,1,330.000012588502
225,188,16973,1,0,0:0:0:0:
259,297,17112,6,0,P|304:342|392:335,1,110
429,213,17390,2,0,P|384:167|296:175,1,110
345,254,17668,2,0,L|445:315,1,110
331,244,17945,1,0,0:0:0:0:
438,148,18084,5,0,0:0:0:0:
438,148,18153,1,0,0:0:0:0:
438,148,18223,2,0,L|375:164,1,55
286,101,18362,1,0,0:0:0:0:
286,101,18431,1,0,0:0:0:0:
286,101,18501,2,0,L|349:85,1,55
384,161,18640,1,0,0:0:0:0:
384,161,18709,1,0,0:0:0:0:
384,161,18779,2,0,L|321:177,1,55
144,190,18917,6,0,P|126:127|175:53,1,110
177,45,19195,1,0,0:0:0:0:
330,174,19334,2,0,P|318:226|278:263,1,110
108,337,19612,2,0,P|202:283|249:184,1,220
219,97,20028,6,0,P|156:79|82:128,1,110
74,130,20306,1,0,0:0:0:0:
203,283,20445,2,0,P|255:271|292:231,1,110
299,90,20723,2,0,P|321:139|306:187,1,82.5
273,1,21001,6,0,P|391:115|288:281,1,330.000012588502
270,286,21417,1,0,0:0:0:0:
148,131,21556,6,0,L|309:145,1,110
341,254,21834,2,0,L|179:239,1,110
148,131,22112,6,0,P|207:82|306:145,1,165
243,251,22390,1,0,0:0:0:0:
243,251,22528,1,0,0:0:0:0:
106,134,22667,2,0,P|198:57|352:155,1,247.500009441376
246,287,22945,1,0,0:0:0:0:
328,96,23084,1,0,0:0:0:0:
229,281,23223,1,0,0:0:0:0:
333,195,23362,6,0,P|356:222|362:241,1,55
362,267,23640,1,0,0:0:0:0:
349,294,23778,1,0,0:0:0:0:
328,288,23917,1,0,0:0:0:0:
318,265,24056,1,0,0:0:0:0:
322,231,24195,1,0,0:0:0:0:
333,190,24334,1,0,0:0:0:0:
330,140,24473,5,0,0:0:0:0:
178,192,24612,1,0,0:0:0:0:
336,146,24751,1,0,0:0:0:0:
184,198,24890,1,0,0:0:0:0:
253,74,25028,5,0,0:0:0:0:
260,276,25167,1,0,0:0:0:0:
259,80,25306,1,0,0:0:0:0:
265,325,25445,1,0,0:0:0:0:
28,181,25584,5,0,0:0:0:0:
28,181,25723,2,0,L|105:309,1,110
301,211,26001,1,0,0:0:0:0:
301,211,26140,2,0,L|208:57,1,165.000006294251
160,223,26417,5,0,0:0:0:0:
160,223,26556,2,0,L|237:351,1,110
433,253,26834,1,0,0:0:0:0:
433,253,26973,2,0,L|340:99,1,165.000006294251
345,282,27251,5,0,0:0:0:0:
345,282,27528,1,0,0:0:0:0:
410,179,27806,6,0,L|440:100,1,82.5000031471254
345,282,28084,1,0,0:0:0:0:
410,179,28223,2,0,P|455:224|454:331,1,165.000006294251
345,282,28640,1,0,0:0:0:0:
273,240,28778,2,0,L|367:295,1,82.5000031471254
226,172,29056,2,0,L|287:261,1,82.5000031471254
211,89,29334,1,0,0:0:0:0:
226,8,29473,2,0,L|206:115,1,82.5000031471254
273,240,29751,2,0,L|292:132,1,82.5000031471254
226,8,30028,1,0,0:0:0:0:
226,8,30306,6,0,L|206:115,1,82.5000031471254
115,128,30584,2,0,P|216:194|310:122,1,220
329,88,31001,1,0,0:0:0:0:
214,336,31140,6,0,P|290:260|295:153,1,220
161,350,31556,2,0,P|276:284|295:153,1,275
107,343,31973,2,0,P|259:305|295:153,1,330
235,103,32251,1,0,0:0:0:0:
235,103,32528,6,0,L|254:-4,1,82.5000031471254
150,69,32806,2,0,L|130:176,1,82.5000031471254
117,217,33084,1,0,0:0:0:0:
153,73,33223,1,0,0:0:0:0:
133,145,33362,1,0,0:0:0:0:
234,146,33501,1,0,0:0:0:0:
36,144,33640,1,0,0:0:0:0:
117,217,33779,1,0,0:0:0:0:
140,111,33917,5,0,0:0:0:0:
36,144,34056,1,0,0:0:0:0:
221,184,34195,1,0,0:0:0:0:
221,184,34473,6,0,P|178:130|64:144,1,165.000006294251
41,240,34890,2,0,P|84:294|198:280,1,165.000006294251
131,212,35306,1,0,0:0:0:0:
131,212,35376,1,0,0:0:0:0:
131,212,35445,2,0,L|195:219,1,41.2500015735627
290,219,35584,6,0,P|288:146|197:51,1,165.000006294251
237,72,35769,2,0,P|253:151|222:227,1,165.000006294251
222,226,35954,2,0,P|218:144|170:79,1,165.000006294251
20,167,36140,6,0,P|22:240|113:335,1,165.000006294251
73,314,36325,2,0,P|57:235|88:159,1,165.000006294251
88,160,36510,2,0,P|91:241|139:306,1,165.000006294251
245,317,36695,6,0,P|314:281|317:175,1,137.5
234,93,36973,1,0,0:0:0:0:
250,233,37112,2,0,B|346:333|346:333|513:287,1,275
393,123,37528,1,0,0:0:0:0:
250,233,37667,6,0,P|238:150|284:95,1,137.5
328,378,37945,1,0,0:0:0:0:
328,180,38084,1,0,0:0:0:0:
242,321,38223,2,0,P|176:371|105:360,1,137.5
328,180,38501,5,0,0:0:0:0:
157,279,38640,1,0,0:0:0:0:
156,81,38778,1,0,0:0:0:0:
328,180,38917,6,0,B|267:205|267:205|159:170,1,137.5
398,146,39195,1,0,0:0:0:0:
69,137,39334,2,0,L|199:183,1,137.5
286,324,39612,2,0,L|156:278,1,137.5
69,137,39890,6,0,B|123:116|123:116|287:173,1,206.25
335,195,40167,1,0,0:0:0:0:
127,224,40306,1,0,0:0:0:0:
127,224,40445,1,0,0:0:0:0:
277,108,40584,1,0,0:0:0:0:
277,108,40723,1,0,0:0:0:0:
77,144,40862,1,0,0:0:0:0:
77,144,40931,1,0,0:0:0:0:
77,144,41001,2,0,L|158:176,1,68.75
238,202,41140,6,0,B|256:266|329:307|329:307|372:241|355:169,1,288.750002753735
306,112,41417,1,0,0:0:0:0:
161,210,41556,2,0,P|180:262|219:320,1,110
262,351,41834,1,0,0:0:0:0:
156,144,41973,1,0,0:0:0:0:
421,290,42112,2,0,P|433:236|434:182,1,110
414,104,42390,1,0,0:0:0:0:
136,162,42528,2,0,P|164:239|210:307,1,165
276,344,42806,1,0,0:0:0:0:
276,344,42945,1,0,0:0:0:0:
360,63,43084,6,0,P|292:68|309:242,1,288.750002753735
314,216,43362,2,0,P|270:135|352:92,1,206.25
333,155,43640,1,0,0:0:0:0:
301,239,43778,1,0,0:0:0:0:
159,71,43917,1,0,0:0:0:0:
248,56,44055,1,0,0:0:0:0:
141,248,44195,1,0,0:0:0:0:
96,169,44334,2,0,L|221:173,1,110
343,266,44751,6,0,L|310:309,1,41.2500015735627
280,206,44890,6,0,L|247:249,1,41.2500015735627
343,266,45028,5,0,0:0:0:0:
319,290,45098,1,0,0:0:0:0:
289,304,45167,1,0,0:0:0:0:
257,313,45237,1,0,0:0:0:0:
224,311,45306,2,0,L|202:221,1,82.5
198,173,45584,6,0,P|214:110|295:72,1,110
312,65,45862,1,0,0:0:0:0:
365,255,46001,2,0,P|328:294|275:305,1,110
91,281,46279,2,0,P|199:283|290:223,1,220
325,160,46696,6,0,P|322:96|252:41,1,110
228,42,46973,1,0,0:0:0:0:
43,167,47112,2,0,P|71:212|122:234,1,110
306,230,47390,2,0,P|261:260|211:254,1,82.5
390,189,47668,6,0,P|297:325|116:253,1,330.000012588502
106,238,48084,1,0,0:0:0:0:
158,117,48223,6,0,P|209:78|295:97,1,110
315,223,48501,2,0,P|264:261|178:242,1,110
237,171,48779,2,0,L|345:123,1,110
223,178,49057,1,0,0:0:0:0:
353,120,49196,1,0,0:0:0:0:
84,118,49334,6,0,L|234:52,1,165.000006294251
48,136,49612,1,0,0:0:0:0:
279,43,49751,1,0,0:0:0:0:
279,43,49821,1,0,0:0:0:0:
279,43,49890,1,0,0:0:0:0:
181,206,50029,6,0,P|118:189|80:108,1,110
75,102,50307,1,0,0:0:0:0:
264,38,50446,2,0,P|303:74|314:127,1,110
289,313,50724,2,0,P|291:204|231:113,1,220
168,74,51140,6,0,P|104:64|37:122,1,110
29,124,51418,1,0,0:0:0:0:
263,290,51557,2,0,P|277:237|258:186,1,110
103,74,51834,2,0,P|156:83|187:123,1,82.5
15,45,52112,6,0,P|177:13|254:192,1,330.000012588502
244,210,52529,1,0,0:0:0:0:
136,234,52668,6,0,P|72:234|15:166,1,110
75,54,52946,2,0,P|139:53|195:121,1,110
106,143,53224,2,0,L|-7:115,1,110
123,146,53501,1,0,0:0:0:0:
125,35,53640,5,0,0:0:0:0:
125,35,53709,1,0,0:0:0:0:
125,35,53779,2,0,L|158:90,1,55
265,109,53918,1,0,0:0:0:0:
265,109,53987,1,0,0:0:0:0:
265,109,54057,2,0,L|231:53,1,55
154,82,54196,1,0,0:0:0:0:
154,82,54265,1,0,0:0:0:0:
154,82,54335,2,0,L|187:137,1,55
257,191,54473,6,0,P|215:241|126:241,1,110
303,326,54751,1,0,0:0:0:0:
140,46,54890,2,0,P|190:26|242:38,1,110
399,138,55168,2,0,P|301:90|194:106,1,220
136,149,55585,6,0,P|111:208|151:287,1,110
22,195,55862,1,0,0:0:0:0:
394,261,56001,2,0,P|387:208|350:166,1,110
478,196,56278,1,0,0:0:0:0:
314,241,56417,1,0,0:0:0:0:
89,95,56557,6,0,P|230:11|364:152,1,330.000012588502
367,170,56973,1,0,0:0:0:0:
269,258,57112,2,0,L|136:218,1,110
196,135,57390,5,0,0:0:0:0:
342,209,57528,1,0,0:0:0:0:
334,46,57667,1,0,0:0:0:0:
355,225,57806,2,0,L|298:353,1,110
225,219,58084,1,0,0:0:0:0:
180,319,58223,2,0,L|237:191,1,110
269,118,58501,1,0,0:0:0:0:
188,327,58640,1,0,0:0:0:0:
188,327,58710,1,0,0:0:0:0:
188,327,58779,1,0,0:0:0:0:
286,168,58918,6,0,P|335:210|336:299,1,110
407,158,59196,1,0,0:0:0:0:
140,285,59335,2,0,P|119:235|132:183,1,110
233,25,59613,2,0,P|185:122|201:230,1,220
229,279,60028,6,0,P|282:315|368:290,1,110
247,384,60307,1,0,0:0:0:0:
247,57,60446,2,0,P|211:99|207:153,1,110
124,73,60723,1,0,0:0:0:0:
285,131,60862,1,0,0:0:0:0:
367,368,61001,6,0,P|206:328|212:133,1,330.000012588502
226,125,61418,1,0,0:0:0:0:
338,161,61557,5,0,0:0:0:0:
427,298,61695,1,0,0:0:0:0:
502,153,61834,1,0,0:0:0:0:
343,255,61973,5,0,0:0:0:0:
421,109,62112,1,0,0:0:0:0:
323,291,62251,5,0,0:0:0:0:
440,72,62390,1,0,0:0:0:0:
192,81,62528,1,0,0:0:0:0:
407,214,62667,2,0,P|369:150|329:132,1,110
192,81,62945,2,0,P|219:248|348:151,1,330.000012588501
192,81,63362,6,0,P|126:93|86:127,1,82.5000031471254
86,223,63640,1,0,0:0:0:0:
114,100,63778,2,0,P|174:111|215:222,1,165.000006294251
205,272,64195,1,0,0:0:0:0:
287,272,64334,2,0,L|187:272,1,82.5000031471254
364,243,64612,2,0,L|270:277,1,82.5000031471254
427,189,64890,1,0,0:0:0:0:
468,117,65028,2,0,L|417:203,1,82.5000031471254
286,271,65306,2,0,L|336:184,1,82.5000031471254
468,117,65584,1,0,0:0:0:0:
468,117,65862,5,0,0:0:0:0:
408,173,66001,1,0,0:0:0:0:
231,193,66140,1,0,0:0:0:0:
268,102,66278,1,0,0:0:0:0:
352,49,66417,1,0,0:0:0:0:
451,50,66556,1,0,0:0:0:0:
349,280,66695,6,0,P|241:280|162:207,1,220
397,254,67112,2,0,P|269:288|162:209,1,275
430,211,67528,2,0,P|295:291|162:209,1,330
150,131,67806,1,0,0:0:0:0:
150,131,68084,5,0,0:0:0:0:
240,171,68223,1,0,0:0:0:0:
121,282,68362,1,0,0:0:0:0:
31,242,68501,1,0,0:0:0:0:
211,322,68640,1,0,0:0:0:0:
150,131,68778,1,0,0:0:0:0:
211,322,68917,2,0,P|291:278|311:198,1,165.000006294251
97,211,69334,2,0,P|125:286|198:321,1,165.000006294251
205,212,69751,5,0,0:0:0:0:
278,278,69890,1,0,0:0:0:0:
153,124,70028,2,0,L|47:92,1,82.5000031471254
258,151,70306,1,0,0:0:0:0:
37,6,70445,2,0,L|143:38,1,82.5000031471254
258,151,70723,1,0,0:0:0:0:
153,124,70862,2,0,L|255:153,1,82.5
85,131,71140,6,0,P|87:204|178:299,1,165.000006294251
138,278,71325,2,0,P|122:199|153:123,1,165.000006294251
153,124,71510,2,0,P|157:206|205:271,1,165.000006294251
355,183,71696,6,0,P|353:110|262:15,1,165.000006294251
302,36,71881,2,0,P|318:115|287:191,1,165.000006294251
287,190,72066,2,0,P|284:109|236:44,1,165.000006294251
97,26,72251,5,0,0:0:0:0:
97,26,72320,1,0,0:0:0:0:
97,26,72390,1,0,0:0:0:0:
71,176,72528,1,0,0:0:0:0:
126,234,72667,2,0,P|148:154|-1:138,1,275
73,306,73084,1,0,0:0:0:0:
204,104,73223,2,0,P|222:184|186:273,1,137.5
75,181,73501,5,0,0:0:0:0:
155,36,73640,1,0,0:0:0:0:
136,198,73778,1,0,0:0:0:0:
108,76,73917,5,0,0:0:0:0:
194,218,74056,1,0,0:0:0:0:
63,120,74194,1,0,0:0:0:0:
182,157,74334,1,0,0:0:0:0:
22,170,74473,6,0,L|152:216,1,137.5
10,277,74751,1,0,0:0:0:0:
239,357,74890,2,0,L|109:311,1,137.5
22,154,75167,2,0,L|152:200,1,137.5
239,357,75445,6,0,B|185:378|185:378|21:321,1,206.25
6,308,75723,1,0,0:0:0:0:
50,115,75862,5,0,0:0:0:0:
50,115,76000,1,0,0:0:0:0:
195,250,76139,1,0,0:0:0:0:
195,250,76278,1,0,0:0:0:0:
6,308,76417,1,0,0:0:0:0:
6,308,76487,1,0,0:0:0:0:
6,308,76556,1,0,0:0:0:0:
111,176,76695,6,0,B|154:125|237:119|237:119|248:197|203:255,1,288.750002753735
134,286,76972,1,0,0:0:0:0:
129,68,77111,1,0,0:0:0:0:
44,136,77251,1,0,0:0:0:0:
195,52,77390,1,0,0:0:0:0:
12,193,77528,1,0,0:0:0:0:
314,173,77667,2,0,P|302:227|280:276,1,110
229,339,77945,1,0,0:0:0:0:
1,169,78083,2,0,P|58:111|129:68,1,165
205,63,78361,1,0,0:0:0:0:
205,63,78500,1,0,0:0:0:0:
125,250,78640,1,0,0:0:0:0:
205,63,78778,1,0,0:0:0:0:
125,250,78917,6,0,B|55:249|20:185|20:185|61:107|61:107|97:110|126:84,1,288.750002753735
205,63,79195,1,0,0:0:0:0:
291,105,79334,1,0,0:0:0:0:
335,292,79473,1,0,0:0:0:0:
247,251,79612,1,0,0:0:0:0:
188,174,79751,1,0,0:0:0:0:
467,214,79890,2,0,L|335:195,1,110
206,229,80306,6,0,L|273:210,1,55
194,118,80445,6,0,L|262:129,1,55
226,16,80584,5,0,0:0:0:0:
237,23,80653,1,0,0:0:0:0:
248,31,80722,1,0,0:0:0:0:
260,39,80792,1,0,0:0:0:0:
271,46,80862,2,0,L|358:100,1,82.5
352,97,81140,5,0,0:0:0:0:
364,205,81417,1,0,0:0:0:0:
256,217,81695,1,0,0:0:0:0:
244,109,81972,1,0,0:0:0:0:
352,97,82251,1,0,0:0:0:0:
364,205,82528,1,0,0:0:0:0:
256,217,82806,1,0,0:0:0:0:
244,109,83083,1,0,0:0:0:0:
304,157,83223,1,0,0:0:0:0:
364,205,83362,5,0,0:0:0:0:
352,97,83640,1,0,0:0:0:0:
244,109,83917,1,0,0:0:0:0:
256,217,84195,1,0,0:0:0:0:
364,205,84473,1,0,0:0:0:0:
352,97,84751,1,0,0:0:0:0:
244,109,85028,1,0,0:0:0:0:
256,217,85306,1,0,0:0:0:0:
364,205,85584,6,0,L|339:267,1,55
243,300,85862,2,0,L|181:275,1,55
148,179,86140,2,0,L|173:117,1,55
269,84,86417,2,0,L|331:109,1,55
364,205,86695,2,0,L|339:267,1,55
243,300,86973,2,0,L|181:275,1,55
148,179,87251,2,0,L|173:117,1,55
242,92,87528,2,0,L|269:84,3,27.5
312,118,87805,5,0,0:0:0:0:
160,298,87945,1,0,0:0:0:0:
353,197,88084,1,0,0:0:0:0:
119,217,88224,1,0,0:0:0:0:
326,283,88362,5,0,0:0:0:0:
204,83,88501,1,0,0:0:0:0:
438,78,88640,1,0,3:0:0:0:
207,218,88778,1,0,0:0:0:0:
326,283,88917,1,0,0:0:0:0:
303,97,89056,5,0,0:0:0:0:
303,97,89126,1,0,0:0:0:0:
303,97,89195,1,0,0:0:0:0:
283,302,89334,1,0,0:0:0:0:
213,142,89473,1,0,0:0:0:0:
205,189,89542,1,0,0:0:0:0:
203,244,89612,1,0,0:0:0:0:
203,244,89681,1,0,0:0:0:0:
203,244,89751,2,0,P|257:231|319:157,1,137.5
73,144,90028,6,0,L|58:333,1,137.5
192,381,90306,2,0,L|207:192,1,137.5
83,6,90584,2,0,L|68:195,1,137.5
202,243,90862,1,0,0:0:0:0:
83,6,91001,2,0,P|144:88|307:48,1,275
356,14,91417,2,0,P|398:91|366:156,1,137.5
338,194,91695,1,0,0:0:0:0:
338,194,91834,1,0,0:0:0:0:
356,14,91973,2,0,P|324:95|253:112,1,137.5
93,137,92251,6,0,L|166:263,1,137.5
345,329,92528,2,0,L|272:203,1,137.5
24,18,92806,2,0,L|97:144,1,137.5
276,210,93084,1,0,0:0:0:0:
24,18,93223,2,0,P|105:86|254:30,1,275
140,0,93640,5,0,0:0:0:0:
99,262,93778,1,0,0:0:0:0:
194,19,93917,5,0,0:0:0:0:
28,225,94055,1,0,0:0:0:0:
235,74,94195,6,0,L|18:172,1,206.25
46,159,94473,2,0,B|120:220|207:192|207:192|287:256|253:352|253:352|196:340|176:274|176:274|105:309,1,495.000018882752
28,346,95028,2,0,L|179:273,1,165.000006294251
393,170,95306,2,0,L|242:243,1,165.000006294251
145,174,95584,6,0,B|146:118|146:118|250:73,1,165.000006294251
338,35,95792,2,0,B|337:91|337:91|233:136,1,165.000006294251
144,239,96001,2,0,B|146:118|146:118|369:21,1,330.000012588501
338,267,96417,1,0,0:0:0:0:
338,35,96556,1,0,0:0:0:0:
338,267,96695,6,0,L|160:334,1,165.000006294251
373,166,96973,1,0,0:0:0:0:
373,166,97112,2,0,L|195:233,1,165.000006294251
70,172,97390,2,0,L|248:105,1,165.000006294251
373,166,97667,2,0,B|362:227|362:227|110:322,1,330.000012588501
52,158,98084,2,0,L|230:91,1,165.000006294251
325,68,98362,5,0,0:0:0:0:
370,87,98431,1,0,0:0:0:0:
403,122,98500,1,0,0:0:0:0:
419,169,98570,1,0,0:0:0:0:
415,218,98640,2,0,P|387:253|339:269,1,82.5
11,129,98917,6,0,P|95:104|183:129,1,165.000006294251
353,267,99195,1,0,0:0:0:0:
353,267,99334,2,0,P|311:189|231:145,1,165.000006294251
60,31,99612,1,0,0:0:0:0:
60,31,99751,2,0,P|147:44|216:104,1,165.000006294251
312,300,100028,1,0,0:0:0:0:
312,300,100167,2,0,P|306:213|253:139,1,165.000006294251
7,238,100445,1,0,0:0:0:0:
7,238,100584,2,0,P|72:180|163:165,1,165.000006294251
375,218,100862,2,0,P|305:166|213:160,1,165.000006294251
135,325,101140,6,0,P|207:309|139:214,1,165.000006294251
103,255,101417,2,0,P|181:214|215:295,1,165.000006294251
135,325,101695,2,0,P|177:213|175:329,1,330.000012588501
94,93,102251,6,0,B|115:34|183:15|183:15|200:79|169:124|169:124|215:178|288:139|288:139,1,330.000012588501
391,82,102667,2,0,B|276:38|169:124|169:124|203:162|261:149,1,330.000012588501
319,206,103084,2,0,P|337:129|285:69,1,165.000006294251
181,184,103362,2,0,B|225:176|225:176|264:140,1,82.5000031471254
186,104,103640,5,0,0:0:0:0:
361,334,103778,1,0,0:0:0:0:
144,179,103917,5,0,0:0:0:0:
430,218,104055,1,0,0:0:0:0:
168,262,104195,5,0,0:0:0:0:
398,86,104333,1,0,0:0:0:0:
243,303,104473,5,0,0:0:0:0:
282,17,104611,1,0,0:0:0:0:
326,280,104751,5,0,0:0:0:0:
151,49,104889,1,0,0:0:0:0:
367,204,105028,5,0,0:0:0:0:
81,165,105166,1,0,0:0:0:0:
65,146,105237,1,0,0:0:0:0:
56,122,105306,1,0,0:0:0:0:
105,118,105376,1,0,0:0:0:0:
149,139,105445,1,0,0:0:0:0:
370,369,105584,1,0,0:0:0:0:
256,192,105723,12,0,107112,0:0:0:0:
327,110,107251,5,0,0:0:0:0:
377,144,107320,1,0,0:0:0:0:
408,197,107390,1,0,0:0:0:0:
410,258,107459,1,0,0:0:0:0:
377,310,107528,1,0,0:0:0:0:
353,275,107598,1,0,0:0:0:0:
344,234,107667,1,0,0:0:0:0:
347,192,107737,1,0,0:0:0:0:
358,152,107806,6,0,P|410:103|512:81,1,165.000006294251
309,279,108084,1,0,0:0:0:0:
219,36,108223,2,0,P|282:94|271:180,1,165.000006294251
167,218,108501,2,0,P|106:165|107:86,1,165.000006294251
193,127,108778,2,0,B|263:285|263:285|455:232,1,330.000012588501
379,167,109195,2,0,L|446:318,1,165.000006294251
273,290,109473,1,0,0:0:0:0:
273,290,109542,1,0,0:0:0:0:
273,290,109612,1,0,0:0:0:0:
470,122,109751,5,0,0:0:0:0:
446,318,109890,1,0,0:0:0:0:
340,31,110028,2,0,P|260:19|201:72,1,165.000006294251
446,318,110305,1,0,0:0:0:0:
288,110,110445,2,0,P|316:229|343:104,1,330.000012588501
19,159,110862,5,0,0:0:0:0:
43,260,111001,1,0,0:0:0:0:
149,68,111139,2,0,P|228:56|287:109,1,165.000006294251
43,260,111416,1,0,0:0:0:0:
201,147,111556,2,0,P|172:266|145:141,1,330.000012588501
294,139,111973,2,0,P|309:190|308:232,1,82.5
216,362,112251,6,0,P|305:251|213:57,1,330
52,135,112528,2,0,B|32:187|56:219|56:219|90:231|134:206,1,165.000006294251
253,84,112806,2,0,P|182:45|56:69,1,165.000006294251
219,207,113084,2,0,P|290:168|416:192,1,165.000006294251
274,337,113362,2,0,P|203:298|77:322,1,165.000006294251
333,384,113640,1,0,0:0:0:0:
333,384,113778,1,0,0:0:0:0:
286,79,113917,6,0,P|226:103|168:236,1,165.000006294251
276,380,114195,2,0,P|206:338|171:264,1,165.000006294251
286,79,114473,2,0,B|186:99|168:199|168:199|252:241|311:189|311:189|366:106|464:130,1,495.000018882752
420,247,115028,1,0,0:0:0:0:
348,8,115167,1,0,0:0:0:0:
426,253,115306,1,0,0:0:0:0:
43,114,115445,2,0,B|174:38|263:145|263:145|217:195|140:189|140:189|96:264|155:319,1,440
119,323,115862,5,0,0:0:0:0:
406,179,116001,1,0,0:0:0:0:
43,114,116140,5,0,0:0:0:0:
121,243,116279,1,0,0:0:0:0:
290,32,116417,5,0,0:0:0:0:
226,46,116486,1,0,0:0:0:0:
182,94,116555,1,0,0:0:0:0:
173,158,116625,1,0,0:0:0:0:
203,216,116695,6,0,P|279:262|392:195,1,165.000006294251
490,28,116973,1,0,0:0:0:0:
349,246,117112,2,0,P|271:225|228:157,1,165.000006294251
245,8,117390,2,0,P|266:85|228:156,1,165.000006294251
96,217,117667,2,0,B|148:140|228:157|228:157|225:268|320:308,1,330.000012588501
340,191,118084,1,0,0:0:0:0:
96,217,118223,1,0,0:0:0:0:
207,315,118362,1,0,0:0:0:0:
181,71,118501,2,0,P|166:130|204:57,1,330.000012588501
117,192,118917,6,0,P|280:231|354:111,1,330.000012588501
144,8,119334,1,0,0:0:0:0:
144,8,119473,2,0,P|105:171|225:245,1,330.000012588501
222,113,119890,1,0,0:0:0:0:
330,342,120028,5,0,0:0:0:0:
345,94,120167,1,0,0:0:0:0:
274,331,120306,1,0,0:0:0:0:
279,83,120445,1,0,0:0:0:0:
333,337,120584,1,0,0:0:0:0:
328,89,120723,1,0,0:0:0:0:
277,348,120862,1,0,0:0:0:0:
262,100,121001,1,0,0:0:0:0:
108,257,121140,6,0,B|107:332|40:369|40:369|-32:223|115:121|115:121|267:232|159:378|159:378,1,660
115,121,121695,2,0,B|222:53|341:130|341:130|217:232|294:354|294:354|427:288|372:138|372:138,1,660
173,47,122251,2,0,P|191:145|135:54,1,220
423,192,122528,2,0,P|329:159|436:156,1,220
465,108,122806,1,0,0:0:0:0:
146,0,122945,1,0,0:0:0:0:
171,336,123084,2,0,P|247:271|196:365,1,220
69,347,123362,5,0,0:0:0:0:
358,340,123778,5,0,0:0:0:0:
351,51,124195,5,0,0:0:0:0:
62,58,124612,5,0,0:0:0:0:
69,347,124890,5,0,0:0:0:0:
114,207,125028,1,0,0:0:0:0:
69,347,125306,5,0,0:0:0:0:
