osu file format v14

[General]
AudioFilename: audio.mp3
AudioLeadIn: 0
PreviewTime: -1
Countdown: 0
SampleSet: Soft
StackLeniency: 0.4
Mode: 0
LetterboxInBreaks: 0
WidescreenStoryboard: 0

[Editor]
Bookmarks: 31714,96076
DistanceSpacing: 0.9
BeatDivisor: 4
GridSize: 8
TimelineZoom: 2.2

[Metadata]
Title:Hatsune Miku no Shoushitsu
TitleUnicode:初音ミクの消失
Artist:cosMo@BousouP feat.Hatsune Miku
ArtistUnicode:cosMo@暴走P feat.初音ミク
Creator:Artemis99
Version:Extra
Source:
Tags:
BeatmapID:1950918
BeatmapSetID:934450

[Difficulty]
HPDrainRate:6
CircleSize:4.2
OverallDifficulty:9
ApproachRate:9.7
SliderMultiplier:2
SliderTickRate:1

[Events]
//Background and Video events
0,0,"hatsune-miku-3840x2160-anime-girl-polygons-blue-4k-8423.jpg",0,0
//Break Periods
//Storyboard Layer 0 (Background)
//Storyboard Layer 1 (Fail)
//Storyboard Layer 2 (Pass)
//Storyboard Layer 3 (Foreground)
//Storyboard Sound Samples

[TimingPoints]
26701,250,4,2,0,100,1,0
29701,-133.333333333333,4,2,0,100,0,0
31701,-125,4,2,0,100,0,0
42701,-111.111111111111,4,2,0,100,0,0
58701,-125,4,2,0,60,0,0
74701,-117.647058823529,4,2,0,60,0,0
106701,-108.695652173913,4,2,0,60,0,0
112701,-103.092783505155,4,2,0,60,0,0
114701,-108.695652173913,4,2,0,60,0,0
120701,-100,4,2,0,60,0,0

[HitObjects]
56,88,26701,6,0,L|49:159,11,66.6666666666667,0|0|0|0|0|0|0|0|0|0|0|0,0:3|0:3|0:3|0:3|0:3|0:3|0:3|0:3|0:3|0:3|0:3|0:3,0:3:0:0:
144,216,27701,2,0,L|137:287,11,66.6666666666667,0|0|0|0|0|0|0|0|0|0|0|0,0:3|0:3|0:3|0:3|0:3|0:3|0:3|0:3|0:3|0:3|0:3|0:3,0:3:0:0:
253,106,28701,2,0,L|246:177,11,66.6666666666667,0|0|0|0|0|0|0|0|0|0|0|0,0:3|0:3|0:3|0:3|0:3|0:3|0:3|0:3|0:3|0:3|0:3|0:3,0:3:0:0:
341,234,29701,6,0,L|329:370,1,100.000003814697,0|0,0:3|0:3,0:3:0:0:
250,371,29951,1,0,0:0:0:0:
204,351,30044,1,0,0:0:0:0:
154,351,30107,1,0,0:0:0:0:
108,369,30201,1,0,0:0:0:0:
58,365,30294,1,0,0:0:0:0:
21,333,30357,1,0,0:0:0:0:
9,285,30451,1,0,0:0:0:0:
27,240,30544,1,0,0:0:0:0:
68,213,30607,1,0,0:0:0:0:
117,216,30701,6,0,P|180:226|219:215,1,100.000003814697
311,161,30951,2,0,P|359:151|408:161,1,100.000003814697
494,308,31201,2,0,L|503:204,1,100.000003814697
416,62,31451,2,0,L|406:165,1,100.000003814697
371,375,31701,6,0,P|322:384|273:374,1,100.000003814697
215,216,31951,2,0,L|205:319,1,100.000003814697
34,167,32201,6,0,P|82:157|131:167,1,100.000003814697
190,326,32451,2,0,L|199:222,1,100.000003814697
32,325,32701,1,0,0:0:0:0:
190,326,32826,1,0,0:0:0:0:
34,167,32951,1,0,0:0:0:0:
198,226,33076,1,0,0:0:0:0:
32,325,33201,5,0,0:0:0:0:
200,68,33326,1,0,0:0:0:0:
338,341,33451,1,0,0:0:0:0:
198,226,33576,1,0,0:0:0:0:
453,201,33701,5,0,0:0:0:0:
447,220,33763,1,0,0:0:0:0:
445,240,33826,1,0,0:0:0:0:
445,259,33888,1,0,0:0:0:0:
450,279,33951,2,0,L|402:274,3,40
318,109,34201,2,0,L|429:118,1,80
198,226,34451,1,0,0:0:0:0:
197,216,34513,1,0,0:0:0:0:
196,206,34576,1,0,0:0:0:0:
195,196,34638,1,0,0:0:0:0:
194,186,34701,6,0,L|82:195,1,80
0,56,34951,2,0,L|111:65,1,80
194,186,35201,1,0,0:0:0:0:
175,13,35326,1,0,0:0:0:0:
13,163,35451,2,0,P|23:201|22:241,1,80
172,343,35701,6,0,L|93:350,1,80,0|0,0:3|0:3,0:3:0:0:
272,269,35951,2,0,B|276:316|276:316|302:338,1,80
466,263,36201,1,0,0:0:0:0:
405,348,36326,1,0,0:0:0:0:
317,156,36451,1,0,0:0:0:0:
326,158,36513,1,0,0:0:0:0:
336,160,36576,1,0,0:0:0:0:
346,160,36638,1,0,0:0:0:0:
356,158,36701,6,0,P|394:149|434:154,1,80
281,31,36951,2,0,P|242:40|202:35,1,80
356,158,37201,1,0,0:0:0:0:
428,29,37326,1,0,0:3:0:0:
209,160,37451,2,0,L|215:231,2,53.3333333333333
76,41,37701,6,0,B|79:80|79:80|97:103|97:103|100:141,1,106.666666666667
29,224,37951,2,0,L|35:295,2,53.3333333333333
186,327,38201,2,0,L|146:330,3,40
213,213,38451,1,0,0:0:0:0:
222,212,38513,1,0,0:0:0:0:
232,211,38576,1,0,0:0:0:0:
242,210,38638,1,0,0:0:0:0:
252,209,38701,6,0,L|355:199,1,80
480,342,38951,2,0,L|376:332,1,80
252,209,39201,1,0,0:0:0:0:
280,324,39326,1,0,0:0:0:0:
338,127,39451,2,0,P|332:74|336:35,1,80
507,0,39701,6,0,P|513:53|509:92,1,80
349,21,39951,2,0,L|253:29,1,80
252,209,40201,1,0,0:0:0:0:
338,127,40326,1,0,0:0:0:0:
137,176,40451,2,0,P|132:215|140:254,1,80
23,144,40701,5,0,0:0:0:0:
252,209,40826,1,0,0:0:0:0:
23,274,40951,1,0,0:0:0:0:
252,209,41076,1,0,0:0:0:0:
23,14,41201,5,0,0:0:0:0:
140,254,41326,1,0,0:0:0:0:
250,49,41451,5,0,0:0:0:0:
10,165,41576,1,0,0:0:0:0:
263,232,41701,5,0,0:0:0:0:
289,223,41763,1,0,0:0:0:0:
317,219,41826,1,0,0:0:0:0:
345,220,41888,1,0,0:0:0:0:
372,227,41951,2,0,L|376:179,3,40
512,64,42201,5,0,0:0:0:0:
510,78,42263,1,0,0:0:0:0:
509,93,42326,1,0,0:0:0:0:
508,108,42388,1,0,0:0:0:0:
506,123,42451,1,0,0:0:0:0:
505,138,42513,1,0,0:0:0:0:
504,153,42576,1,0,0:0:0:0:
502,168,42638,1,0,0:0:0:0:
501,183,42701,6,0,B|494:254|494:254|468:284|468:284|462:352,1,179.999994506836
372,227,43076,2,0,B|383:99|383:99|323:142,1,179.999994506836
246,197,43451,1,0,0:0:0:0:
139,147,43576,1,0,0:0:0:0:
43,215,43701,2,0,P|47:259|41:304,1,89.9999972534181
148,354,43951,2,0,P|143:309|149:264,1,89.9999972534181
263,192,44201,1,0,0:0:0:0:
156,142,44326,1,0,0:0:0:0:
274,310,44451,1,0,0:0:0:0:
274,310,44513,1,0,0:0:0:0:
274,310,44576,1,0,0:0:0:0:
252,74,44701,6,0,P|178:26|92:43,1,179.999994506836
17,132,45076,2,0,B|28:259|28:259|0:302,1,179.999994506836,0|0,0:3|0:0,0:0:0:0:
148,354,45451,2,0,L|139:258,1,89.9999972534181
282,221,45701,5,0,0:0:0:0:
274,310,45826,1,0,0:0:0:0:
364,184,45951,5,0,0:0:0:0:
290,132,46076,1,0,0:0:0:0:
356,273,46201,5,0,0:0:0:0:
438,236,46326,1,0,0:0:0:0:
209,170,46451,1,0,0:0:0:0:
197,170,46513,1,0,0:0:0:0:
186,171,46576,1,0,0:0:0:0:
175,172,46638,1,0,0:0:0:0:
164,173,46701,6,0,L|60:182,2,89.9999972534181
298,41,47076,2,0,B|369:34|369:34|399:8|399:8|467:2,1,179.999994506836
364,184,47451,1,0,0:0:0:0:
298,41,47576,1,0,0:0:0:0:
470,135,47701,2,0,L|461:230,1,89.9999972534181
450,358,47951,1,0,0:0:0:0:
266,254,48076,2,0,P|205:290|282:285,1,179.999994506836
290,132,48451,2,0,P|242:140|186:132,1,89.9999972534181
44,12,48701,5,0,0:0:0:0:
153,34,48826,1,0,0:0:0:0:
78,117,48951,1,0,0:0:0:0:
33,3,49076,1,0,0:0:0:0:
164,30,49201,1,0,0:0:0:0:
74,129,49326,1,0,0:0:0:0:
33,3,49451,1,0,0:0:0:0:
201,136,49576,1,0,0:0:0:0:
368,3,49701,6,0,P|365:47|372:92,1,89.9999972534181
496,184,49951,2,0,L|440:188,3,44.999998626709
385,256,50201,2,0,L|329:260,3,44.999998626709
274,328,50451,1,0,0:0:0:0:
262,328,50513,1,0,0:0:0:0:
251,329,50576,1,0,0:0:0:0:
240,330,50638,1,0,0:0:0:0:
229,331,50701,6,0,L|139:338,2,89.9999972534181
40,204,51076,1,0,0:0:0:0:
51,220,51201,2,0,L|140:212,1,89.9999972534181
207,79,51451,2,0,L|117:86,1,89.9999972534181
258,152,51701,5,0,0:0:0:0:
216,62,51826,1,0,0:0:0:0:
51,220,51951,2,0,P|58:264|55:308,1,89.9999972534181
170,364,52201,2,0,P|167:326|169:299,3,44.999998626709
275,234,52451,1,0,0:0:0:0:
297,237,52513,1,0,0:0:0:0:
319,237,52576,1,0,0:0:0:0:
342,235,52638,1,0,0:0:0:0:
363,229,52701,6,0,P|413:234|351:277,1,179.999994506836
400,114,53076,1,0,0:0:0:0:
275,234,53201,1,0,0:0:0:0:
275,234,53326,1,0,0:0:0:0:
512,290,53451,2,0,P|507:334|511:379,1,89.9999972534181
275,234,53701,6,0,P|279:189|275:144,1,89.9999972534181
173,299,53951,1,0,0:0:0:0:
89,132,54076,1,0,0:0:0:0:
275,144,54201,1,0,0:0:0:0:
178,191,54326,1,0,0:0:0:0:
281,36,54451,5,0,0:0:0:0:
303,39,54513,1,0,0:0:0:0:
325,40,54576,1,0,0:0:0:0:
348,39,54638,1,0,0:0:0:0:
370,36,54701,6,0,B|399:62|399:62|471:68,1,89.9999972534181
178,191,54951,2,0,B|148:217|148:217|76:223,1,89.9999972534181
375,51,55201,2,0,B|404:77|404:77|476:83,1,89.9999972534181
183,206,55451,2,0,B|153:232|153:232|81:238,1,89.9999972534181
272,336,55701,6,0,L|367:327,1,89.9999972534181
183,206,55951,1,0,0:0:0:0:
182,344,56076,1,0,0:0:0:0:
299,123,56201,1,0,0:3:0:0:
178,191,56326,1,0,0:3:0:0:
428,181,56451,1,0,0:3:0:0:
309,111,56576,1,0,0:3:0:0:
181,344,56701,6,0,P|137:350|93:344,1,89.9999972534181
126,40,56951,1,0,0:0:0:0:
23,183,57076,1,0,0:0:0:0:
309,111,57201,6,0,P|353:117|397:111,1,89.9999972534181
509,276,57451,1,0,0:0:0:0:
473,12,57576,1,0,0:0:0:0:
352,272,57701,2,0,L|360:367,1,89.9999972534181
133,129,57951,2,0,L|124:33,1,89.9999972534181
0,262,58201,1,0,0:0:0:0:
0,273,58263,1,0,0:0:0:0:
1,284,58326,1,0,0:0:0:0:
2,295,58388,1,0,0:0:0:0:
3,306,58451,1,0,0:0:0:0:
34,317,58513,1,0,0:0:0:0:
68,321,58576,1,0,0:0:0:0:
101,318,58638,1,0,0:0:0:0:
133,308,58701,6,0,B|226:297|191:341|288:329,1,160
428,241,59076,1,0,0:0:0:0:
402,355,59201,1,0,0:0:0:0:
402,355,59326,1,0,0:0:0:0:
314,214,59451,2,0,P|316:175|311:135,1,80
197,108,59701,5,0,0:0:0:0:
336,19,59826,1,0,0:0:0:0:
314,214,59951,1,0,0:0:0:0:
170,19,60076,1,0,0:0:0:0:
164,25,60138,1,0,0:0:0:0:
159,31,60201,2,0,L|71:38,1,80
0,209,60451,2,0,L|87:201,1,80
201,304,60701,6,0,B|137:309|137:309|106:328|106:328|46:333,1,160
197,108,61076,1,0,0:0:0:0:
79,201,61201,1,0,0:0:0:0:
79,201,61326,1,0,0:0:0:0:
241,227,61451,2,0,L|328:219,1,80,0|0,0:3|0:3,0:3:0:0:
479,206,61701,5,0,0:0:0:0:
406,292,61826,1,0,0:3:0:0:
393,134,61951,1,0,0:0:0:0:
320,220,62076,1,0,0:3:0:0:
320,220,62138,1,0,0:3:0:0:
320,220,62201,1,0,0:3:0:0:
498,95,62326,1,0,0:0:0:0:
301,4,62451,2,0,P|305:43|303:83,1,80
241,227,62701,5,0,0:0:0:0:
241,227,62826,1,0,0:0:0:0:
140,79,62951,2,0,P|135:39|137:0,1,80
137,0,63138,1,0,0:0:0:0:
137,0,63201,1,0,0:0:0:0:
303,83,63326,1,0,0:0:0:0:
91,178,63451,2,0,L|3:170,1,80
136,346,63701,5,0,0:0:0:0:
136,346,63826,1,0,0:0:0:0:
241,227,63951,2,0,L|328:219,1,80
445,319,64201,5,0,0:0:0:0:
445,319,64326,1,0,0:0:0:0:
419,95,64451,1,0,0:3:0:0:
320,220,64576,1,0,0:0:0:0:
195,121,64701,5,0,0:0:0:0:
432,207,64826,1,0,0:0:0:0:
221,345,64951,2,0,P|172:340|128:346,1,80
0,256,65201,2,0,P|49:261|93:255,1,80
229,325,65451,2,0,P|180:320|136:326,1,80
8,236,65701,6,0,P|57:241|101:235,1,80
195,121,65951,1,0,0:0:0:0:
82,125,66076,1,0,0:0:0:0:
82,125,66138,1,0,0:0:0:0:
82,125,66201,1,0,0:0:0:0:
200,233,66326,1,0,0:0:0:0:
307,116,66451,2,0,P|347:113|387:118,1,80
510,328,66701,6,0,B|472:292|472:292|482:181,1,160,0|0,0:3|0:3,0:3:0:0:
492,64,67076,1,0,0:0:0:0:
492,64,67138,1,0,0:0:0:0:
492,64,67201,1,0,0:0:0:0:
386,117,67326,1,0,0:3:0:0:
332,10,67451,2,0,P|292:5|253:9,1,80
195,121,67701,6,0,P|198:160|193:200,1,80
72,338,67951,2,0,P|68:298|73:258,1,80
193,200,68201,1,0,0:0:0:0:
303,273,68326,1,0,0:3:0:0:
420,214,68451,2,0,P|415:254|419:294,1,80
492,64,68701,6,0,P|417:88|344:59,1,160
265,101,69076,2,0,P|192:71|117:96,1,160
23,69,69451,2,0,L|29:148,1,80
42,307,69701,5,0,0:0:0:0:
42,307,69826,1,0,0:0:0:0:
115,221,69951,1,0,2:3:0:0:
225,241,70076,1,0,2:3:0:0:
225,241,70138,1,0,2:3:0:0:
225,241,70201,1,0,2:3:0:0:
42,307,70326,1,0,0:0:0:0:
262,344,70451,2,0,P|301:339|341:342,1,80
482,323,70701,5,0,0:0:0:0:
365,233,70826,1,0,0:0:0:0:
500,175,70951,2,0,L|494:96,1,80,0|0,0:3|0:3,0:3:0:0:
479,309,71201,5,0,0:0:0:0:
362,219,71326,1,0,0:0:0:0:
497,161,71451,2,0,L|490:81,1,80,0|0,0:3|0:3,0:3:0:0:
226,276,71701,5,0,0:3:0:0:
362,219,71826,1,0,0:3:0:0:
245,130,71951,1,0,0:3:0:0:
381,73,72076,1,0,0:3:0:0:
381,73,72138,1,0,0:3:0:0:
381,73,72201,1,0,0:3:0:0:
226,276,72326,1,0,0:3:0:0:
128,41,72451,1,0,0:3:0:0:
362,219,72576,1,0,0:0:0:0:
90,331,72701,6,0,P|93:292|88:253,1,80
23,85,72951,1,0,0:0:0:0:
19,104,73013,1,0,0:0:0:0:
19,124,73076,1,0,0:0:0:0:
20,144,73138,1,0,0:0:0:0:
25,164,73201,1,0,0:0:0:0:
128,41,73326,1,0,0:0:0:0:
230,164,73451,1,0,0:0:0:0:
235,144,73514,1,0,0:0:0:0:
236,124,73576,1,0,0:0:0:0:
236,104,73639,1,0,0:0:0:0:
233,85,73701,6,0,L|320:92,1,80,0|0,0:3|0:3,0:3:0:0:
493,5,73951,5,0,0:0:0:0:
492,14,74013,1,0,0:0:0:0:
491,24,74076,1,0,0:0:0:0:
490,34,74138,1,0,0:0:0:0:
489,44,74201,1,0,0:0:0:0:
312,91,74326,1,0,0:0:0:0:
512,171,74451,5,0,0:0:0:0:
511,180,74513,1,0,0:0:0:0:
510,190,74576,1,0,0:0:0:0:
509,200,74638,1,0,0:0:0:0:
508,210,74701,6,0,L|500:297,1,85.0000016212464
500,294,74951,1,0,0:0:0:0:
337,384,75076,2,0,B|342:320|342:320|342:320|360:297|360:297|367:220,1,170.000003242493
260,0,75451,2,0,L|252:87,1,85.0000016212464
237,253,75701,5,0,0:0:0:0:
367,220,75826,1,0,0:0:0:0:
132,138,75951,2,0,P|89:143|47:139,1,85.0000016212464
47,139,76138,1,0,0:0:0:0:
47,139,76201,1,0,0:0:0:0:
237,253,76326,1,0,0:0:0:0:
274,84,76451,2,0,L|281:0,1,85.0000016212464
132,138,76701,6,0,B|125:215|125:215|107:238|107:238|107:238|102:302,1,170.000003242493
0,384,77076,1,0,0:0:0:0:
229,337,77201,2,0,L|237:253,1,85.0000016212464
374,135,77451,2,0,L|366:219,1,85.0000016212464
274,84,77701,5,0,0:0:0:0:
481,102,77826,1,0,0:0:0:0:
259,82,77951,1,0,0:0:0:0:
495,103,78076,1,0,0:0:0:0:
495,103,78138,1,0,0:0:0:0:
495,103,78201,1,0,0:0:0:0:
374,135,78326,1,0,0:0:0:0:
463,225,78451,2,0,P|458:272|465:310,1,85.0000016212464
378,383,78701,6,0,P|331:378|293:385,1,85.0000016212464
294,384,78951,1,0,0:0:0:0:
131,231,79076,2,0,P|87:275|164:268,1,170.000003242493
210,139,79451,2,0,P|168:145|126:140,1,85.0000016212464
0,14,79701,2,0,P|41:7|83:12,1,85.0000016212464
202,54,79951,2,0,L|210:149,1,85.0000016212464
381,219,80201,2,0,L|372:123,1,85.0000016212464
209,138,80451,1,0,0:0:0:0:
362,236,80576,1,0,0:0:0:0:
220,36,80701,5,0,0:0:0:0:
373,134,80826,1,0,0:0:0:0:
131,231,80951,2,0,P|91:223|43:231,1,85.0000016212464
211,371,81201,2,0,P|251:379|299:371,1,85.0000016212464
484,226,81451,2,0,L|476:313,1,85.0000016212464
373,134,81701,5,0,0:0:0:0:
362,236,81826,1,0,0:0:0:0:
467,93,81951,1,0,0:0:0:0:
467,93,82013,1,0,0:0:0:0:
467,93,82076,1,0,0:0:0:0:
291,74,82201,5,0,0:0:0:0:
484,226,82326,1,0,0:0:0:0:
240,246,82451,1,0,0:0:0:0:
218,247,82513,1,0,0:0:0:0:
197,249,82576,1,0,0:0:0:0:
176,251,82638,1,0,0:0:0:0:
155,253,82701,6,0,B|99:257|99:257|61:285,1,85.0000016212464
166,380,82951,1,0,0:0:0:0:
144,126,83076,1,0,0:0:0:0:
240,246,83201,1,0,0:0:0:0:
240,246,83326,1,0,0:0:0:0:
63,165,83451,2,0,P|54:123|64:82,1,85.0000016212464
291,74,83701,5,0,0:0:0:0:
291,74,83826,1,0,0:0:0:0:
103,0,83951,1,0,0:0:0:0:
240,246,84076,1,0,0:0:0:0:
240,246,84138,1,0,0:0:0:0:
240,246,84201,1,0,0:0:0:0:
144,126,84326,1,0,0:0:0:0:
320,206,84451,2,0,P|328:247|318:288,1,85.0000016212464
77,340,84701,6,0,B|148:346|148:346|171:364|171:364|240:370,1,170.000003242493,0|0,0:3|0:3,0:3:0:0:
240,370,85076,1,0,0:0:0:0:
402,207,85201,2,0,P|360:215|319:205,1,85.0000016212464
208,72,85451,2,0,P|249:63|290:73,1,85.0000016212464
402,207,85701,5,0,0:0:0:0:
208,72,85826,1,0,0:0:0:0:
319,205,85951,1,0,0:0:0:0:
379,43,86076,1,0,0:0:0:0:
379,43,86138,1,0,0:0:0:0:
379,43,86201,1,0,0:0:0:0:
148,234,86326,1,0,0:0:0:0:
428,339,86451,2,0,P|470:333|513:337,1,85.0000016212464
319,205,86701,5,0,0:0:0:0:
319,205,86826,1,0,0:0:0:0:
428,339,86951,1,0,0:0:0:0:
256,365,87076,2,0,P|173:353|89:364,1,170.000003242493
8,208,87451,2,0,P|16:250|16:293,1,85.0000016212464
148,128,87701,5,0,0:0:0:0:
148,128,87826,1,0,0:0:0:0:
8,208,87951,1,0,0:0:0:0:
148,290,88076,1,0,0:0:0:0:
38,98,88201,2,0,P|30:56|30:13,1,85.0000016212464
148,128,88451,1,0,0:0:0:0:
148,128,88576,1,0,0:0:0:0:
288,48,88701,5,0,0:0:0:0:
148,290,88826,1,0,0:0:0:0:
428,291,88951,2,0,P|374:287|328:291,1,85.0000016212464
148,128,89201,1,0,0:0:0:0:
428,128,89326,1,0,0:0:0:0:
287,371,89451,2,0,P|264:322|237:284,1,85.0000016212464
428,128,89701,6,0,P|439:153|452:178,2,56.6666677474976
512,259,89951,2,0,P|488:210|462:172,1,85.0000016212464
258,150,90201,2,0,P|246:124|233:99,2,56.6666677474976
174,19,90451,2,0,P|197:67|224:105,1,85.0000016212464
214,93,90951,5,0,0:0:0:0:
214,93,91201,5,0,0:0:0:0:
117,165,91326,1,0,0:0:0:0:
131,286,91451,1,0,0:0:0:0:
5,116,91576,1,0,0:0:0:0:
228,214,91701,2,0,P|226:256|229:298,1,85.0000016212464
384,384,91951,2,0,P|386:341|383:299,1,85.0000016212464
228,214,92201,1,0,0:0:0:0:
384,384,92326,1,0,0:0:0:0:
454,164,92451,2,0,L|462:68,1,85.0000016212464,0|0,0:3|0:3,0:3:0:0:
334,129,92701,5,0,0:0:0:0:
334,129,92826,1,0,0:0:0:0:
214,93,92951,2,0,L|222:-3,1,85.0000016212464,0|0,0:3|0:3,0:3:0:0:
40,125,93201,2,0,L|32:221,1,85.0000016212464,0|0,0:3|0:3,0:3:0:0:
17,378,93451,1,0,0:0:0:0:
109,301,93576,1,0,0:0:0:0:
221,342,93701,6,0,P|263:347|305:344,1,85.0000016212464
454,164,93951,2,0,P|457:206|451:248,1,85.0000016212464
305,344,94201,1,0,0:0:0:0:
296,168,94326,1,0,0:0:0:0:
451,248,94451,2,0,L|363:255,1,85.0000016212464
126,152,94701,6,0,L|213:159,1,85.0000016212464
84,276,94951,2,0,L|-3:268,1,85.0000016212464
140,133,95201,2,0,L|227:140,1,85.0000016212464
70,295,95451,1,0,0:0:0:0:
0,55,95576,1,0,0:0:0:0:
154,114,95701,6,0,L|241:121,1,85.0000016212464
353,32,95951,1,0,0:0:0:0:
328,235,96076,1,0,0:0:0:0:
328,235,96138,1,0,0:0:0:0:
328,235,96201,1,0,0:0:0:0:
238,121,96326,1,0,0:0:0:0:
441,145,96451,2,0,P|438:187|441:229,1,85.0000016212464
510,363,96701,5,0,0:0:0:0:
382,351,96826,1,0,0:0:0:0:
328,235,96951,2,0,L|232:226,1,85.0000016212464,0|0,0:3|0:3,0:3:0:0:
500,370,97201,5,0,0:0:0:0:
372,358,97326,1,0,0:0:0:0:
318,242,97451,2,0,L|222:233,1,85.0000016212464,0|0,0:3|0:3,0:3:0:0:
490,377,97701,5,0,0:0:0:0:
362,365,97826,1,0,0:0:0:0:
308,249,97951,2,0,L|212:240,1,85.0000016212464,0|0,0:3|0:3,0:3:0:0:
352,372,98201,5,0,0:0:0:0:
480,384,98326,1,0,0:0:0:0:
213,248,98451,2,0,L|117:239,1,85.0000016212464,0|0,0:3|0:3,0:3:0:0:
0,228,98701,5,0,0:0:0:0:
54,344,98826,1,0,0:0:0:0:
74,125,98951,2,0,L|83:29,1,85.0000016212464,0|0,0:3|0:3,0:3:0:0:
200,136,99201,1,0,0:0:0:0:
180,355,99326,1,0,0:0:0:0:
200,136,99451,2,0,L|209:40,1,85.0000016212464,0|0,0:3|0:3,0:3:0:0:
481,193,99701,6,0,L|472:289,1,85.0000016212464,0|0,0:3|0:3,0:3:0:0:
383,118,99951,2,0,L|392:22,1,85.0000016212464,0|0,0:3|0:3,0:3:0:0:
481,193,100201,1,0,0:0:0:0:
492,66,100326,1,0,0:0:0:0:
372,245,100451,2,0,L|363:341,1,85.0000016212464,0|0,0:3|0:3,0:3:0:0:
236,371,100701,2,0,B|159:377|182:351|110:357,1,127.50000243187
82,362,100951,5,0,0:0:0:0:
112,198,101076,1,0,0:0:0:0:
216,285,101201,5,0,0:0:0:0:
159,127,101326,1,0,0:0:0:0:
293,151,101451,5,0,0:0:0:0:
165,42,101576,1,0,0:0:0:0:
216,285,101701,5,0,0:0:0:0:
401,120,101826,1,0,0:0:0:0:
165,41,101951,2,0,P|122:45|80:43,1,85.0000016212464
208,307,102201,5,0,0:0:0:0:
423,115,102326,1,0,0:0:0:0:
149,24,102451,2,0,P|106:27|64:25,1,85.0000016212464
363,360,102701,2,0,P|405:356|447:358,1,85.0000016212464
447,358,102951,1,0,0:0:0:0:
216,285,103076,1,0,0:0:0:0:
363,360,103201,1,0,0:0:0:0:
355,196,103326,1,0,0:0:0:0:
208,121,103451,2,0,L|120:128,1,85.0000016212464
355,196,103701,6,0,L|442:188,1,85.0000016212464
216,285,103951,2,0,L|128:292,1,85.0000016212464
347,32,104201,1,0,0:0:0:0:
355,196,104326,1,0,0:0:0:0:
262,13,104451,2,0,P|220:6|177:11,1,85.0000016212464
13,0,104701,6,0,B|44:37|30:82|30:82|41:101|41:101|34:112|34:112|48:138|43:167,1,170.000003242493
44,157,105076,1,0,0:0:0:0:
55,378,105201,2,0,L|103:374,1,42.5000008106232
96,296,105326,2,0,L|143:300,1,42.5000008106232
200,360,105451,2,0,L|247:355,1,42.5000008106232
240,277,105576,2,0,L|287:281,1,42.5000008106232
344,341,105701,2,0,L|391:336,1,42.5000008106232
384,258,105826,2,0,L|431:262,1,42.5000008106232
512,275,106201,5,0,0:0:0:0:
503,244,106263,1,0,0:0:0:0:
499,212,106326,1,0,0:0:0:0:
500,180,106388,1,0,0:0:0:0:
505,148,106451,1,0,0:0:0:0:
494,150,106513,1,0,0:0:0:0:
483,151,106576,1,0,0:0:0:0:
473,151,106638,1,0,0:0:0:0:
462,150,106701,6,0,B|403:139|355:163|355:163|375:123|428:108,1,183.999993823242
409,114,107076,1,0,0:0:0:0:
386,336,107201,1,0,0:0:0:0:
386,336,107326,1,0,0:0:0:0:
205,204,107451,1,0,0:0:0:0:
333,218,107576,1,0,0:0:0:0:
129,309,107701,6,0,P|72:313|31:308,1,91.9999969116212
37,74,107951,2,0,P|83:70|129:75,1,91.9999969116212
205,204,108201,1,0,0:0:0:0:
278,73,108326,1,0,0:0:0:0:
278,73,108388,1,0,0:0:0:0:
277,72,108451,2,0,P|323:76|369:73,1,91.9999969116212
512,0,108701,6,0,B|505:71|505:71|486:102|486:102|480:178,1,183.999993823242
467,315,109076,1,0,0:0:0:0:
467,315,109138,1,0,0:0:0:0:
467,315,109201,1,0,0:0:0:0:
205,204,109326,1,0,0:0:0:0:
480,178,109451,2,0,L|376:187,1,91.9999969116212
313,354,109701,5,0,0:0:0:0:
287,103,109826,1,0,0:0:0:0:
388,185,109951,1,0,0:0:0:0:
105,123,110076,1,0,0:0:0:0:
105,123,110138,1,0,0:0:0:0:
105,123,110201,2,0,L|49:127,1,45.9999984558106
159,199,110326,2,0,L|214:203,1,45.9999984558106
120,283,110451,1,0,0:0:0:0:
144,39,110576,1,0,0:0:0:0:
13,293,110701,6,0,P|20:338|14:383,1,91.9999969116212
159,199,110951,1,0,0:0:0:0:
159,199,111076,1,0,0:0:0:0:
312,277,111201,2,0,P|357:284|403:277,1,91.9999969116212
503,69,111451,2,0,P|510:114|504:160,1,91.9999969116212
395,168,111701,5,0,0:0:0:0:
512,268,111826,1,0,0:0:0:0:
503,69,111951,1,0,0:0:0:0:
312,277,112076,1,0,0:0:0:0:
303,78,112201,2,0,P|257:71|212:78,1,91.9999969116212
43,0,112451,2,0,P|36:45|43:90,1,91.9999969116212
183,217,112701,6,0,P|189:264|183:312,1,97.000002294159
16,384,112951,2,0,P|9:336|15:288,1,97.000002294159
174,196,113201,2,0,P|180:243|174:291,1,97.000002294159
43,90,113451,1,0,0:0:0:0:
303,78,113576,2,0,P|331:124|276:84,1,194.000004588318
411,48,113951,2,0,P|426:93|426:141,1,97.000002294159
325,249,114201,1,0,0:0:0:0:
322,273,114263,1,0,0:0:0:0:
324,297,114326,1,0,0:0:0:0:
330,320,114388,1,0,0:0:0:0:
340,342,114451,2,0,L|292:346,3,48.5000011470795,0|0|0|0,0:3|0:3|0:3|0:3,0:3:0:0:
119,359,114701,5,0,0:0:0:0:
77,350,114784,1,0,0:0:0:0:
50,318,114867,1,0,0:0:0:0:
48,276,114950,1,0,0:0:0:0:
72,242,115034,1,0,0:0:0:0:
113,230,115117,1,0,0:0:0:0:
152,246,115201,5,0,0:0:0:0:
194,249,115284,1,0,0:0:0:0:
229,225,115367,1,0,0:0:0:0:
241,185,115451,1,0,0:0:0:0:
227,146,115534,1,0,0:0:0:0:
191,123,115617,1,0,0:0:0:0:
149,128,115701,6,0,L|211:134,2,61.3333312744141,0|0|0,0:3|0:3|0:3,0:3:0:0:
61,16,115951,2,0,L|0:10,2,61.3333312744141,0|0|0,0:3|0:3|0:3,0:3:0:0:
128,139,116201,2,0,L|189:144,2,61.3333312744141,0|0|0,0:3|0:3|0:3,0:3:0:0:
82,5,116451,2,0,L|20:0,2,61.3333312744141,0|0|0,0:3|0:3|0:3,0:3:0:0:
282,19,116701,5,2,0:3:0:0:
324,23,116784,1,0,0:3:0:0:
361,45,116867,1,0,0:3:0:0:
384,80,116950,1,0,0:3:0:0:
389,123,117034,1,0,0:3:0:0:
374,162,117117,1,0,0:3:0:0:
343,193,117201,5,0,0:0:0:0:
311,223,117285,1,0,0:3:0:0:
297,263,117368,1,0,0:3:0:0:
301,306,117452,1,0,0:3:0:0:
325,341,117535,1,0,0:3:0:0:
361,363,117618,1,0,0:3:0:0:
404,367,117701,5,0,0:0:0:0:
373,337,117784,1,0,0:0:0:0:
336,315,117867,1,0,0:0:0:0:
294,304,117950,1,0,0:0:0:0:
252,303,118034,1,0,0:0:0:0:
210,313,118117,1,0,0:0:0:0:
172,333,118201,1,0,0:0:0:0:
134,352,118284,1,0,0:0:0:0:
92,351,118367,1,0,0:0:0:0:
55,329,118450,1,0,0:0:0:0:
33,293,118534,1,0,0:0:0:0:
32,250,118617,1,0,0:0:0:0:
50,212,118701,6,0,L|142:219,1,61.3333312744141
234,115,118867,1,0,0:0:0:0:
234,115,118951,2,0,L|142:121,1,61.3333312744141
27,15,119117,1,0,0:0:0:0:
27,15,119201,2,0,L|118:21,2,61.3333312744141
234,115,119451,2,0,L|142:121,2,61.3333312744141
351,24,119701,5,0,0:0:0:0:
400,3,119784,1,0,0:0:0:0:
450,23,119867,1,0,0:0:0:0:
472,72,119950,1,0,0:0:0:0:
453,122,120034,1,0,0:0:0:0:
405,145,120117,1,0,0:0:0:0:
358,173,120200,5,0,0:0:0:0:
335,222,120283,1,0,0:0:0:0:
345,275,120366,1,0,0:0:0:0:
384,313,120451,1,0,0:0:0:0:
326,295,120534,1,0,0:0:0:0:
265,297,120617,1,0,0:0:0:0:
208,318,120701,6,0,P|152:333|94:323,1,100
3,123,120951,1,0,0:0:0:0:
30,278,121076,1,0,0:0:0:0:
135,8,121201,1,0,0:0:0:0:
14,108,121326,2,0,B|54:116|94:108|94:108|126:124|126:124|166:116|214:124,1,200
394,23,121701,5,0,0:0:0:0:
371,12,121763,1,0,0:0:0:0:
347,15,121826,1,0,0:0:0:0:
328,30,121888,1,0,0:0:0:0:
320,54,121951,1,0,0:0:0:0:
326,78,122013,1,0,0:0:0:0:
343,95,122076,1,0,0:0:0:0:
368,100,122138,1,0,0:0:0:0:
391,91,122201,5,0,0:0:0:0:
376,125,122263,1,0,0:0:0:0:
373,162,122326,1,0,0:0:0:0:
381,199,122388,1,0,0:0:0:0:
400,231,122451,1,0,0:0:0:0:
419,263,122514,1,0,0:0:0:0:
427,300,122576,1,0,0:0:0:0:
424,337,122639,1,0,0:0:0:0:
410,372,122701,1,0,0:0:0:0:
