osu file format v14

[General]
AudioFilename: New World.mp3
AudioLeadIn: 0
PreviewTime: 64393
Countdown: 1
SampleSet: Soft
StackLeniency: 0.5
Mode: 0
LetterboxInBreaks: 0
WidescreenStoryboard: 0

[Editor]
DistanceSpacing: 1
BeatDivisor: 4
GridSize: 4
TimelineZoom: 1.6

[Metadata]
Title:Shinsekai
TitleUnicode:新世界
Artist:cosMo@BousouP feat. Hatsune Miku
ArtistUnicode:cosMo@暴走P feat. 初音ミク
Creator:jonathanlfj
Version:New World
Source:
Tags:Satellite Dagger-Gazel Raose 初音ミクの消失 vocaloid EXIT TUNES cosMo 暴走P BousouP New World Novelty Japanese
BeatmapID:709313
BeatmapSetID:318557

[Difficulty]
HPDrainRate:6
CircleSize:4
OverallDifficulty:8.2
ApproachRate:9.2
SliderMultiplier:1.8
SliderTickRate:1

[Events]
//Background and Video events
0,0,"is.jpg",0,0
//Break Periods
2,27047,27750
//Storyboard Layer 0 (Background)
//Storyboard Layer 1 (Fail)
//Storyboard Layer 2 (Pass)
//Storyboard Layer 3 (Foreground)
//Storyboard Layer 4 (Overlay)
//Storyboard Sound Samples

[TimingPoints]
2553.32542742676,368.098159509202,4,2,1,60,1,0
14332,-142.857142857143,4,2,1,60,0,0
21694,-125,4,2,1,60,0,0
22430,-166.666666666667,4,2,1,60,0,0
23166,-111.111111111111,4,2,1,60,0,0
23718,-142.857142857143,4,2,1,60,0,0
28320,-83.3333333333333,4,2,1,70,0,0
34945,-90.9090909090909,4,2,1,60,0,0
40835,-83.3333333333333,4,2,1,70,0,0
46725,-90.9090909090909,4,2,1,60,0,0
52614,-83.3333333333333,4,2,1,70,0,0
64393,-80,4,2,1,80,0,1
87952,276.077853954815,3,2,1,70,1,0
87952,-100,3,2,1,70,0,0
89332,-133.333333333333,3,2,1,70,0,0
89608,-100,3,2,1,70,0,0
91264,-90.9090909090909,3,2,1,80,0,0
92645,-133.333333333333,3,2,1,80,0,0
92829,-90.9090909090909,3,2,1,80,0,0
93473,-133.333333333333,3,2,1,80,0,0
93749,-90.9090909090909,3,2,1,80,0,0
94301,-133.333333333333,3,2,1,80,0,0
94577,-100,3,2,1,70,0,0
99547,368.098159509202,4,2,1,60,1,0
99547,-83.3333333333333,4,2,1,60,0,0
100835,368.098159509202,5,2,1,70,1,0
100835,-83.3333333333333,5,2,1,70,0,0
102675,368.098159509202,4,2,1,70,1,0
102675,-83.3333333333333,4,2,1,70,0,0
123288,-83.3333333333333,4,2,1,75,0,0
124760,-83.3333333333333,4,2,1,80,0,0
126233,-100,4,2,1,60,0,0
130650,-90.9090909090909,4,2,1,70,0,0
132122,-83.3333333333333,4,2,1,70,0,0
155681,-90.9090909090909,4,2,1,70,0,0
158625,-83.3333333333333,4,2,1,70,0,0
160466,-76.9230769230769,4,2,1,80,0,1
170405,-62.5,4,2,1,85,0,1
171141,-76.9230769230769,4,2,1,80,0,1
176294,-66.6666666666667,4,2,1,80,0,1
177030,-76.9230769230769,4,2,1,80,0,1
183656,-90.9090909090909,4,2,1,60,0,0
186601,-90.9090909090909,4,2,1,70,0,0
189546,-125,4,2,1,50,0,0
194515,-117.647058823529,4,2,1,30,0,0
194699,-111.111111111111,4,2,1,40,0,0
194883,-105.263157894737,4,2,1,50,0,0
195067,-100,4,2,1,60,0,0
195251,-95.2380952380952,4,2,1,70,0,0
195435,-100,4,2,1,50,0,0
196816,-100,4,2,1,30,0,0

[Colours]
Combo1 : 211,85,253
Combo2 : 30,220,253
Combo3 : 17,135,253
Combo4 : 65,69,254
Combo5 : 146,16,252

[HitObjects]
164,300,2553,53,4,1:2:0:0:
332,236,2829,1,0,1:0:0:0:
200,112,3105,1,2,1:0:0:0:
184,100,3473,1,0,1:0:0:0:
312,128,3657,1,8,0:0:0:0:
312,128,3749,2,0,L|408:120,1,90,0|0,1:0|0:0,0:0:0:0:
472,160,4025,5,2,1:0:0:0:
312,128,4301,1,0,1:0:0:0:
440,272,4577,2,0,L|428:132,1,135,2|0,1:0|0:0,0:0:0:0:
376,80,4945,1,2,1:0:0:0:
356,328,5130,1,10,0:0:0:0:
356,328,5222,2,0,P|400:316|456:312,1,90
328,352,5498,6,0,P|300:296|288:220,2,135,2|0|2,0:0|1:0|1:0,0:0:0:0:
120,332,6418,1,0,1:0:0:0:
180,232,6602,1,8,0:0:0:0:
180,232,6694,2,0,P|188:168|184:124,1,90
136,80,6970,6,0,P|208:112|272:100,1,135,2|0,1:0|1:0,0:0:0:0:
480,192,7522,2,0,P|424:152|324:184,1,180,2|0,1:0|1:0,0:0:0:0:
392,336,8074,2,0,L|400:236,1,90,8|0,1:0|0:0,0:0:0:0:
312,152,8442,5,2,1:0:0:0:
180,304,8718,1,0,1:0:0:0:
376,348,8995,1,2,1:0:0:0:
204,196,9271,1,0,0:0:0:0:
204,196,9363,1,2,0:0:0:0:
344,252,9547,1,8,0:0:0:0:
344,252,9639,1,2,0:0:0:0:
96,232,9915,5,2,1:0:0:0:
312,152,10191,1,0,1:0:0:0:
144,84,10467,1,0,1:0:0:0:
344,252,10651,2,0,L|352:344,1,90,2|0,0:0|1:0,0:0:0:0:
236,228,11019,1,8,0:0:0:0:
236,228,11111,2,0,L|336:232,1,90,0|0,1:0|0:0,0:0:0:0:
424,208,11387,6,0,L|432:344,1,135,2|0,1:0|1:0,0:0:0:0:
340,156,11939,1,2,1:0:0:0:
428,112,12123,1,0,0:0:0:0:
252,200,12307,2,0,L|144:196,1,90,2|8,1:0|0:0,0:0:0:0:
140,176,12584,2,0,P|148:232|144:272,1,90,0|0,1:0|0:0,0:0:0:0:
88,328,12860,5,2,1:0:0:0:
252,200,13136,1,0,1:0:0:0:
400,344,13412,1,0,1:0:0:0:
280,312,13596,1,2,0:0:0:0:
368,228,13780,1,0,1:0:0:0:
260,328,13964,2,0,L|200:320,1,45,8|2,0:0|1:0,0:0:0:0:
132,240,14148,2,0,L|64:248,1,60,0|0,1:0|1:0,0:0:0:0:
4,172,14332,6,0,B|32:116|36:52|36:52|92:168|92:168|100:104|136:52,1,377.999988464356,4|8,1:2|0:0,0:0:0:0:
239,142,15620,5,2,0:0:0:0:
239,142,15712,1,0,0:0:0:0:
239,142,15804,2,0,B|269:128|302:134|302:134|284:77|221:67|155:103|150:169|180:225|239:235|287:210,1,377.999988464356,2|8,1:0|0:0,0:0:0:0:
392,152,17093,5,0,0:0:0:0:
388,118,17185,1,0,0:0:0:0:
378,85,17277,2,0,B|375:142|417:191|417:191|444:162|450:129|450:129|468:158|503:176|503:176|525:115|507:62,1,377.999988464356,2|10,1:0|0:0,0:0:0:0:
484,36,18473,5,0,0:0:0:0:
456,20,18565,1,2,0:0:0:0:
424,20,18657,1,0,0:0:0:0:
392,28,18749,2,0,L|280:20,1,94.499997116089,2|0,1:0|1:0,0:0:0:0:
120,180,19301,2,0,P|168:192|224:188,1,94.499997116089,0|8,1:0|0:0,0:0:0:0:
228,204,19669,2,0,L|235:124,1,62.9999980773926,0|8,1:0|0:0,0:0:0:0:
48,60,20037,5,8,0:0:0:0:
48,60,20130,1,0,0:0:0:0:
48,60,20222,2,0,B|30:108|-6:155|-6:155|69:146|69:146|53:221|53:221|100:180|156:172,1,377.999988464356,2|8,1:0|0:0,0:0:0:0:
188,288,21694,6,0,P|125:330|173:266,1,216,2|0,1:0|1:0,0:0:0:0:
260,248,22430,6,0,P|269:306|260:361,1,107.999996704102,2|8,0:0|1:0,0:0:0:0:
288,269,22921,2,0,P|302:255|329:243,1,35.9999989013672,8|8,1:0|1:0,0:0:0:0:
392,328,23166,6,0,P|381:269|336:168,1,161.999995056153,2|8,1:0|0:0,0:0:0:0:
444,176,23718,6,0,B|425:220|462:253|508:252|533:211|519:170|519:170|448:144|408:80,1,314.999990386963,10|4,0:0|0:0,0:0:0:0:
256,192,24731,12,2,26847,0:0:0:0:
128,108,28320,6,0,L|136:184,1,53.9999983520508,2|0,0:0|0:0,0:0:0:0:
148,308,28504,2,0,L|160:244,1,53.9999983520508,0|8,0:0|0:0,0:0:0:0:
248,68,28688,2,0,L|256:144,1,53.9999983520508,2|0,1:0|1:0,0:0:0:0:
284,340,28872,2,0,L|296:276,1,53.9999983520508,8|2,0:0|0:0,0:0:0:0:
368,116,29056,5,4,1:2:0:0:
420,100,29148,1,2,0:0:0:0:
472,120,29240,1,0,0:0:0:0:
492,168,29332,1,0,0:0:0:0:
484,220,29424,1,0,1:0:0:0:
440,252,29516,1,2,0:0:0:0:
388,248,29608,1,0,0:0:0:0:
348,212,29700,2,0,P|292:188|196:212,1,161.999995056153,2|0,0:0|0:0,0:0:0:0:
232,376,30160,2,0,B|256:360|256:360|272:280,1,107.999996704102,2|0,1:0|0:0,0:0:0:0:
368,316,30436,6,0,L|356:152,1,161.999995056153,2|0,0:0|0:0,0:0:0:0:
172,308,30896,1,0,1:0:0:0:
392,328,31080,1,2,0:0:0:0:
416,340,31172,1,0,1:0:0:0:
440,352,31264,5,2,0:0:0:0:
452,300,31357,1,0,0:0:0:0:
432,248,31449,1,0,0:0:0:0:
388,216,31541,1,0,0:0:0:0:
336,212,31633,2,0,L|288:240,1,53.9999983520508,2|0,1:0|0:0,0:0:0:0:
448,144,31817,2,0,L|504:164,1,53.9999983520508,8|10,1:0|1:0,0:0:0:0:
320,95,32001,6,0,P|270:117|217:127,1,107.999996704102,4|0,1:2|0:0,0:0:0:0:
131,122,32277,1,0,0:0:0:0:
79,107,32369,1,0,1:0:0:0:
35,75,32461,2,0,L|43:147,1,53.9999983520508,2|0,0:0|0:0,0:0:0:0:
48,264,32645,2,0,P|92:232|208:248,1,161.999995056153,2|0,0:0|0:0,0:0:0:0:
416,356,33105,2,0,L|296:348,1,107.999996704102,2|0,1:0|0:0,0:0:0:0:
220,336,33381,6,0,L|384:324,1,161.999995056153,2|0,0:0|0:0,0:0:0:0:
132,316,33841,2,0,L|124:376,1,53.9999983520508,2|0,1:0|1:0,0:0:0:0:
216,292,34025,2,0,L|212:232,1,53.9999983520508
160,120,34209,5,2,1:0:0:0:
108,132,34301,1,0,0:0:0:0:
72,172,34393,2,0,L|76:240,1,53.9999983520508,0|4,0:0|0:0,0:0:0:0:
220,336,34577,1,2,1:0:0:0:
272,324,34669,1,0,0:0:0:0:
308,284,34761,2,0,L|304:216,1,53.9999983520508,8|10,0:1|0:1,0:0:0:0:
212,132,34945,5,4,1:2:0:0:
388,344,35130,1,0,0:0:0:0:
388,344,35222,2,0,B|404:300|404:300|396:180,1,148.50000453186,2|0,0:0|0:0,0:0:0:0:
220,236,35682,1,2,1:0:0:0:
224,272,35774,1,0,0:0:0:0:
228,308,35866,1,0,0:0:0:0:
308,152,36050,2,0,L|320:44,1,99.0000030212403,2|0,1:0|0:0,0:0:0:0:
216,200,36418,5,2,1:0:0:0:
404,188,36602,1,0,0:0:0:0:
220,100,36786,2,0,L|168:108,1,49.5000015106202,2|0,1:0|1:0,0:0:0:0:
112,192,36970,2,0,L|48:204,1,49.5000015106202,0|0,1:0|1:0,0:0:0:0:
216,200,37154,2,0,L|328:224,1,99.0000030212403,2|2,1:0|0:0,0:0:0:0:
403,187,37430,2,0,L|453:182,1,49.5000015106202,2|8,0:0|0:0,0:0:0:0:
198,296,37706,1,8,1:0:0:0:
198,296,37798,1,8,1:0:0:0:
198,296,37890,6,0,L|262:308,1,49.5000015106202,4|2,1:2|0:0,0:0:0:0:
482,354,38166,1,2,0:0:0:0:
482,354,38258,2,0,P|442:338|368:348,1,99.0000030212403,0|2,1:0|0:0,0:0:0:0:
456,204,38626,1,2,0:0:0:0:
464,180,38688,1,0,0:0:0:0:
464,153,38749,1,0,0:0:0:0:
456,129,38810,1,0,0:0:0:0:
440,109,38872,1,0,0:0:0:0:
416,97,38933,1,0,0:0:0:0:
388,93,38995,6,0,L|376:49,1,33.0000010070801,2|0,1:0|0:0,0:0:0:0:
324,129,39117,2,0,L|292:105,1,33.0000010070801
372,248,39363,6,0,B|367:268|367:268|368:296|368:296|360:360,1,99.0000030212403,2|0,1:0|0:0,0:0:0:0:
124,344,39731,2,0,L|120:384,1,33.0000010070801,2|0,1:0|0:0,0:0:0:0:
104,256,39915,2,0,L|92:192,1,49.5000015106202,10|8,1:0|1:0,0:0:0:0:
164,148,40099,1,0,1:0:0:0:
172,116,40191,1,0,1:0:0:0:
180,84,40283,1,2,1:0:0:0:
188,52,40375,1,0,1:0:0:0:
196,20,40467,6,0,L|256:12,1,49.5000015106202
164,148,40651,2,0,L|224:140,1,49.5000015106202,0|2,0:0|0:0,0:0:0:0:
356,80,40835,5,4,1:2:0:0:
408,96,40927,1,2,0:0:0:0:
444,136,41019,1,0,0:0:0:0:
452,188,41111,1,0,0:0:0:0:
432,240,41203,1,0,1:0:0:0:
384,268,41295,1,2,0:0:0:0:
332,268,41387,1,0,0:0:0:0:
284,244,41479,2,0,B|280:128|280:128|316:160,1,161.999995056153,2|0,0:0|0:0,0:0:0:0:
240,332,41939,2,0,P|188:312|124:312,1,107.999996704102,2|0,1:0|0:0,0:0:0:0:
56,356,42215,6,0,P|104:312|108:200,1,161.999995056153,2|0,0:0|0:0,0:0:0:0:
24,36,42676,2,0,P|80:52|152:56,1,107.999996704102,0|2,1:0|0:0,0:0:0:0:
156,52,42952,1,0,0:0:0:0:
180,44,43044,5,0,0:0:0:0:
224,52,43136,1,0,0:0:0:0:
252,84,43228,1,0,0:0:0:0:
256,128,43320,1,0,0:0:0:0:
232,164,43412,5,2,1:0:0:0:
284,160,43504,1,0,1:0:0:0:
336,156,43596,1,8,1:0:0:0:
388,152,43688,1,2,1:0:0:0:
440,148,43780,6,0,B|416:176|416:176|408:252,1,107.999996704102,4|0,1:2|0:0,0:0:0:0:
412,329,44056,1,0,0:0:0:0:
448,369,44148,1,2,1:0:0:0:
500,373,44240,2,0,L|512:301,1,53.9999983520508,2|0,0:0|0:0,0:0:0:0:
408,246,44424,2,0,P|340:268|236:256,1,161.999995056153,2|0,0:0|0:0,0:0:0:0:
440,148,44884,1,2,1:0:0:0:
340,364,45068,1,0,0:0:0:0:
340,364,45160,6,0,P|256:360|168:324,1,161.999995056153,2|0,0:0|0:0,0:0:0:0:
408,246,45620,2,0,L|416:310,1,53.9999983520508,2|0,1:0|0:0,0:0:0:0:
340,164,45804,2,0,L|344:100,1,53.9999983520508
304,258,45988,6,0,L|228:262,1,53.9999983520508,2|0,1:0|0:0,0:0:0:0:
440,148,46172,2,0,L|436:208,1,53.9999983520508,0|4,0:0|0:0,0:0:0:0:
248,144,46357,2,0,L|252:80,1,53.9999983520508,2|0,1:0|0:0,0:0:0:0:
392,12,46541,2,0,L|388:76,1,53.9999983520508,8|10,0:1|0:1,0:0:0:0:
340,164,46725,5,4,1:2:0:0:
184,44,46909,1,0,0:0:0:0:
184,44,47001,2,0,L|304:36,1,99.0000030212403,2|0,0:0|0:0,0:0:0:0:
416,48,47277,2,0,L|352:44,1,49.5000015106202
248,144,47461,1,2,1:0:0:0:
240,184,47553,1,0,0:0:0:0:
232,224,47645,1,0,0:0:0:0:
184,44,47829,1,2,1:0:0:0:
340,164,48013,1,0,0:0:0:0:
136,172,48197,5,2,1:0:0:0:
324,40,48381,1,0,0:0:0:0:
72,32,48565,1,2,1:0:0:0:
24,48,48657,1,0,1:0:0:0:
0,92,48749,1,0,1:0:0:0:
4,140,48841,1,0,1:0:0:0:
37,175,48933,2,0,L|136:172,1,99.0000030212403,2|2,1:0|0:0,0:0:0:0:
196,76,49209,2,0,L|128:80,1,49.5000015106202,2|0,0:0|1:0,0:0:0:0:
88,272,49485,2,0,L|160:268,1,49.5000015106202,8|8,1:0|1:0,0:0:0:0:
216,312,49669,5,4,1:2:0:0:
216,312,49761,2,0,B|328:308,1,99.0000030212403
432,328,50037,2,0,L|328:332,1,99.0000030212403,0|2,1:0|0:0,0:0:0:0:
200,204,50406,1,2,0:0:0:0:
225,201,50467,1,0,0:0:0:0:
252,199,50528,1,0,0:0:0:0:
278,196,50590,1,0,0:0:0:0:
305,194,50651,1,0,0:0:0:0:
331,191,50712,1,0,0:0:0:0:
358,189,50774,6,0,L|362:134,1,33.0000010070801,2|0,1:0|0:0,0:0:0:0:
296,120,50896,2,0,L|303:63,1,33.0000010070801
144,120,51142,6,0,B|96:136|96:136|32:132,1,99.0000030212403,2|0,1:0|0:0,0:0:0:0:
20,304,51510,2,0,L|72:296,1,33.0000010070801,2|0,1:0|0:0,0:0:0:0:
200,332,51694,2,0,L|272:336,1,49.5000015106202,2|8,1:0|1:0,0:0:0:0:
332,304,51878,1,8,1:0:0:0:
372,332,51970,1,2,0:0:0:0:
420,332,52062,1,8,1:0:0:0:
464,312,52154,1,0,0:0:0:0:
484,268,52246,2,0,B|472:188|472:188|456:204,1,99.0000030212403,2|0,1:0|1:0,0:0:0:0:
252,356,52614,5,4,1:2:0:0:
204,360,52706,1,0,0:0:0:0:
160,344,52798,1,0,1:0:0:0:
128,308,52890,1,0,0:0:0:0:
120,260,52982,1,8,0:0:0:0:
132,212,53074,1,0,0:0:0:0:
172,180,53166,1,8,1:0:0:0:
184,132,53258,1,8,1:0:0:0:
172,84,53350,5,2,1:0:0:0:
132,56,53442,1,0,1:0:0:0:
84,52,53534,1,0,1:0:0:0:
40,72,53626,1,0,1:0:0:0:
16,112,53718,1,8,0:0:0:0:
16,160,53810,1,0,1:0:0:0:
44,200,53903,1,8,1:0:0:0:
92,216,53995,1,0,1:0:0:0:
132,212,54087,6,0,L|192:200,3,53.9999983520508,4|0|0|0,1:2|0:0|1:0|0:0,0:0:0:0:
260,224,54455,1,10,0:0:0:0:
296,212,54547,1,0,1:0:0:0:
333,213,54639,1,8,1:0:0:0:
368,226,54731,1,8,1:0:0:0:
398,248,54823,6,0,L|458:236,3,53.9999983520508,2|0|0|0,1:0|1:0|1:0|1:0,0:0:0:0:
488,168,55191,1,8,0:0:0:0:
488,128,55283,1,0,1:0:0:0:
472,92,55375,1,8,1:0:0:0:
440,68,55467,1,0,1:0:0:0:
400,60,55559,5,12,1:2:0:0:
364,100,55651,1,0,0:0:0:0:
312,112,55743,1,0,0:0:0:0:
260,100,55835,1,0,0:0:0:0:
224,60,55927,1,10,0:0:0:0:
312,12,56111,1,8,1:0:0:0:
312,12,56203,1,8,1:0:0:0:
312,12,56295,6,0,L|304:76,1,53.9999983520508,2|0,1:0|1:0,0:0:0:0:
352,184,56479,2,0,L|344:248,1,53.9999983520508,8|0,1:0|1:0,0:0:0:0:
224,340,56663,2,0,P|208:276|216:212,1,107.999996704102,10|8,0:0|1:0,0:0:0:0:
224,216,56939,1,0,1:0:0:0:
240,200,57031,5,4,1:2:0:0:
192,212,57123,1,0,0:0:0:0:
144,212,57215,1,0,1:0:0:0:
100,192,57307,1,0,0:0:0:0:
68,156,57399,1,10,0:0:0:0:
32,188,57491,1,0,1:0:0:0:
20,236,57584,1,8,1:0:0:0:
28,284,57676,1,8,1:0:0:0:
56,324,57768,6,0,L|124:320,1,53.9999983520508,10|0,0:0|1:0,0:0:0:0:
260,296,57952,2,0,L|180:284,1,53.9999983520508,2|0,1:0|1:0,0:0:0:0:
340,352,58136,2,0,L|416:344,1,53.9999983520508,8|0,0:0|1:0,0:0:0:0:
484,280,58320,1,2,1:0:0:0:
372,108,58504,5,4,1:2:0:0:
356,144,58596,1,0,0:0:0:0:
352,180,58688,1,0,0:0:0:0:
356,216,58780,1,0,0:0:0:0:
372,252,58872,5,8,0:0:0:0:
408,228,58964,1,0,1:0:0:0:
436,192,59056,1,8,1:0:0:0:
452,152,59148,1,8,1:0:0:0:
460,108,59240,5,2,1:0:0:0:
416,84,59332,1,0,0:0:0:0:
368,80,59424,1,0,0:0:0:0:
320,84,59516,1,0,0:0:0:0:
276,108,59608,5,10,0:0:0:0:
276,160,59700,1,0,1:0:0:0:
260,212,59792,1,8,1:0:0:0:
220,248,59884,1,0,1:0:0:0:
168,260,59976,5,4,1:2:0:0:
356,216,60160,1,0,1:0:0:0:
356,216,60252,1,0,0:0:0:0:
356,216,60344,1,8,0:0:0:0:
156,144,60528,1,8,1:0:0:0:
156,144,60620,1,0,1:0:0:0:
156,144,60712,6,0,L|88:148,1,53.9999983520508,2|0,1:0|1:0,0:0:0:0:
236,36,60896,2,0,L|164:40,1,53.9999983520508,0|2,1:0|1:0,0:0:0:0:
356,216,61080,2,0,L|332:280,1,53.9999983520508,8|0,0:0|1:0,0:0:0:0:
424,56,61264,2,0,L|400:-12,1,53.9999983520508,10|0,1:0|1:0,0:0:0:0:
504,152,61449,6,0,B|501:175|492:200|492:200|508:252|508:252|496:276|496:308,1,161.999995056153,2|0,1:2|1:0,0:0:0:0:
456,376,61817,1,8,1:0:0:0:
456,376,62001,2,0,L|380:364,1,53.9999983520508,8|0,1:0|0:0,0:0:0:0:
308,344,62185,5,2,1:0:0:0:
256,356,62277,1,8,1:0:0:0:
204,336,62369,1,0,1:0:0:0:
176,292,62461,1,0,1:0:0:0:
176,240,62553,1,8,1:0:0:0:
360,228,62737,1,0,1:0:0:0:
360,228,62829,1,0,1:0:0:0:
360,228,62921,6,0,P|312:256|240:260,1,107.999996704102,2|0,1:2|0:0,0:0:0:0:
176,240,63197,1,8,0:0:0:0:
176,240,63289,2,0,L|100:248,1,53.9999983520508,10|0,1:0|0:0,0:0:0:0:
44,364,63473,2,0,L|56:304,1,53.9999983520508,0|10,1:0|0:0,0:0:0:0:
40,200,63657,2,0,L|28:80,1,107.999996704102,8|0,1:0|0:0,0:0:0:0:
208,244,64025,2,0,L|256:252,2,35.9999989013672,8|0|0,0:0|0:0|0:0,0:0:0:0:
288,224,64209,2,0,L|336:232,2,35.9999989013672,8|0|0,0:0|0:0|0:0,0:0:0:0:
360,268,64393,5,4,1:2:0:0:
416,264,64485,1,0,0:0:0:0:
464,232,64577,1,0,1:0:0:0:
480,176,64669,1,0,1:0:0:0:
464,120,64761,1,8,0:0:0:0:
408,128,64853,1,8,1:0:0:0:
352,116,64945,1,0,0:0:0:0:
304,84,65037,6,0,B|256:68|208:88|208:88|192:112,2,112.5,0|2|0,0:0|0:0|0:0,0:0:0:0:
352,116,65498,1,8,0:0:0:0:
368,168,65590,1,0,0:0:0:0:
360,224,65682,1,8,1:0:0:0:
316,260,65774,1,0,1:0:0:0:
260,264,65866,6,0,B|228:258|228:258|148:268,1,112.5,2|0,1:0|0:0,0:0:0:0:
76,372,66142,2,0,B|107:377|107:377|188:368,1,112.5,2|0,1:0|1:0,0:0:0:0:
304,276,66418,1,0,0:0:0:0:
80,212,66602,5,2,1:0:0:0:
212,364,66786,1,0,1:0:0:0:
212,364,66878,1,2,0:0:0:0:
280,176,67062,1,0,0:0:0:0:
280,176,67154,2,0,L|272:104,1,56.25,2|0,1:0|1:0,0:0:0:0:
192,200,67338,5,2,1:0:0:0:
220,248,67430,1,0,1:0:0:0:
272,268,67522,1,0,0:0:0:0:
328,256,67614,1,0,0:0:0:0:
364,212,67706,1,0,1:0:0:0:
372,156,67798,1,4,0:0:0:0:
412,116,67890,1,0,1:0:0:0:
468,116,67982,1,10,0:0:0:0:
428,296,68166,6,0,L|444:360,2,56.25,2|0|0,1:0|0:0|0:0,0:0:0:0:
380,268,68442,1,8,0:0:0:0:
328,256,68534,1,0,0:0:0:0:
272,268,68626,1,8,1:0:0:0:
232,304,68718,1,0,0:0:0:0:
212,356,68810,5,2,1:0:0:0:
196,312,68903,1,0,0:0:0:0:
192,268,68995,1,0,1:0:0:0:
200,224,69087,1,0,1:0:0:0:
216,184,69179,1,8,0:0:0:0:
244,148,69271,1,0,1:0:0:0:
284,124,69363,1,0,0:0:0:0:
328,112,69455,1,2,0:0:0:0:
140,136,69639,5,0,0:0:0:0:
84,128,69731,1,0,1:0:0:0:
40,92,69823,1,0,0:0:0:0:
20,40,69915,2,0,L|4:108,1,56.25,8|0,0:0|0:0,0:0:0:0:
60,208,70099,2,0,L|68:264,1,56.25,10|8,1:0|0:0,0:0:0:0:
160,344,70283,5,4,1:2:0:0:
204,320,70375,1,0,0:0:0:0:
256,312,70467,1,0,0:0:0:0:
304,320,70559,1,0,0:0:0:0:
348,340,70651,5,8,0:0:0:0:
364,316,70743,1,0,1:0:0:0:
372,288,70835,1,0,0:0:0:0:
372,260,70927,1,0,0:0:0:0:
368,232,71019,5,10,1:0:0:0:
352,196,71111,1,0,0:0:0:0:
352,156,71203,1,8,1:0:0:0:
368,120,71295,1,0,0:0:0:0:
396,96,71387,5,10,0:0:0:0:
432,124,71479,1,0,0:0:0:0:
452,164,71571,1,0,1:0:0:0:
460,208,71663,1,0,0:0:0:0:
452,252,71755,5,2,1:0:0:0:
252,236,71939,1,0,0:0:0:0:
252,236,72031,1,2,1:0:0:0:
396,96,72215,1,0,1:0:0:0:
396,96,72307,1,2,0:0:0:0:
372,304,72491,1,0,1:0:0:0:
252,112,72676,1,2,0:0:0:0:
164,320,72860,1,8,0:0:0:0:
352,200,73044,1,2,0:0:0:0:
144,84,73228,6,0,B|50:93|50:93|72:116,1,112.5,2|0,1:0|0:0,0:0:0:0:
128,164,73504,1,0,1:0:0:0:
128,164,73596,2,0,L|136:228,1,56.25,0|8,0:0|0:0,0:0:0:0:
68,340,73780,2,0,L|80:264,1,56.25,0|8,0:0|0:0,0:0:0:0:
164,320,73964,5,2,1:0:0:0:
204,304,74056,1,8,0:0:0:0:
232,268,74148,1,0,1:0:0:0:
240,224,74240,1,0,0:0:0:0:
228,180,74332,5,8,0:0:0:0:
284,196,74424,1,0,0:0:0:0:
336,212,74516,1,8,1:0:0:0:
388,228,74608,1,8,0:0:0:0:
444,240,74700,6,0,L|452:172,1,56.25,2|0,1:0|0:0,0:0:0:0:
336,212,74884,2,0,L|344:144,1,56.25,2|0,1:0|1:0,0:0:0:0:
228,180,75068,2,0,L|236:112,1,56.25,10|0,0:0|1:0,0:0:0:0:
120,148,75252,2,0,L|128:80,1,56.25,2|0,0:0|0:0,0:0:0:0:
28,220,75436,5,0,1:0:0:0:
228,180,75620,1,2,0:0:0:0:
231,146,75712,1,0,0:0:0:0:
236,112,75804,1,8,0:0:0:0:
241,79,75896,1,0,1:0:0:0:
244,45,75988,1,8,1:0:0:0:
140,252,76172,5,4,1:2:0:0:
184,284,76264,1,0,0:0:0:0:
240,292,76357,1,0,0:0:0:0:
296,276,76449,1,0,1:0:0:0:
504,324,76633,1,0,1:0:0:0:
464,364,76725,1,2,0:0:0:0:
408,376,76817,1,0,0:0:0:0:
356,352,76909,6,0,L|348:284,1,56.25,2|0,1:0|0:0,0:0:0:0:
460,220,77093,2,0,L|464:160,1,56.25,2|0,1:0|0:0,0:0:0:0:
380,72,77277,1,8,0:0:0:0:
344,80,77369,1,0,0:0:0:0:
308,88,77461,1,8,1:0:0:0:
272,96,77553,1,2,0:0:0:0:
236,104,77645,5,2,1:0:0:0:
272,132,77737,1,0,0:0:0:0:
292,172,77829,1,0,0:0:0:0:
288,216,77921,1,0,1:0:0:0:
264,256,78013,5,10,0:0:0:0:
212,232,78105,1,0,0:0:0:0:
156,224,78197,1,0,0:0:0:0:
100,236,78289,1,0,0:0:0:0:
56,272,78381,6,0,L|68:192,1,56.25,2|0,1:0|0:0,0:0:0:0:
160,344,78565,2,0,L|236:348,1,56.25,8|0,1:0|0:0,0:0:0:0:
156,224,78749,2,0,L|164:168,1,56.25,8|0,0:0|0:0,0:0:0:0:
300,300,78933,1,2,0:0:0:0:
300,300,79117,5,2,1:0:0:0:
332,260,79209,1,0,1:0:0:0:
380,244,79301,1,0,0:0:0:0:
428,256,79393,1,0,0:0:0:0:
464,292,79485,1,0,1:0:0:0:
468,344,79577,2,0,B|436:368|396:368|396:368|384:328,2,112.5,12|0|2,0:0|0:0|1:0,0:0:0:0:
480,144,80130,5,2,1:0:0:0:
448,108,80222,1,8,0:0:0:0:
400,88,80314,1,0,0:0:0:0:
348,88,80406,1,8,1:0:0:0:
304,112,80498,1,0,1:0:0:0:
272,152,80590,5,2,1:0:0:0:
272,152,80682,2,0,L|260:28,1,112.5,0|2,0:0|1:0,0:0:0:0:
176,220,81050,1,0,1:0:0:0:
176,220,81142,1,2,0:0:0:0:
380,200,81326,6,0,L|372:120,1,56.25,2|0,1:0|0:0,0:0:0:0:
284,264,81510,2,0,L|292:344,1,56.25,2|0,1:0|0:0,0:0:0:0:
176,220,81694,1,8,0:0:0:0:
172,176,81786,1,0,0:0:0:0:
168,132,81878,1,8,1:0:0:0:
164,88,81970,1,0,1:0:0:0:
160,44,82062,6,0,L|116:32,2,37.5,4|0|0,1:2|0:0|0:0,0:0:0:0:
244,80,82246,2,0,L|288:72,2,37.5,0|0|0,1:0|0:0|0:0,0:0:0:0:
168,132,82430,2,0,L|124:120,2,37.5,8|0|0,0:0|0:0|0:0,0:0:0:0:
252,168,82614,2,0,L|296:160,2,37.5
176,220,82798,5,2,1:0:0:0:
176,220,82890,2,0,P|160:276|168:344,1,112.5
244,376,83166,2,0,L|256:312,1,56.25,8|0,0:0|0:0,0:0:0:0:
72,300,83350,2,0,L|64:224,1,56.25,8|0,1:0|0:0,0:0:0:0:
168,132,83534,5,2,1:0:0:0:
368,252,83718,1,0,0:0:0:0:
368,252,83810,2,0,P|296:264|240:252,1,112.5,2|0,1:0|1:0,0:0:0:0:
176,220,84087,1,0,0:0:0:0:
408,160,84271,5,2,1:0:0:0:
452,192,84363,1,0,0:0:0:0:
468,244,84455,1,0,1:0:0:0:
456,300,84547,1,2,0:0:0:0:
416,340,84639,2,0,L|336:348,1,56.25,8|0,0:0|0:0,0:0:0:0:
311,248,84823,2,0,L|367:251,1,56.25,10|0,1:0|0:0,0:0:0:0:
256,336,85007,5,2,1:0:0:0:
140,148,85191,1,8,0:0:0:0:
144,128,85283,1,0,1:0:0:0:
148,108,85375,5,2,0:0:0:0:
196,124,85467,1,8,0:0:0:0:
224,168,85559,1,0,0:0:0:0:
220,220,85651,1,0,1:0:0:0:
188,260,85743,1,2,1:0:0:0:
140,276,85835,1,0,1:0:0:0:
88,268,85927,1,8,1:0:0:0:
52,232,86019,1,0,1:0:0:0:
36,184,86111,1,8,0:0:0:0:
44,132,86203,1,0,0:0:0:0:
72,92,86295,1,8,1:0:0:0:
116,72,86387,1,0,1:0:0:0:
168,68,86479,6,0,B|220:84|220:84|288:76,1,112.5,2|0,1:0|0:0,0:0:0:0:
468,32,86755,2,0,B|417:53|417:53|370:103,1,112.5,2|0,1:0|1:0,0:0:0:0:
376,292,87031,2,0,P|404:312|436:324,1,56.25,2|0,0:0|0:0,0:0:0:0:
456,220,87215,5,10,0:0:0:0:
420,200,87307,1,0,0:0:0:0:
380,192,87399,1,8,0:0:0:0:
340,196,87491,1,2,0:0:0:0:
304,212,87584,1,0,1:0:0:0:
264,220,87676,1,0,0:0:0:0:
224,216,87768,1,2,0:0:0:0:
188,196,87860,1,0,0:0:0:0:
166,160,87952,6,0,L|91:157,2,60,4|0|0,1:2|1:0|0:0,0:0:0:0:
272,283,88228,2,0,L|307:352,2,60,10|0|0,1:0|1:0|0:0,0:0:0:0:
326,130,88504,2,0,L|367:65,2,60,10|0|0,1:0|1:0|0:0,0:0:0:0:
185,253,88780,6,0,L|120:251,1,60,8|0,1:0|1:0,0:0:0:0:
194,121,88964,2,0,L|196:56,1,60,0|0,1:0|1:0,0:0:0:0:
326,130,89148,2,0,L|391:132,1,60,0|8,1:0|1:0,0:0:0:0:
317,262,89332,2,0,L|312:364,1,90.0000034332277,0|8,1:0|1:2,0:0:0:0:
195,301,89608,6,0,P|163:247|114:215,1,120,4|8,1:2|0:0,0:0:0:0:
192,84,89884,2,0,P|254:83|306:58,1,120,0|0,1:0|1:0,0:0:0:0:
380,190,90160,2,0,P|350:244|346:303,1,120,12|8,1:2|0:0,0:0:0:0:
168,211,90436,6,0,B|110:188|67:200|67:200|101:213,1,120,2|8,1:0|0:0,0:0:0:0:
316,258,90712,2,0,B|325:318|357:350|357:350|351:316,1,120,2|0,1:0|1:0,0:0:0:0:
283,106,90988,2,0,B|330:69|342:24|342:24|316:46,1,120,2|0,1:0|1:0,0:0:0:0:
175,100,91264,6,0,P|141:101|97:98,2,66.0000020141602,4|0|0,1:2|1:0|0:0,0:0:0:0:
375,167,91541,2,0,P|391:137|414:102,2,66.0000020141602,10|0|0,1:0|1:0|0:0,0:0:0:0:
216,307,91817,2,0,P|234:335|252:375,2,66.0000020141602,10|0|0,1:0|1:0|0:0,0:0:0:0:
82,210,92093,6,0,P|111:208|152:216,1,66.0000020141602,8|0,1:0|1:0,0:0:0:0:
358,330,92277,2,0,P|344:312|328:272,1,66.0000020141602,0|0,1:0|1:0,0:0:0:0:
324,31,92461,2,0,P|312:58|284:88,1,66.0000020141602,0|8,1:0|1:0,0:0:0:0:
225,332,92645,2,0,P|223:292|228:242,1,90.0000034332277,0|8,1:0|1:2,0:0:0:0:
317,175,92921,6,0,L|381:170,1,66.0000020141602,4|0,1:2|1:0,0:0:0:0:
188,140,93105,2,0,L|121:135,1,66.0000020141602,8|0,1:0|1:0,0:0:0:0:
363,283,93289,2,0,L|429:279,1,66.0000020141602,8|8,1:0|1:0,0:0:0:0:
148,248,93473,2,0,L|56:245,1,90.0000034332277,10|8,0:0|0:0,0:0:0:0:
188,140,93749,6,0,B|188:88|216:40|216:40|228:69,1,132.00000402832,2|8,1:0|0:0,0:0:0:0:
272,192,94025,2,0,P|272:224|264:268,1,66.0000020141602,8|8,1:0|1:0,0:0:0:0:
168,360,94209,1,0,1:0:0:0:
168,360,94301,2,0,P|204:348|275:348,1,90.0000034332277,2|0,1:0|0:0,0:0:0:0:
344,364,94577,5,4,1:2:0:0:
396,368,94669,1,0,1:0:0:0:
444,344,94761,1,0,1:0:0:0:
460,292,94853,1,0,1:0:0:0:
408,276,94945,1,0,1:0:0:0:
368,240,95037,1,0,1:0:0:0:
344,192,95130,1,8,1:0:0:0:
392,168,95222,1,0,1:0:0:0:
428,128,95314,1,0,1:0:0:0:
440,76,95406,6,0,L|380:60,2,60,0|0|0,1:0|1:0|1:0,0:0:0:0:
240,152,95682,2,0,L|176:164,2,60,0|0|0,1:0|1:0|1:0,0:0:0:0:
332,284,95958,2,0,L|396:300,2,60,8|0|0,1:0|1:0|1:0,0:0:0:0:
216,344,96234,5,4,1:2:0:0:
172,316,96326,1,0,1:0:0:0:
120,312,96418,1,0,1:0:0:0:
72,336,96510,1,0,1:0:0:0:
32,296,96602,1,0,1:0:0:0:
24,244,96694,1,0,1:0:0:0:
40,192,96786,1,4,1:2:0:0:
92,204,96878,1,0,1:0:0:0:
144,196,96970,1,0,1:0:0:0:
188,164,97062,6,0,L|176:96,2,60,2|0|0,1:0|1:0|1:0,0:0:0:0:
304,268,97338,2,0,L|296:340,2,60,2|0|0,1:0|1:0|1:0,0:0:0:0:
456,232,97614,2,0,P|480:164|473:111,1,120,10|0,1:0|1:0,0:0:0:0:
412,40,97890,5,4,1:2:0:0:
360,20,97982,1,0,1:0:0:0:
308,24,98074,1,0,1:0:0:0:
264,52,98166,1,0,1:0:0:0:
240,100,98258,1,0,1:0:0:0:
188,116,98350,1,0,1:0:0:0:
136,96,98442,1,0,1:0:0:0:
120,44,98534,1,0,1:0:0:0:
68,32,98626,1,0,1:0:0:0:
28,68,98719,6,0,L|44:144,2,60,2|0|0,1:0|1:0|1:0,0:0:0:0:
152,148,98995,1,8,1:0:0:0:
176,196,99087,2,0,L|168:264,1,60,8|0,1:0|1:0,0:0:0:0:
92,332,99271,2,0,P|64:276|68:220,1,120,2|0,1:0|1:0,0:0:0:0:
152,148,99547,6,0,B|176:159|176:159|268:156,1,107.999996704102,2|8,1:0|1:0,0:0:0:0:
412,256,99915,1,0,0:0:0:0:
396,272,100007,1,2,0:0:0:0:
380,288,100099,5,2,0:0:0:0:
356,256,100191,1,0,0:0:0:0:
348,220,100283,1,8,0:0:0:0:
352,184,100375,1,0,0:0:0:0:
368,152,100467,5,10,0:0:0:0:
340,112,100559,1,0,0:0:0:0:
292,100,100651,1,0,0:0:0:0:
244,116,100743,1,0,0:0:0:0:
212,156,100835,6,0,L|216:224,1,53.9999983520508,2|8,1:0|0:0,0:0:0:0:
224,352,101019,1,8,1:0:0:0:
80,200,101203,1,8,1:0:0:0:
84,172,101295,1,0,0:0:0:0:
88,144,101387,1,0,0:0:0:0:
92,116,101479,1,0,0:0:0:0:
96,88,101571,6,0,L|88:28,1,53.9999983520508,10|0,0:0|1:0,0:0:0:0:
184,107,101755,2,0,L|304:99,1,107.999996704102,8|8,1:0|0:0,0:0:0:0:
156,256,102123,1,0,1:0:0:0:
156,256,102215,1,0,1:0:0:0:
156,256,102307,2,0,L|148:208,3,26.9999991760254,8|0|0|0,1:0|0:0|0:0|0:0,0:0:0:0:
160,148,102491,2,0,L|216:144,1,53.9999983520508,8|8,0:0|0:0,0:0:0:0:
292,192,102675,5,4,1:2:0:0:
344,188,102767,1,0,0:0:0:0:
396,184,102859,1,0,1:0:0:0:
448,180,102951,1,8,1:0:0:0:
296,312,103135,1,0,0:0:0:0:
244,304,103227,1,8,1:0:0:0:
192,296,103319,1,0,1:0:0:0:
140,284,103411,6,0,L|124:220,1,53.9999983520508,2|0,1:0|0:0,0:0:0:0:
32,168,103595,2,0,L|48:104,1,53.9999983520508,0|2,1:0|0:0,0:0:0:0:
148,52,103779,2,0,P|202:63|260:60,1,107.999996704102,8|0,0:0|1:0,0:0:0:0:
296,44,104055,1,0,0:0:0:0:
336,24,104147,6,0,P|328:96|328:144,1,107.999996704102,2|0,1:0|0:0,0:0:0:0:
428,204,104423,2,0,P|440:136|440:80,1,107.999996704102,2|0,1:0|1:0,0:0:0:0:
336,164,104699,2,0,L|256:168,1,71.9999978027344
236,168,104883,5,2,1:0:0:0:
416,228,105067,1,0,1:0:0:0:
336,24,105251,1,10,0:0:0:0:
288,260,105435,1,0,1:0:0:0:
288,260,105527,1,8,0:0:0:0:
288,260,105619,5,2,1:0:0:0:
248,272,105711,1,0,0:0:0:0:
204,272,105803,1,0,0:0:0:0:
164,252,105895,1,0,0:0:0:0:
136,216,105987,1,8,0:0:0:0:
128,172,106079,1,8,1:0:0:0:
136,128,106171,1,0,0:0:0:0:
164,92,106263,1,0,0:0:0:0:
200,68,106355,5,2,1:0:0:0:
216,116,106448,1,0,0:0:0:0:
248,152,106540,1,0,1:0:0:0:
292,168,106632,1,0,0:0:0:0:
340,168,106724,1,8,0:0:0:0:
384,152,106816,1,8,1:0:0:0:
416,116,106908,1,0,0:0:0:0:
432,72,107000,1,0,0:0:0:0:
424,24,107092,5,2,1:0:0:0:
384,60,107184,1,0,0:0:0:0:
364,112,107276,1,0,0:0:0:0:
364,164,107368,1,0,1:0:0:0:
380,216,107460,1,8,0:0:0:0:
412,260,107552,2,0,P|352:244|296:248,2,107.999996704102,10|2|0,1:0|1:0|0:0,0:0:0:0:
480,324,108012,6,0,L|476:380,1,53.9999983520508,0|8,1:0|0:0,0:0:0:0:
340,352,108196,2,0,L|268:344,1,53.9999983520508,8|0,0:0|0:0,0:0:0:0:
415,206,108380,2,0,L|412:260,1,53.9999983520508,8|8,0:0|1:0,1:0:0:0:
248,344,108564,5,4,1:2:0:0:
248,344,108656,2,0,L|136:356,1,107.999996704102,0|2,1:0|1:0,0:0:0:0:
72,296,108932,2,0,L|80:240,1,53.9999983520508,8|0,0:0|0:0,0:0:0:0:
152,180,109116,2,0,L|144:112,1,53.9999983520508,2|0,1:0|1:0,0:0:0:0:
80,36,109300,1,0,1:0:0:0:
80,36,109392,2,0,B|97:45|97:45|204:36,1,107.999996704102,2|0,0:0|0:0,0:0:0:0:
232,32,109668,1,8,0:0:0:0:
228,80,109760,1,0,0:0:0:0:
248,124,109852,1,8,1:0:0:0:
292,148,109944,1,0,1:0:0:0:
340,148,110036,5,2,1:0:0:0:
356,200,110128,1,0,0:0:0:0:
340,252,110221,1,0,1:0:0:0:
296,280,110313,1,0,1:0:0:0:
244,280,110405,2,0,L|172:272,1,53.9999983520508,8|2,0:0|0:0,0:0:0:0:
340,148,110589,2,0,L|393:153,1,53.9999983520508,8|2,1:0|0:0,0:0:0:0:
488,292,110773,5,8,1:0:0:0:
444,320,110865,2,0,L|320:308,1,107.999996704102,2|0,0:0|0:0,0:0:0:0:
190,287,111141,2,0,L|244:280,1,53.9999983520508,8|2,0:0|0:0,0:0:0:0:
108,348,111325,2,0,L|44:336,1,53.9999983520508,0|10,1:0|0:0,0:0:0:0:
8,212,111509,5,2,1:0:0:0:
48,180,111601,2,0,P|108:164|164:172,1,107.999996704102,0|2,0:0|1:0,0:0:0:0:
244,280,111877,2,0,P|232:254|224:220,1,53.9999983520508,8|2,0:0|1:0,0:0:0:0:
256,84,112061,2,0,P|248:120|236:148,1,53.9999983520508,0|2,0:0|0:0,0:0:0:0:
144,180,112245,5,2,1:0:0:0:
128,140,112337,1,0,1:0:0:0:
124,96,112429,1,0,1:0:0:0:
132,52,112521,1,0,0:0:0:0:
156,16,112613,5,10,0:0:0:0:
104,36,112705,1,0,0:0:0:0:
68,76,112797,1,8,1:0:0:0:
48,128,112889,1,0,1:0:0:0:
48,180,112981,6,0,L|68:252,1,53.9999983520508,4|0,1:2|0:0,0:0:0:0:
336,288,113165,2,0,L|352:216,1,53.9999983520508,8|0,1:0|0:0,0:0:0:0:
164,235,113349,2,0,L|176:288,1,53.9999983520508,8|0,1:0|0:0,0:0:0:0:
449,232,113533,2,0,L|464:180,1,53.9999983520508,8|0,1:0|0:0,0:0:0:0:
352,80,113717,5,8,0:0:0:0:
308,112,113809,1,0,1:0:0:0:
256,120,113901,1,8,1:0:0:0:
204,112,113994,1,8,1:0:0:0:
164,76,114086,6,0,L|172:28,2,35.9999989013672,8|0|0,1:0|1:0|1:0,0:0:0:0:
204,112,114270,2,0,L|196:160,2,35.9999989013672,8|0|0,1:0|1:0|1:0,0:0:0:0:
256,120,114454,5,4,1:2:0:0:
308,112,114546,1,0,0:0:0:0:
352,80,114638,1,2,0:0:0:0:
404,80,114730,1,0,1:0:0:0:
452,108,114822,1,8,0:0:0:0:
472,156,114914,2,0,B|452:192|460:244|460:244|448:232,1,107.999996704102,2|0,0:0|1:0,0:0:0:0:
256,16,115282,5,0,1:0:0:0:
256,16,115374,1,2,0:0:0:0:
336,276,115558,2,0,L|348:204,1,53.9999983520508,8|0,0:0|0:0,0:0:0:0:
256,120,115742,2,0,L|264:184,1,53.9999983520508,2|0,1:0|0:0,0:0:0:0:
220,280,115926,5,2,1:0:0:0:
168,264,116018,1,0,0:0:0:0:
116,269,116110,1,0,0:0:0:0:
68,298,116202,1,0,1:0:0:0:
45,347,116294,1,10,0:0:0:0:
308,360,116478,1,0,1:0:0:0:
328,320,116570,1,0,0:0:0:0:
336,276,116662,5,10,1:0:0:0:
160,104,116846,1,2,1:0:0:0:
152,372,117030,1,8,0:0:0:0:
304,168,117214,1,2,1:0:0:0:
328,160,117306,1,8,0:0:0:0:
352,152,117398,5,2,1:0:0:0:
304,140,117490,1,0,0:0:0:0:
256,128,117582,1,0,0:0:0:0:
208,116,117674,1,0,1:0:0:0:
160,104,117767,1,8,0:0:0:0:
112,92,117859,2,0,L|224:64,1,107.999996704102,2|0,0:0|0:0,0:0:0:0:
496,116,118227,5,0,0:0:0:0:
448,128,118319,1,2,1:0:0:0:
400,140,118411,1,0,0:0:0:0:
352,152,118503,2,0,L|344:216,1,53.9999983520508,10|0,0:0|1:0,0:0:0:0:
256,128,118687,2,0,L|248:192,1,53.9999983520508,2|0,0:0|0:0,0:0:0:0:
160,104,118871,6,0,P|184:60|252:28,1,107.999996704102,2|0,1:0|0:0,0:0:0:0:
352,152,119147,2,0,P|325:198|279:224,1,107.999996704102,2|0,1:0|0:0,0:0:0:0:
256,128,119423,1,0,0:0:0:0:
436,212,119607,5,10,0:0:0:0:
452,252,119699,1,0,0:0:0:0:
452,296,119791,1,0,1:0:0:0:
432,336,119883,1,8,0:0:0:0:
396,360,119975,5,10,1:0:0:0:
360,328,120067,1,0,0:0:0:0:
316,308,120159,1,0,0:0:0:0:
268,304,120251,1,0,1:0:0:0:
220,312,120343,5,4,1:2:0:0:
168,296,120435,1,0,1:0:0:0:
140,248,120527,1,0,0:0:0:0:
144,196,120619,1,0,1:0:0:0:
180,156,120711,1,10,0:0:0:0:
232,148,120803,2,0,P|300:160|352:152,1,107.999996704102,0|0,0:0|1:0,0:0:0:0:
184,24,121171,5,2,0:0:0:0:
184,24,121263,1,0,1:0:0:0:
56,200,121448,2,0,L|64:264,1,53.9999983520508,8|0,0:0|0:0,0:0:0:0:
96,112,121632,2,0,L|32:100,1,53.9999983520508,2|0,1:0|1:0,0:0:0:0:
144,196,121816,5,2,1:0:0:0:
192,196,121908,1,0,0:0:0:0:
236,176,122000,1,0,0:0:0:0:
272,140,122092,1,0,1:0:0:0:
288,96,122184,1,10,0:0:0:0:
280,48,122276,2,0,L|392:64,1,107.999996704102,0|0,0:0|1:0,0:0:0:0:
172,84,122644,5,2,0:0:0:0:
124,80,122736,1,0,1:0:0:0:
80,96,122828,1,0,0:0:0:0:
44,132,122920,1,8,0:0:0:0:
28,176,123012,1,2,0:0:0:0:
32,224,123104,1,8,1:0:0:0:
56,268,123196,1,8,0:0:0:0:
96,296,123288,5,2,1:0:0:0:
144,272,123380,1,0,0:0:0:0:
196,272,123472,1,0,0:0:0:0:
248,292,123564,1,8,1:0:0:0:
300,284,123656,1,8,0:0:0:0:
340,248,123748,1,0,1:0:0:0:
168,372,123932,5,0,1:0:0:0:
160,180,124116,1,2,0:0:0:0:
180,132,124208,1,0,1:0:0:0:
224,104,124300,1,0,0:0:0:0:
276,100,124392,1,8,0:0:0:0:
324,120,124484,1,0,1:0:0:0:
352,164,124576,1,8,1:0:0:0:
404,184,124668,1,0,0:0:0:0:
456,176,124760,6,0,L|472:240,1,53.9999983520508,2|0,1:0|1:0,0:0:0:0:
412,88,124944,2,0,L|416:24,1,53.9999983520508,8|0,1:0|1:0,0:0:0:0:
508,96,125128,1,8,0:0:0:0:
328,176,125313,1,0,1:0:0:0:
304,188,125405,1,8,0:0:0:0:
279,198,125497,5,0,1:0:0:0:
295,242,125589,1,8,0:0:0:0:
303,290,125681,1,0,1:0:0:0:
295,338,125773,1,8,0:0:0:0:
259,374,125865,5,10,1:0:0:0:
207,338,125957,1,0,1:0:0:0:
187,278,126049,1,10,1:0:0:0:
191,214,126141,1,0,1:0:0:0:
219,158,126233,1,4,1:2:0:0:
256,192,126325,12,0,127705,0:0:0:0:
130,154,128994,5,2,0:0:0:0:
130,154,129086,1,0,0:0:0:0:
130,154,129178,2,0,L|225:150,1,90,2|0,1:0|0:0,0:0:0:0:
318,189,129546,5,0,1:0:0:0:
205,50,129730,1,0,0:0:0:0:
235,250,129914,5,2,1:0:0:0:
358,79,130098,1,0,0:0:0:0:
332,288,130282,5,8,1:0:0:0:
124,111,130466,1,0,0:0:0:0:
253,349,130650,5,10,1:0:0:0:
286,44,130834,1,0,0:0:0:0:
54,180,131018,2,0,L|16:187,7,24.7500007553101,8|0|0|0|0|0|0|0,1:0|1:0|1:0|1:0|1:0|1:0|1:0|1:0,0:0:0:0:
127,231,131386,6,0,L|195:239,1,49.5000015106202,8|0,0:0|1:0,0:0:0:0:
231,140,131570,2,0,L|295:128,1,49.5000015106202,0|8,1:0|0:0,0:0:0:0:
353,224,131754,1,10,1:0:0:0:
388,228,131846,1,0,1:0:0:0:
423,232,131938,1,8,0:0:0:0:
458,236,132030,1,10,0:0:0:0:
496,240,132122,5,4,1:2:0:0:
276,280,132306,1,8,0:0:0:0:
392,119,132490,1,0,1:0:0:0:
484,340,132674,1,8,0:0:0:0:
288,180,132859,5,2,1:0:0:0:
236,184,132951,1,0,0:0:0:0:
192,216,133043,1,8,0:0:0:0:
172,264,133135,1,0,0:0:0:0:
400,228,133319,1,2,0:0:0:0:
396,176,133411,1,8,0:0:0:0:
408,124,133503,1,0,0:0:0:0:
440,80,133595,5,2,1:0:0:0:
440,80,133687,2,0,P|360:88|312:84,1,107.999996704102
164,48,133963,2,0,P|210:113|231:156,1,107.999996704102,2|8,1:0|0:0,0:0:0:0:
236,184,134239,1,0,0:0:0:0:
236,184,134331,1,2,1:0:0:0:
300,40,134515,1,8,0:0:0:0:
72,180,134699,1,2,1:0:0:0:
316,292,134883,1,8,0:0:0:0:
312,252,134975,1,8,0:0:0:0:
308,212,135067,5,2,1:0:0:0:
240,364,135251,1,8,0:0:0:0:
428,236,135435,1,0,1:0:0:0:
428,236,135527,2,0,L|420:128,1,107.999996704102,0|0,1:0|0:0,0:0:0:0:
340,92,135803,2,0,B|364:100|364:100|452:92,1,107.999996704102,0|8,1:0|0:0,0:0:0:0:
212,32,136171,1,0,1:0:0:0:
212,32,136263,2,0,B|188:24|188:24|100:32,1,107.999996704102,2|0,1:0|0:0,0:0:0:0:
28,136,136540,6,0,L|20:200,1,53.9999983520508,2|0,1:0|0:0,0:0:0:0:
220,232,136724,2,0,L|212:160,1,53.9999983520508,8|0,0:0|0:0,0:0:0:0:
40,312,136908,2,0,L|28:380,2,53.9999983520508,0|0|8,1:0|1:0|0:0,0:0:0:0:
140,268,137184,2,0,B|196:264|196:264|240:288|240:288|296:284,1,161.999995056153,2|8,0:0|0:0,0:0:0:0:
264,152,137644,2,0,L|260:216,1,53.9999983520508,0|0,1:0|0:0,0:0:0:0:
176,348,137828,1,8,0:0:0:0:
180,148,138012,5,2,1:0:0:0:
184,124,138073,1,0,0:0:0:0:
196,100,138135,1,0,0:0:0:0:
212,84,138196,1,8,0:0:0:0:
236,72,138257,1,0,0:0:0:0:
260,68,138319,1,0,0:0:0:0:
284,68,138380,2,0,L|296:20,2,35.9999989013672,2|0|0,1:0|0:0|0:0,0:0:0:0:
340,120,138564,2,0,L|348:160,2,35.9999989013672,8|0|0,0:0|0:0|0:0,0:0:0:0:
396,68,138748,6,0,B|436:48|484:56|484:56|464:72,1,107.999996704102,2|8,1:0|0:0,0:0:0:0:
340,120,139024,2,0,P|280:108|220:108,1,107.999996704102,0|0,0:0|1:0,0:0:0:0:
180,116,139300,1,10,0:0:0:0:
132,140,139392,1,0,0:0:0:0:
96,180,139484,6,0,L|80:108,1,53.9999983520508,2|0,1:0|0:0,0:0:0:0:
204,228,139668,2,0,L|192:292,1,53.9999983520508,8|0,0:0|0:0,0:0:0:0:
312,184,139852,1,0,1:0:0:0:
280,144,139944,2,0,P|272:84|284:28,1,107.999996704102,2|0,1:0|0:0,0:0:0:0:
456,28,140221,2,0,P|416:76|368:96,1,107.999996704102,2|8,1:0|0:0,0:0:0:0:
164,28,140589,1,0,1:0:0:0:
120,24,140681,1,2,0:0:0:0:
80,36,140773,1,8,0:0:0:0:
48,64,140865,1,0,0:0:0:0:
36,104,140957,6,0,L|44:176,1,53.9999983520508,2|0,1:0|1:0,0:0:0:0:
176,300,141141,2,0,L|170:246,1,53.9999983520508,8|0,0:0|0:0,0:0:0:0:
48,112,141325,6,0,L|56:184,1,53.9999983520508,2|0,1:0|1:0,0:0:0:0:
188,308,141509,2,0,L|182:254,1,53.9999983520508,8|0,0:0|0:0,0:0:0:0:
60,120,141693,6,0,L|68:192,1,53.9999983520508,2|0,1:0|0:0,0:0:0:0:
200,316,141877,2,0,L|194:262,1,53.9999983520508,8|0,0:0|0:0,0:0:0:0:
72,128,142061,6,0,L|80:200,1,53.9999983520508,2|0,1:0|1:0,0:0:0:0:
212,324,142245,2,0,L|206:270,1,53.9999983520508,8|0,0:0|0:0,0:0:0:0:
84,136,142429,6,0,B|92:196|92:196|128:176|128:176|160:196|160:196|192:176|192:176|240:200|296:180|316:128,1,323.999990112305,2|8,1:0|0:0,0:0:0:0:
238,11,143165,1,0,1:0:0:0:
230,55,143257,1,8,0:0:0:0:
234,99,143349,1,8,0:0:0:0:
420,288,143533,1,8,1:0:0:0:
452,244,143625,1,8,0:0:0:0:
456,192,143717,1,0,1:0:0:0:
436,140,143809,1,8,0:0:0:0:
396,104,143901,5,4,2:0:0:0:
352,136,143994,2,0,L|240:128,1,107.999996704102,2|0,1:0|1:0,0:0:0:0:
136,216,144270,1,2,1:0:0:0:
180,248,144363,2,0,L|292:240,1,107.999996704102,2|0,1:0|1:0,0:0:0:0:
368,328,144638,5,2,1:0:0:0:
324,356,144730,1,0,1:0:0:0:
272,360,144822,1,8,0:0:0:0:
220,340,144914,1,0,1:0:0:0:
188,296,145006,1,2,0:0:0:0:
140,320,145098,2,0,B|124:328|124:328|108:236,1,107.999996704102,2|0,1:0|1:0,0:0:0:0:
200,88,145374,6,0,L|208:148,1,53.9999983520508,2|0,1:0|1:0,0:0:0:0:
280,264,145558,2,0,L|304:208,1,53.9999983520508,8|0,0:0|1:0,0:0:0:0:
368,104,145742,2,0,L|404:144,1,53.9999983520508,2|0,1:0|1:0,0:0:0:0:
492,232,145926,1,8,0:0:0:0:
316,188,146110,5,2,1:0:0:0:
292,188,146171,1,0,0:0:0:0:
268,192,146233,1,0,0:0:0:0:
244,200,146294,1,8,0:0:0:0:
224,212,146355,1,0,0:0:0:0:
204,228,146417,1,0,0:0:0:0:
192,248,146478,2,0,L|160:224,2,35.9999989013672,2|0|0,1:0|0:0|0:0,0:0:0:0:
180,152,146662,2,0,L|168:112,2,35.9999989013672,8|0|0,0:0|0:0|0:0,0:0:0:0:
228,72,146846,6,0,L|236:16,1,53.9999983520508,2|0,1:0|1:0,0:0:0:0:
368,104,147030,2,0,L|360:160,1,53.9999983520508,8|0,0:0|1:0,0:0:0:0:
236,253,147214,2,0,L|244:197,1,53.9999983520508,2|0,1:0|1:0,0:0:0:0:
376,285,147398,2,0,L|368:341,1,53.9999983520508,8|0,0:0|1:0,0:0:0:0:
188,352,147582,5,2,1:0:0:0:
152,320,147674,1,0,1:0:0:0:
136,272,147767,2,0,L|144:216,1,53.9999983520508,8|0,0:0|1:0,0:0:0:0:
284,244,147951,1,2,1:0:0:0:
324,216,148043,1,0,1:0:0:0:
348,172,148136,2,0,L|340:116,1,53.9999983520508,8|0,0:0|1:0,0:0:0:0:
208,40,148319,5,2,1:0:0:0:
164,36,148411,1,0,1:0:0:0:
124,52,148503,1,8,0:0:0:0:
96,84,148595,1,0,1:0:0:0:
84,124,148687,1,2,1:0:0:0:
92,168,148779,1,0,1:0:0:0:
116,204,148871,1,8,0:0:0:0:
156,220,148963,1,0,1:0:0:0:
200,220,149055,5,2,1:0:0:0:
204,216,149147,1,0,1:0:0:0:
208,212,149239,2,0,L|216:144,1,53.9999983520508,8|0,0:0|1:0,0:0:0:0:
296,320,149423,1,2,1:0:0:0:
300,324,149515,1,0,1:0:0:0:
304,328,149607,2,0,L|372:320,1,53.9999983520508,8|0,0:0|1:0,0:0:0:0:
412,248,149791,6,0,L|452:244,5,35.9999989013672,2|0|0|8|0|0,1:0|0:0|0:0|0:0|0:0|0:0,0:0:0:0:
468,228,150159,1,2,1:0:0:0:
480,204,150221,1,0,0:0:0:0:
480,180,150282,1,0,0:0:0:0:
472,156,150343,1,8,0:0:0:0:
456,136,150405,1,0,0:0:0:0:
436,124,150466,1,0,0:0:0:0:
412,120,150527,6,0,L|360:124,1,35.9999989013672,2|0,1:0|0:0,0:0:0:0:
320,172,150650,2,0,L|268:176,1,35.9999989013672,0|8,0:0|0:0,0:0:0:0:
224,128,150773,2,0,L|172:132,1,35.9999989013672,2|0,0:0|0:0,0:0:0:0:
140,188,150895,6,0,L|96:192,2,35.9999989013672,2|0|0,1:0|0:0|0:0,0:0:0:0:
196,236,151079,2,0,L|231:232,2,35.9999989013672,8|0|0,0:0|0:0|0:0,0:0:0:0:
144,288,151263,6,0,L|100:292,2,35.9999989013672,2|0|0,1:0|0:0|0:0,0:0:0:0:
140,188,151448,2,0,L|104:168,2,35.9999989013672,10|0|0,0:0|0:0|0:0,0:0:0:0:
224,128,151632,2,0,L|212:80,2,35.9999989013672,2|0|0,1:0|0:0|0:0,0:0:0:0:
320,172,151816,2,0,L|336:128,2,35.9999989013672,10|0|0,0:0|0:0|0:0,0:0:0:0:
312,196,152000,5,2,1:0:0:0:
313,220,152061,1,0,0:0:0:0:
323,245,152122,1,0,0:0:0:0:
342,262,152184,1,8,0:0:0:0:
365,272,152245,1,0,0:0:0:0:
389,275,152306,1,0,0:0:0:0:
414,269,152368,2,0,L|440:232,2,35.9999989013672,2|0|0,1:0|0:0|0:0,0:0:0:0:
396,176,152552,2,0,L|408:140,2,35.9999989013672,8|0|0,0:0|0:0|0:0,0:0:0:0:
320,172,152736,6,0,P|288:156|264:148,1,53.9999983520508,2|0,1:0|1:0,0:0:0:0:
192,212,152920,2,0,P|224:228|248:236,1,53.9999983520508,8|0,0:0|1:0,0:0:0:0:
340,181,153104,6,0,P|303:154|275:138,1,53.9999983520508,2|0,1:0|1:0,0:0:0:0:
171,202,153288,2,0,P|208:229|236:245,1,53.9999983520508,8|0,0:0|1:0,0:0:0:0:
360,196,153472,6,0,P|322:156|291:131,1,53.9999983520508,2|0,1:0|1:0,0:0:0:0:
151,187,153656,2,0,P|189:227|220:252,1,53.9999983520508,8|0,0:0|1:0,0:0:0:0:
379,219,153840,6,0,P|342:163|325:144,1,53.9999983520508,2|0,1:0|1:0,0:0:0:0:
132,164,154024,2,0,P|169:220|186:239,1,53.9999983520508,8|0,0:0|1:0,0:0:0:0:
396,248,154208,5,2,1:0:0:0:
392,200,154300,1,0,1:0:0:0:
372,156,154392,1,8,0:0:0:0:
336,124,154484,1,0,1:0:0:0:
292,104,154576,1,2,1:0:0:0:
264,144,154668,1,0,1:0:0:0:
260,192,154760,1,8,0:0:0:0:
276,236,154852,1,0,1:0:0:0:
308,272,154944,6,0,L|236:284,1,53.9999983520508,2|0,1:0|1:0,0:0:0:0:
432,116,155128,2,0,L|424:56,1,53.9999983520508,8|0,0:0|1:0,0:0:0:0:
264,144,155313,2,0,L|324:148,1,53.9999983520508,2|0,1:0|1:0,0:0:0:0:
164,328,155497,2,0,L|152:268,1,53.9999983520508,8|0,0:0|1:0,0:0:0:0:
272,372,155681,5,10,1:0:0:0:
44,236,155865,1,10,1:0:0:0:
64,216,156233,1,10,0:0:0:0:
64,216,156325,1,8,0:0:0:0:
64,216,156417,6,0,L|68:160,2,49.5000015106202,2|8|8,1:0|0:0|0:0,0:0:0:0:
164,328,156693,2,0,L|168:392,2,49.5000015106202,2|8|0,0:0|0:0|0:0,0:0:0:0:
276,192,156969,2,0,L|284:128,1,49.5000015106202,10|0,1:0|1:0,0:0:0:0:
332,272,157153,1,8,1:0:0:0:
332,272,157245,1,0,1:0:0:0:
332,272,157337,5,4,1:2:0:0:
285,288,157429,1,0,1:0:0:0:
235,281,157521,1,0,0:0:0:0:
196,250,157613,5,2,0:0:0:0:
198,200,157705,1,0,1:0:0:0:
201,150,157797,1,0,0:0:0:0:
205,100,157889,5,2,0:0:0:0:
160,120,157981,1,0,1:0:0:0:
110,113,158073,1,0,0:0:0:0:
72,80,158165,5,10,0:0:0:0:
38,116,158257,1,0,1:0:0:0:
29,164,158349,1,0,0:0:0:0:
44,210,158441,5,10,0:0:0:0:
276,192,158625,1,8,1:0:0:0:
276,192,158717,1,8,1:0:0:0:
276,192,158809,5,4,1:2:0:0:
268,140,158901,1,0,1:0:0:0:
284,88,158994,1,0,0:0:0:0:
328,56,159086,5,2,0:0:0:0:
364,96,159178,1,0,1:0:0:0:
384,144,159270,1,0,0:0:0:0:
387,197,159362,5,2,0:0:0:0:
436,168,159454,1,0,1:0:0:0:
464,120,159546,1,0,0:0:0:0:
480,68,159638,5,2,0:0:0:0:
432,40,159730,1,0,1:0:0:0:
380,36,159822,1,0,0:0:0:0:
328,56,159914,5,2,0:0:0:0:
364,96,160006,1,0,0:0:0:0:
384,144,160098,2,0,L|388:204,1,53.9999983520508,0|8,1:0|1:0,0:0:0:0:
296,268,160282,2,0,L|284:328,1,53.9999983520508,8|8,0:0|0:0,0:0:0:0:
172,352,160466,5,4,1:2:0:0:
136,312,160558,1,0,0:0:0:0:
128,260,160650,1,0,1:0:0:0:
148,212,160742,1,0,0:0:0:0:
192,180,160834,5,8,0:0:0:0:
160,136,160926,1,0,0:0:0:0:
108,120,161018,1,0,1:0:0:0:
56,128,161110,2,0,B|28:140|28:140|4:176|4:224,1,116.999994644165,2|0,0:0|0:0,0:0:0:0:
44,356,161386,2,0,P|55:333|68:276,1,58.4999973220826,8|0,1:0|1:0,0:0:0:0:
216,268,161570,6,0,P|188:208|184:144,1,116.999994644165,2|0,1:0|0:0,0:0:0:0:
280,68,161846,1,0,1:0:0:0:
312,112,161938,2,0,P|312:180|292:240,1,116.999994644165,8|0,0:0|1:0,0:0:0:0:
196,32,162306,1,2,1:0:0:0:
420,132,162490,1,0,1:0:0:0:
216,268,162674,2,0,L|208:192,1,58.4999973220826,8|0,0:0|0:0,0:0:0:0:
312,112,162859,2,0,L|304:184,1,58.4999973220826,10|0,1:0|1:0,0:0:0:0:
368,288,163043,5,2,1:0:0:0:
420,292,163135,1,0,0:0:0:0:
468,272,163227,1,0,0:0:0:0:
500,228,163319,1,0,1:0:0:0:
504,176,163411,1,8,0:0:0:0:
484,128,163503,1,0,1:0:0:0:
440,96,163595,1,0,0:0:0:0:
388,88,163687,1,8,0:0:0:0:
340,108,163779,5,2,1:0:0:0:
348,136,163871,1,0,0:0:0:0:
356,164,163963,1,0,1:0:0:0:
364,192,164055,1,0,0:0:0:0:
372,220,164147,1,8,0:0:0:0:
380,248,164239,1,8,1:0:0:0:
388,276,164331,1,0,0:0:0:0:
396,304,164423,1,0,1:0:0:0:
168,264,164607,6,0,L|152:192,2,58.4999973220826,2|0|0,0:0|0:0|1:0,0:0:0:0:
128,348,164883,1,8,0:0:0:0:
128,348,164975,2,0,B|156:356|156:356|264:344,1,116.999994644165,0|2,1:0|1:0,0:0:0:0:
268,343,165251,1,8,0:0:0:0:
292,340,165343,5,0,0:0:0:0:
268,288,165435,1,0,1:0:0:0:
288,232,165527,1,8,0:0:0:0:
344,212,165619,1,0,1:0:0:0:
400,232,165711,1,0,0:0:0:0:
420,288,165803,1,8,0:0:0:0:
400,344,165895,1,8,1:0:0:0:
344,360,165987,5,4,1:2:0:0:
292,340,166079,2,0,P|268:288|264:216,1,116.999994644165,0|0,0:0|1:0,0:0:0:0:
300,152,166355,2,0,L|288:92,1,58.4999973220826,8|0,0:0|1:0,0:0:0:0:
152,56,166540,2,0,L|168:128,1,58.4999973220826,0|0,1:0|0:0,0:0:0:0:
112,244,166724,1,0,1:0:0:0:
112,244,166816,2,0,B|76:196|76:196|60:124,1,116.999994644165,2|0,0:0|0:0,0:0:0:0:
204,184,167092,1,8,0:0:0:0:
256,180,167184,1,0,0:0:0:0:
300,152,167276,1,0,1:0:0:0:
320,104,167368,1,0,0:0:0:0:
320,52,167460,5,2,1:0:0:0:
376,36,167552,1,0,0:0:0:0:
432,52,167644,1,0,1:0:0:0:
472,96,167736,1,0,1:0:0:0:
484,152,167828,1,8,0:0:0:0:
472,208,167920,5,0,0:0:0:0:
412,212,168012,1,0,1:0:0:0:
368,248,168104,1,2,0:0:0:0:
344,300,168196,1,8,0:0:0:0:
348,360,168288,2,0,B|312:340|312:340|228:348,1,116.999994644165,2|0,0:0|0:0,0:0:0:0:
28,252,168656,1,0,0:0:0:0:
68,220,168748,1,2,1:0:0:0:
120,212,168840,1,8,0:0:0:0:
172,224,168932,1,2,1:0:0:0:
212,260,169024,6,0,P|272:264|332:248,2,116.999994644165,0|0|0,0:0|1:0|1:0,0:0:0:0:
172,224,169484,1,2,0:0:0:0:
156,172,169576,1,0,0:0:0:0:
164,120,169668,5,2,1:0:0:0:
220,140,169760,1,8,0:0:0:0:
280,140,169852,1,0,1:0:0:0:
336,116,169944,1,0,0:0:0:0:
376,76,170036,1,8,0:0:0:0:
336,32,170128,1,0,0:0:0:0:
280,12,170221,1,8,1:0:0:0:
220,12,170313,1,0,0:0:0:0:
164,28,170405,6,0,L|92:24,1,72,4|0,1:2|0:0,0:0:0:0:
376,76,170589,2,0,L|448:68,1,72,8|2,1:0|0:0,0:0:0:0:
192,144,170773,2,0,L|121:153,1,72,0|0,1:0|0:0,0:0:0:0:
324,208,170957,1,2,1:0:0:0:
324,208,171141,5,8,0:0:0:0:
296,248,171233,1,0,0:0:0:0:
292,296,171325,1,0,1:0:0:0:
308,340,171417,1,0,1:0:0:0:
344,368,171509,2,0,L|396:372,2,38.9999982147218,8|0|0,1:0|1:0|1:0,0:0:0:0:
292,296,171693,2,0,L|232:300,2,38.9999982147218,10|0|0,1:0|0:0|0:0,0:0:0:0:
324,208,171877,6,0,L|396:204,1,58.4999973220826,4|0,1:2|0:0,0:0:0:0:
504,304,172061,2,0,L|440:300,1,58.4999973220826,0|0,0:0|1:0,0:0:0:0:
344,368,172245,1,10,0:0:0:0:
344,368,172337,2,0,B|244:360|244:360|264:340,1,116.999994644165
440,168,172705,1,0,0:0:0:0:
440,168,172797,1,2,0:0:0:0:
196,68,172981,1,8,0:0:0:0:
176,108,173073,1,0,0:0:0:0:
168,152,173165,1,8,1:0:0:0:
172,200,173257,1,0,1:0:0:0:
188,244,173349,5,2,1:0:0:0:
128,236,173441,1,0,0:0:0:0:
88,192,173533,1,0,1:0:0:0:
72,136,173625,1,0,1:0:0:0:
80,76,173717,2,0,P|136:80|196:68,1,116.999994644165,10|0,0:0|0:0,0:0:0:0:
364,156,173994,2,0,P|308:144|248:148,1,116.999994644165
172,200,174270,1,2,1:0:0:0:
432,96,174454,1,10,0:0:0:0:
136,24,174638,1,2,1:0:0:0:
132,48,174730,1,8,0:0:0:0:
128,72,174822,5,2,1:0:0:0:
72,88,174914,1,0,0:0:0:0:
36,132,175006,1,0,0:0:0:0:
36,192,175098,1,0,1:0:0:0:
64,244,175190,1,10,0:0:0:0:
120,264,175282,1,0,1:0:0:0:
376,152,175466,2,0,P|284:128|244:128,1,116.999994644165,2|0,0:0|0:0,0:0:0:0:
216,132,175742,1,8,1:0:0:0:
172,144,175834,1,0,0:0:0:0:
132,168,175926,5,8,0:0:0:0:
184,192,176018,1,0,1:0:0:0:
216,240,176110,1,2,0:0:0:0:
212,300,176202,1,0,1:0:0:0:
176,344,176294,6,0,B|208:324|252:324|252:324|276:340|308:340,1,135.000005149842,2|0,1:0|0:0,0:0:0:0:
432,252,176570,2,0,P|368:228|300:252,1,135.000005149842,2|0,1:0|1:0,0:0:0:0:
184,192,176846,2,0,P|172:161|168:112,1,67.5000025749208,2|0,0:0|1:0,0:0:0:0:
256,24,177030,5,2,1:0:0:0:
308,12,177122,1,0,0:0:0:0:
356,28,177214,1,0,1:0:0:0:
392,68,177306,1,8,0:0:0:0:
400,120,177398,1,0,1:0:0:0:
384,168,177490,1,0,0:0:0:0:
392,220,177582,1,0,0:0:0:0:
432,252,177674,1,8,1:0:0:0:
484,256,177767,5,4,1:2:0:0:
484,196,177859,1,0,0:0:0:0:
452,148,177951,1,0,0:0:0:0:
400,120,178043,1,0,1:0:0:0:
340,124,178135,1,10,0:0:0:0:
292,156,178227,2,0,P|232:170|164:164,1,116.999994644165
380,224,178595,5,0,0:0:0:0:
380,224,178687,1,2,1:0:0:0:
224,68,178871,1,8,0:0:0:0:
176,60,178963,1,0,0:0:0:0:
132,68,179055,1,8,1:0:0:0:
92,92,179147,1,0,1:0:0:0:
68,132,179239,5,2,1:0:0:0:
116,164,179331,1,0,0:0:0:0:
164,196,179423,1,0,0:0:0:0:
212,228,179515,1,0,1:0:0:0:
260,260,179607,1,10,0:0:0:0:
308,292,179699,2,0,L|188:308,1,116.999994644165
392,355,180067,5,0,0:0:0:0:
412,307,180159,1,0,1:0:0:0:
408,255,180251,1,0,0:0:0:0:
376,215,180343,2,0,L|324:179,1,58.4999973220826,8|2,0:0|0:0,0:0:0:0:
211,226,180527,2,0,L|260:260,1,58.4999973220826,0|10,1:0|0:0,0:0:0:0:
184,344,180711,5,0,0:0:0:0:
128,332,180803,1,0,0:0:0:0:
84,296,180895,1,0,0:0:0:0:
60,244,180987,1,0,1:0:0:0:
56,184,181079,1,10,0:0:0:0:
76,128,181171,2,0,P|136:128|200:104,1,116.999994644165
436,148,181540,5,0,0:0:0:0:
384,132,181632,1,0,1:0:0:0:
332,132,181724,1,0,0:0:0:0:
284,152,181816,2,0,L|268:212,1,58.4999973220826,8|0,0:0|0:0,0:0:0:0:
392,256,182000,2,0,L|400:320,1,58.4999973220826,8|0,1:0|0:0,0:0:0:0:
264,368,182184,5,2,1:0:0:0:
220,332,182276,1,0,1:0:0:0:
164,316,182368,1,8,1:0:0:0:
104,324,182460,1,0,1:0:0:0:
56,360,182552,1,8,0:0:0:0:
264,228,182736,1,0,1:0:0:0:
268,208,182828,1,0,1:0:0:0:
272,188,182920,5,8,1:0:0:0:
216,200,183012,1,0,1:0:0:0:
160,180,183104,1,0,1:0:0:0:
132,128,183196,1,0,1:0:0:0:
140,68,183288,5,8,0:0:0:0:
189,116,183380,1,8,1:0:0:0:
256,128,183472,1,8,1:0:0:0:
323,116,183564,1,8,0:0:0:0:
372,68,183656,6,0,B|368:116|368:116|380:168,1,99.0000030212403,4|0,1:2|0:0,0:0:0:0:
223,297,184024,2,0,B|227:249|227:249|215:197,1,99.0000030212403,0|8,0:0|1:0,0:0:0:0:
207,177,184300,1,8,1:0:0:0:
199,153,184392,1,12,1:2:0:0:
107,257,184576,1,0,1:0:0:0:
79,229,184668,1,0,1:0:0:0:
51,201,184760,1,8,1:0:0:0:
128,372,184944,1,0,1:0:0:0:
228,248,185128,6,0,L|328:228,1,99.0000030212403,4|8,1:2|0:0,0:0:0:0:
348,240,185405,1,0,1:0:0:0:
372,252,185497,1,0,1:0:0:0:
199,153,185681,1,0,1:0:0:0:
188,120,185773,1,0,1:0:0:0:
176,88,185865,2,0,B|328:104|328:104|292:76,1,198.000006042481,12|0,1:2|0:0,0:0:0:0:
58,171,186417,1,2,0:0:0:0:
58,171,186509,1,0,0:0:0:0:
58,171,186601,5,4,1:2:0:0:
276,64,186785,1,0,1:0:0:0:
189,296,186969,5,8,1:0:0:0:
148,20,187153,1,0,1:0:0:0:
469,180,187337,5,8,1:0:0:0:
188,120,187521,1,0,1:0:0:0:
461,17,187705,5,8,1:0:0:0:
326,285,187889,1,0,1:0:0:0:
322,245,187981,1,0,1:0:0:0:
318,205,188073,5,2,1:0:0:0:
481,366,188257,1,10,0:0:0:0:
174,292,188441,1,8,1:0:0:0:
469,180,188625,1,10,0:0:0:0:
244,76,188809,6,0,L|240:32,7,24.7500007553101,2|0|0|0|2|0|8|0,1:0|1:0|1:0|1:0|1:0|1:0|1:0|1:0,0:0:0:0:
190,151,189178,2,0,L|182:219,1,49.5000015106202,2|0,1:0|0:0,0:0:0:0:
256,352,189362,1,8,0:0:0:0:
256,352,189546,6,0,P|264:316|268:272,1,72,4|0,0:0|0:0,0:0:0:0:
384,144,189914,2,0,P|384:170|388:192,1,48,8|0,1:0|0:0,0:0:0:0:
400,216,190098,2,0,P|357:212|320:216,1,72,2|0,0:0|0:0,0:0:0:0:
364,292,190466,1,0,0:0:0:0:
452,284,190650,1,10,1:0:0:0:
484,204,190834,1,0,0:0:0:0:
432,136,191018,5,2,0:0:0:0:
364,292,191202,1,0,0:0:0:0:
332,60,191386,1,8,1:0:0:0:
400,216,191570,1,2,0:0:0:0:
268,120,191754,1,0,0:0:0:0:
416,52,191938,1,0,0:0:0:0:
300,212,192122,2,0,P|264:216|220:208,1,72,10|0,1:0|0:0,0:0:0:0:
192,48,192490,5,2,0:0:0:0:
268,120,192674,1,0,0:0:0:0:
200,200,192859,2,0,L|192:264,1,48,8|0,1:0|0:0,0:0:0:0:
176,284,193043,2,0,P|232:280|268:288,1,72,2|0,0:0|0:0,0:0:0:0:
324,323,193411,1,0,0:0:0:0:
400,280,193595,1,10,1:0:0:0:
256,192,193779,1,0,0:0:0:0:
170,253,193963,5,2,0:0:0:0:
361,192,194147,1,0,0:0:0:0:
288,91,194331,1,8,1:0:0:0:
288,292,194515,6,0,L|255:258,1,38.2500007295609,2|0,1:0|1:0,0:0:0:0:
170,130,194699,2,0,L|220:138,1,40.4999987640381,0|0,1:0|1:0,0:0:0:0:
361,192,194883,2,0,L|307:218,1,42.7499988584519,0|0,1:0|1:0,0:0:0:0:
170,253,195067,2,0,L|198:203,1,45,10|0,1:0|1:0,0:0:0:0:
288,91,195251,2,0,L|297:151,1,47.2499985580445,10|0,1:0|1:0,0:0:0:0:
288,292,195435,6,0,B|239:241|239:241|170:254|170:254|203:192|203:192|170:129|170:129|239:141|239:141|289:92|289:92|299:161|299:161|362:192|362:192|298:223|298:223|288:291,1,675
