osu file format v14

[General]
AudioFilename: audio.mp3
AudioLeadIn: 0
PreviewTime: 70826
Countdown: 0
SampleSet: Soft
StackLeniency: 0.5
Mode: 0
LetterboxInBreaks: 0
WidescreenStoryboard: 1

[Editor]
Bookmarks: 38166,42530,44712,46894,49076,53439,55621,59985,64348,70894,83166,88348,92712,97076,106401,114530,118265,123257,136212
DistanceSpacing: 1.2
BeatDivisor: 4
GridSize: 32
TimelineZoom: 6.199997

[Metadata]
Title:Machinegun Poem Doll
TitleUnicode:マシンガンポエムドール
Artist:cosMo@BousouP feat. Hatsune Miku
ArtistUnicode:cosMo@暴走P feat. 初音ミク
Creator:Zoli
Version:Normal
Source:プロジェクトセカイ カラフルステージ! feat. 初音ミク
Tags:vocaloid jrock j-rock japanese rock project sekai colorful stage featuring hatsune miku プロセカ proseka japanese cosmo cosmop jpop machine gun
BeatmapID:3335274
BeatmapSetID:1606218

[Difficulty]
HPDrainRate:3
CircleSize:3
OverallDifficulty:4.5
ApproachRate:6
SliderMultiplier:0.7
SliderTickRate:1

[Events]
//Background and Video events
0,0,"machine gun rick 2.jpg",0,0
//Break Periods
//Storyboard Layer 0 (Background)
//Storyboard Layer 1 (Fail)
//Storyboard Layer 2 (Pass)
//Storyboard Layer 3 (Foreground)
//Storyboard Layer 4 (Overlay)
//Storyboard Sound Samples

[TimingPoints]
1129,272.727272727273,4,2,3,45,1,0
1129,-100,4,2,3,45,0,0
12038,-100,4,2,3,50,0,0
15992,-100,4,2,3,30,0,0
16027,-100,4,2,3,5,0,0
16061,-100,4,2,3,30,0,0
16096,-100,4,2,3,5,0,0
16129,-100,4,2,3,30,0,0
16164,-100,4,2,3,5,0,0
16197,-100,4,2,3,30,0,0
16232,-100,4,2,3,5,0,0
16265,-100,4,2,3,30,0,0
16300,-100,4,2,3,5,0,0
16333,-100,4,2,3,30,0,0
16368,-100,4,2,3,5,0,0
16401,-100,4,2,3,50,0,0
46947,-100,4,2,3,30,0,0
49129,-100,4,2,4,50,0,0
53492,-100,4,2,3,50,0,0
53765,-100,4,2,3,30,0,0
55674,-100,4,2,4,50,0,0
60038,-100,4,2,3,50,0,0
63310,-100,4,2,4,50,0,0
64401,-100,4,2,3,30,0,0
68765,-100,4,2,3,40,0,0
69754,-100,4,2,3,5,0,0
69993,-100,4,2,3,30,0,0
70027,-100,4,2,3,5,0,0
70266,-100,4,2,3,30,0,0
70300,-100,4,2,3,5,0,0
70539,-100,4,2,3,30,0,0
70573,-100,4,2,3,5,0,0
70607,-100,4,2,3,30,0,0
70947,-83.3333333333333,4,2,3,55,0,1
77492,-100,4,2,3,50,0,0
79674,-83.3333333333333,4,2,3,60,0,1
88401,-100,4,2,3,45,0,0
92765,-100,4,2,3,30,0,0
95254,-100,4,2,3,5,0,0
95288,-100,4,2,3,30,0,0
95323,-100,4,2,3,5,0,0
95356,-100,4,2,3,30,0,0
95391,-100,4,2,3,5,0,0
95424,-100,4,2,3,30,0,0
95459,-100,4,2,3,5,0,0
95492,-100,4,2,3,30,0,0
95527,-100,4,2,3,5,0,0
95560,-100,4,2,3,30,0,0
95595,-100,4,2,3,5,0,0
95629,-100,4,2,3,30,0,0
95664,-100,4,2,3,5,0,0
95697,-100,4,2,3,30,0,0
95732,-100,4,2,3,5,0,0
95765,-100,4,2,3,30,0,0
95800,-100,4,2,3,5,0,0
95833,-100,4,2,3,30,0,0
95868,-100,4,2,3,5,0,0
95901,-100,4,2,3,30,0,0
95935,-100,4,2,3,5,0,0
96174,-100,4,2,3,30,0,0
96208,-100,4,2,3,5,0,0
96447,-100,4,2,3,30,0,0
96481,-100,4,2,3,5,0,0
96720,-100,4,2,3,30,0,0
96754,-100,4,2,3,5,0,0
96788,-100,4,2,3,30,0,0
96856,-100,4,2,3,50,0,0
97129,-83.3333333333333,4,2,3,55,0,1
114583,-100,4,2,3,50,0,0
118026,-100,4,2,3,5,0,0
118265,-100,4,2,3,30,0,0
118299,-100,4,2,3,5,0,0
118538,-100,4,2,3,30,0,0
118572,-100,4,2,3,5,0,0
118674,-100,4,2,3,50,0,0
118811,-100,4,2,3,30,0,0
118845,-100,4,2,3,5,0,0
118879,-100,4,2,3,30,0,0
118947,-100,4,2,3,50,0,0
122219,-100,4,2,3,30,0,0
122254,-100,4,2,3,5,0,0
122288,-100,4,2,3,30,0,0
122323,-100,4,2,3,5,0,0
122356,-100,4,2,3,30,0,0
122391,-100,4,2,3,5,0,0
122424,-100,4,2,3,30,0,0
122459,-100,4,2,3,5,0,0
122492,-100,4,2,3,30,0,0
122527,-100,4,2,3,5,0,0
122560,-100,4,2,3,30,0,0
122595,-100,4,2,3,5,0,0
122629,-100,4,2,3,30,0,0
122664,-100,4,2,3,5,0,0
122697,-100,4,2,3,30,0,0
122732,-100,4,2,3,5,0,0
122765,-100,4,2,3,50,0,0

[Colours]
Combo1 : 167,104,223
Combo2 : 60,116,208
Combo3 : 99,170,177
Combo4 : 138,100,155

[HitObjects]
160,261,1129,6,0,P|177:250|203:250,1,35,8|8,1:2|1:2,1:2:0:0:
352,261,3310,2,0,P|335:250|309:250,1,35,8|8,1:2|1:2,1:2:0:0:
161,260,3992,5,0,1:2:0:0:
202,186,4265,2,0,L|190:80,1,105,12|0,1:2|1:2,1:2:0:0:
163,49,4810,2,0,P|79:57|68:77,1,105,12|8,1:2|1:2,1:2:0:0:
46,146,5492,6,0,L|93:155,2,35,8|8|0,1:2|1:2|1:2,1:2:0:0:
267,281,6583,2,0,L|220:290,2,35,8|8|0,1:2|1:2|1:2,1:2:0:0:
461,120,7674,6,0,P|460:161|470:200,2,70,12|0|8,1:2|1:2|1:2,1:2:0:0:
378,106,8492,1,8,1:2:0:0:
326,39,8765,6,0,P|309:28|285:27,1,35,12|0,1:2|1:2,1:2:0:0:
252,28,9038,2,0,P|235:38|208:42,1,35,8|0,1:2|1:2,1:2:0:0:
178,36,9310,2,0,P|152:77|146:105,1,70,8|8,1:2|1:2,1:2:0:0:
46,175,9992,6,0,B|134:115|240:160|240:160|336:206|412:135,1,385,0|0,1:2|1:2,1:2:0:0:
463,297,12038,6,0,B|381:284,1,70,12|8,1:2|1:2,1:2:0:0:
316,318,12583,2,0,P|271:343|243:344,1,70,8|8,1:2|1:2,1:2:0:0:
165,356,13129,2,0,P|164:321|191:287,2,70,8|8|8,1:2|1:2|1:2,1:2:0:0:
249,346,13947,1,8,1:2:0:0:
326,314,14219,6,0,L|313:240,1,70,8|8,1:2|1:2,1:2:0:0:
247,192,14765,2,0,L|260:118,1,70,8|8,1:2|1:2,1:2:0:0:
319,64,15310,2,0,P|405:98|412:148,1,140,8|2,1:2|1:2,1:2:0:0:
413,136,16401,6,0,L|335:131,1,70,14|8,1:2|1:2,1:2:0:0:
272,177,16947,2,0,L|194:182,1,70,8|8,1:2|1:2,1:2:0:0:
123,150,17492,2,0,L|112:71,2,70,8|8|8,1:2|1:2|1:2,1:2:0:0:
105,232,18310,1,8,1:2:0:0:
46,291,18583,6,0,P|75:316|116:318,1,70,12|8,1:2|1:2,1:2:0:0:
181,282,19129,2,0,P|213:262|254:267,1,70,10|10,1:2|1:2,1:2:0:0:
303,323,19674,1,10,1:2:0:0:
386,315,19947,1,10,1:2:0:0:
468,300,20219,2,0,L|477:218,1,70,10|10,1:2|1:2,1:2:0:0:
442,152,20765,6,0,P|419:140|399:142,2,35,10|0|8,1:2|1:2|1:2,1:2:0:0:
485,79,21310,1,8,0:0:0:0:
409,42,21583,2,0,P|393:31|363:26,1,35,8|0,1:2|1:2,1:2:0:0:
338,41,21856,2,0,P|300:58|261:60,1,70,8|8,1:2|1:2,1:2:0:0:
192,32,22401,1,8,1:2:0:0:
108,39,22674,1,8,1:2:0:0:
50,100,22947,6,0,P|24:139|24:170,1,70,10|8,1:2|1:2,1:2:0:0:
48,240,23492,1,8,1:2:0:0:
116,288,23765,2,0,L|156:283,1,35,8|8,1:2|1:2,1:2:0:0:
184,258,24038,2,0,P|222:251|261:263,1,70,8|8,1:2|1:2,1:2:0:0:
281,288,24447,2,0,P|327:295|358:283,1,70,6|8,1:2|1:2,1:2:0:0:
390,286,24856,1,8,1:2:0:0:
457,235,25129,6,0,L|451:188,1,35,10|0,1:2|1:2,1:2:0:0:
427,166,25401,2,0,L|421:119,1,35,8|0,1:2|1:2,1:2:0:0:
437,91,25674,1,8,1:2:0:0:
360,55,25947,1,8,1:2:0:0:
293,105,26219,2,0,L|300:161,2,35,8|0|8,1:2|1:2|1:2,1:2:0:0:
211,127,26765,2,0,P|181:106|141:108,1,70,8|8,1:2|1:2,1:2:0:0:
77,150,27310,6,0,L|86:224,1,70,10|8,1:2|1:2,1:2:0:0:
48,295,27856,1,8,1:2:0:0:
101,360,28129,2,0,P|119:353|147:352,1,35,8|8,1:2|1:2,1:2:0:0:
173,334,28401,2,0,B|197:329|197:329|250:342,1,70,12|8,1:2|1:2,1:2:0:0:
320,376,28947,1,8,1:2:0:0:
320,376,29219,1,8,1:2:0:0:
395,338,29492,6,0,B|395:293|395:293|431:249|431:249|428:203,1,140,8|8,1:2|1:2,1:2:0:0:
445,128,30310,2,0,P|403:129|372:149,1,70,8|8,1:2|1:2,1:2:0:0:
319,201,30856,2,0,P|279:187|243:195,1,70,8|8,1:2|1:2,1:2:0:0:
192,251,31401,1,8,1:2:0:0:
123,202,31674,6,0,B|133:128,2,70,8|8|10,1:2|1:2|1:2,1:2:0:0:
52,247,32492,2,0,L|60:316,1,70,8|8,1:2|1:2,1:2:0:0:
135,353,33038,2,0,P|171:360|207:339,1,70,8|8,1:2|1:2,1:2:0:0:
349,263,33856,6,0,P|325:273|311:286,1,35,10|0,1:2|1:2,1:2:0:0:
277,272,34129,2,0,P|251:264|233:266,1,35,10|8,1:2|1:2,1:2:0:0:
217,231,34401,2,0,L|190:84,2,140,10|10|10,1:2|1:2|1:2,1:2:0:0:
292,267,35765,1,8,1:2:0:0:
372,242,36038,6,0,P|435:233|446:240,1,70,10|10,1:2|1:2,1:2:0:0:
436,150,36583,2,0,P|478:102|491:101,1,70,10|10,1:2|1:2,1:2:0:0:
477,18,37129,5,8,1:2:0:0:
477,18,37401,1,8,1:2:0:0:
402,50,37674,1,8,1:2:0:0:
402,50,37947,2,0,L|353:53,1,35,8|0,1:2|1:2,1:2:0:0:
333,77,38219,6,0,P|338:115|356:149,1,70,10|8,1:2|1:2,1:2:0:0:
428,179,38765,1,8,1:2:0:0:
440,262,39038,1,8,1:2:0:0:
379,319,39310,2,0,B|357:304|357:304|299:303,1,70,8|8,1:2|1:2,1:2:0:0:
237,333,39856,1,8,1:2:0:0:
237,333,40129,2,0,L|156:328,1,70,8|10,1:2|1:2,1:2:0:0:
88,299,40674,6,0,P|97:268|131:248,1,70,8|8,1:2|1:2,1:2:0:0:
194,197,41219,1,8,1:2:0:0:
230,121,41492,2,0,L|219:43,1,70,12|8,1:2|1:2,1:2:0:0:
299,31,42038,2,0,P|311:54|315:78,1,35,8|8,1:2|1:2,1:2:0:0:
345,88,42310,2,0,P|339:113|327:134,1,35,8|0,1:2|1:2,1:2:0:0:
324,162,42583,5,8,1:2:0:0:
273,229,42856,2,0,P|275:261|281:276,1,35,8|0,1:2|1:2,1:2:0:0:
299,298,43129,2,0,P|334:282|376:285,1,70,8|8,1:2|1:2,1:2:0:0:
448,292,43674,2,0,L|462:363,2,70,8|8|8,1:2|1:2|1:2,1:2:0:0:
495,130,44765,6,0,P|461:101|427:98,1,70,8|8,1:2|1:2,1:2:0:0:
360,132,45310,2,0,P|318:147|285:138,1,70,8|8,1:2|1:2,1:2:0:0:
227,100,45856,1,8,1:2:0:0:
227,100,46129,1,8,1:2:0:0:
147,112,46401,1,8,1:2:0:0:
147,112,46674,1,8,1:2:0:0:
67,121,46947,5,12,1:2:0:0:
67,121,47219,2,0,L|59:37,2,70,0|0|0,1:2|1:2|1:2,1:2:0:0:
29,197,48038,2,0,P|64:215|103:210,1,70,8|0,1:2|1:2,1:2:0:0:
167,254,48583,2,0,L|162:292,1,35,0|8,1:2|1:2,1:2:0:0:
183,325,48856,1,8,1:2:0:0:
259,359,49129,6,0,P|292:348|328:348,1,70,12|8,1:2|1:2,1:2:0:0:
407,372,49674,2,8,P|441:365|472:346,1,70,8|8,1:2|1:2,1:2:0:0:
477,263,50219,2,8,B|484:189,1,70,8|8,1:2|1:2,1:2:0:0:
462,111,50765,2,8,B|443:104|443:104|380:126,1,70,8|8,1:2|1:2,1:2:0:0:
318,88,51310,5,8,1:2:0:0:
267,155,51583,2,8,P|247:124|236:80,2,70,8|8|8,1:2|1:2|1:2,1:2:0:0:
239,234,52401,1,8,1:2:0:0:
265,313,52674,1,8,1:2:0:0:
192,355,52947,2,0,L|117:350,1,70,8|8,1:2|1:2,1:2:0:0:
51,304,53492,1,12,1:2:0:0:
53,219,53765,6,0,B|88:194|128:210|128:210|164:224|195:199,1,140,0|0,1:2|1:2,1:2:0:0:
234,136,54583,2,8,P|238:70|244:53,2,70,8|0|8,1:2|1:2|1:2,1:2:0:0:
272,210,55401,1,10,1:2:0:0:
354,194,55674,6,0,P|392:180|432:183,1,70,12|8,1:2|1:2,1:2:0:0:
484,236,56219,1,8,1:2:0:0:
504,317,56492,1,8,1:2:0:0:
439,370,56765,2,8,L|357:363,1,70,8|8,1:2|1:2,1:2:0:0:
290,335,57310,2,8,L|209:340,1,70,8|8,1:2|1:2,1:2:0:0:
136,330,57856,6,0,P|157:273|170:265,1,70,8|8,1:2|1:2,1:2:0:0:
169,185,58401,1,8,1:2:0:0:
239,230,58674,1,8,1:2:0:0:
302,174,58947,2,0,P|329:195|340:227,1,70,8|8,1:2|1:2,1:2:0:0:
411,273,59492,2,0,L|485:264,1,70,8|8,1:2|1:2,1:2:0:0:
469,180,60038,6,0,P|453:154|451:137,1,35,12|0,1:2|1:2,1:2:0:0:
458,108,60310,1,8,1:2:0:0:
509,42,60583,1,8,1:2:0:0:
509,42,60856,2,0,P|474:24|466:26,1,35,8|0,1:2|1:2,1:2:0:0:
441,9,61129,6,0,P|391:37|367:38,1,70,8|8,1:2|1:2,1:2:0:0:
295,38,61674,2,0,L|250:35,1,35,8|0,1:2|1:2,1:2:0:0:
221,53,61947,2,0,L|176:56,1,35,8|0,1:2|1:2,1:2:0:0:
147,39,62219,2,0,L|137:117,1,70,8|8,1:2|1:2,1:2:0:0:
173,185,62765,2,0,L|182:269,1,70,8|8,1:2|1:2,1:2:0:0:
204,335,63310,6,8,B|236:322|236:322|271:323,1,70,8|8,1:2|1:2,1:2:0:0:
342,368,63856,2,0,B|376:361|376:361|410:368,1,70,8|8,1:2|1:2,1:2:0:0:
462,301,64401,6,0,L|473:224,1,70,10|2,1:2|1:2,1:2:0:0:
512,159,64947,1,10,1:2:0:0:
512,159,65219,1,2,1:2:0:0:
426,126,65492,6,0,L|415:49,1,70,10|2,1:2|1:2,1:2:0:0:
350,12,66038,1,2,1:2:0:0:
350,12,66310,1,2,1:2:0:0:
256,192,66583,12,8,68219,1:2:0:0:
41,139,68765,6,0,P|69:165|79:166,1,35,12|8,1:2|1:2,1:2:0:0:
99,186,69038,2,0,P|135:174|145:168,1,35,8|8,1:2|1:2,1:2:0:0:
167,153,69310,2,0,L|245:144,1,70,8|8,1:2|1:2,1:2:0:0:
276,158,69719,1,8,1:2:0:0:
330,93,69992,1,8,1:2:0:0:
414,89,70265,1,8,1:2:0:0:
488,128,70538,2,0,P|494:150|496:164,1,35,8|10,1:2|1:2,1:2:0:0:
503,245,70947,6,0,P|470:245|419:223,1,83.9999974365235,12|8,1:2|1:2,1:2:0:0:
380,298,71492,2,0,P|347:311|298:314,1,83.9999974365235,8|8,1:2|1:2,1:2:0:0:
215,326,72038,2,0,L|208:276,1,41.9999987182618,12|0,1:2|1:2,1:2:0:0:
236,252,72310,2,0,L|238:195,1,41.9999987182618,12|0,1:2|1:2,1:2:0:0:
203,184,72583,1,8,1:2:0:0:
143,242,72856,1,8,1:2:0:0:
58,241,73129,6,0,P|16:209|11:178,1,83.9999974365235,12|8,1:2|1:2,1:2:0:0:
85,141,73674,2,0,P|91:89|112:69,1,83.9999974365235,8|8,1:2|1:2,1:2:0:0:
187,107,74219,1,8,1:2:0:0:
270,100,74492,1,8,1:2:0:0:
353,90,74765,2,0,B|383:56|387:21,2,62.9999980773926,8|8|0,1:2|1:2|1:2,1:2:0:0:
353,131,75310,5,12,1:2:0:0:
407,195,75583,2,0,L|417:280,1,83.9999974365235,8|8,1:2|1:2,1:2:0:0:
409,362,76129,2,0,P|384:361|360:356,1,41.9999987182618,8|0,1:2|1:2,1:2:0:0:
329,339,76401,1,8,1:2:0:0:
248,363,76674,1,8,1:2:0:0:
179,314,76947,2,0,P|163:341|162:368,2,41.9999987182618,8|0|8,1:2|1:2|1:2,1:2:0:0:
141,238,77492,6,0,P|176:218|210:219,1,70,12|8,1:2|1:2,1:2:0:0:
260,154,78038,2,0,P|299:161|325:183,1,70,8|8,1:2|1:2,1:2:0:0:
347,213,78447,2,0,L|362:30,1,175,0|8,1:2|1:2,1:2:0:0:
191,33,79674,6,0,B|166:53|166:53|109:56,1,83.9999974365235,12|8,1:2|1:2,1:2:0:0:
38,18,80219,2,0,B|18:43|18:43|16:99,1,83.9999974365235,8|8,1:2|1:2,1:2:0:0:
48,172,80765,6,0,P|68:181|92:180,1,41.9999987182618,12|0,1:2|1:2,1:2:0:0:
111,216,81038,2,0,P|130:202|142:182,1,41.9999987182618,12|0,1:2|1:2,1:2:0:0:
178,169,81310,2,0,L|188:256,1,83.9999974365235,8|8,1:2|1:2,1:2:0:0:
177,293,81719,6,0,B|199:298|199:298|266:279,1,83.9999974365235,0|0,1:2|1:2,1:2:0:0:
300,284,82129,1,8,1:2:0:0:
380,308,82401,2,0,P|423:292|465:294,1,83.9999974365235,8|8,1:2|1:2,1:2:0:0:
484,212,82947,2,0,L|496:127,1,83.9999974365235,8|8,1:2|1:2,1:2:0:0:
415,102,83492,2,0,L|406:14,1,83.9999974365235,8|8,1:2|1:2,1:2:0:0:
326,45,84038,6,0,P|307:45|286:35,1,41.9999987182618,12|0,1:2|1:2,1:2:0:0:
248,52,84310,2,0,P|201:48|161:65,1,83.9999974365235,8|8,1:2|1:2,1:2:0:0:
147,98,84719,2,0,L|156:143,2,41.9999987182618,0|8|0,1:2|1:2|1:2,1:2:0:0:
106,85,85129,1,8,1:2:0:0:
26,58,85401,1,8,1:2:0:0:
4,139,85674,2,0,L|13:229,1,83.9999974365235,8|8,1:2|1:2,1:2:0:0:
23,305,86219,5,12,1:2:0:0:
96,264,86492,1,8,1:2:0:0:
180,263,86765,2,0,P|191:300|194:345,1,83.9999974365235,8|8,1:2|1:2,1:2:0:0:
275,366,87310,2,0,L|317:354,1,41.9999987182618,10|10,1:2|1:2,1:2:0:0:
355,340,87583,2,0,L|397:349,1,41.9999987182618,10|10,1:2|1:2,1:2:0:0:
427,377,87856,1,10,1:2:0:0:
507,354,88129,1,10,1:2:0:0:
501,271,88401,5,10,1:2:0:0:
473,266,89492,1,10,1:2:0:0:
445,259,90583,1,10,1:2:0:0:
417,255,91674,1,10,1:2:0:0:
389,250,92765,5,8,1:2:0:0:
256,192,92901,12,8,94947,1:2:0:0:
450,222,95901,5,8,1:2:0:0:
366,226,96173,1,8,1:2:0:0:
282,231,96446,1,8,1:2:0:0:
198,237,96719,2,0,L|201:189,1,35,8|12,1:2|1:2,1:2:0:0:
261,143,97129,6,0,P|255:103|227:65,1,83.9999974365235,8|8,1:2|1:2,1:2:0:0:
148,85,97674,2,0,P|110:70|63:74,1,83.9999974365235,8|8,1:2|1:2,1:2:0:0:
51,155,98219,2,0,P|19:180|3:224,1,83.9999974365235,8|8,1:2|1:2,1:2:0:0:
66,275,98765,1,8,1:2:0:0:
153,266,99038,1,8,1:2:0:0:
153,266,99174,6,0,L|239:269,2,83.9999974365235,12|0|0,1:2|1:2|1:2,1:2:0:0:
167,305,99856,2,0,P|127:321|82:317,1,83.9999974365235,8|8,1:2|1:2,1:2:0:0:
3,325,100401,5,12,1:2:0:0:
7,241,100674,1,12,1:2:0:0:
67,183,100947,1,12,1:2:0:0:
150,179,101219,1,8,1:2:0:0:
212,235,101492,6,0,P|238:215|252:213,2,41.9999987182618,8|0|8,1:2|1:2|1:2,1:2:0:0:
275,290,102038,2,0,P|336:309|358:304,1,83.9999974365235,8|8,1:2|1:2,1:2:0:0:
438,306,102583,2,0,P|485:262|490:243,1,83.9999974365235,8|8,1:2|1:2,1:2:0:0:
476,166,103129,1,8,1:2:0:0:
476,166,103401,1,8,1:2:0:0:
429,95,103674,6,0,L|342:91,1,83.9999974365235,8|8,1:2|1:2,1:2:0:0:
279,38,104219,2,0,L|190:43,1,83.9999974365235,8|8,1:2|1:2,1:2:0:0:
140,106,104765,2,0,P|126:140|126:194,2,83.9999974365235,8|8|0,1:2|1:2|1:2,1:2:0:0:
204,214,105719,6,0,L|255:222,1,41.9999987182618,12|8,1:2|1:2,1:2:0:0:
265,257,105992,2,0,L|315:246,1,41.9999987182618,8|8,1:2|1:2,1:2:0:0:
336,218,106265,2,0,L|387:226,1,41.9999987182618,8|8,1:2|1:2,1:2:0:0:
444,274,106674,1,8,1:2:0:0:
463,355,106947,6,0,P|421:358|379:326,1,83.9999974365235,12|8,1:2|1:2,1:2:0:0:
347,262,107492,1,8,1:2:0:0:
359,178,107765,2,0,P|373:131|373:93,2,83.9999974365235,8|8|8,1:2|1:2|1:2,1:2:0:0:
281,210,108583,2,0,P|242:214|202:192,1,83.9999974365235,8|8,1:2|1:2,1:2:0:0:
124,222,109129,6,0,L|134:311,1,83.9999974365235,12|12,1:2|1:2,1:2:0:0:
49,310,109674,2,0,L|38:217,1,83.9999974365235,12|8,1:2|1:2,1:2:0:0:
19,144,110219,2,0,P|21:102|43:65,2,83.9999974365235,8|8|8,1:2|1:2|1:2,1:2:0:0:
101,125,111038,1,8,1:2:0:0:
164,70,111310,2,0,L|216:62,1,41.9999987182618,8|0,1:2|1:2,1:2:0:0:
231,96,111583,2,0,L|320:105,1,83.9999974365235,8|8,1:2|1:2,1:2:0:0:
378,49,112129,1,8,1:2:0:0:
432,112,112401,6,0,B|425:199,1,83.9999974365235,8|8,1:2|1:2,1:2:0:0:
490,249,112947,2,0,B|498:336,1,83.9999974365235,8|8,1:2|1:2,1:2:0:0:
421,367,113492,2,0,P|403:366|383:342,1,41.9999987182618,8|0,1:2|1:2,1:2:0:0:
343,345,113765,2,0,P|330:333|324:302,1,41.9999987182618,8|0,1:2|1:2,1:2:0:0:
305,271,114038,2,0,L|314:188,2,83.9999974365235,8|8|12,1:2|1:2|1:2,1:2:0:0:
256,192,114856,12,0,116219,1:2:0:0:
442,200,116765,5,8,1:2:0:0:
358,190,117038,2,0,L|346:116,2,70,0|0|8,1:2|1:2|1:2,1:2:0:0:
334,224,117719,2,0,B|312:237|312:237|268:236,1,70,12|8,1:2|1:2,1:2:0:0:
214,170,118265,2,0,B|192:156|192:156|144:161,1,70,8|8,1:2|1:2,1:2:0:0:
116,188,118674,1,12,1:2:0:0:
57,247,118947,6,0,L|66:319,1,70,8|8,1:2|1:2,1:2:0:0:
129,371,119492,2,0,P|154:365|188:335,1,70,8|8,1:2|1:2,1:2:0:0:
237,269,120038,2,0,P|257:284|302:291,1,70,8|8,1:2|1:2,1:2:0:0:
381,313,120583,1,0,1:2:0:0:
453,270,120856,1,8,1:2:0:0:
458,186,121129,6,0,P|476:162|477:111,1,70,8|8,1:2|1:2,1:2:0:0:
412,73,121674,2,0,P|388:46|346:29,1,70,8|8,1:2|1:2,1:2:0:0:
292,76,122219,2,0,B|254:82|254:82|232:104|232:104|188:111,1,105,10|2,1:2|1:2,1:2:0:0:
172,75,122765,1,14,1:2:0:0:
12,22,123310,6,0,P|43:65|43:91,1,70,12|8,1:2|1:2,1:2:0:0:
82,155,123856,2,0,P|67:206|76:230,1,70,8|8,1:2|1:2,1:2:0:0:
95,300,124401,2,0,P|139:285|176:283,1,70,8|8,1:2|1:2,1:2:0:0:
242,323,124947,1,8,1:2:0:0:
242,323,125219,1,8,1:2:0:0:
318,362,125492,6,0,L|334:285,1,70,12|8,1:2|1:2,1:2:0:0:
399,243,126038,2,0,L|396:164,1,70,8|8,1:2|1:2,1:2:0:0:
455,112,126583,6,0,P|444:63|358:35,1,140,12|8,1:2|1:2,1:2:0:0:
282,35,127401,1,8,1:2:0:0:
237,106,127674,6,0,P|213:124|200:124,1,35,12|0,1:2|1:2,1:2:0:0:
173,148,127947,2,0,P|142:152|132:146,1,35,8|0,1:2|1:2,1:2:0:0:
101,169,128219,2,0,P|73:157|57:115,1,70,8|8,1:2|1:2,1:2:0:0:
83,43,128765,6,0,P|107:33|135:31,2,52.5,8|0|0,1:2|1:2|1:2,1:2:0:0:
61,79,129310,1,8,1:2:0:0:
137,114,129583,1,8,1:2:0:0:
80,176,129856,2,0,P|78:219|87:259,1,70,12|8,1:2|1:2,1:2:0:0:
165,264,130401,2,0,P|166:307|158:347,1,70,8|8,1:2|1:2,1:2:0:0:
256,192,130947,12,10,132038,1:2:0:0:
419,102,133129,5,2,1:2:0:0:
380,181,134219,2,0,P|367:204|366:223,2,35,8|0|8,1:2|1:2|1:2,1:2:0:0:
327,115,134765,2,0,P|305:116|283:124,1,35,8|0,1:2|1:2,1:2:0:0:
260,147,135038,2,0,P|238:146|216:138,1,35,8|0,1:2|1:2,1:2:0:0:
195,113,135310,2,0,L|115:122,1,70,8|8,1:2|1:2,1:2:0:0:
47,153,135856,2,0,P|33:175|33:194,2,35,8|8|8,1:2|1:2|1:2,1:2:0:0:
