osu file format v14

[General]
AudioFilename: audio.mp3
AudioLeadIn: 0
PreviewTime: 70826
Countdown: 0
SampleSet: Soft
StackLeniency: 0.5
Mode: 0
LetterboxInBreaks: 0
WidescreenStoryboard: 1

[Editor]
Bookmarks: 38166,42530,44712,46894,49076,53439,55621,59985,64348,70894,83166,88348,92712,97076,106401,114530,123257,136212
DistanceSpacing: 1.1
BeatDivisor: 4
GridSize: 32
TimelineZoom: 6.199997

[Metadata]
Title:Machinegun Poem Doll
TitleUnicode:マシンガンポエムドール
Artist:cosMo@BousouP feat. Hatsune Miku
ArtistUnicode:cosMo@暴走P feat. 初音ミク
Creator:Zoli
Version:Light Insane
Source:プロジェクトセカイ カラフルステージ! feat. 初音ミク
Tags:vocaloid jrock j-rock japanese rock project sekai colorful stage featuring hatsune miku プロセカ proseka japanese cosmo cosmop jpop machine gun
BeatmapID:3312872
BeatmapSetID:1606218

[Difficulty]
HPDrainRate:4
CircleSize:3.5
OverallDifficulty:7
ApproachRate:8.3
SliderMultiplier:1.6
SliderTickRate:1

[Events]
//Background and Video events
0,0,"machine gun rick 2.jpg",0,0
//Break Periods
//Storyboard Layer 0 (Background)
//Storyboard Layer 1 (Fail)
//Storyboard Layer 2 (Pass)
//Storyboard Layer 3 (Foreground)
//Storyboard Layer 4 (Overlay)
//Storyboard Sound Samples

[TimingPoints]
1129,272.727272727273,4,2,3,45,1,0
1129,-100,4,2,3,45,0,0
4265,-83.3333333333333,4,2,3,45,0,0
5492,-100,4,2,3,45,0,0
7674,-83.3333333333333,4,2,3,45,0,0
8765,-100,4,2,3,45,0,0
11492,-133.333333333333,4,2,3,45,0,0
12038,-83.3333333333333,4,2,3,50,0,0
12583,-83.3333333333333,4,2,3,50,0,0
15992,-83.3333333333333,4,2,3,30,0,0
16027,-83.3333333333333,4,2,3,5,0,0
16061,-83.3333333333333,4,2,3,30,0,0
16096,-83.3333333333333,4,2,3,5,0,0
16129,-83.3333333333333,4,2,3,30,0,0
16164,-83.3333333333333,4,2,3,5,0,0
16197,-83.3333333333333,4,2,3,30,0,0
16232,-83.3333333333333,4,2,3,5,0,0
16265,-83.3333333333333,4,2,3,30,0,0
16300,-83.3333333333333,4,2,3,5,0,0
16333,-83.3333333333333,4,2,3,30,0,0
16368,-83.3333333333333,4,2,3,5,0,0
16401,-83.3333333333333,4,2,3,50,0,0
16947,-83.3333333333333,4,2,3,50,0,0
20765,-100,4,2,3,50,0,0
28401,-83.3333333333333,4,2,3,50,0,0
30583,-100,4,2,3,50,0,0
31674,-83.3333333333333,4,2,3,50,0,0
32219,-83.3333333333333,4,2,3,50,0,0
32765,-100,4,2,3,50,0,0
44765,-83.3333333333333,4,2,3,50,0,0
46674,-133.333333333333,4,2,3,50,0,0
46947,-133.333333333333,4,2,3,30,0,0
49129,-83.3333333333333,4,2,4,50,0,0
53492,-100,4,2,3,50,0,0
53765,-133.333333333333,4,2,3,30,0,0
55674,-100,4,2,4,50,0,0
56765,-83.3333333333333,4,2,4,50,0,0
60038,-83.3333333333333,4,2,3,50,0,0
60856,-133.333333333333,4,2,3,50,0,0
61129,-83.3333333333333,4,2,3,50,0,0
62492,-100,4,2,3,50,0,0
63310,-83.3333333333333,4,2,4,50,0,0
64401,-100,4,2,3,30,0,0
66583,-100,4,2,3,30,0,0
68765,-100,4,2,3,40,0,0
69754,-100,4,2,3,5,0,0
69993,-100,4,2,3,30,0,0
70027,-100,4,2,3,5,0,0
70266,-100,4,2,3,30,0,0
70300,-100,4,2,3,5,0,0
70539,-100,4,2,3,30,0,0
70573,-100,4,2,3,5,0,0
70607,-100,4,2,3,30,0,0
70947,-83.3333333333333,4,2,3,55,0,1
77492,-83.3333333333333,4,2,3,50,0,0
79674,-83.3333333333333,4,2,3,60,0,1
86219,-100,4,2,3,60,0,1
88401,-83.3333333333333,4,2,3,45,0,0
92765,-100,4,2,3,30,0,0
94947,-83.3333333333333,4,2,3,30,0,0
95254,-83.3333333333333,4,2,3,5,0,0
95288,-83.3333333333333,4,2,3,30,0,0
95323,-83.3333333333333,4,2,3,5,0,0
95356,-83.3333333333333,4,2,3,30,0,0
95391,-83.3333333333333,4,2,3,5,0,0
95424,-83.3333333333333,4,2,3,30,0,0
95459,-83.3333333333333,4,2,3,5,0,0
95492,-83.3333333333333,4,2,3,30,0,0
95527,-83.3333333333333,4,2,3,5,0,0
95560,-83.3333333333333,4,2,3,30,0,0
95595,-83.3333333333333,4,2,3,5,0,0
95629,-83.3333333333333,4,2,3,30,0,0
95664,-83.3333333333333,4,2,3,5,0,0
95697,-83.3333333333333,4,2,3,30,0,0
95732,-83.3333333333333,4,2,3,5,0,0
95765,-83.3333333333333,4,2,3,30,0,0
95800,-83.3333333333333,4,2,3,5,0,0
95833,-83.3333333333333,4,2,3,30,0,0
95868,-83.3333333333333,4,2,3,5,0,0
95901,-83.3333333333333,4,2,3,30,0,0
95935,-83.3333333333333,4,2,3,5,0,0
96174,-83.3333333333333,4,2,3,30,0,0
96208,-83.3333333333333,4,2,3,5,0,0
96447,-83.3333333333333,4,2,3,30,0,0
96481,-83.3333333333333,4,2,3,5,0,0
96720,-83.3333333333333,4,2,3,30,0,0
96754,-83.3333333333333,4,2,3,5,0,0
96788,-83.3333333333333,4,2,3,30,0,0
96856,-100,4,2,3,50,0,0
97129,-83.3333333333333,4,2,3,55,0,1
112810,-100,4,2,3,55,0,1
114583,-83.3333333333333,4,2,3,50,0,0
116697,-83.3333333333333,4,2,3,50,0,0
116765,-100,4,2,3,50,0,0
117719,-83.3333333333333,4,2,3,50,0,0
118026,-83.3333333333333,4,2,3,5,0,0
118265,-83.3333333333333,4,2,3,30,0,0
118299,-83.3333333333333,4,2,3,5,0,0
118538,-83.3333333333333,4,2,3,30,0,0
118674,-100,4,2,3,50,0,0
118811,-100,4,2,3,30,0,0
118845,-100,4,2,3,5,0,0
118879,-100,4,2,3,30,0,0
118947,-83.3333333333333,4,2,3,50,0,0
119492,-83.3333333333333,4,2,3,50,0,0
122219,-55.5555555555556,4,2,3,30,0,0
122254,-55.5555555555556,4,2,3,5,0,0
122288,-55.5555555555556,4,2,3,30,0,0
122323,-55.5555555555556,4,2,3,5,0,0
122356,-55.5555555555556,4,2,3,30,0,0
122391,-55.5555555555556,4,2,3,5,0,0
122424,-55.5555555555556,4,2,3,30,0,0
122459,-55.5555555555556,4,2,3,5,0,0
122492,-55.5555555555556,4,2,3,30,0,0
122527,-55.5555555555556,4,2,3,5,0,0
122560,-55.5555555555556,4,2,3,30,0,0
122595,-55.5555555555556,4,2,3,5,0,0
122629,-55.5555555555556,4,2,3,30,0,0
122664,-55.5555555555556,4,2,3,5,0,0
122697,-55.5555555555556,4,2,3,30,0,0
122732,-55.5555555555556,4,2,3,5,0,0
122765,-100,4,2,3,50,0,0
123310,-83.3333333333333,4,2,3,50,0,0
133947,-133.333333333333,4,2,3,50,0,0
134219,-83.3333333333333,4,2,3,50,0,0

[Colours]
Combo1 : 167,104,223
Combo2 : 60,116,208
Combo3 : 99,170,177
Combo4 : 138,100,155

[HitObjects]
322,139,1129,6,0,L|312:33,1,80,8|8,1:2|1:2,1:2:0:0:
314,59,3310,6,0,L|322:139,1,80,8|8,1:2|1:2,1:2:0:0:
321,138,3992,1,0,1:2:0:0:
269,199,4128,1,0,1:2:0:0:
269,199,4265,6,0,L|286:327,1,95.9999970703126,12|0,1:2|1:2,1:2:0:0:
354,340,4538,1,0,1:2:0:0:
354,340,4674,1,0,1:2:0:0:
400,271,4810,2,0,P|459:305|520:286,1,95.9999970703126,12|0,1:2|1:2,1:2:0:0:
512,223,5083,1,8,1:2:0:0:
512,223,5219,2,0,P|453:189|392:208,1,95.9999970703126,8|0,1:2|1:2,1:2:0:0:
503,100,5492,6,0,L|495:15,2,80,8|8|0,1:2|1:2|1:2,1:2:0:0:
503,100,6174,1,8,1:2:0:0:
503,100,6310,1,8,1:2:0:0:
367,119,6583,6,0,L|381:33,2,80,8|8|0,1:2|1:2|1:2,1:2:0:0:
367,119,7265,1,8,1:2:0:0:
367,119,7401,1,8,1:2:0:0:
248,181,7674,6,0,P|211:152|165:146,2,95.9999970703126,12|0|0,1:2|1:2|1:2,1:2:0:0:
224,264,8083,2,0,P|202:266|168:258,2,47.9999985351563,0|0|8,1:2|1:2|1:2,1:2:0:0:
112,213,8356,1,0,1:2:0:0:
42,257,8492,2,0,L|63:361,1,95.9999970703126,8|0,1:2|1:2,1:2:0:0:
149,359,8765,6,0,P|174:363|194:384,7,40,12|0|0|0|8|0|0|0,1:2|1:2|1:2|1:2|1:2|1:2|1:2|1:2,1:2:0:0:
249,312,9310,2,0,P|293:294|353:302,1,80,8|0,1:2|1:2,1:2:0:0:
400,338,9583,2,0,P|444:356|504:348,2,80,8|0|0,1:2|1:2|1:2,1:2:0:0:
452,266,9992,6,0,B|419:229|434:184|434:184|450:139|422:104|422:104|422:148|400:180,1,240,0|0,1:2|1:2,1:2:0:0:
388,178,10674,6,0,P|362:179|337:191,3,40,0|0|0|0,1:2|1:2|1:2|1:2,1:2:0:0:
327,180,10947,2,0,P|302:189|283:209,3,40,0|0|0|0,1:2|1:2|1:2|1:2,1:2:0:0:
268,199,11219,2,0,P|255:222|253:249,3,40,0|0|0|0,1:2|1:2|1:2|1:2,1:2:0:0:
322,287,11492,6,0,P|340:338|329:374,1,90.0000034332277,0|0,1:2|1:2,1:2:0:0:
320,374,11765,2,0,L|243:385,1,60.0000022888184,0|0,1:2|1:2,1:2:0:0:
168,329,12038,6,0,P|134:297|140:252,1,95.9999970703126,12|0,1:2|1:2,1:2:0:0:
224,229,12310,1,8,1:2:0:0:
224,229,12447,1,8,1:2:0:0:
298,185,12583,2,0,P|320:144|298:103,1,95.9999970703126,8|0,1:2|1:2,1:2:0:0:
249,38,12856,1,8,1:2:0:0:
249,38,12992,1,8,1:2:0:0:
184,95,13129,6,0,L|40:81,2,143.999995605469,8|8|8,1:2|1:2|1:2,1:2:0:0:
132,172,13674,2,0,P|162:216|161:281,1,95.9999970703126,8|0,1:2|1:2,1:2:0:0:
81,276,13947,2,0,P|67:258|59:231,2,47.9999985351563,8|0|8,1:2|1:2|1:2,1:2:0:0:
43,353,14219,6,0,P|97:363|145:320,1,95.9999970703126,8|0,1:2|1:2,1:2:0:0:
216,329,14492,1,8,1:2:0:0:
299,352,14629,1,8,1:2:0:0:
380,323,14765,2,0,P|363:271|360:217,1,95.9999970703126,8|8,1:2|1:2,1:2:0:0:
425,173,15038,1,8,1:2:0:0:
411,90,15174,5,8,1:2:0:0:
411,90,15310,2,0,P|386:99|365:120,3,47.9999985351563,8|0|0|8,1:2|1:2|1:2|1:2,1:2:0:0:
324,100,15583,2,0,P|299:90|269:93,3,47.9999985351563,8|0|0|8,1:2|1:2|1:2|1:2,1:2:0:0:
251,61,15856,1,2,1:2:0:0:
169,87,15992,2,0,B|182:129|182:129|175:140|175:140|189:193,2,95.9999970703126,2|2|2,1:2|1:2|1:2,1:2:0:0:
123,229,16401,6,0,P|160:259|207:258,1,95.9999970703126,14|0,1:2|1:2,1:2:0:0:
272,204,16674,1,8,1:2:0:0:
272,204,16810,1,8,1:2:0:0:
316,278,16947,2,0,P|341:320|385:334,1,95.9999970703126,8|8,1:2|1:2,1:2:0:0:
468,308,17220,1,8,1:2:0:0:
468,308,17356,1,8,1:2:0:0:
489,224,17492,6,0,L|477:124,1,95.9999970703126,8|0,1:2|1:2,1:2:0:0:
439,50,17765,1,8,1:2:0:0:
352,44,17902,2,0,P|332:57|321:77,2,47.9999985351563,8|0|8,1:2|1:2|1:2,1:2:0:0:
241,94,18174,1,8,1:2:0:0:
241,94,18242,1,0,1:2:0:0:
241,94,18310,2,0,P|242:117|254:137,2,47.9999985351563,8|0|8,1:2|1:2|1:2,1:2:0:0:
336,159,18583,5,12,1:2:0:0:
285,230,18719,1,0,1:2:0:0:
285,230,18788,1,0,1:2:0:0:
285,230,18856,2,0,L|214:217,3,47.9999985351563,8|0|0|0,1:2|1:2|1:2|1:2,1:2:0:0:
228,226,19129,2,0,P|253:294|249:348,1,95.9999970703126,10|0,1:2|1:2,1:2:0:0:
186,370,19401,2,0,P|162:370|140:359,3,47.9999985351563,10|0|0|0,1:2|1:2|1:2|1:2,1:2:0:0:
87,294,19674,6,8,L|79:206,2,63.9999980468751,10|8|8,1:2|1:2|1:2,1:2:0:0:
98,236,19947,2,8,L|106:148,2,63.9999980468751,10|8|8,1:2|1:2|1:2,1:2:0:0:
87,150,20219,1,10,1:2:0:0:
194,79,20492,1,10,1:2:0:0:
304,152,20765,5,10,1:2:0:0:
304,152,20901,2,0,P|343:147|378:128,1,80,0|8,1:2|1:2,1:2:0:0:
454,103,21174,2,0,B|473:149|444:182|444:182|414:213|428:254,1,160,0|0,1:2|1:2,1:2:0:0:
435,331,21583,2,0,P|454:328|472:319,3,40,8|0|0|0,1:2|1:2|1:2|1:2,1:2:0:0:
429,341,21856,6,0,P|387:325|351:324,1,80,8|0,1:2|1:2,1:2:0:0:
280,359,22129,1,8,1:2:0:0:
280,359,22265,1,0,1:2:0:0:
201,326,22401,2,0,L|208:178,2,120,8|0|0,1:2|1:2|1:2,1:2:0:0:
117,238,22947,5,10,1:2:0:0:
42,286,23083,1,0,1:2:0:0:
42,286,23219,2,0,P|79:318|126:326,1,80,8|0,1:2|1:2,1:2:0:0:
206,246,23492,2,0,P|198:197|167:161,1,80,8|0,1:2|1:2,1:2:0:0:
69,151,23765,1,8,1:2:0:0:
69,151,23901,1,8,1:2:0:0:
105,59,24038,6,0,P|150:80|201:83,2,80,8|8|8,1:2|1:2|1:2,1:2:0:0:
247,133,24447,2,0,P|286:126|321:107,1,80,6|8,1:2|1:2,1:2:0:0:
366,34,24719,1,8,1:2:0:0:
440,89,24856,2,0,P|450:112|465:139,2,40,8|0|0,1:2|1:2|1:2,1:2:0:0:
400,189,25129,5,10,1:2:0:0:
400,189,25265,1,0,1:2:0:0:
310,183,25401,2,0,P|268:184|230:191,1,80,8|0,1:2|1:2,1:2:0:0:
149,205,25674,2,0,P|168:249|209:266,1,80,8|0,1:2|1:2,1:2:0:0:
214,346,25947,2,0,P|261:351|296:324,1,80,8|0,1:2|1:2,1:2:0:0:
363,293,26219,6,0,L|380:195,2,80,8|0|8,1:2|1:2|1:2,1:2:0:0:
405,374,26629,1,0,1:2:0:0:
467,315,26765,1,8,1:2:0:0:
467,315,26901,1,0,1:2:0:0:
445,226,27038,2,0,P|405:224|350:190,1,80,8|0,1:2|1:2,1:2:0:0:
348,124,27310,5,10,1:2:0:0:
348,124,27447,1,0,1:2:0:0:
266,93,27583,2,0,P|236:100|216:117,3,40,8|0|0|0,1:2|1:2|1:2|1:2,1:2:0:0:
210,64,27856,1,8,1:2:0:0:
124,44,27992,1,0,1:2:0:0:
98,126,28129,2,0,P|70:112|44:112,3,40,8|8|8|8,1:2|1:2|1:2|1:2,1:2:0:0:
99,134,28401,6,0,L|114:228,1,95.9999970703126,12|0,1:2|1:2,1:2:0:0:
80,308,28674,1,8,1:2:0:0:
165,296,28810,1,8,1:2:0:0:
245,327,28947,2,0,P|298:344|352:350,2,95.9999970703126,8|8|8,1:2|1:2|1:2,1:2:0:0:
167,286,29356,1,8,1:2:0:0:
244,240,29492,5,8,1:2:0:0:
244,240,29629,2,0,L|252:176,3,47.9999985351563,0|8|8|0,1:2|1:2|1:2|1:2,1:2:0:0:
250,185,29901,2,0,B|237:151|237:151|316:182|397:161,1,191.999994140625,8|8,1:2|1:2,1:2:0:0:
470,183,30310,2,0,P|473:157|451:114,3,47.9999985351563,8|0|8|0,1:2|1:2|1:2|1:2,1:2:0:0:
405,83,30583,2,0,P|365:63|311:68,1,80,8|0,1:2|1:2,1:2:0:0:
246,63,30856,2,0,L|256:106,3,40,8|0|8|0,1:2|1:2|1:2|1:2,1:2:0:0:
172,109,31129,6,0,P|137:109|149:141,1,80,8|8,1:2|1:2,1:2:0:0:
222,179,31401,2,8,L|218:225,3,40,8|8|8|0,1:2|1:2|1:2|1:2,1:2:0:0:
223,227,31674,2,0,B|215:256|215:256|135:263,1,95.9999970703126,8|0,1:2|1:2,1:2:0:0:
81,317,31947,2,0,B|73:288|73:288|-7:281,1,95.9999970703126,8|8,1:2|1:2,1:2:0:0:
21,374,32219,6,0,L|149:367,1,95.9999970703126,10|0,1:2|1:2,1:2:0:0:
189,317,32492,2,0,P|188:298|174:271,3,47.9999985351563,8|0|8|0,1:2|1:2|1:2|1:2,1:2:0:0:
206,240,32765,1,8,1:2:0:0:
289,212,32901,1,0,1:2:0:0:
357,267,33038,2,0,P|391:261|433:224,1,80,8|8,1:2|1:2,1:2:0:0:
474,169,33310,2,0,L|459:114,3,40,8|0|8|8,1:2|1:2|1:2|1:2,1:2:0:0:
424,118,33583,2,0,L|439:63,3,40,8|8|8|8,1:2|1:2|1:2|1:2,1:2:0:0:
415,43,33856,6,0,P|370:76|320:66,1,80,10|0,1:2|1:2,1:2:0:0:
285,127,34129,2,0,P|229:123|197:84,1,80,10|8,1:2|1:2,1:2:0:0:
167,33,34401,2,0,P|148:35|130:44,3,40,10|0|8|0,1:2|1:2|1:2|1:2,1:2:0:0:
99,71,34674,2,0,P|81:61|61:59,3,40,10|0|8|0,1:2|1:2|1:2|1:2,1:2:0:0:
25,132,34947,6,0,L|11:201,3,40,10|0|0|8,1:2|1:2|1:2|1:2,1:2:0:0:
25,210,35219,2,0,P|61:194|101:195,1,80,10|8,1:2|1:2,1:2:0:0:
184,222,35492,2,0,L|198:291,3,40,10|0|8|0,1:2|1:2|1:2|1:2,1:2:0:0:
184,300,35764,2,0,P|147:284|107:285,1,80,8|8,1:2|1:2,1:2:0:0:
27,323,36038,6,0,L|34:362,3,40,10|0|0|8,1:2|1:2|1:2|1:2,1:2:0:0:
75,375,36310,1,10,1:2:0:0:
163,373,36447,1,8,1:2:0:0:
172,288,36583,2,0,P|189:299|209:303,3,40,10|0|8|0,1:2|1:2|1:2|1:2,1:2:0:0:
243,321,36856,2,0,P|261:311|274:296,3,40,10|0|8|0,1:2|1:2|1:2|1:2,1:2:0:0:
304,270,37129,6,0,L|290:191,1,80,8|0,1:2|1:2,1:2:0:0:
383,158,37401,2,0,L|396:79,1,80,8|0,1:2|1:2,1:2:0:0:
320,23,37674,1,8,1:2:0:0:
320,23,37810,1,8,1:2:0:0:
320,23,37947,2,0,P|281:41|241:43,1,80,8|0,1:2|1:2,1:2:0:0:
173,85,38219,6,0,P|156:73|128:66,3,40,10|0|0|0,1:2|1:2|1:2|1:2,1:2:0:0:
118,102,38492,2,0,P|97:104|71:117,3,40,8|0|0|0,1:2|1:2|1:2|1:2,1:2:0:0:
118,189,38765,1,8,1:2:0:0:
118,189,38901,2,0,L|126:303,1,80,0|8,1:2|1:2,1:2:0:0:
167,342,39174,5,0,1:2:0:0:
167,342,39242,1,0,1:2:0:0:
167,342,39310,2,0,P|187:343|204:335,3,40,8|0|0|0,1:2|1:2|1:2|1:2,1:2:0:0:
205,295,39583,1,8,1:2:0:0:
271,247,39719,2,0,P|310:261|354:261,1,80,0|8,1:2|1:2,1:2:0:0:
428,235,39992,5,0,1:2:0:0:
428,235,40060,1,0,1:2:0:0:
428,235,40128,2,0,P|413:208|393:195,3,40,8|0|0|0,1:2|1:2|1:2|1:2,1:2:0:0:
430,170,40401,2,0,L|449:78,1,80,10|0,1:2|1:2,1:2:0:0:
371,61,40674,2,0,L|366:21,2,40,8|0|0,1:2|1:2|1:2,1:2:0:0:
310,114,40947,2,0,P|271:109|235:124,2,80,8|0|8,1:2|1:2|1:2,1:2:0:0:
283,190,41356,1,0,1:2:0:0:
200,204,41492,6,0,P|168:180|130:175,1,80,12|8,1:2|1:2,1:2:0:0:
63,221,41765,1,8,1:2:0:0:
63,221,41901,1,0,1:2:0:0:
91,309,42038,2,0,P|122:285|160:280,1,80,8|8,1:2|1:2,1:2:0:0:
233,331,42311,1,8,1:2:0:0:
233,331,42447,1,0,1:2:0:0:
320,367,42583,6,0,L|416:373,1,80,8|0,1:2|1:2,1:2:0:0:
475,344,42856,1,8,1:2:0:0:
496,267,42992,1,0,1:2:0:0:
458,195,43129,2,0,P|419:159|368:162,1,80,8|0,1:2|1:2,1:2:0:0:
387,236,43401,2,0,P|337:251|314:296,1,80,8|0,1:2|1:2,1:2:0:0:
222,224,43674,6,0,P|170:235|128:207,1,80,8|0,1:2|1:2,1:2:0:0:
181,152,43946,2,0,P|146:113|148:63,1,80,8|0,1:2|1:2,1:2:0:0:
211,35,44219,1,8,1:2:0:0:
211,35,44356,2,0,L|302:26,1,80,0|8,1:2|1:2,1:2:0:0:
379,29,44629,1,8,1:2:0:0:
379,29,44697,1,8,1:2:0:0:
379,29,44765,6,0,P|365:72|317:101,2,63.9999980468751,8|0|0,1:2|1:2|1:2,1:2:0:0:
399,90,45038,2,0,P|395:129|413:161,2,63.9999980468751,8|0|0,1:2|1:2|1:2,1:2:0:0:
365,144,45310,2,0,P|368:183|353:217,2,63.9999980468751,8|0|0,1:2|1:2|1:2,1:2:0:0:
402,196,45583,2,0,P|397:227|406:257,2,63.9999980468751,8|0|0,1:2|1:2|1:2,1:2:0:0:
407,267,45856,6,0,P|357:298|301:291,1,95.9999970703126,8|0,1:2|1:2,1:2:0:0:
245,339,46129,2,0,P|194:311|172:260,1,95.9999970703126,8|0,1:2|1:2,1:2:0:0:
115,218,46401,2,0,P|114:160|148:115,1,95.9999970703126,8|0,1:2|1:2,1:2:0:0:
192,188,46674,2,8,P|206:184|217:173,3,30.0000011444092,8|8|8|8,1:2|1:2|1:2|1:2,1:2:0:0:
225,169,46947,6,0,L|236:41,1,120.000004577637,12|0,1:2|1:2,1:2:0:0:
346,39,47492,1,0,1:2:0:0:
346,39,47629,1,0,1:2:0:0:
444,95,47901,1,8,1:2:0:0:
444,95,48038,6,0,P|447:139|323:200,1,180.000006866455,8|0,1:2|1:2,1:2:0:0:
291,150,48583,1,0,1:2:0:0:
223,198,48719,1,8,1:2:0:0:
223,198,48788,1,8,1:2:0:0:
223,198,48856,2,0,P|202:223|173:231,1,60.0000022888184,8|0,1:2|1:2,1:2:0:0:
52,227,49129,6,0,L|40:159,3,47.9999985351563,12|8|8|8,1:2|1:2|1:2|1:2,1:2:0:0:
69,145,49401,2,0,L|81:77,3,47.9999985351563,8|8|8|8,1:2|1:2|1:2|1:2,1:2:0:0:
41,73,49674,2,8,P|26:43|32:6,3,47.9999985351563,8|8|8|8,1:2|1:2|1:2|1:2,1:2:0:0:
88,91,49947,2,0,P|157:71|203:105,1,95.9999970703126,8|8,1:2|1:2,1:2:0:0:
258,105,50219,6,8,P|287:99|308:83,3,47.9999985351563,8|8|8|8,1:2|1:2|1:2|1:2,1:2:0:0:
345,93,50492,2,0,P|363:69|369:44,3,47.9999985351563,8|8|8|8,1:2|1:2|1:2|1:2,1:2:0:0:
411,43,50765,2,8,P|440:49|461:65,3,47.9999985351563,8|8|8|8,1:2|1:2|1:2|1:2,1:2:0:0:
464,101,51038,2,0,P|482:124|488:149,3,47.9999985351563,8|8|8|8,1:2|1:2|1:2|1:2,1:2:0:0:
466,179,51310,6,0,P|431:227|429:281,1,95.9999970703126,8|8,1:2|1:2,1:2:0:0:
494,347,51583,2,8,L|445:359,3,47.9999985351563,8|8|8|8,1:2|1:2|1:2|1:2,1:2:0:0:
405,345,51856,2,0,L|356:333,3,47.9999985351563,8|8|8|8,1:2|1:2|1:2|1:2,1:2:0:0:
316,346,52129,1,8,1:2:0:0:
234,372,52265,1,8,1:2:0:0:
151,332,52401,6,8,P|135:306|130:280,3,47.9999985351563,8|8|8|8,1:2|1:2|1:2|1:2,1:2:0:0:
155,260,52674,1,8,1:2:0:0:
231,193,52810,1,8,1:2:0:0:
140,147,52947,2,0,L|87:140,3,47.9999985351563,8|8|8|8,1:2|1:2|1:2|1:2,1:2:0:0:
68,176,53219,2,0,L|15:183,3,47.9999985351563,8|8|8|8,1:2|1:2|1:2|1:2,1:2:0:0:
42,211,53492,6,0,P|30:248|36:288,1,80,12|0,1:2|1:2,1:2:0:0:
94,346,53765,1,0,1:2:0:0:
216,314,54038,1,0,1:2:0:0:
216,314,54174,2,0,L|284:306,1,60.0000022888184,0|0,1:2|1:2,1:2:0:0:
347,365,54447,1,8,1:2:0:0:
347,365,54583,6,8,P|399:377|455:374,1,90.0000034332277,8|0,1:2|1:2,1:2:0:0:
455,349,54856,2,0,P|425:326|394:317,1,60.0000022888184,0|0,1:2|1:2,1:2:0:0:
480,265,55129,2,0,L|491:209,3,30.0000011444092,8|8|8|8,1:2|1:2|1:2|1:2,1:2:0:0:
512,226,55401,1,10,1:2:0:0:
384,163,55674,6,0,P|388:143|400:127,3,40,12|8|8|8,1:2|1:2|1:2|1:2,1:2:0:0:
395,87,55947,2,0,P|410:75|430:70,3,40,8|8|8|8,1:2|1:2|1:2|1:2,1:2:0:0:
430,30,56219,2,8,P|468:54|525:52,1,80,8|8,1:2|1:2,1:2:0:0:
479,141,56492,1,8,1:2:0:0:
479,141,56629,1,8,1:2:0:0:
384,163,56765,6,8,P|354:163|331:151,3,47.9999985351563,8|8|8|8,1:2|1:2|1:2|1:2,1:2:0:0:
306,192,57038,2,0,P|276:191|253:204,3,47.9999985351563,8|8|8|8,1:2|1:2|1:2|1:2,1:2:0:0:
221,170,57310,2,8,P|193:159|167:163,3,47.9999985351563,8|8|8|8,1:2|1:2|1:2|1:2,1:2:0:0:
139,193,57583,2,0,P|118:236|122:283,1,95.9999970703126,8|8,1:2|1:2,1:2:0:0:
164,356,57856,6,0,L|107:368,3,47.9999985351563,8|8|8|8,1:2|1:2|1:2|1:2,1:2:0:0:
69,355,58129,2,0,L|12:343,3,47.9999985351563,8|8|8|8,1:2|1:2|1:2|1:2,1:2:0:0:
19,297,58401,2,8,P|4:239|22:189,1,95.9999970703126,8|8,1:2|1:2,1:2:0:0:
68,138,58674,2,8,P|110:96|163:86,1,95.9999970703126,8|8,1:2|1:2,1:2:0:0:
227,112,58947,6,0,P|248:124|279:130,3,47.9999985351563,8|8|8|8,1:2|1:2|1:2|1:2,1:2:0:0:
313,121,59219,1,8,1:2:0:0:
313,121,59356,1,8,1:2:0:0:
308,207,59492,2,0,P|287:219|256:225,3,47.9999985351563,8|8|8|8,1:2|1:2|1:2|1:2,1:2:0:0:
222,216,59764,1,8,1:2:0:0:
222,216,59901,1,8,1:2:0:0:
236,322,60038,6,0,P|287:321|328:295,1,95.9999970703126,12|0,1:2|1:2,1:2:0:0:
413,326,60310,2,0,L|405:218,1,95.9999970703126,8|0,1:2|1:2,1:2:0:0:
448,154,60583,1,8,1:2:0:0:
448,154,60856,2,0,L|459:76,1,60.0000022888184,8|0,1:2|1:2,1:2:0:0:
376,61,61129,6,0,P|326:20|268:32,1,95.9999970703126,8|0,1:2|1:2,1:2:0:0:
217,52,61401,1,8,1:2:0:0:
217,52,61538,1,0,1:2:0:0:
192,134,61674,2,0,P|257:134|294:87,1,95.9999970703126,8|0,1:2|1:2,1:2:0:0:
357,153,61947,2,0,P|418:176|437:233,1,95.9999970703126,8|0,1:2|1:2,1:2:0:0:
510,237,62219,6,0,L|491:331,1,95.9999970703126,8|0,1:2|1:2,1:2:0:0:
412,369,62492,2,0,L|395:275,1,80,8|0,1:2|1:2,1:2:0:0:
320,235,62765,2,0,P|274:228|226:265,1,80,8|0,1:2|1:2,1:2:0:0:
213,319,63038,1,8,1:2:0:0:
213,319,63174,1,8,1:2:0:0:
119,299,63310,6,8,P|92:308|71:320,3,47.9999985351563,8|8|8|8,1:2|1:2|1:2|1:2,1:2:0:0:
95,267,63583,2,8,P|63:221|57:166,1,95.9999970703126,8|8,1:2|1:2,1:2:0:0:
115,119,63856,2,0,L|119:71,3,47.9999985351563,8|8|8|8,1:2|1:2|1:2|1:2,1:2:0:0:
152,127,64129,2,0,L|156:175,3,47.9999985351563,8|8|8|8,1:2|1:2|1:2|1:2,1:2:0:0:
193,121,64401,6,0,P|238:152|295:149,1,80,10|0,1:2|1:2,1:2:0:0:
337,198,64674,2,0,P|391:192|435:151,1,80,2|0,1:2|1:2,1:2:0:0:
429,96,64947,2,0,P|375:59|331:68,3,80,10|2|2|2,1:2|1:2|1:2|1:2,1:2:0:0:
412,178,65492,6,0,P|367:209|310:206,1,80,10|0,1:2|1:2,1:2:0:0:
268,255,65765,2,0,P|214:249|170:208,1,80,2|0,1:2|1:2,1:2:0:0:
176,153,66038,2,0,P|230:116|274:125,3,80,2|2|2|2,1:2|1:2|1:2|1:2,1:2:0:0:
190,234,66583,6,8,P|193:258|184:289,3,40,12|8|8|8,1:2|1:2|1:2|1:2,1:2:0:0:
158,291,66856,2,8,P|144:311|118:329,3,40,8|8|8|8,1:2|1:2|1:2|1:2,1:2:0:0:
97,315,67129,2,8,P|73:322|41:318,3,40,8|8|8|8,1:2|1:2|1:2|1:2,1:2:0:0:
35,294,67401,2,8,P|12:284|-9:261,3,40,8|8|8|8,1:2|1:2|1:2|1:2,1:2:0:0:
37,200,67674,6,0,L|50:145,3,40,12|0|0|0,1:2|1:2|1:2|1:2,1:2:0:0:
81,150,67947,2,0,L|68:95,3,40,8|0|0|0,1:2|1:2|1:2|1:2,1:2:0:0:
1,73,68219,1,8,1:2:0:0:
1,73,68356,1,8,1:2:0:0:
68,30,68492,2,0,P|118:35|147:65,1,80,8|0,1:2|1:2,1:2:0:0:
223,88,68765,6,0,P|207:110|178:119,3,40,12|8|8|8,1:2|1:2|1:2|1:2,1:2:0:0:
194,156,69038,2,0,P|167:162|139:150,3,40,8|8|8|8,1:2|1:2|1:2|1:2,1:2:0:0:
123,184,69310,2,0,P|112:222|111:263,1,80,8|8,1:2|1:2,1:2:0:0:
160,325,69583,1,8,1:2:0:0:
238,309,69719,1,8,1:2:0:0:
392,352,69992,1,8,1:2:0:0:
485,221,70265,1,8,1:2:0:0:
384,111,70538,5,8,1:2:0:0:
384,111,70606,1,8,1:2:0:0:
384,111,70674,2,0,P|407:152|400:208,1,80,10|0,1:2|1:2,1:2:0:0:
339,237,70947,6,0,P|273:223|200:256,1,143.999995605469,12|0,1:2|1:2,1:2:0:0:
183,291,71219,2,0,P|143:317|91:318,1,95.9999970703126,8|0,1:2|1:2,1:2:0:0:
25,239,71492,1,8,1:2:0:0:
25,238,71629,2,0,P|44:192|43:145,1,95.9999970703126,0|8,1:2|1:2,1:2:0:0:
7,69,71901,1,0,1:2:0:0:
112,77,72038,6,0,B|132:62|163:71|163:71|189:83|235:62,1,95.9999970703126,12|0,1:2|1:2,1:2:0:0:
286,6,72310,2,0,P|327:32|331:89,1,95.9999970703126,12|0,1:2|1:2,1:2:0:0:
275,166,72583,1,8,1:2:0:0:
275,166,72719,1,8,1:2:0:0:
275,166,72856,2,0,P|273:217|311:257,1,95.9999970703126,8|0,1:2|1:2,1:2:0:0:
399,287,73129,6,0,B|494:275,2,95.9999970703126,12|0|8,1:2|1:2|1:2,1:2:0:0:
345,378,73538,1,0,1:2:0:0:
254,324,73674,2,0,P|230:329|212:344,2,47.9999985351563,8|0|0,1:2|1:2|1:2,1:2:0:0:
130,368,73947,1,8,1:2:0:0:
28,338,74083,1,0,1:2:0:0:
98,260,74219,6,0,P|88:239|86:215,3,47.9999985351563,8|8|8|0,1:2|1:2|1:2|1:2,1:2:0:0:
45,189,74492,2,0,P|50:165|64:146,3,47.9999985351563,8|8|8|0,1:2|1:2|1:2|1:2,1:2:0:0:
90,105,74765,2,0,B|111:120|111:120|248:109,2,143.999995605469,8|8|0,1:2|1:2|1:2,1:2:0:0:
273,28,75310,6,0,P|335:29|377:47,1,95.9999970703126,12|0,1:2|1:2,1:2:0:0:
418,109,75583,1,8,1:2:0:0:
418,109,75719,2,0,P|471:141|498:177,1,95.9999970703126,0|8,1:2|1:2,1:2:0:0:
490,248,75992,2,0,P|488:309|470:351,1,95.9999970703126,0|8,1:2|1:2,1:2:0:0:
392,384,76265,1,0,1:2:0:0:
300,359,76401,5,8,1:2:0:0:
300,359,76538,2,0,B|195:350,1,95.9999970703126,0|8,1:2|1:2,1:2:0:0:
122,373,76810,2,0,P|65:313|106:209,1,191.999994140625,0|0,1:2|1:2,1:2:0:0:
152,288,77219,1,8,1:2:0:0:
152,288,77356,1,0,1:2:0:0:
152,288,77492,6,0,L|11:288,1,95.9999970703126,12|0,1:2|1:2,1:2:0:0:
2,205,77765,2,0,L|141:200,1,95.9999970703126,8|0,1:2|1:2,1:2:0:0:
122,118,78038,1,8,1:2:0:0:
35,91,78174,1,0,1:2:0:0:
35,91,78310,1,8,1:2:0:0:
168,39,78447,6,0,P|211:20|258:30,1,95.9999970703126,0|8,1:2|1:2,1:2:0:0:
334,89,78719,1,8,1:2:0:0:
334,89,78856,1,8,1:2:0:0:
356,180,78992,1,8,1:2:0:0:
356,180,79129,2,0,P|386:179|416:164,3,47.9999985351563,8|0|0|0,1:2|1:2|1:2|1:2,1:2:0:0:
445,183,79401,2,0,P|459:156|461:123,3,47.9999985351563,8|0|0|0,1:2|1:2|1:2|1:2,1:2:0:0:
497,113,79674,6,0,B|481:78|488:49|488:49|455:81|391:61,1,143.999995605469,12|0,1:2|1:2,1:2:0:0:
426,38,79947,1,8,1:2:0:0:
344,14,80083,1,0,1:2:0:0:
261,85,80219,1,8,1:2:0:0:
320,152,80356,2,0,B|273:184|225:164|225:164|161:139|104:188,1,191.999994140625,0|0,1:2|1:2,1:2:0:0:
48,128,80765,6,0,P|45:193|103:235,1,95.9999970703126,12|0,1:2|1:2,1:2:0:0:
183,237,81038,2,0,P|186:302|128:344,1,95.9999970703126,12|0,1:2|1:2,1:2:0:0:
66,347,81310,1,8,1:2:0:0:
160,337,81447,2,0,P|216:348|247:377,1,95.9999970703126,10|8,1:2|1:2,1:2:0:0:
334,374,81719,6,0,P|380:371|420:345,2,95.9999970703126,0|12|0,1:2|1:2|1:2,1:2:0:0:
401,260,82129,1,8,1:2:0:0:
401,260,82265,1,0,1:2:0:0:
350,178,82401,2,0,L|241:168,1,95.9999970703126,8|0,1:2|1:2,1:2:0:0:
204,81,82674,2,0,L|95:91,1,95.9999970703126,8|0,1:2|1:2,1:2:0:0:
67,165,82947,6,0,P|58:187|41:203,3,47.9999985351563,8|8|8|0,1:2|1:2|1:2|1:2,1:2:0:0:
43,246,83219,2,0,P|22:257|-1:258,3,47.9999985351563,8|8|8|0,1:2|1:2|1:2|1:2,1:2:0:0:
100,309,83492,2,0,P|156:318|204:355,1,95.9999970703126,8|8,1:2|1:2,1:2:0:0:
272,315,83765,2,0,L|287:205,1,95.9999970703126,8|0,1:2|1:2,1:2:0:0:
350,162,84038,6,0,P|429:214|415:334,1,191.999994140625,12|8,1:2|1:2,1:2:0:0:
363,355,84447,1,0,1:2:0:0:
283,325,84583,2,0,L|164:341,1,95.9999970703126,8|0,1:2|1:2,1:2:0:0:
108,302,84856,1,8,1:2:0:0:
108,302,84992,1,0,1:2:0:0:
49,366,85129,6,0,P|61:297|56:222,2,143.999995605469,8|8|8,1:2|1:2|1:2,1:2:0:0:
0,163,85674,1,8,1:2:0:0:
0,163,85810,1,0,1:2:0:0:
34,80,85947,2,0,P|35:146|68:191,1,95.9999970703126,8|0,1:2|1:2,1:2:0:0:
144,169,86219,6,0,P|163:166|181:157,3,40,12|0|0|0,1:2|1:2|1:2|1:2,1:2:0:0:
196,114,86492,1,8,1:2:0:0:
283,124,86629,1,0,1:2:0:0:
265,211,86765,2,0,P|307:213|352:233,1,80,8|0,1:2|1:2,1:2:0:0:
385,302,87038,2,0,P|377:320|374:340,3,40,8|0|0|0,1:2|1:2|1:2|1:2,1:2:0:0:
459,344,87310,6,0,P|487:317|486:253,1,80,10|10,1:2|1:2,1:2:0:0:
429,218,87583,2,0,P|411:183|434:123,1,80,10|10,1:2|1:2,1:2:0:0:
490,100,87856,5,10,1:2:0:0:
490,100,87992,1,10,1:2:0:0:
398,59,88129,1,10,1:2:0:0:
398,59,88265,1,10,1:2:0:0:
330,118,88401,6,0,P|302:133|248:132,5,63.9999980468751,10|0|0|0|0|0,1:2|1:2|1:2|1:2|1:2|1:2,1:2:0:0:
231,209,88947,2,0,L|240:100,3,95.9999970703126,0|0|0|0,1:2|1:2|1:2|1:2,1:2:0:0:
192,287,89492,6,0,P|220:302|274:301,5,63.9999980468751,10|0|0|0|0|0,1:2|1:2|1:2|1:2|1:2|1:2,1:2:0:0:
291,378,90038,2,0,L|282:269,3,95.9999970703126,0|0|0|0,1:2|1:2|1:2|1:2,1:2:0:0:
376,349,90583,6,0,P|419:349|457:366,5,63.9999980468751,10|0|0|0|0|0,1:2|1:2|1:2|1:2|1:2|1:2,1:2:0:0:
478,283,91129,2,0,P|431:287|395:318,3,95.9999970703126,0|0|0|0,1:2|1:2|1:2|1:2,1:2:0:0:
333,266,91674,6,0,P|290:266|252:283,5,63.9999980468751,10|0|0|0|0|0,1:2|1:2|1:2|1:2|1:2|1:2,1:2:0:0:
231,200,92220,2,0,P|278:204|314:235,3,95.9999970703126,0|0|0|0,1:2|1:2|1:2|1:2,1:2:0:0:
384,191,92765,6,8,P|384:170|379:151,3,40,8|8|8|8,1:2|1:2|1:2|1:2,1:2:0:0:
395,114,93038,2,8,P|383:97|366:85,3,40,8|8|8|8,1:2|1:2|1:2|1:2,1:2:0:0:
357,49,93310,6,0,P|337:43|318:45,7,40,8|8|8|8|8|8|8|8,1:2|1:2|1:2|1:2|1:2|1:2|1:2|1:2,1:2:0:0:
251,93,93856,6,8,P|230:93|211:88,3,40,8|8|8|8,1:2|1:2|1:2|1:2,1:2:0:0:
174,104,94129,2,8,P|157:92|145:75,3,40,8|8|8|8,1:2|1:2|1:2|1:2,1:2:0:0:
109,66,94401,6,8,P|103:46|105:27,7,40,8|8|8|8|8|8|8|8,1:2|1:2|1:2|1:2|1:2|1:2|1:2|1:2,1:2:0:0:
34,104,94947,6,0,P|25:179|52:227,1,95.9999970703126,12|0,1:2|1:2,1:2:0:0:
78,262,95219,2,0,P|90:254|114:218,3,47.9999985351563,8|8|8|8,1:2|1:2|1:2|1:2,1:2:0:0:
22,328,95492,2,0,P|64:306|112:301,2,95.9999970703126,0|8|0,1:2|1:2|1:2,1:2:0:0:
175,372,95901,5,8,1:2:0:0:
184,237,96174,1,8,1:2:0:0:
195,102,96447,1,8,1:2:0:0:
327,189,96719,1,8,1:2:0:0:
327,189,96788,1,8,1:2:0:0:
327,189,96856,2,0,P|360:203|410:194,1,80,12|0,1:2|1:2,1:2:0:0:
458,264,97129,6,0,P|491:284|515:341,1,95.9999970703126,8|0,1:2|1:2,1:2:0:0:
445,379,97401,1,8,1:2:0:0:
445,379,97538,1,0,1:2:0:0:
366,343,97674,2,0,P|343:349|325:365,3,47.9999985351563,8|0|0|0,1:2|1:2|1:2|1:2,1:2:0:0:
286,344,97947,2,0,P|263:337|245:321,3,47.9999985351563,8|0|0|0,1:2|1:2|1:2|1:2,1:2:0:0:
210,347,98219,6,0,L|198:233,1,95.9999970703126,8|0,1:2|1:2,1:2:0:0:
144,184,98492,2,0,P|121:181|98:173,3,47.9999985351563,8|0|0|0,1:2|1:2|1:2|1:2,1:2:0:0:
128,212,98765,1,8,1:2:0:0:
18,200,98901,2,0,L|12:89,1,95.9999970703126,8|8,1:2|1:2,1:2:0:0:
99,25,99174,6,0,B|140:45|150:100|150:100|206:104|232:55,1,191.999994140625,12|0,1:2|1:2,1:2:0:0:
312,27,99583,1,8,1:2:0:0:
391,59,99719,1,0,1:2:0:0:
400,145,99856,2,0,P|404:169|415:192,3,47.9999985351563,8|0|0|0,1:2|1:2|1:2|1:2,1:2:0:0:
398,233,100129,1,8,1:2:0:0:
398,233,100265,1,0,1:2:0:0:
431,312,100401,6,0,L|376:318,3,47.9999985351563,12|0|8|0,1:2|1:2|1:2|1:2,1:2:0:0:
345,338,100674,2,0,L|290:332,3,47.9999985351563,12|0|8|0,1:2|1:2|1:2|1:2,1:2:0:0:
263,304,100947,2,0,L|208:310,3,47.9999985351563,12|0|8|0,1:2|1:2|1:2|1:2,1:2:0:0:
188,343,101220,2,0,L|141:349,3,47.9999985351563,8|0|8|0,1:2|1:2|1:2|1:2,1:2:0:0:
102,327,101492,6,0,P|95:271|137:216,2,95.9999970703126,8|0|8,1:2|1:2|1:2,1:2:0:0:
27,370,101901,1,0,1:2:0:0:
0,293,102038,1,8,1:2:0:0:
0,293,102174,1,0,1:2:0:0:
26,210,102310,2,0,L|141:197,1,95.9999970703126,8|0,1:2|1:2,1:2:0:0:
198,239,102583,6,0,P|264:240|303:200,1,95.9999970703126,8|0,1:2|1:2,1:2:0:0:
266,139,102856,2,0,P|332:138|371:178,1,95.9999970703126,8|0,1:2|1:2,1:2:0:0:
376,237,103129,2,0,P|383:265|405:293,2,47.9999985351563,8|0|0,1:2|1:2|1:2,1:2:0:0:
465,227,103401,1,8,1:2:0:0:
465,227,103538,1,0,1:2:0:0:
501,148,103674,6,0,L|507:93,3,47.9999985351563,8|0|0|0,1:2|1:2|1:2|1:2,1:2:0:0:
478,66,103947,2,0,L|472:11,3,47.9999985351563,8|0|0|0,1:2|1:2|1:2|1:2,1:2:0:0:
429,21,104219,2,0,P|374:22|329:44,1,95.9999970703126,8|0,1:2|1:2,1:2:0:0:
299,116,104492,1,8,1:2:0:0:
219,150,104629,1,8,1:2:0:0:
144,107,104765,6,0,P|144:77|152:60,3,47.9999985351563,8|8|8|8,1:2|1:2|1:2|1:2,1:2:0:0:
189,39,105038,2,0,P|208:16|225:8,3,47.9999985351563,8|8|8|12,1:2|1:2|1:2|1:2,1:2:0:0:
354,107,105447,2,0,L|349:218,1,95.9999970703126,8|8,1:2|1:2,1:2:0:0:
382,281,105719,1,12,1:2:0:0:
431,209,105856,6,0,P|454:211|490:202,3,47.9999985351563,8|8|8|8,1:2|1:2|1:2|1:2,1:2:0:0:
482,194,106129,2,8,P|454:145|454:93,1,95.9999970703126,8|8,1:2|1:2,1:2:0:0:
512,52,106401,2,0,P|495:35|462:19,3,47.9999985351563,8|8|8|8,1:2|1:2|1:2|1:2,1:2:0:0:
463,30,106674,2,8,P|452:85|419:125,1,95.9999970703126,8|0,1:2|1:2,1:2:0:0:
343,113,106947,5,12,1:2:0:0:
343,113,107083,1,0,1:2:0:0:
263,82,107219,1,8,1:2:0:0:
263,82,107356,1,0,1:2:0:0:
187,122,107492,2,0,P|193:180|235:211,1,95.9999970703126,8|0,1:2|1:2,1:2:0:0:
309,196,107765,1,8,1:2:0:0:
309,196,107901,6,0,B|291:328|291:328|336:287,1,191.999994140625,0|0,1:2|1:2,1:2:0:0:
420,301,108310,1,8,1:2:0:0:
477,236,108447,1,0,1:2:0:0:
405,188,108583,2,0,L|392:124,2,47.9999985351563,8|0|0,1:2|1:2|1:2,1:2:0:0:
340,78,108856,2,0,P|302:107|255:116,1,95.9999970703126,8|0,1:2|1:2,1:2:0:0:
180,160,109129,6,0,P|152:145|132:143,3,47.9999985351563,12|0|8|0,1:2|1:2|1:2|1:2,1:2:0:0:
105,113,109401,2,0,P|79:130|67:147,3,47.9999985351563,12|0|8|0,1:2|1:2|1:2|1:2,1:2:0:0:
27,156,109674,2,0,P|29:188|37:207,3,47.9999985351563,12|0|8|0,1:2|1:2|1:2|1:2,1:2:0:0:
14,241,109947,2,0,P|42:255|63:257,2,47.9999985351563,8|0|8,1:2|1:2|1:2,1:2:0:0:
140,235,110219,6,0,L|147:330,1,95.9999970703126,8|0,1:2|1:2,1:2:0:0:
233,322,110492,2,0,L|239:262,2,47.9999985351563,8|0|0,1:2|1:2|1:2,1:2:0:0:
309,362,110765,2,0,P|353:350|409:361,1,95.9999970703126,8|0,1:2|1:2,1:2:0:0:
353,265,111038,2,0,P|400:265|443:285,1,95.9999970703126,8|0,1:2|1:2,1:2:0:0:
492,364,111310,5,8,1:2:0:0:
492,364,111447,1,0,1:2:0:0:
488,274,111583,2,0,P|462:273|442:286,3,47.9999985351563,8|0|0|0,1:2|1:2|1:2|1:2,1:2:0:0:
423,246,111856,2,0,P|376:244|334:221,1,95.9999970703126,8|0,1:2|1:2,1:2:0:0:
378,147,112129,1,8,1:2:0:0:
378,147,112265,1,0,1:2:0:0:
298,101,112401,6,0,L|291:53,2,47.9999985351563,8|0|0,1:2|1:2|1:2,1:2:0:0:
219,131,112674,1,8,1:2:0:0:
148,83,112810,1,0,1:2:0:0:
148,83,112947,2,0,P|88:90|54:114,1,80,8|0,1:2|1:2,1:2:0:0:
30,172,113219,2,0,P|36:194|42:210,3,40,8|8|8|8,1:2|1:2|1:2|1:2,1:2:0:0:
34,290,113492,6,0,P|81:283|110:247,1,80,8|0,1:2|1:2,1:2:0:0:
183,290,113765,2,0,P|230:297|259:333,1,80,8|0,1:2|1:2,1:2:0:0:
337,293,114038,1,8,1:2:0:0:
423,277,114174,2,0,L|431:221,2,40,8|8|8,1:2|1:2|1:2,1:2:0:0:
496,325,114447,1,0,1:2:0:0:
403,374,114583,5,12,1:2:0:0:
256,192,114651,12,0,116492,1:2:0:0:
424,324,116765,5,8,1:2:0:0:
424,324,117038,2,0,P|428:254|363:194,1,160,0|0,1:2|1:2,1:2:0:0:
295,295,117447,1,8,1:2:0:0:
295,295,117515,1,8,1:2:0:0:
295,295,117583,1,8,1:2:0:0:
233,221,117719,6,0,B|222:176|222:176|218:259|188:347,2,191.999994140625,12|8|8,1:2|1:2|1:2,1:2:0:0:
120,353,118538,1,8,1:2:0:0:
120,353,118606,1,0,1:2:0:0:
120,353,118674,2,0,P|90:359|44:337,1,80,12|0,1:2|1:2,1:2:0:0:
35,259,118947,6,0,P|62:206|59:152,1,95.9999970703126,8|0,1:2|1:2,1:2:0:0:
28,100,119219,1,8,1:2:0:0:
28,100,119356,1,8,1:2:0:0:
108,78,119492,2,0,P|143:47|196:42,1,95.9999970703126,8|8,1:2|1:2,1:2:0:0:
264,88,119765,1,8,1:2:0:0:
264,88,119901,1,8,1:2:0:0:
344,71,120038,6,0,L|357:165,1,95.9999970703126,8|0,1:2|1:2,1:2:0:0:
424,220,120310,1,8,1:2:0:0:
497,174,120447,2,0,P|495:150|503:127,2,47.9999985351563,8|0|0,1:2|1:2|1:2,1:2:0:0:
436,79,120719,2,0,P|446:57|464:42,2,47.9999985351563,8|0|8,1:2|1:2|1:2,1:2:0:0:
350,66,120992,1,8,1:2:0:0:
289,127,121128,6,0,B|253:136|253:136|170:116,1,95.9999970703126,8|0,1:2|1:2,1:2:0:0:
161,42,121401,1,8,1:2:0:0:
161,42,121538,1,0,1:2:0:0:
93,95,121674,2,0,P|107:119|110:173,3,47.9999985351563,8|0|0|0,1:2|1:2|1:2|1:2,1:2:0:0:
131,177,121947,2,0,P|117:201|71:230,3,47.9999985351563,8|8|8|8,1:2|1:2|1:2|1:2,1:2:0:0:
64,247,122219,6,0,B|70:237|59:212|59:212|70:236|89:244,6,71.9999978027344,10|0|2|0|2|0|2,1:2|1:2|1:2|1:2|1:2|1:2|1:2,1:2:0:0:
59,285,122765,2,0,B|124:325|173:294|173:294|229:263|283:309,1,240,14|0,1:2|1:2,1:2:0:0:
223,371,123310,6,0,B|196:346|196:346|211:257,1,95.9999970703126,12|0,1:2|1:2,1:2:0:0:
127,225,123583,1,8,1:2:0:0:
217,184,123719,2,0,P|248:218|295:222,1,95.9999970703126,0|8,1:2|1:2,1:2:0:0:
371,262,123992,2,0,P|427:253|452:212,2,95.9999970703126,0|8|0,1:2|1:2|1:2,1:2:0:0:
401,114,124401,6,0,P|431:199|478:203,2,143.999995605469,8|8|8,1:2|1:2|1:2,1:2:0:0:
487,119,124947,1,8,1:2:0:0:
444,44,125083,1,0,1:2:0:0:
357,40,125219,2,0,P|317:65|270:59,1,95.9999970703126,8|8,1:2|1:2,1:2:0:0:
188,31,125492,6,0,B|184:153,1,95.9999970703126,12|0,1:2|1:2,1:2:0:0:
217,212,125765,1,8,1:2:0:0:
217,212,125901,1,0,1:2:0:0:
131,195,126038,1,8,1:2:0:0:
57,240,126174,2,0,P|33:281|36:328,1,95.9999970703126,0|8,1:2|1:2,1:2:0:0:
120,350,126447,1,0,1:2:0:0:
120,350,126583,6,0,L|115:303,3,47.9999985351563,12|0|0|0,1:2|1:2|1:2|1:2,1:2:0:0:
130,282,126856,1,8,1:2:0:0:
224,281,126992,1,0,1:2:0:0:
272,363,127129,2,0,P|296:365|322:354,3,47.9999985351563,8|0|0|0,1:2|1:2|1:2|1:2,1:2:0:0:
360,359,127401,2,0,P|373:339|377:311,3,47.9999985351563,8|0|0|0,1:2|1:2|1:2|1:2,1:2:0:0:
477,242,127674,6,0,P|420:249|398:318,1,95.9999970703126,12|0,1:2|1:2,1:2:0:0:
334,220,127947,1,8,1:2:0:0:
334,220,128083,2,0,P|287:225|251:195,1,95.9999970703126,0|8,1:2|1:2,1:2:0:0:
203,122,128356,5,0,1:2:0:0:
122,91,128492,1,8,1:2:0:0:
38,115,128629,1,0,1:2:0:0:
97,177,128765,6,0,P|94:224|69:264,1,95.9999970703126,8|0,1:2|1:2,1:2:0:0:
135,321,129038,2,0,P|102:356|57:370,1,95.9999970703126,8|0,1:2|1:2,1:2:0:0:
17,300,129310,1,8,1:2:0:0:
17,300,129447,2,0,P|39:290|62:288,2,47.9999985351563,0|0|8,1:2|1:2|1:2,1:2:0:0:
135,321,129719,1,0,1:2:0:0:
221,285,129856,6,0,L|229:237,12,47.9999985351563,12|8|8|8|8|8|8|8|8|8|8|8|8,1:2|1:2|1:2|1:2|1:2|1:2|1:2|1:2|1:2|1:2|1:2|1:2|1:2,1:2:0:0:
314,241,130810,1,8,1:2:0:0:
314,241,130947,6,0,P|360:234|400:260,1,95.9999970703126,8|0,1:2|1:2,1:2:0:0:
417,344,131219,2,0,P|439:336|459:323,3,47.9999985351563,8|0|0|0,1:2|1:2|1:2|1:2,1:2:0:0:
334,354,131492,2,0,P|356:362|380:365,3,47.9999985351563,8|0|0|0,1:2|1:2|1:2|1:2,1:2:0:0:
260,318,131765,2,0,P|271:338|287:356,3,47.9999985351563,8|0|0|0,1:2|1:2|1:2|1:2,1:2:0:0:
264,236,132037,5,10,1:2:0:0:
178,314,133129,1,2,1:2:0:0:
46,245,134219,5,8,1:2:0:0:
46,245,134356,2,0,P|45:226|37:189,2,47.9999985351563,0|0|8,1:2|1:2|1:2,1:2:0:0:
124,207,134629,2,0,P|123:188|114:147,2,47.9999985351563,0|0|8,1:2|1:2|1:2,1:2:0:0:
209,229,134901,1,0,1:2:0:0:
209,229,135038,2,0,P|227:238|277:234,2,47.9999985351563,8|0|0,1:2|1:2|1:2,1:2:0:0:
293,166,135310,6,0,L|406:175,1,95.9999970703126,8|0,1:2|1:2,1:2:0:0:
472,144,135583,1,8,1:2:0:0:
472,144,135719,1,0,1:2:0:0:
466,230,135856,5,8,1:2:0:0:
386,262,135992,1,8,1:2:0:0:
453,316,136129,1,8,1:2:0:0:
