osu file format v14

[General]
AudioFilename: audio.mp3
AudioLeadIn: 0
PreviewTime: 70826
Countdown: 0
SampleSet: Soft
StackLeniency: 0.5
Mode: 0
LetterboxInBreaks: 0
WidescreenStoryboard: 1

[Editor]
Bookmarks: 38166,42530,44712,46894,49076,53439,55621,59985,64348,70894,83166,88348,92712,97076,114530,123257,136212
DistanceSpacing: 0.6
BeatDivisor: 4
GridSize: 32
TimelineZoom: 6.899996

[Metadata]
Title:Machinegun Poem Doll
TitleUnicode:マシンガンポエムドール
Artist:cosMo@BousouP feat. Hatsune Miku
ArtistUnicode:cosMo@暴走P feat. 初音ミク
Creator:Zoli
Version:Insane
Source:プロジェクトセカイ カラフルステージ! feat. 初音ミク
Tags:vocaloid jrock j-rock japanese rock project sekai colorful stage featuring hatsune miku プロセカ proseka japanese cosmo cosmop jpop machine gun
BeatmapID:3343023
BeatmapSetID:1606218

[Difficulty]
HPDrainRate:4
CircleSize:3.5
OverallDifficulty:7.5
ApproachRate:8.8
SliderMultiplier:1.6
SliderTickRate:1

[Events]
//Background and Video events
0,0,"machine gun rick 2.jpg",0,0
//Break Periods
//Storyboard Layer 0 (Background)
//Storyboard Layer 1 (Fail)
//Storyboard Layer 2 (Pass)
//Storyboard Layer 3 (Foreground)
//Storyboard Layer 4 (Overlay)
//Storyboard Sound Samples

[TimingPoints]
1129,272.727272727273,4,2,3,45,1,0
1129,-100,4,2,3,45,0,0
4265,-66.6666666666667,4,2,3,45,0,0
5492,-100,4,2,3,45,0,0
7674,-83.3333333333333,4,2,3,45,0,0
8765,-100,4,2,3,45,0,0
9992,-181.818181818181,4,2,3,45,0,0
10674,-100,4,2,3,45,0,0
11492,-133.333333333333,4,2,3,45,0,0
11765,-181.818181818181,4,2,3,45,0,0
12038,-66.6666666666667,4,2,3,50,0,0
12583,-83.3333333333333,4,2,3,50,0,0
15856,-66.6666666666667,4,2,3,50,0,0
15992,-66.6666666666667,4,2,3,30,0,0
16027,-66.6666666666667,4,2,3,5,0,0
16061,-66.6666666666667,4,2,3,30,0,0
16096,-66.6666666666667,4,2,3,5,0,0
16129,-66.6666666666667,4,2,3,30,0,0
16164,-66.6666666666667,4,2,3,5,0,0
16197,-66.6666666666667,4,2,3,30,0,0
16232,-66.6666666666667,4,2,3,5,0,0
16265,-66.6666666666667,4,2,3,30,0,0
16300,-66.6666666666667,4,2,3,5,0,0
16333,-66.6666666666667,4,2,3,30,0,0
16368,-66.6666666666667,4,2,3,5,0,0
16401,-66.6666666666667,4,2,3,50,0,0
16947,-83.3333333333333,4,2,3,50,0,0
20765,-100,4,2,3,50,0,0
28401,-66.6666666666667,4,2,3,50,0,0
30583,-100,4,2,3,50,0,0
31674,-83.3333333333333,4,2,3,50,0,0
32219,-66.6666666666667,4,2,3,50,0,0
32765,-100,4,2,3,50,0,0
43674,-83.3333333333333,4,2,3,50,0,0
43947,-100,4,2,3,50,0,0
44765,-76.9230769230769,4,2,3,50,0,0
45856,-83.3333333333333,4,2,3,50,0,0
46674,-133.333333333333,4,2,3,50,0,0
46947,-133.333333333333,4,2,3,30,0,0
49129,-66.6666666666667,4,2,4,50,0,0
53492,-100,4,2,3,50,0,0
53765,-133.333333333333,4,2,3,30,0,0
55129,-100,4,2,3,30,0,0
55674,-66.6666666666667,4,2,4,50,0,0
56765,-66.6666666666667,4,2,4,50,0,0
60038,-83.3333333333333,4,2,3,50,0,0
60856,-133.333333333333,4,2,3,50,0,0
61129,-83.3333333333333,4,2,3,50,0,0
62492,-100,4,2,3,50,0,0
63310,-66.6666666666667,4,2,4,50,0,0
64401,-83.3333333333333,4,2,3,30,0,0
66583,-100,4,2,3,30,0,0
68765,-100,4,2,3,40,0,0
69754,-100,4,2,3,5,0,0
69993,-100,4,2,3,30,0,0
70027,-100,4,2,3,5,0,0
70266,-100,4,2,3,30,0,0
70300,-100,4,2,3,5,0,0
70539,-100,4,2,3,30,0,0
70573,-100,4,2,3,5,0,0
70607,-100,4,2,3,30,0,0
70947,-83.3333333333333,4,2,3,55,0,1
72038,-66.6666666666667,4,2,3,55,0,1
72856,-83.3333333333333,4,2,3,55,0,1
77492,-83.3333333333333,4,2,3,50,0,0
79674,-66.6666666666667,4,2,3,60,0,1
80765,-66.6666666666667,4,2,3,60,0,1
81583,-83.3333333333333,4,2,3,60,0,1
86219,-100,4,2,3,60,0,1
88401,-83.3333333333333,4,2,3,45,0,0
92765,-100,4,2,3,30,0,0
94947,-66.6666666666667,4,2,3,30,0,0
95254,-66.6666666666667,4,2,3,5,0,0
95288,-66.6666666666667,4,2,3,30,0,0
95323,-66.6666666666667,4,2,3,5,0,0
95356,-66.6666666666667,4,2,3,30,0,0
95391,-66.6666666666667,4,2,3,5,0,0
95424,-66.6666666666667,4,2,3,30,0,0
95459,-66.6666666666667,4,2,3,5,0,0
95492,-66.6666666666667,4,2,3,30,0,0
95527,-66.6666666666667,4,2,3,5,0,0
95560,-66.6666666666667,4,2,3,30,0,0
95595,-66.6666666666667,4,2,3,5,0,0
95629,-66.6666666666667,4,2,3,30,0,0
95664,-66.6666666666667,4,2,3,5,0,0
95697,-66.6666666666667,4,2,3,30,0,0
95732,-66.6666666666667,4,2,3,5,0,0
95765,-66.6666666666667,4,2,3,30,0,0
95800,-66.6666666666667,4,2,3,5,0,0
95833,-66.6666666666667,4,2,3,30,0,0
95868,-66.6666666666667,4,2,3,5,0,0
95901,-66.6666666666667,4,2,3,30,0,0
95935,-66.6666666666667,4,2,3,5,0,0
96174,-66.6666666666667,4,2,3,30,0,0
96208,-66.6666666666667,4,2,3,5,0,0
96447,-66.6666666666667,4,2,3,30,0,0
96481,-66.6666666666667,4,2,3,5,0,0
96720,-66.6666666666667,4,2,3,30,0,0
96754,-66.6666666666667,4,2,3,5,0,0
96788,-66.6666666666667,4,2,3,30,0,0
96856,-100,4,2,3,50,0,0
97129,-66.6666666666667,4,2,3,55,0,1
97674,-83.3333333333333,4,2,3,55,0,1
102583,-83.3333333333333,4,2,3,55,0,1
112810,-100,4,2,3,55,0,1
114583,-66.6666666666667,4,2,3,50,0,0
116697,-66.6666666666667,4,2,3,5,0,0
116765,-100,4,2,3,50,0,0
117719,-66.6666666666667,4,2,3,50,0,0
118026,-66.6666666666667,4,2,3,5,0,0
118265,-66.6666666666667,4,2,3,30,0,0
118299,-66.6666666666667,4,2,3,5,0,0
118538,-66.6666666666667,4,2,3,30,0,0
118674,-100,4,2,3,50,0,0
118811,-100,4,2,3,30,0,0
118845,-100,4,2,3,5,0,0
118879,-100,4,2,3,30,0,0
118947,-66.6666666666667,4,2,3,50,0,0
119492,-83.3333333333333,4,2,3,50,0,0
122219,-55.5555555555556,4,2,3,30,0,0
122254,-55.5555555555556,4,2,3,5,0,0
122288,-55.5555555555556,4,2,3,30,0,0
122323,-55.5555555555556,4,2,3,5,0,0
122356,-55.5555555555556,4,2,3,30,0,0
122391,-55.5555555555556,4,2,3,5,0,0
122424,-55.5555555555556,4,2,3,30,0,0
122459,-55.5555555555556,4,2,3,5,0,0
122492,-55.5555555555556,4,2,3,30,0,0
122527,-55.5555555555556,4,2,3,5,0,0
122560,-55.5555555555556,4,2,3,30,0,0
122595,-55.5555555555556,4,2,3,5,0,0
122629,-55.5555555555556,4,2,3,30,0,0
122664,-55.5555555555556,4,2,3,5,0,0
122697,-55.5555555555556,4,2,3,30,0,0
122732,-55.5555555555556,4,2,3,5,0,0
122765,-100,4,2,3,50,0,0
123310,-83.3333333333333,4,2,3,50,0,0

[Colours]
Combo1 : 167,104,223
Combo2 : 60,116,208
Combo3 : 99,170,177
Combo4 : 138,100,155

[HitObjects]
190,245,1129,6,0,L|200:351,1,80,8|8,1:2|1:2,1:2:0:0:
322,245,3310,6,0,L|312:351,1,80,8|8,1:2|1:2,1:2:0:0:
314,324,3992,1,0,1:2:0:0:
380,275,4128,1,0,1:2:0:0:
380,275,4197,1,0,1:2:0:0:
380,275,4265,6,0,P|321:241|258:265,1,120.000004577637,12|0,1:2|1:2,1:2:0:0:
228,324,4538,1,0,1:2:0:0:
228,324,4674,1,0,1:2:0:0:
110,216,4810,2,0,P|169:182|232:206,1,120.000004577637,12|0,1:2|1:2,1:2:0:0:
273,252,5083,1,8,1:2:0:0:
273,252,5219,1,8,1:2:0:0:
216,193,5356,2,0,P|199:160|198:115,1,60.0000022888184,0|0,1:2|1:2,1:2:0:0:
166,111,5492,6,0,P|157:147|119:185,2,80,8|8|0,1:2|1:2|1:2,1:2:0:0:
166,111,6174,1,8,1:2:0:0:
86,106,6310,1,8,1:2:0:0:
78,265,6583,6,0,P|86:301|124:339,2,80,8|8|0,1:2|1:2|1:2,1:2:0:0:
78,265,7265,1,8,1:2:0:0:
158,260,7401,1,8,1:2:0:0:
260,324,7674,6,0,P|297:353|343:359,1,95.9999970703126,12|0,1:2|1:2,1:2:0:0:
402,296,7879,1,0,1:2:0:0:
402,296,7947,2,0,P|446:278|475:241,1,95.9999970703126,0|0,1:2|1:2,1:2:0:0:
475,231,8151,1,0,1:2:0:0:
473,221,8219,1,8,1:2:0:0:
410,160,8356,1,0,1:2:0:0:
326,181,8492,2,0,L|305:77,1,95.9999970703126,8|0,1:2|1:2,1:2:0:0:
190,45,8765,6,0,P|165:38|149:22,3,40,12|0|0|0,1:2|1:2|1:2|1:2,1:2:0:0:
136,60,9038,2,0,P|110:60|92:74,3,40,8|0|0|0,1:2|1:2|1:2|1:2,1:2:0:0:
71,45,9310,2,0,P|46:38|30:22,3,40,8|0|0|0,1:2|1:2|1:2|1:2,1:2:0:0:
3,134,9583,2,0,L|22:236,2,80,8|0|0,1:2|1:2|1:2,1:2:0:0:
16,221,9992,6,0,B|63:207|97:239|97:239|131:273|181:261,1,176.000005371094,0|0,1:2|1:2,1:2:0:0:
184,256,10674,6,0,L|178:202,3,40,0|0|0|0,1:2|1:2|1:2|1:2,1:2:0:0:
266,247,10947,2,0,L|260:193,3,40,0|0|0|0,1:2|1:2|1:2|1:2,1:2:0:0:
350,232,11219,2,0,L|344:178,3,40,0|0|0|0,1:2|1:2|1:2|1:2,1:2:0:0:
385,307,11492,6,0,P|412:293|427:222,1,90.0000034332277,0|0,1:2|1:2,1:2:0:0:
511,216,11765,2,0,P|481:216|446:194,1,66.0000020141602,0|0,1:2|1:2,1:2:0:0:
383,159,12038,6,0,P|382:99|298:142,1,180.000006866455,12|8,1:2|1:2,1:2:0:0:
298,132,12310,1,8,1:2:0:0:
299,216,12447,1,8,1:2:0:0:
216,240,12583,2,0,P|191:217|121:217,1,95.9999970703126,8|0,1:2|1:2,1:2:0:0:
156,301,12856,1,8,1:2:0:0:
156,301,12992,1,8,1:2:0:0:
306,311,13129,6,0,L|297:192,1,95.9999970703126,8|0,1:2|1:2,1:2:0:0:
301,206,13333,1,8,1:2:0:0:
302,196,13401,1,8,1:2:0:0:
389,228,13538,2,0,L|435:238,2,47.9999985351563,8|0|8,1:2|1:2|1:2,1:2:0:0:
486,165,13810,1,0,1:2:0:0:
486,165,13879,1,0,1:2:0:0:
486,165,13947,2,0,L|439:154,2,47.9999985351563,8|0|8,1:2|1:2|1:2,1:2:0:0:
402,74,14219,6,0,P|348:64|300:107,1,95.9999970703126,8|0,1:2|1:2,1:2:0:0:
236,45,14492,1,8,1:2:0:0:
180,111,14629,1,8,1:2:0:0:
94,104,14765,2,0,L|114:210,1,95.9999970703126,8|8,1:2|1:2,1:2:0:0:
67,272,15038,1,8,1:2:0:0:
123,351,15174,5,8,1:2:0:0:
123,351,15242,1,0,1:2:0:0:
123,351,15310,2,0,P|148:342|169:321,3,47.9999985351563,8|0|0|8,1:2|1:2|1:2|1:2,1:2:0:0:
244,323,15583,2,0,P|219:314|198:293,3,47.9999985351563,8|0|0|8,1:2|1:2|1:2|1:2,1:2:0:0:
266,245,15856,2,0,P|299:235|325:242,1,60.0000022888184,2|0,1:2|1:2,1:2:0:0:
333,248,15992,2,0,B|359:277|359:277|338:123|338:123|388:184,1,240.000009155274,2|2,1:2|1:2,1:2:0:0:
378,161,16401,6,0,L|389:26,1,120.000004577637,14|0,1:2|1:2,1:2:0:0:
381,35,16606,1,8,1:2:0:0:
376,27,16674,1,8,1:2:0:0:
295,58,16810,1,8,1:2:0:0:
215,41,16947,6,0,P|170:20|120:26,1,95.9999970703126,8|8,1:2|1:2,1:2:0:0:
156,104,17220,1,8,1:2:0:0:
156,104,17356,1,8,1:2:0:0:
193,192,17492,6,0,P|238:171|288:177,1,95.9999970703126,8|0,1:2|1:2,1:2:0:0:
290,181,17697,1,8,1:2:0:0:
297,187,17765,1,8,1:2:0:0:
278,289,17902,2,0,P|258:276|247:256,2,47.9999985351563,8|0|8,1:2|1:2|1:2,1:2:0:0:
374,322,18174,1,8,1:2:0:0:
374,322,18243,1,0,1:2:0:0:
374,322,18310,2,0,P|353:334|342:355,2,47.9999985351563,8|0|8,1:2|1:2|1:2,1:2:0:0:
460,280,18583,5,12,1:2:0:0:
492,205,18719,1,0,1:2:0:0:
492,205,18788,1,0,1:2:0:0:
492,205,18856,2,0,L|479:134,3,47.9999985351563,8|0|0|0,1:2|1:2|1:2|1:2,1:2:0:0:
478,149,19129,2,0,P|426:181|360:169,1,95.9999970703126,10|0,1:2|1:2,1:2:0:0:
362,82,19401,2,0,P|386:82|408:93,3,47.9999985351563,10|0|0|0,1:2|1:2|1:2|1:2,1:2:0:0:
315,154,19674,6,8,P|290:172|248:172,2,63.9999980468751,10|8|8,1:2|1:2|1:2,1:2:0:0:
223,98,19947,2,8,P|194:85|173:48,2,63.9999980468751,10|8|8,1:2|1:2|1:2,1:2:0:0:
239,0,20219,1,10,1:2:0:0:
257,174,20492,1,10,1:2:0:0:
35,216,20765,5,10,1:2:0:0:
35,216,20901,2,0,P|78:194|136:199,1,80,0|8,1:2|1:2,1:2:0:0:
189,249,21174,2,0,B|143:268|110:239|110:239|78:209|17:227,1,160,0|0,1:2|1:2,1:2:0:0:
57,302,21583,2,0,P|60:321|69:339,3,40,8|0|0|0,1:2|1:2|1:2|1:2,1:2:0:0:
150,356,21856,6,0,B|168:337|168:337|240:338,1,80,8|0,1:2|1:2,1:2:0:0:
297,366,22129,1,8,1:2:0:0:
286,286,22265,1,0,1:2:0:0:
349,238,22401,2,0,P|379:262|388:301,1,80,8|0,1:2|1:2,1:2:0:0:
385,308,22606,2,0,P|383:244|424:208,1,120,0|0,1:2|1:2,1:2:0:0:
509,98,22947,5,10,1:2:0:0:
431,129,23083,1,0,1:2:0:0:
431,129,23151,1,0,1:2:0:0:
431,129,23219,2,0,L|420:223,1,80,8|0,1:2|1:2,1:2:0:0:
344,234,23492,1,8,1:2:0:0:
344,234,23629,1,0,1:2:0:0:
281,184,23765,1,8,1:2:0:0:
210,220,23901,1,8,1:2:0:0:
131,175,24038,6,0,P|113:128|109:77,2,80,8|8|8,1:2|1:2|1:2,1:2:0:0:
69,226,24447,2,0,P|52:273|22:315,1,80,6|8,1:2|1:2,1:2:0:0:
89,358,24719,1,8,1:2:0:0:
171,337,24856,1,8,1:2:0:0:
171,337,24924,1,0,1:2:0:0:
171,337,24992,1,0,1:2:0:0:
256,276,25129,5,10,1:2:0:0:
269,356,25265,2,0,P|307:364|347:365,2,80,0|8|0,1:2|1:2|1:2,1:2:0:0:
393,298,25674,2,0,L|380:214,1,80,8|0,1:2|1:2,1:2:0:0:
425,151,25947,2,0,L|437:71,1,80,8|0,1:2|1:2,1:2:0:0:
507,30,26219,2,0,P|471:19|431:55,2,80,8|0|8,1:2|1:2|1:2,1:2:0:0:
512,122,26629,1,0,1:2:0:0:
433,161,26765,5,8,1:2:0:0:
433,161,26833,1,0,1:2:0:0:
433,161,26901,2,0,P|407:164|387:156,1,40,0|0,1:2|1:2,1:2:0:0:
368,128,27038,2,0,P|328:130|273:164,1,80,8|0,1:2|1:2,1:2:0:0:
279,236,27310,5,10,1:2:0:0:
292,315,27447,1,0,1:2:0:0:
216,288,27583,2,0,P|186:295|166:312,3,40,8|0|0|0,1:2|1:2|1:2|1:2,1:2:0:0:
103,271,27856,1,8,1:2:0:0:
103,271,27992,1,0,1:2:0:0:
163,216,28129,2,0,P|174:190|177:157,3,40,8|8|8|8,1:2|1:2|1:2|1:2,1:2:0:0:
131,112,28401,6,0,P|193:146|268:137,1,120.000004577637,12|0,1:2|1:2,1:2:0:0:
314,104,28674,1,8,1:2:0:0:
397,111,28810,1,8,1:2:0:0:
460,31,28947,6,0,B|472:63|481:107|481:107|486:74|504:43,2,120.000004577637,8|8|8,1:2|1:2|1:2,1:2:0:0:
512,181,29356,1,8,1:2:0:0:
426,245,29492,5,8,1:2:0:0:
426,245,29629,2,0,P|438:265|437:308,3,60.0000022888184,0|8|8|0,1:2|1:2|1:2|1:2,1:2:0:0:
433,311,29901,2,0,B|446:345|446:345|367:314|291:328,1,180.000006866455,8|0,1:2|1:2,1:2:0:0:
296,334,30174,1,8,1:2:0:0:
213,372,30310,2,0,L|202:314,3,60.0000022888184,8|0|8|0,1:2|1:2|1:2|1:2,1:2:0:0:
193,307,30583,6,0,B|172:295|172:295|203:254|197:188,1,120,8|8,1:2|1:2,1:2:0:0:
195,197,30856,2,0,P|175:187|151:185,3,40,8|0|8|0,1:2|1:2|1:2|1:2,1:2:0:0:
84,213,31129,6,0,P|97:253|109:225,1,80,8|8,1:2|1:2,1:2:0:0:
96,131,31401,2,8,L|95:87,3,40,8|8|8|0,1:2|1:2|1:2|1:2,1:2:0:0:
139,27,31674,2,0,B|168:35|168:35|175:115,1,95.9999970703126,8|0,1:2|1:2,1:2:0:0:
255,102,31947,2,0,B|226:94|226:94|219:14,1,95.9999970703126,8|8,1:2|1:2,1:2:0:0:
302,31,32219,6,0,B|337:68|337:68|333:152|333:152|368:113,1,180.000006866455,10|0,1:2|1:2,1:2:0:0:
374,120,32492,2,0,L|437:113,3,60.0000022888184,8|0|8|0,1:2|1:2|1:2|1:2,1:2:0:0:
488,172,32765,1,8,1:2:0:0:
480,251,32901,1,0,1:2:0:0:
470,330,33038,2,0,B|427:320|427:320|415:329|415:329|344:316,1,120,8|0,1:2|1:2,1:2:0:0:
284,366,33310,2,0,L|222:377,3,40,8|0|8|8,1:2|1:2|1:2|1:2,1:2:0:0:
175,336,33583,2,0,L|135:329,3,40,8|8|8|8,1:2|1:2|1:2|1:2,1:2:0:0:
79,384,33856,6,0,P|54:334|72:287,1,80,10|0,1:2|1:2,1:2:0:0:
111,251,34129,2,0,P|136:221|141:182,1,80,10|8,1:2|1:2,1:2:0:0:
141,102,34401,2,0,P|122:104|104:113,3,40,10|0|8|0,1:2|1:2|1:2|1:2,1:2:0:0:
229,77,34674,5,10,1:2:0:0:
229,77,34743,1,0,1:2:0:0:
229,77,34811,1,8,1:2:0:0:
229,77,34879,1,0,1:2:0:0:
229,77,34947,6,0,L|243:8,3,40,10|0|0|8,1:2|1:2|1:2|1:2,1:2:0:0:
282,139,35219,2,0,P|321:140|360:123,1,80,10|8,1:2|1:2,1:2:0:0:
448,157,35492,2,0,L|441:198,3,40,10|0|8|0,1:2|1:2|1:2|1:2,1:2:0:0:
497,261,35765,1,8,1:2:0:0:
497,261,35901,1,8,1:2:0:0:
442,323,36038,6,0,P|422:326|402:340,3,40,10|0|0|8,1:2|1:2|1:2|1:2,1:2:0:0:
335,310,36310,1,10,1:2:0:0:
335,310,36447,1,8,1:2:0:0:
265,355,36583,2,0,P|248:344|228:340,3,40,10|0|8|0,1:2|1:2|1:2|1:2,1:2:0:0:
156,303,36856,2,0,P|138:312|125:327,3,40,10|0|8|0,1:2|1:2|1:2|1:2,1:2:0:0:
46,320,37129,6,0,P|24:274|29:221,1,80,8|0,1:2|1:2,1:2:0:0:
133,136,37401,2,0,P|139:175|129:214,1,80,8|0,1:2|1:2,1:2:0:0:
239,259,37674,1,8,1:2:0:0:
239,259,37810,1,8,1:2:0:0:
239,259,37947,2,0,P|278:241|318:239,1,80,8|0,1:2|1:2,1:2:0:0:
399,272,38219,6,0,P|416:284|444:291,3,40,10|0|0|0,1:2|1:2|1:2|1:2,1:2:0:0:
474,221,38492,2,0,P|495:219|521:206,3,40,8|0|0|0,1:2|1:2|1:2|1:2,1:2:0:0:
422,161,38765,1,8,1:2:0:0:
422,161,38901,2,0,L|414:47,1,80,0|8,1:2|1:2,1:2:0:0:
343,15,39174,5,0,1:2:0:0:
343,15,39242,1,0,1:2:0:0:
343,15,39310,2,0,P|323:14|306:22,3,40,8|0|0|0,1:2|1:2|1:2|1:2,1:2:0:0:
296,103,39583,1,8,1:2:0:0:
231,150,39719,2,0,P|192:136|148:136,1,80,0|8,1:2|1:2,1:2:0:0:
84,164,39992,5,0,1:2:0:0:
84,164,40060,1,0,1:2:0:0:
84,164,40128,2,0,P|99:191|119:204,3,40,8|0|0|0,1:2|1:2|1:2|1:2,1:2:0:0:
68,269,40401,2,0,P|107:238|167:243,1,80,10|0,1:2|1:2,1:2:0:0:
221,261,40674,1,8,1:2:0:0:
221,261,40742,1,0,1:2:0:0:
221,261,40810,1,0,1:2:0:0:
287,306,40947,2,0,P|326:311|362:296,2,80,8|0|8,1:2|1:2|1:2,1:2:0:0:
311,232,41356,1,0,1:2:0:0:
373,165,41492,6,0,L|379:81,2,80,12|8|8,1:2|1:2|1:2,1:2:0:0:
453,157,41901,5,0,1:2:0:0:
374,79,42038,2,0,P|324:72|282:100,1,80,8|8,1:2|1:2,1:2:0:0:
295,91,42242,1,8,1:2:0:0:
294,98,42310,1,8,1:2:0:0:
253,169,42447,1,0,1:2:0:0:
276,250,42583,6,0,P|227:251|186:218,1,80,8|0,1:2|1:2,1:2:0:0:
297,335,42856,1,8,1:2:0:0:
355,272,42992,1,0,1:2:0:0:
331,194,43129,2,0,P|355:147|404:133,1,80,8|0,1:2|1:2,1:2:0:0:
437,201,43401,2,0,P|489:199|526:233,1,80,8|0,1:2|1:2,1:2:0:0:
490,377,43674,6,0,B|469:346|469:346|480:289,1,95.9999970703126,8|0,1:2|1:2,1:2:0:0:
333,203,43947,2,0,B|359:229|359:229|359:286,1,80,8|0,1:2|1:2,1:2:0:0:
306,341,44219,2,0,P|269:356|228:350,2,80,8|0|8,1:2|1:2|1:2,1:2:0:0:
152,371,44629,1,8,1:2:0:0:
152,371,44697,1,8,1:2:0:0:
152,371,44765,6,0,P|150:325|180:279,2,69.3333301595054,8|0|0,1:2|1:2|1:2,1:2:0:0:
61,288,45038,2,0,P|63:242|20:190,2,69.3333301595054,8|0|0,1:2|1:2|1:2,1:2:0:0:
162,194,45310,2,0,P|160:148|204:94,2,69.3333301595054,8|0|0,1:2|1:2|1:2,1:2:0:0:
64,111,45583,2,0,P|66:65|20:12,2,69.3333301595054,8|0|0,1:2|1:2|1:2,1:2:0:0:
160,31,45856,6,0,P|212:4|267:16,1,95.9999970703126,8|0,1:2|1:2,1:2:0:0:
299,86,46129,2,0,P|350:114|372:165,1,95.9999970703126,8|0,1:2|1:2,1:2:0:0:
333,234,46401,2,0,P|334:292|300:337,1,95.9999970703126,8|0,1:2|1:2,1:2:0:0:
211,281,46674,2,8,P|221:270|236:266,3,30.0000011444092,8|8|8|8,1:2|1:2|1:2|1:2,1:2:0:0:
206,293,46947,6,0,L|195:202,1,90.0000034332277,12|0,1:2|1:2,1:2:0:0:
192,198,47219,1,0,1:2:0:0:
157,361,47492,2,0,P|189:374|228:372,2,60.0000022888184,0|0|0,1:2|1:2|1:2,1:2:0:0:
287,337,47901,1,8,1:2:0:0:
287,337,48038,6,0,P|331:340|392:216,1,180.000006866455,8|0,1:2|1:2,1:2:0:0:
392,229,48583,1,0,1:2:0:0:
315,171,48719,1,8,1:2:0:0:
315,171,48788,1,8,1:2:0:0:
315,171,48856,2,0,B|307:200|307:200|322:284,1,90.0000034332277,8|0,1:2|1:2,1:2:0:0:
288,253,49129,6,0,P|255:256|222:287,3,60.0000022888184,12|8|8|8,1:2|1:2|1:2|1:2,1:2:0:0:
170,221,49401,2,0,P|140:206|119:166,3,60.0000022888184,8|8|8|8,1:2|1:2|1:2|1:2,1:2:0:0:
39,199,49674,2,8,P|15:222|10:267,3,60.0000022888184,8|8|8|8,1:2|1:2|1:2|1:2,1:2:0:0:
5,116,49947,2,0,P|61:70|40:-5,1,120.000004577637,8|8,1:2|1:2,1:2:0:0:
170,15,50219,6,8,L|232:22,3,60.0000022888184,8|8|8|8,1:2|1:2|1:2|1:2,1:2:0:0:
308,69,50492,2,0,L|367:62,3,60.0000022888184,8|8|8|8,1:2|1:2|1:2|1:2,1:2:0:0:
460,28,50765,1,8,1:2:0:0:
460,28,50833,1,8,1:2:0:0:
460,28,50901,1,8,1:2:0:0:
460,28,50969,1,8,1:2:0:0:
460,28,51038,2,0,P|479:53|486:86,3,60.0000022888184,8|8|8|8,1:2|1:2|1:2|1:2,1:2:0:0:
418,128,51310,6,0,P|385:172|380:241,1,120.000004577637,8|8,1:2|1:2,1:2:0:0:
476,293,51583,2,8,P|500:274|509:246,3,60.0000022888184,8|8|8|8,1:2|1:2|1:2|1:2,1:2:0:0:
398,368,51856,2,0,P|425:378|454:372,3,60.0000022888184,8|8|8|8,1:2|1:2|1:2|1:2,1:2:0:0:
334,312,52129,1,8,1:2:0:0:
256,348,52265,1,8,1:2:0:0:
220,272,52401,6,8,P|213:240|194:212,3,60.0000022888184,8|8|8|8,1:2|1:2|1:2|1:2,1:2:0:0:
136,276,52674,1,8,1:2:0:0:
136,276,52810,1,8,1:2:0:0:
72,359,52947,2,0,L|-17:347,3,60.0000022888184,8|8|8|8,1:2|1:2|1:2|1:2,1:2:0:0:
0,243,53219,2,0,L|59:234,3,60.0000022888184,8|8|8|8,1:2|1:2|1:2|1:2,1:2:0:0:
104,161,53492,6,0,P|116:122|109:82,1,80,12|0,1:2|1:2,1:2:0:0:
46,33,53765,1,0,1:2:0:0:
195,38,54038,1,0,1:2:0:0:
195,38,54174,2,0,L|263:30,1,60.0000022888184,0|0,1:2|1:2,1:2:0:0:
328,135,54447,1,8,1:2:0:0:
328,135,54583,6,8,L|185:121,1,120.000004577637,8|0,1:2|1:2,1:2:0:0:
161,272,55129,2,0,L|171:329,3,40,8|8|8|8,1:2|1:2|1:2|1:2,1:2:0:0:
247,326,55401,1,10,1:2:0:0:
125,378,55674,6,0,P|108:366|94:326,3,60.0000022888184,12|8|8|8,1:2|1:2|1:2|1:2,1:2:0:0:
43,270,55947,2,0,P|44:249|72:217,3,60.0000022888184,8|8|8|8,1:2|1:2|1:2|1:2,1:2:0:0:
130,167,56219,2,8,P|168:191|246:185,1,120.000004577637,8|8,1:2|1:2,1:2:0:0:
276,111,56492,1,8,1:2:0:0:
238,35,56629,1,8,1:2:0:0:
154,30,56765,6,8,P|152:55|187:97,3,60.0000022888184,8|8|8|8,1:2|1:2|1:2|1:2,1:2:0:0:
86,103,57038,2,0,P|63:113|44:165,3,60.0000022888184,8|8|8|8,1:2|1:2|1:2|1:2,1:2:0:0:
78,239,57310,1,8,1:2:0:0:
78,239,57379,1,8,1:2:0:0:
78,239,57447,1,8,1:2:0:0:
78,239,57515,1,8,1:2:0:0:
78,239,57583,2,0,P|74:310|37:349,1,120.000004577637,8|8,1:2|1:2,1:2:0:0:
0,273,57856,6,0,P|24:244|62:238,3,60.0000022888184,8|8|8|8,1:2|1:2|1:2|1:2,1:2:0:0:
113,196,58129,2,0,P|150:202|174:232,3,60.0000022888184,8|8|8|8,1:2|1:2|1:2|1:2,1:2:0:0:
199,290,58401,2,8,P|255:309|312:295,1,120.000004577637,8|8,1:2|1:2,1:2:0:0:
392,248,58674,2,8,P|345:210|286:204,1,120.000004577637,8|8,1:2|1:2,1:2:0:0:
221,150,58947,6,0,L|211:80,3,60.0000022888184,8|8|8|8,1:2|1:2|1:2|1:2,1:2:0:0:
217,80,59219,1,8,1:2:0:0:
301,75,59356,1,8,1:2:0:0:
384,66,59492,2,0,L|392:6,3,60.0000022888184,8|8|8|8,1:2|1:2|1:2|1:2,1:2:0:0:
471,88,59764,1,8,1:2:0:0:
471,88,59901,1,8,1:2:0:0:
396,191,60038,6,0,P|390:251|439:289,1,95.9999970703126,12|0,1:2|1:2,1:2:0:0:
340,321,60310,2,0,P|306:370|244:368,1,95.9999970703126,8|0,1:2|1:2,1:2:0:0:
205,337,60583,1,8,1:2:0:0:
205,337,60856,2,0,L|192:253,1,60.0000022888184,8|0,1:2|1:2,1:2:0:0:
159,208,61129,6,0,P|209:249|267:237,1,95.9999970703126,8|0,1:2|1:2,1:2:0:0:
312,233,61401,1,8,1:2:0:0:
353,167,61538,1,0,1:2:0:0:
332,93,61674,2,0,P|267:93|230:140,1,95.9999970703126,8|0,1:2|1:2,1:2:0:0:
170,90,61947,2,0,P|109:67|90:10,1,95.9999970703126,8|0,1:2|1:2,1:2:0:0:
174,0,62219,6,0,P|205:48|194:137,1,143.999995605469,8|0,1:2|1:2,1:2:0:0:
193,138,62492,2,0,P|179:182|206:236,1,80,8|0,1:2|1:2,1:2:0:0:
259,249,62765,2,0,P|290:283|350:286,1,80,8|0,1:2|1:2,1:2:0:0:
394,258,63038,1,8,1:2:0:0:
432,191,63174,1,8,1:2:0:0:
432,191,63242,1,8,1:2:0:0:
432,191,63310,6,8,B|418:96,3,60.0000022888184,8|8|8|8,1:2|1:2|1:2|1:2,1:2:0:0:
394,264,63583,2,8,P|426:310|429:378,1,120.000004577637,8|8,1:2|1:2,1:2:0:0:
326,378,63856,2,0,P|323:349|330:320,3,60.0000022888184,8|8|8|8,1:2|1:2|1:2|1:2,1:2:0:0:
259,285,64129,2,0,P|275:260|299:241,3,60.0000022888184,8|8|8|8,1:2|1:2|1:2|1:2,1:2:0:0:
242,366,64401,6,0,L|226:243,1,95.9999970703126,10|0,1:2|1:2,1:2:0:0:
156,355,64674,2,0,L|143:234,1,95.9999970703126,2|0,1:2|1:2,1:2:0:0:
49,293,64947,2,0,P|87:346|157:345,3,95.9999970703126,10|2|2|2,1:2|1:2|1:2|1:2,1:2:0:0:
142,235,65492,6,0,L|157:112,1,95.9999970703126,10|0,1:2|1:2,1:2:0:0:
228,224,65765,2,0,L|241:101,1,95.9999970703126,2|0,1:2|1:2,1:2:0:0:
335,162,66038,2,0,P|297:215|227:216,3,95.9999970703126,2|2|2|2,1:2|1:2|1:2|1:2,1:2:0:0:
402,214,66583,6,8,L|459:207,3,40,12|8|8|8,1:2|1:2|1:2|1:2,1:2:0:0:
435,249,66856,2,8,L|492:242,3,40,8|8|8|8,1:2|1:2|1:2|1:2,1:2:0:0:
362,292,67129,2,8,L|305:285,3,40,8|8|8|8,1:2|1:2|1:2|1:2,1:2:0:0:
329,327,67402,2,8,L|272:320,3,40,8|8|8|8,1:2|1:2|1:2|1:2,1:2:0:0:
211,314,67674,5,12,1:2:0:0:
211,314,67742,1,0,1:2:0:0:
211,314,67810,1,0,1:2:0:0:
211,314,67879,1,0,1:2:0:0:
211,314,67947,2,0,P|213:343|225:374,3,40,8|0|0|0,1:2|1:2|1:2|1:2,1:2:0:0:
137,368,68219,1,8,1:2:0:0:
56,361,68356,1,8,1:2:0:0:
103,296,68492,2,0,L|87:230,3,40,8|0|0|0,1:2|1:2|1:2|1:2,1:2:0:0:
27,216,68765,6,0,P|43:194|72:185,3,40,12|8|8|8,1:2|1:2|1:2|1:2,1:2:0:0:
96,118,69038,2,0,P|123:120|145:141,3,40,8|8|8|8,1:2|1:2|1:2|1:2,1:2:0:0:
203,87,69310,2,0,P|179:125|176:175,1,80,8|8,1:2|1:2,1:2:0:0:
217,256,69583,1,8,1:2:0:0:
318,198,69719,5,8,1:2:0:0:
391,223,69992,1,8,1:2:0:0:
438,286,70265,1,8,1:2:0:0:
382,373,70538,1,8,1:2:0:0:
382,373,70606,1,8,1:2:0:0:
382,373,70674,2,0,P|359:332|366:276,1,80,10|0,1:2|1:2,1:2:0:0:
391,223,70947,6,0,P|399:157|348:114,1,95.9999970703126,12|0,1:2|1:2,1:2:0:0:
312,87,71151,1,0,1:2:0:0:
312,87,71219,2,0,P|281:146|316:205,1,95.9999970703126,8|0,1:2|1:2,1:2:0:0:
405,136,71492,1,8,1:2:0:0:
448,48,71629,2,0,B|394:28|350:60|350:60|305:95|234:67,1,191.999994140625,0|8,1:2|1:2,1:2:0:0:
192,21,72038,6,0,P|173:77|207:144,1,120.000004577637,12|0,1:2|1:2,1:2:0:0:
64,205,72310,2,0,P|94:154|85:96,1,120.000004577637,12|0,1:2|1:2,1:2:0:0:
3,286,72583,1,8,1:2:0:0:
75,343,72719,1,8,1:2:0:0:
165,335,72856,2,0,P|206:309|311:348,1,143.999995605469,8|0,1:2|1:2,1:2:0:0:
308,343,73129,6,0,B|403:333,1,95.9999970703126,12|0,1:2|1:2,1:2:0:0:
488,366,73401,1,8,1:2:0:0:
488,366,73538,1,0,1:2:0:0:
464,275,73674,1,8,1:2:0:0:
464,275,73742,1,0,1:2:0:0:
464,275,73810,1,0,1:2:0:0:
387,227,73947,1,8,1:2:0:0:
441,160,74083,1,0,1:2:0:0:
373,105,74219,6,0,L|361:58,3,47.9999985351563,8|8|8|0,1:2|1:2|1:2|1:2,1:2:0:0:
280,80,74492,2,0,L|291:126,3,47.9999985351563,8|8|8|0,1:2|1:2|1:2|1:2,1:2:0:0:
210,144,74765,2,0,B|190:134|190:134|53:128,2,143.999995605469,8|8|0,1:2|1:2|1:2,1:2:0:0:
176,221,75310,6,0,P|177:277|194:341,1,95.9999970703126,12|0,1:2|1:2,1:2:0:0:
275,335,75583,1,8,1:2:0:0:
339,273,75719,2,0,P|383:244|447:256,1,95.9999970703126,0|8,1:2|1:2,1:2:0:0:
437,331,75992,1,0,1:2:0:0:
437,331,76129,1,8,1:2:0:0:
512,291,76265,1,0,1:2:0:0:
512,203,76401,5,8,1:2:0:0:
512,203,76538,2,0,P|509:145|496:95,1,95.9999970703126,0|8,1:2|1:2,1:2:0:0:
442,41,76810,2,0,P|380:132|465:192,1,191.999994140625,0|0,1:2|1:2,1:2:0:0:
447,268,77219,1,8,1:2:0:0:
361,280,77356,1,0,1:2:0:0:
275,292,77492,6,0,B|255:321|209:305|209:305|163:287|110:326,1,143.999995605469,12|8,1:2|1:2,1:2:0:0:
134,316,77765,2,0,P|82:327|45:288,1,95.9999970703126,8|0,1:2|1:2,1:2:0:0:
62,219,78038,1,8,1:2:0:0:
0,165,78174,1,0,1:2:0:0:
0,165,78310,1,8,1:2:0:0:
59,78,78447,6,0,P|106:72|158:105,1,95.9999970703126,0|8,1:2|1:2,1:2:0:0:
214,147,78719,1,8,1:2:0:0:
299,159,78856,1,8,1:2:0:0:
368,108,78992,1,8,1:2:0:0:
451,84,79129,2,0,P|481:85|511:100,3,47.9999985351563,8|0|0|0,1:2|1:2|1:2|1:2,1:2:0:0:
475,181,79401,5,8,1:2:0:0:
475,181,79469,1,0,1:2:0:0:
475,181,79538,1,0,1:2:0:0:
475,181,79606,1,0,1:2:0:0:
475,181,79674,6,0,B|480:236|480:236|500:256|500:256|505:320,1,120.000004577637,12|0,1:2|1:2,1:2:0:0:
493,312,79879,1,0,1:2:0:0:
483,331,79947,1,8,1:2:0:0:
400,373,80083,1,0,1:2:0:0:
310,318,80219,1,8,1:2:0:0:
208,342,80356,2,0,B|182:267|185:165|185:165|176:198|152:239,1,240.000009155274,0|0,1:2|1:2,1:2:0:0:
157,233,80765,6,0,P|222:236|264:177,1,120.000004577637,12|0,1:2|1:2,1:2:0:0:
100,309,81038,2,0,P|56:269|-2:275,1,120.000004577637,12|0,1:2|1:2,1:2:0:0:
26,379,81310,1,8,1:2:0:0:
26,379,81447,1,10,1:2:0:0:
183,335,81583,2,0,P|245:311|324:310,1,143.999995605469,8|0,1:2|1:2,1:2:0:0:
393,354,81856,6,0,B|368:334|368:334|351:238,1,95.9999970703126,12|0,1:2|1:2,1:2:0:0:
466,297,82129,2,0,B|449:269|449:269|472:174,1,95.9999970703126,8|0,1:2|1:2,1:2:0:0:
512,99,82401,5,8,1:2:0:0:
493,18,82537,1,0,1:2:0:0:
410,38,82674,1,8,1:2:0:0:
427,120,82810,1,0,1:2:0:0:
344,101,82947,6,0,P|316:100|276:110,3,47.9999985351563,8|8|8|0,1:2|1:2|1:2|1:2,1:2:0:0:
213,59,83219,2,0,P|187:48|144:43,3,47.9999985351563,8|8|8|0,1:2|1:2|1:2|1:2,1:2:0:0:
77,89,83492,1,8,1:2:0:0:
77,89,83628,1,8,1:2:0:0:
150,146,83765,2,0,P|177:206|162:267,1,95.9999970703126,8|0,1:2|1:2,1:2:0:0:
108,291,84037,6,0,P|101:219|132:156,1,143.999995605469,12|0,1:2|1:2,1:2:0:0:
150,146,84310,2,0,P|208:171|262:168,2,95.9999970703126,8|0|8,1:2|1:2|1:2,1:2:0:0:
103,46,84719,1,0,1:2:0:0:
27,91,84856,1,8,1:2:0:0:
36,177,84992,1,0,1:2:0:0:
75,288,85129,6,0,P|144:323|199:309,1,95.9999970703126,8|0,1:2|1:2,1:2:0:0:
194,328,85333,2,0,P|250:310|302:319,1,95.9999970703126,8|0,1:2|1:2,1:2:0:0:
320,324,85538,2,0,P|319:252|350:195,2,95.9999970703126,8|8|0,1:2|1:2|1:2,1:2:0:0:
406,345,85947,1,8,1:2:0:0:
406,345,86083,1,0,1:2:0:0:
450,242,86219,6,0,P|431:245|413:254,3,40,12|0|0|0,1:2|1:2|1:2|1:2,1:2:0:0:
478,165,86492,1,8,1:2:0:0:
512,80,86629,1,0,1:2:0:0:
461,4,86765,2,0,P|419:6|374:26,1,80,8|0,1:2|1:2,1:2:0:0:
354,95,87038,2,0,L|365:136,3,40,8|0|0|0,1:2|1:2|1:2|1:2,1:2:0:0:
293,173,87310,5,10,1:2:0:0:
213,160,87447,1,10,1:2:0:0:
241,241,87583,1,10,1:2:0:0:
161,228,87720,1,10,1:2:0:0:
194,309,87856,5,10,1:2:0:0:
194,309,87992,1,10,1:2:0:0:
129,359,88129,1,10,1:2:0:0:
129,359,88265,1,10,1:2:0:0:
54,322,88401,6,0,L|29:229,5,63.9999980468751,10|0|0|0|0|0,1:2|1:2|1:2|1:2|1:2|1:2,1:2:0:0:
100,207,88947,2,0,P|60:181|13:183,1,95.9999970703126,0|0,1:2|1:2,1:2:0:0:
105,192,89219,2,0,P|65:166|18:168,1,95.9999970703126,0|0,1:2|1:2,1:2:0:0:
21,81,89492,6,0,P|5:61|3:9,5,63.9999980468751,10|0|0|0|0|0,1:2|1:2|1:2|1:2|1:2|1:2,1:2:0:0:
90,0,90038,2,0,L|109:125,1,95.9999970703126,0|0,1:2|1:2,1:2:0:0:
105,3,90310,2,0,L|124:128,1,95.9999970703126,0|0,1:2|1:2,1:2:0:0:
186,151,90583,6,0,P|224:156|253:174,5,63.9999980468751,10|0|0|0|0|0,1:2|1:2|1:2|1:2|1:2|1:2,1:2:0:0:
309,118,91129,2,0,P|356:114|392:83,1,95.9999970703126,0|0,1:2|1:2,1:2:0:0:
309,102,91401,2,0,P|356:98|392:67,1,95.9999970703126,0|0,1:2|1:2,1:2:0:0:
485,103,91674,6,0,L|471:17,5,63.9999980468751,10|0|0|0|0|0,1:2|1:2|1:2|1:2|1:2|1:2,1:2:0:0:
428,167,92219,2,0,B|446:184|446:184|428:283,1,95.9999970703126,0|0,1:2|1:2,1:2:0:0:
417,174,92492,2,0,B|435:191|435:191|417:290,1,95.9999970703126,0|0,1:2|1:2,1:2:0:0:
375,333,92765,6,8,P|361:318|344:308,3,40,8|8|8|8,1:2|1:2|1:2|1:2,1:2:0:0:
311,238,93038,2,8,P|291:234|271:238,3,40,8|8|8|8,1:2|1:2|1:2|1:2,1:2:0:0:
196,218,93310,6,0,P|178:228|166:243,7,40,8|8|8|8|8|8|8|8,1:2|1:2|1:2|1:2|1:2|1:2|1:2|1:2,1:2:0:0:
115,308,93856,6,8,P|100:294|90:277,3,40,8|8|8|8,1:2|1:2|1:2|1:2,1:2:0:0:
20,244,94129,2,8,P|16:224|20:204,3,40,8|8|8|8,1:2|1:2|1:2|1:2,1:2:0:0:
0,129,94401,6,8,P|10:111|25:99,7,40,8|8|8|8|8|8|8|8,1:2|1:2|1:2|1:2|1:2|1:2|1:2|1:2,1:2:0:0:
91,154,94947,6,0,P|188:149|266:103,1,180.000006866455,12|0,1:2|1:2,1:2:0:0:
266,99,95219,2,0,L|254:39,3,60.0000022888184,8|0|8|0,1:2|1:2|1:2|1:2,1:2:0:0:
182,178,95492,2,0,P|243:178|302:205,2,120.000004577637,0|8|0,1:2|1:2|1:2,1:2:0:0:
342,135,95901,5,8,1:2:0:0:
364,252,96174,1,8,1:2:0:0:
458,178,96447,1,8,1:2:0:0:
342,135,96719,1,8,1:2:0:0:
342,135,96788,1,8,1:2:0:0:
342,135,96856,2,0,P|309:121|259:130,1,80,12|0,1:2|1:2,1:2:0:0:
213,65,97129,6,0,P|222:129|191:198,1,120.000004577637,8|0,1:2|1:2,1:2:0:0:
196,189,97333,1,0,1:2:0:0:
185,195,97401,1,8,1:2:0:0:
105,167,97538,1,0,1:2:0:0:
115,252,97674,2,0,P|92:270|66:274,3,47.9999985351563,8|0|0|0,1:2|1:2|1:2|1:2,1:2:0:0:
47,354,97947,2,0,P|76:354|98:368,3,47.9999985351563,8|0|0|0,1:2|1:2|1:2|1:2,1:2:0:0:
101,364,98219,6,0,P|153:360|197:347,1,95.9999970703126,8|0,1:2|1:2,1:2:0:0:
289,363,98492,2,0,P|312:366|335:374,3,47.9999985351563,8|0|0|0,1:2|1:2|1:2|1:2,1:2:0:0:
411,338,98765,1,8,1:2:0:0:
411,338,98833,1,0,1:2:0:0:
411,338,98901,2,0,B|393:244,1,95.9999970703126,8|8,1:2|1:2,1:2:0:0:
465,198,99174,6,0,B|487:222|487:222|408:196|297:199,1,191.999994140625,12|0,1:2|1:2,1:2:0:0:
257,224,99583,1,8,1:2:0:0:
209,163,99719,1,0,1:2:0:0:
237,91,99856,2,0,P|233:67|222:44,3,47.9999985351563,8|0|0|0,1:2|1:2|1:2|1:2,1:2:0:0:
323,95,100129,1,8,1:2:0:0:
323,95,100265,1,0,1:2:0:0:
223,45,100401,6,0,L|168:39,3,47.9999985351563,12|0|8|0,1:2|1:2|1:2|1:2,1:2:0:0:
128,108,100674,2,0,L|73:102,3,47.9999985351563,12|0|8|0,1:2|1:2|1:2|1:2,1:2:0:0:
158,200,100947,2,0,L|213:194,3,47.9999985351563,12|0|8|0,1:2|1:2|1:2|1:2,1:2:0:0:
253,263,101220,2,0,L|300:257,3,47.9999985351563,8|0|8|0,1:2|1:2|1:2|1:2,1:2:0:0:
376,220,101492,6,0,P|383:276|341:331,2,95.9999970703126,8|0|8,1:2|1:2|1:2,1:2:0:0:
305,178,101901,1,0,1:2:0:0:
305,178,101969,1,0,1:2:0:0:
305,178,102037,1,8,1:2:0:0:
305,178,102106,2,0,B|309:141|297:108|297:108|334:123,2,95.9999970703126,0|0|0,1:2|1:2|1:2,1:2:0:0:
210,115,102515,5,0,1:2:0:0:
210,115,102583,2,0,P|144:114|105:154,1,95.9999970703126,8|0,1:2|1:2,1:2:0:0:
150,208,102788,1,0,1:2:0:0:
150,208,102856,2,0,P|84:209|45:169,1,95.9999970703126,8|0,1:2|1:2,1:2:0:0:
4,253,103129,2,0,L|11:299,2,47.9999985351563,8|0|0,1:2|1:2|1:2,1:2:0:0:
7,326,103333,1,8,1:2:0:0:
35,328,103401,1,8,1:2:0:0:
63,330,103469,1,12,1:2:0:0:
186,293,103674,6,0,P|208:280|237:277,3,47.9999985351563,8|0|0|0,1:2|1:2|1:2|1:2,1:2:0:0:
307,241,103947,1,8,1:2:0:0:
307,241,104015,1,0,1:2:0:0:
307,241,104083,1,0,1:2:0:0:
307,241,104151,1,0,1:2:0:0:
307,241,104219,2,0,P|332:288|329:361,1,95.9999970703126,8|0,1:2|1:2,1:2:0:0:
261,349,104492,1,8,1:2:0:0:
186,293,104629,1,8,1:2:0:0:
212,203,104765,6,0,P|209:172|200:149,3,47.9999985351563,8|8|8|8,1:2|1:2|1:2|1:2,1:2:0:0:
120,150,105038,2,0,P|109:121|108:96,1,47.9999985351563,8|8,1:2|1:2,1:2:0:0:
115,92,105174,1,0,1:2:0:0:
126,83,105242,1,4,1:2:0:0:
298,162,105447,2,0,P|249:155|202:156,1,95.9999970703126,8|8,1:2|1:2,1:2:0:0:
156,229,105719,6,0,P|180:273|240:275,1,95.9999970703126,12|8,1:2|1:2,1:2:0:0:
305,343,105924,1,8,1:2:0:0:
305,343,105992,1,8,1:2:0:0:
305,343,106060,1,8,1:2:0:0:
305,343,106129,2,8,L|316:233,1,95.9999970703126,8|8,1:2|1:2,1:2:0:0:
378,189,106401,2,0,P|397:189|424:199,3,47.9999985351563,8|8|8|8,1:2|1:2|1:2|1:2,1:2:0:0:
465,127,106674,2,8,P|484:127|511:117,3,47.9999985351563,8|0|0|0,1:2|1:2|1:2|1:2,1:2:0:0:
461,48,106947,5,12,1:2:0:0:
461,48,107083,1,0,1:2:0:0:
375,31,107219,1,8,1:2:0:0:
375,31,107287,1,0,1:2:0:0:
375,31,107356,1,0,1:2:0:0:
330,100,107492,2,0,P|281:68|230:80,1,95.9999970703126,8|0,1:2|1:2,1:2:0:0:
267,155,107765,1,8,1:2:0:0:
267,155,107901,6,0,B|285:287|285:287|240:246,1,191.999994140625,0|0,1:2|1:2,1:2:0:0:
174,302,108310,1,8,1:2:0:0:
92,270,108447,1,0,1:2:0:0:
91,191,108583,1,8,1:2:0:0:
91,191,108651,1,0,1:2:0:0:
91,191,108719,1,0,1:2:0:0:
145,123,108856,2,0,P|170:163|169:212,1,95.9999970703126,8|0,1:2|1:2,1:2:0:0:
242,248,109129,6,0,P|270:263|290:265,3,47.9999985351563,12|0|8|0,1:2|1:2|1:2|1:2,1:2:0:0:
352,312,109401,2,0,P|378:295|390:278,3,47.9999985351563,12|0|8|0,1:2|1:2|1:2|1:2,1:2:0:0:
467,257,109674,2,0,P|465:225|457:206,3,47.9999985351563,12|0|8|0,1:2|1:2|1:2|1:2,1:2:0:0:
385,170,109947,1,8,1:2:0:0:
385,170,110016,1,0,1:2:0:0:
385,170,110084,1,8,1:2:0:0:
344,90,110219,6,0,L|353:205,1,95.9999970703126,8|0,1:2|1:2,1:2:0:0:
267,126,110492,2,0,L|261:186,2,47.9999985351563,8|0|0,1:2|1:2|1:2,1:2:0:0:
188,204,110765,1,8,1:2:0:0:
172,119,110901,1,0,1:2:0:0:
108,178,111038,1,8,1:2:0:0:
121,263,111174,1,0,1:2:0:0:
51,314,111310,5,8,1:2:0:0:
51,314,111447,1,0,1:2:0:0:
130,347,111583,2,0,P|155:343|173:327,3,47.9999985351563,8|0|0|0,1:2|1:2|1:2|1:2,1:2:0:0:
181,327,111856,2,0,P|228:329|270:352,1,95.9999970703126,8|0,1:2|1:2,1:2:0:0:
352,326,112129,1,8,1:2:0:0:
352,326,112265,1,0,1:2:0:0:
417,266,112401,6,0,L|409:207,3,47.9999985351563,8|0|0|0,1:2|1:2|1:2|1:2,1:2:0:0:
418,138,112674,1,8,1:2:0:0:
339,164,112810,1,0,1:2:0:0:
339,164,112879,1,0,1:2:0:0:
339,164,112947,2,0,P|279:157|245:133,1,80,8|0,1:2|1:2,1:2:0:0:
245,51,113219,1,8,1:2:0:0:
245,51,113288,1,8,1:2:0:0:
245,51,113356,1,8,1:2:0:0:
245,51,113424,1,8,1:2:0:0:
245,51,113492,6,0,P|292:58|321:94,1,80,8|0,1:2|1:2,1:2:0:0:
339,164,113765,1,8,1:2:0:0:
288,225,113901,1,0,1:2:0:0:
207,225,114038,1,8,1:2:0:0:
145,173,114174,1,8,1:2:0:0:
145,173,114242,1,8,1:2:0:0:
145,173,114310,1,8,1:2:0:0:
130,252,114447,1,0,1:2:0:0:
30,237,114583,5,12,1:2:0:0:
256,192,114651,12,0,116697,1:2:0:0:
100,59,116765,5,8,1:2:0:0:
100,59,117038,2,0,P|96:129|175:185,1,160,0|0,1:2|1:2,1:2:0:0:
225,70,117447,1,8,1:2:0:0:
225,70,117515,1,8,1:2:0:0:
225,70,117583,1,8,1:2:0:0:
324,179,117719,6,0,B|78:216,2,240.000009155274,12|8|8,1:2|1:2|1:2,1:2:0:0:
395,252,118538,1,8,1:2:0:0:
395,252,118606,1,0,1:2:0:0:
393,251,118674,2,0,P|423:245|469:267,1,80,12|0,1:2|1:2,1:2:0:0:
414,326,118947,6,0,P|390:264|408:196,1,120.000004577637,8|0,1:2|1:2,1:2:0:0:
408,203,119151,1,0,1:2:0:0:
421,197,119219,1,8,1:2:0:0:
387,115,119356,1,8,1:2:0:0:
324,175,119492,2,0,P|289:206|236:211,1,95.9999970703126,8|8,1:2|1:2,1:2:0:0:
166,167,119765,1,8,1:2:0:0:
166,167,119901,1,8,1:2:0:0:
88,227,120038,6,0,L|103:330,1,95.9999970703126,8|0,1:2|1:2,1:2:0:0:
106,330,120242,1,8,1:2:0:0:
109,338,120310,1,8,1:2:0:0:
186,377,120447,2,0,P|194:337|186:316,2,47.9999985351563,8|0|0,1:2|1:2|1:2,1:2:0:0:
264,285,120719,1,8,1:2:0:0:
264,285,120788,1,0,1:2:0:0:
264,285,120856,1,8,1:2:0:0:
276,370,120992,1,8,1:2:0:0:
342,315,121128,6,0,B|399:303|399:303|517:323,1,143.999995605469,8|8,1:2|1:2,1:2:0:0:
487,326,121401,1,8,1:2:0:0:
491,239,121538,1,0,1:2:0:0:
407,216,121674,2,0,P|393:192|390:138,3,47.9999985351563,8|0|0|0,1:2|1:2|1:2|1:2,1:2:0:0:
469,107,121947,1,8,1:2:0:0:
469,107,122015,1,8,1:2:0:0:
469,107,122083,1,8,1:2:0:0:
469,107,122151,1,8,1:2:0:0:
469,107,122219,6,0,B|476:128|471:145|471:145|489:126|517:119,7,71.9999978027344,10|0|0|0|0|0|0|0,1:2|1:2|1:2|1:2|1:2|1:2|1:2|1:2,1:2:0:0:
369,92,122765,2,0,B|315:65|270:87|270:87|222:112|166:83|166:83|194:79|219:64,1,240,14|0,1:2|1:2,1:2:0:0:
249,13,123310,6,0,B|276:38|276:38|264:151,1,143.999995605469,12|0,1:2|1:2,1:2:0:0:
257,151,123583,1,8,1:2:0:0:
175,179,123719,2,0,P|231:188|256:229,1,95.9999970703126,0|8,1:2|1:2,1:2:0:0:
332,252,123992,2,0,P|276:261|251:302,2,95.9999970703126,0|8|0,1:2|1:2|1:2,1:2:0:0:
309,365,124401,6,0,P|360:350|417:352,1,95.9999970703126,8|0,1:2|1:2,1:2:0:0:
495,327,124606,2,0,P|447:331|387:314,1,95.9999970703126,8|0,1:2|1:2,1:2:0:0:
420,238,124810,1,8,1:2:0:0:
420,238,124947,1,8,1:2:0:0:
483,180,125083,1,0,1:2:0:0:
402,148,125219,2,0,P|358:104|357:61,1,95.9999970703126,8|8,1:2|1:2,1:2:0:0:
441,38,125492,6,0,B|398:54|398:54|267:42,1,143.999995605469,12|0,1:2|1:2,1:2:0:0:
292,40,125765,1,8,1:2:0:0:
232,112,125901,1,0,1:2:0:0:
164,50,126038,1,8,1:2:0:0:
87,89,126174,2,0,P|90:136|67:177,1,95.9999970703126,0|8,1:2|1:2,1:2:0:0:
14,245,126447,1,0,1:2:0:0:
14,245,126583,6,0,L|19:292,3,47.9999985351563,12|0|0|0,1:2|1:2|1:2|1:2,1:2:0:0:
58,312,126856,1,8,1:2:0:0:
142,294,126992,1,0,1:2:0:0:
221,362,127129,2,0,L|226:314,3,47.9999985351563,8|0|0|0,1:2|1:2|1:2|1:2,1:2:0:0:
308,357,127401,2,0,L|313:309,3,47.9999985351563,8|0|0|0,1:2|1:2|1:2|1:2,1:2:0:0:
396,342,127674,6,0,P|453:335|475:266,1,95.9999970703126,12|0,1:2|1:2,1:2:0:0:
441,226,127947,1,8,1:2:0:0:
355,231,128083,2,0,P|306:199|245:238,1,95.9999970703126,0|8,1:2|1:2,1:2:0:0:
207,149,128356,1,0,1:2:0:0:
207,149,128492,1,8,1:2:0:0:
280,102,128629,1,0,1:2:0:0:
225,35,128765,6,0,P|201:72|211:154,1,95.9999970703126,8|0,1:2|1:2,1:2:0:0:
120,179,128969,2,0,P|117:131|92:91,1,95.9999970703126,8|0,1:2|1:2,1:2:0:0:
10,86,129174,1,8,1:2:0:0:
89,115,129310,1,8,1:2:0:0:
36,241,129447,2,0,P|55:254|78:260,2,47.9999985351563,0|0|8,1:2|1:2|1:2,1:2:0:0:
29,163,129719,1,0,1:2:0:0:
92,91,129856,6,0,L|102:37,12,47.9999985351563,12|8|8|8|8|8|8|8|8|8|8|8|8,1:2|1:2|1:2|1:2|1:2|1:2|1:2|1:2|1:2|1:2|1:2|1:2|1:2,1:2:0:0:
177,19,130810,1,8,1:2:0:0:
229,99,130947,6,0,P|283:126|333:105,1,95.9999970703126,8|0,1:2|1:2,1:2:0:0:
362,43,131219,1,8,1:2:0:0:
362,43,131287,1,0,1:2:0:0:
362,43,131355,1,0,1:2:0:0:
362,43,131423,1,0,1:2:0:0:
362,43,131492,2,0,P|395:26|434:21,3,47.9999985351563,8|0|0|0,1:2|1:2|1:2|1:2,1:2:0:0:
446,96,131765,2,0,P|482:104|515:125,3,47.9999985351563,8|0|0|0,1:2|1:2|1:2|1:2,1:2:0:0:
494,190,132037,5,10,1:2:0:0:
494,190,133129,1,2,1:2:0:0:
494,190,134219,5,8,1:2:0:0:
494,190,134356,2,0,P|495:209|503:246,2,47.9999985351563,0|0|8,1:2|1:2|1:2,1:2:0:0:
416,228,134629,2,0,P|417:247|426:288,2,47.9999985351563,0|0|8,1:2|1:2|1:2,1:2:0:0:
333,205,134901,1,0,1:2:0:0:
333,205,134969,1,0,1:2:0:0:
333,205,135038,2,0,P|315:196|272:195,2,47.9999985351563,8|0|0,1:2|1:2|1:2,1:2:0:0:
247,269,135310,6,0,L|134:260,1,95.9999970703126,8|0,1:2|1:2,1:2:0:0:
142,265,135515,1,0,1:2:0:0:
133,270,135583,1,8,1:2:0:0:
171,345,135719,1,0,1:2:0:0:
76,358,135856,5,8,1:2:0:0:
45,277,135992,1,8,1:2:0:0:
80,197,136129,1,8,1:2:0:0:
