osu file format v14

[General]
AudioFilename: audio.mp3
AudioLeadIn: 0
PreviewTime: 70826
Countdown: 0
SampleSet: Soft
StackLeniency: 0.5
Mode: 0
LetterboxInBreaks: 0
WidescreenStoryboard: 1

[Editor]
Bookmarks: 38166,42530,44712,46894,49076,53439,55621,59985,64348,70894,83166,88348,92712,97076,114530,123257,136212
DistanceSpacing: 0.6
BeatDivisor: 4
GridSize: 32
TimelineZoom: 6.199997

[Metadata]
Title:Machinegun Poem Doll
TitleUnicode:マシンガンポエムドール
Artist:cosMo@BousouP feat. Hatsune Miku
ArtistUnicode:cosMo@暴走P feat. 初音ミク
Creator:Zoli
Version:Extra
Source:プロジェクトセカイ カラフルステージ! feat. 初音ミク
Tags:vocaloid jrock j-rock japanese rock project sekai colorful stage featuring hatsune miku プロセカ proseka japanese cosmo cosmop jpop machine gun
BeatmapID:3292028
BeatmapSetID:1606218

[Difficulty]
HPDrainRate:4
CircleSize:3.7
OverallDifficulty:8.5
ApproachRate:9.4
SliderMultiplier:2
SliderTickRate:1

[Events]
//Background and Video events
0,0,"machine gun rick 2.jpg",0,0
//Break Periods
//Storyboard Layer 0 (Background)
//Storyboard Layer 1 (Fail)
//Storyboard Layer 2 (Pass)
//Storyboard Layer 3 (Foreground)
//Storyboard Layer 4 (Overlay)
//Storyboard Sound Samples

[TimingPoints]
1129,272.727272727273,4,2,3,45,1,0
1129,-100,4,2,3,45,0,0
4265,-66.6666666666667,4,2,3,45,0,0
5492,-100,4,2,3,45,0,0
7674,-66.6666666666667,4,2,3,45,0,0
8765,-100,4,2,3,45,0,0
9856,-200,4,2,3,45,0,0
10674,-100,4,2,3,45,0,0
11492,-250,4,2,3,45,0,0
11765,-100,4,2,3,45,0,0
12038,-66.6666666666667,4,2,3,50,0,0
12583,-83.3333333333333,4,2,3,50,0,0
15856,-57.1428571428571,4,2,3,50,0,0
15992,-40,4,2,3,30,0,0
16027,-40,4,2,3,5,0,0
16061,-40,4,2,3,30,0,0
16096,-40,4,2,3,5,0,0
16129,-40,4,2,3,30,0,0
16164,-40,4,2,3,5,0,0
16197,-40,4,2,3,30,0,0
16232,-40,4,2,3,5,0,0
16265,-40,4,2,3,30,0,0
16300,-40,4,2,3,5,0,0
16333,-40,4,2,3,30,0,0
16368,-40,4,2,3,5,0,0
16401,-66.6666666666667,4,2,3,50,0,0
16947,-83.3333333333333,4,2,3,50,0,0
20765,-100,4,2,3,50,0,0
28401,-66.6666666666667,4,2,3,50,0,0
29629,-83.3333333333333,4,2,3,50,0,0
30583,-100,4,2,3,50,0,0
31674,-83.3333333333333,4,2,3,50,0,0
32219,-66.6666666666667,4,2,3,50,0,0
32492,-83.3333333333333,4,2,3,50,0,0
32765,-100,4,2,3,50,0,0
43674,-83.3333333333333,4,2,3,50,0,0
43947,-100,4,2,3,50,0,0
44765,-66.6666666666667,4,2,3,50,0,0
45856,-83.3333333333333,4,2,3,50,0,0
46674,-133.333333333333,4,2,3,50,0,0
46947,-133.333333333333,4,2,3,30,0,0
49129,-83.3333333333333,4,2,4,50,0,0
53492,-100,4,2,3,50,0,0
53765,-133.333333333333,4,2,3,30,0,0
55674,-133.333333333333,4,2,4,50,0,0
56765,-83.3333333333333,4,2,4,50,0,0
60038,-83.3333333333333,4,2,3,50,0,0
60856,-133.333333333333,4,2,3,50,0,0
61129,-83.3333333333333,4,2,3,50,0,0
62492,-100,4,2,3,50,0,0
63310,-66.6666666666667,4,2,4,50,0,0
64401,-100,4,2,3,30,0,0
66583,-100,4,2,3,30,0,0
68765,-100,4,2,3,40,0,0
69754,-100,4,2,3,5,0,0
69993,-100,4,2,3,30,0,0
70027,-100,4,2,3,5,0,0
70266,-100,4,2,3,30,0,0
70300,-100,4,2,3,5,0,0
70539,-100,4,2,3,30,0,0
70573,-100,4,2,3,5,0,0
70607,-100,4,2,3,30,0,0
70947,-66.6666666666667,4,2,3,55,0,1
76538,-83.3333333333333,4,2,3,55,0,1
77492,-83.3333333333333,4,2,3,50,0,0
79674,-66.6666666666667,4,2,3,60,0,1
85538,-100,4,2,3,60,0,1
86219,-100,4,2,3,60,0,1
88401,-100,4,2,3,45,0,0
92765,-100,4,2,3,30,0,0
94947,-66.6666666666667,4,2,3,30,0,0
95254,-66.6666666666667,4,2,3,5,0,0
95288,-66.6666666666667,4,2,3,30,0,0
95323,-66.6666666666667,4,2,3,5,0,0
95356,-66.6666666666667,4,2,3,30,0,0
95391,-66.6666666666667,4,2,3,5,0,0
95424,-66.6666666666667,4,2,3,30,0,0
95459,-66.6666666666667,4,2,3,5,0,0
95492,-66.6666666666667,4,2,3,30,0,0
95527,-66.6666666666667,4,2,3,5,0,0
95560,-66.6666666666667,4,2,3,30,0,0
95595,-66.6666666666667,4,2,3,5,0,0
95629,-66.6666666666667,4,2,3,30,0,0
95664,-66.6666666666667,4,2,3,5,0,0
95697,-66.6666666666667,4,2,3,30,0,0
95732,-66.6666666666667,4,2,3,5,0,0
95765,-66.6666666666667,4,2,3,30,0,0
95800,-66.6666666666667,4,2,3,5,0,0
95833,-66.6666666666667,4,2,3,30,0,0
95868,-66.6666666666667,4,2,3,5,0,0
95901,-66.6666666666667,4,2,3,30,0,0
95935,-66.6666666666667,4,2,3,5,0,0
96174,-66.6666666666667,4,2,3,30,0,0
96208,-66.6666666666667,4,2,3,5,0,0
96447,-66.6666666666667,4,2,3,30,0,0
96481,-66.6666666666667,4,2,3,5,0,0
96720,-66.6666666666667,4,2,3,30,0,0
96754,-66.6666666666667,4,2,3,5,0,0
96788,-66.6666666666667,4,2,3,30,0,0
96856,-200,4,2,3,50,0,0
97129,-66.6666666666667,4,2,3,55,0,1
97674,-83.3333333333333,4,2,3,55,0,1
101219,-100,4,2,3,55,0,1
101492,-66.6666666666667,4,2,3,55,0,1
102583,-83.3333333333333,4,2,3,55,0,1
112810,-100,4,2,3,55,0,1
114583,-66.6666666666667,4,2,3,50,0,0
116697,-66.6666666666667,4,2,3,5,0,0
116765,-100,4,2,3,50,0,0
117719,-66.6666666666667,4,2,3,50,0,0
118026,-66.6666666666667,4,2,3,5,0,0
118265,-66.6666666666667,4,2,3,30,0,0
118299,-66.6666666666667,4,2,3,5,0,0
118538,-66.6666666666667,4,2,3,30,0,0
118674,-200,4,2,3,50,0,0
118811,-200,4,2,3,30,0,0
118845,-200,4,2,3,5,0,0
118879,-200,4,2,3,30,0,0
118947,-66.6666666666667,4,2,3,50,0,0
119492,-83.3333333333333,4,2,3,50,0,0
122219,-40,4,2,3,30,0,0
122254,-40,4,2,3,5,0,0
122288,-40,4,2,3,30,0,0
122323,-40,4,2,3,5,0,0
122356,-40,4,2,3,30,0,0
122391,-40,4,2,3,5,0,0
122424,-40,4,2,3,30,0,0
122459,-40,4,2,3,5,0,0
122492,-40,4,2,3,30,0,0
122527,-40,4,2,3,5,0,0
122560,-40,4,2,3,30,0,0
122595,-40,4,2,3,5,0,0
122629,-40,4,2,3,30,0,0
122664,-40,4,2,3,5,0,0
122697,-40,4,2,3,30,0,0
122732,-40,4,2,3,5,0,0
122765,-100,4,2,3,50,0,0
123310,-66.6666666666667,4,2,3,50,0,0
126583,-83.3333333333333,4,2,3,50,0,0
133947,-133.333333333333,4,2,3,50,0,0
134219,-100,4,2,3,50,0,0

[Colours]
Combo1 : 167,104,223
Combo2 : 60,116,208
Combo3 : 99,170,177
Combo4 : 138,100,155

[HitObjects]
150,274,1129,5,8,1:2:0:0:
158,174,1265,1,8,1:2:0:0:
354,174,3310,5,8,1:2:0:0:
362,274,3446,1,8,1:2:0:0:
362,274,3992,5,0,1:2:0:0:
294,228,4128,1,0,1:2:0:0:
289,230,4197,1,0,1:2:0:0:
284,233,4265,2,0,B|266:213|259:179|259:179|259:267|221:367,1,225.000008583069,12|0,1:2|1:2,1:2:0:0:
225,346,4538,1,0,1:2:0:0:
310,346,4674,1,0,1:2:0:0:
279,237,4810,6,0,B|239:222|239:222|100:250,1,150.000005722046,12|0,1:2|1:2,1:2:0:0:
75,331,5083,1,8,1:2:0:0:
15,244,5219,1,8,1:2:0:0:
77,178,5356,1,0,1:2:0:0:
80,171,5424,1,0,1:2:0:0:
83,164,5492,6,0,L|76:114,1,50,8|0,1:2|1:2,1:2:0:0:
162,141,5629,2,0,L|155:91,1,50,8|0,1:2|1:2,1:2:0:0:
236,86,5765,1,0,1:2:0:0:
306,130,6174,1,8,1:2:0:0:
286,227,6310,1,8,1:2:0:0:
379,193,6583,6,0,L|459:180,1,50,8|0,1:2|1:2,1:2:0:0:
410,270,6719,2,0,L|490:257,1,50,8|0,1:2|1:2,1:2:0:0:
468,345,6856,1,0,1:2:0:0:
507,195,7265,1,8,1:2:0:0:
456,109,7401,1,8,1:2:0:0:
451,98,7674,6,0,B|374:89|374:89|306:113,1,150.000005722046,12|0,1:2|1:2,1:2:0:0:
301,119,7879,2,0,B|227:131|227:131|156:104,1,150.000005722046,8|0,1:2|1:2,1:2:0:0:
128,34,8083,1,0,1:2:0:0:
130,27,8151,1,0,1:2:0:0:
133,20,8219,1,8,1:2:0:0:
214,41,8356,1,0,1:2:0:0:
184,141,8492,1,8,1:2:0:0:
81,145,8629,1,0,1:2:0:0:
17,227,8765,6,0,L|23:285,3,50,12|0|0|0,1:2|1:2|1:2|1:2,1:2:0:0:
118,270,9038,2,0,L|106:327,3,50,8|0|0|0,1:2|1:2|1:2|1:2,1:2:0:0:
199,337,9310,5,8,1:2:0:0:
224,353,9379,1,0,1:2:0:0:
253,356,9447,1,0,1:2:0:0:
282,349,9515,1,0,1:2:0:0:
306,331,9583,1,8,1:2:0:0:
335,303,9652,1,0,1:2:0:0:
374,296,9720,1,0,1:2:0:0:
412,306,9788,1,0,1:2:0:0:
438,332,9856,6,0,B|430:249|430:249|410:223|410:223|402:117,1,200,0|0,1:2|1:2,1:2:0:0:
402,130,10674,6,0,P|416:92|440:77,3,50,0|0|0|0,1:2|1:2|1:2|1:2,1:2:0:0:
319,142,10947,2,0,P|293:110|292:82,3,50,0|0|0|0,1:2|1:2|1:2|1:2,1:2:0:0:
269,209,11219,2,0,P|229:215|204:202,3,50,0|0|0|0,1:2|1:2|1:2|1:2,1:2:0:0:
302,297,11492,6,0,L|307:360,1,60,0|0,1:2|1:2,1:2:0:0:
301,364,11765,2,0,P|246:344|188:352,1,100,0|0,1:2|1:2,1:2:0:0:
307,357,12038,6,0,B|293:195,1,150.000005722046,12|0,1:2|1:2,1:2:0:0:
297,200,12242,1,8,1:2:0:0:
300,193,12310,1,8,1:2:0:0:
381,227,12447,1,8,1:2:0:0:
470,166,12583,6,0,B|491:139|491:139|466:36,1,119.999996337891,8|0,1:2|1:2,1:2:0:0:
382,19,12856,1,8,1:2:0:0:
370,135,12992,1,8,1:2:0:0:
271,66,13129,6,0,P|235:67|152:120,1,119.999996337891,8|0,1:2|1:2,1:2:0:0:
160,118,13333,1,8,1:2:0:0:
159,129,13401,1,8,1:2:0:0:
255,205,13538,2,0,P|274:183|281:154,2,59.9999981689454,8|0|8,1:2|1:2|1:2,1:2:0:0:
150,236,13810,5,0,1:2:0:0:
150,236,13879,1,0,1:2:0:0:
150,236,13947,2,0,P|115:229|71:243,1,59.9999981689454,8|0,1:2|1:2,1:2:0:0:
81,252,14083,2,0,P|49:269|24:308,1,59.9999981689454,8|0,1:2|1:2,1:2:0:0:
108,337,14219,6,0,P|108:278|80:152,1,179.999994506836,8|8,1:2|1:2,1:2:0:0:
76,149,14492,1,8,1:2:0:0:
127,40,14629,1,8,1:2:0:0:
289,127,14765,2,0,P|231:143|172:139,1,119.999996337891,8|8,1:2|1:2,1:2:0:0:
222,50,15038,1,8,1:2:0:0:
378,121,15174,5,8,1:2:0:0:
378,121,15242,1,0,1:2:0:0:
378,121,15310,2,0,P|374:160|344:191,3,59.9999981689454,8|0|0|8,1:2|1:2|1:2|1:2,1:2:0:0:
367,260,15583,2,0,P|331:276|289:265,3,59.9999981689454,8|0|0|8,1:2|1:2|1:2|1:2,1:2:0:0:
259,359,15856,6,0,B|241:330|241:330|160:314,1,87.500000834465,2|0,1:2|1:2,1:2:0:0:
54,252,15992,1,2,1:2:0:0:
54,252,16060,1,2,1:2:0:0:
54,252,16129,1,2,1:2:0:0:
54,252,16197,1,2,1:2:0:0:
54,252,16265,1,2,1:2:0:0:
54,252,16333,1,2,1:2:0:0:
54,252,16401,6,0,L|248:228,1,150.000005722046,14|0,1:2|1:2,1:2:0:0:
217,231,16606,1,8,1:2:0:0:
231,229,16674,1,8,1:2:0:0:
150,150,16810,1,8,1:2:0:0:
289,39,16947,6,0,B|258:52|258:52|237:136,1,119.999996337891,8|8,1:2|1:2,1:2:0:0:
320,223,17220,1,8,1:2:0:0:
369,113,17356,1,8,1:2:0:0:
469,284,17493,6,0,P|436:267|417:183,1,119.999996337891,8|0,1:2|1:2,1:2:0:0:
423,185,17697,1,8,1:2:0:0:
434,183,17765,1,8,1:2:0:0:
355,307,17902,2,0,P|327:319|297:319,2,59.9999981689454,8|0|8,1:2|1:2|1:2,1:2:0:0:
339,172,18174,5,8,1:2:0:0:
339,172,18243,1,0,1:2:0:0:
339,172,18311,2,0,L|329:104,1,59.9999981689454,8|0,1:2|1:2,1:2:0:0:
253,162,18447,2,0,L|243:94,1,59.9999981689454,8|0,1:2|1:2,1:2:0:0:
137,87,18583,5,12,1:2:0:0:
179,221,18719,5,0,1:2:0:0:
179,221,18788,1,0,1:2:0:0:
179,221,18856,2,0,L|169:289,1,59.9999981689454,8|0,1:2|1:2,1:2:0:0:
93,231,18992,2,0,L|83:299,1,59.9999981689454,0|0,1:2|1:2,1:2:0:0:
8,246,19129,2,0,L|-2:314,3,59.9999981689454,10|0|0|0,1:2|1:2|1:2|1:2,1:2:0:0:
56,365,19401,5,10,1:2:0:0:
89,377,19469,1,0,1:2:0:0:
124,371,19538,1,0,1:2:0:0:
154,351,19606,1,0,1:2:0:0:
188,342,19674,6,8,P|226:341|279:375,2,79.9999975585938,10|8|8,1:2|1:2|1:2,1:2:0:0:
337,315,19947,2,8,P|375:315|428:281,2,79.9999975585938,10|8|8,1:2|1:2|1:2,1:2:0:0:
480,350,20219,1,10,1:2:0:0:
498,127,20492,1,10,1:2:0:0:
439,185,20765,5,10,1:2:0:0:
439,185,20901,2,0,B|309:195,1,100,0|8,1:2|1:2,1:2:0:0:
248,109,21174,2,0,P|312:183|285:284,1,200,0|0,1:2|1:2,1:2:0:0:
212,273,21583,2,0,P|201:248|202:223,3,50,8|0|0|0,1:2|1:2|1:2|1:2,1:2:0:0:
233,378,21856,6,0,B|222:354|222:354|181:361|154:331,1,100,8|0,1:2|1:2,1:2:0:0:
207,219,22129,1,8,1:2:0:0:
214,213,22265,1,0,1:2:0:0:
103,123,22401,2,0,B|82:151|82:151|111:234,1,100,8|0,1:2|1:2,1:2:0:0:
109,221,22606,2,0,P|208:186|276:191,1,150,0|0,1:2|1:2,1:2:0:0:
251,186,22947,6,0,L|260:250,1,50,10|0,1:2|1:2,1:2:0:0:
240,318,23083,1,0,1:2:0:0:
240,318,23151,1,0,1:2:0:0:
240,318,23219,1,8,1:2:0:0:
317,295,23356,1,0,1:2:0:0:
298,384,23492,1,8,1:2:0:0:
330,290,23629,1,0,1:2:0:0:
386,362,23765,5,8,1:2:0:0:
394,366,23833,1,8,1:2:0:0:
404,369,23901,1,8,1:2:0:0:
414,369,23969,1,8,1:2:0:0:
424,368,24038,1,8,1:2:0:0:
469,297,24174,1,8,1:2:0:0:
408,211,24310,1,8,1:2:0:0:
408,211,24379,1,0,1:2:0:0:
408,211,24447,2,0,P|389:153|385:104,1,100,6|8,1:2|1:2,1:2:0:0:
322,40,24651,5,8,1:2:0:0:
292,44,24719,1,8,1:2:0:0:
262,49,24787,1,8,1:2:0:0:
232,55,24856,2,0,L|240:1,3,50,8|0|0|0,1:2|1:2|1:2|1:2,1:2:0:0:
306,123,25129,5,10,1:2:0:0:
219,147,25265,1,0,1:2:0:0:
282,210,25401,1,8,1:2:0:0:
196,239,25538,1,0,1:2:0:0:
262,299,25674,5,8,1:2:0:0:
267,310,25810,1,0,1:2:0:0:
353,275,25947,1,8,1:2:0:0:
358,264,26083,1,0,1:2:0:0:
413,352,26219,2,0,L|516:361,2,100,8|0|8,1:2|1:2|1:2,1:2:0:0:
325,384,26629,1,0,1:2:0:0:
262,299,26765,5,8,1:2:0:0:
259,284,26833,1,0,1:2:0:0:
256,269,26901,1,0,1:2:0:0:
254,254,26969,1,0,1:2:0:0:
251,239,27038,2,0,P|213:292|220:343,1,100,8|0,1:2|1:2,1:2:0:0:
413,352,27310,5,10,1:2:0:0:
355,274,27447,1,0,1:2:0:0:
425,208,27583,2,0,L|443:134,3,50,8|0|0|0,1:2|1:2|1:2|1:2,1:2:0:0:
393,90,27856,1,8,1:2:0:0:
388,76,27992,1,0,1:2:0:0:
303,124,28129,5,8,1:2:0:0:
283,125,28197,1,8,1:2:0:0:
263,126,28265,1,8,1:2:0:0:
243,127,28333,1,8,1:2:0:0:
226,128,28401,2,0,B|201:122|201:122|235:182|243:262,1,150.000005722046,12|0,1:2|1:2,1:2:0:0:
210,366,28674,1,8,1:2:0:0:
312,302,28810,1,8,1:2:0:0:
203,207,28947,6,0,P|142:244|141:322,1,150.000005722046,8|8,1:2|1:2,1:2:0:0:
217,359,29219,2,0,P|189:332|148:332,1,75.0000028610231,8|0,1:2|1:2,1:2:0:0:
138,317,29356,2,0,P|100:327|80:363,1,75.0000028610231,8|0,1:2|1:2,1:2:0:0:
6,321,29492,5,8,1:2:0:0:
58,217,29629,2,0,P|45:179|7:147,3,59.9999981689454,0|8|8|0,1:2|1:2|1:2|1:2,1:2:0:0:
30,152,29901,2,0,B|102:155|102:155|128:136|128:136|199:139|199:139|206:149|206:149|301:157,1,239.999992675781,8|8,1:2|1:2,1:2:0:0:
366,96,30310,1,8,1:2:0:0:
368,84,30379,1,0,1:2:0:0:
370,72,30447,1,8,1:2:0:0:
372,60,30515,1,0,1:2:0:0:
374,50,30583,6,0,B|395:62|395:62|406:172,1,100,8|0,1:2|1:2,1:2:0:0:
343,195,30788,1,8,1:2:0:0:
343,195,30856,2,0,L|339:267,1,50,8|0,1:2|1:2,1:2:0:0:
386,326,30992,1,8,1:2:0:0:
386,326,31061,1,0,1:2:0:0:
386,326,31129,6,0,B|403:352|403:352|506:337,1,100,8|8,1:2|1:2,1:2:0:0:
471,342,31401,2,8,L|477:269,2,50,8|8|8,1:2|1:2|1:2,1:2:0:0:
425,226,31606,1,0,1:2:0:0:
425,226,31674,2,0,L|280:215,1,119.999996337891,8|0,1:2|1:2,1:2:0:0:
468,143,31947,2,0,L|323:132,1,119.999996337891,8|8,1:2|1:2,1:2:0:0:
236,31,32219,6,0,B|199:71|199:71|220:195|220:195|178:251,1,225.000008583069,10|0,1:2|1:2,1:2:0:0:
181,233,32492,2,0,P|158:218|147:175,3,59.9999981689454,8|0|8|0,1:2|1:2|1:2|1:2,1:2:0:0:
222,309,32765,2,0,B|247:304|247:304|270:315,1,50,8|0,1:2|1:2,1:2:0:0:
222,318,32901,2,0,B|247:313|247:313|270:324,1,50,0|8,1:2|1:2,1:2:0:0:
345,366,33038,2,0,B|388:356|388:356|400:365|400:365|449:356,1,100,8|8,1:2|1:2,1:2:0:0:
478,227,33310,5,8,1:2:0:0:
469,214,33379,1,0,1:2:0:0:
464,199,33447,1,8,1:2:0:0:
464,184,33515,1,8,1:2:0:0:
467,173,33583,5,8,1:2:0:0:
440,159,33651,1,8,1:2:0:0:
410,162,33719,1,8,1:2:0:0:
390,185,33788,1,8,1:2:0:0:
388,214,33856,6,0,P|359:183|352:159,2,50,10|0|0,1:2|1:2|1:2,1:2:0:0:
300,78,34129,2,0,P|271:109|264:133,2,50,10|0|8,1:2|1:2|1:2,1:2:0:0:
183,220,34401,2,0,P|154:189|147:165,2,50,10|0|8,1:2|1:2|1:2,1:2:0:0:
82,66,34674,5,10,1:2:0:0:
79,57,34743,1,0,1:2:0:0:
77,48,34811,1,8,1:2:0:0:
75,39,34879,1,0,1:2:0:0:
74,31,34947,5,10,1:2:0:0:
97,49,35015,1,0,1:2:0:0:
108,78,35083,1,0,1:2:0:0:
102,107,35151,1,8,1:2:0:0:
84,131,35219,6,0,L|16:128,3,50,10|0|8|0,1:2|1:2|1:2|1:2,1:2:0:0:
17,208,35492,2,0,L|66:210,3,50,10|0|8|0,1:2|1:2|1:2|1:2,1:2:0:0:
100,315,35765,2,0,L|150:306,1,50,8|0,1:2|1:2,1:2:0:0:
92,305,35901,2,0,L|141:295,1,50,8|0,1:2|1:2,1:2:0:0:
224,366,36038,5,10,1:2:0:0:
252,373,36106,1,0,1:2:0:0:
281,369,36174,1,0,1:2:0:0:
305,352,36242,1,8,1:2:0:0:
320,326,36310,1,10,1:2:0:0:
243,281,36447,1,8,1:2:0:0:
305,191,36583,6,0,L|311:141,3,50,10|0|8|0,1:2|1:2|1:2|1:2,1:2:0:0:
398,136,36856,1,10,1:2:0:0:
359,144,36924,1,0,1:2:0:0:
320,133,36992,1,8,1:2:0:0:
298,99,37060,1,0,1:2:0:0:
303,58,37129,6,0,P|347:88|357:151,1,100,8|0,1:2|1:2,1:2:0:0:
116,218,37401,2,0,P|120:165|169:125,1,100,8|0,1:2|1:2,1:2:0:0:
348,299,37674,1,8,1:2:0:0:
348,299,37810,1,8,1:2:0:0:
348,299,37947,2,0,P|300:322|241:299,1,100,8|0,1:2|1:2,1:2:0:0:
48,265,38219,6,0,P|37:242|34:217,3,50,10|0|0|0,1:2|1:2|1:2|1:2,1:2:0:0:
129,165,38492,2,0,P|140:188|143:213,3,50,8|0|0|0,1:2|1:2|1:2|1:2,1:2:0:0:
131,316,38765,1,8,1:2:0:0:
259,194,38901,2,0,P|242:240|203:271,1,100,0|8,1:2|1:2,1:2:0:0:
48,265,39174,5,0,1:2:0:0:
44,255,39242,1,0,1:2:0:0:
40,245,39310,2,0,L|55:165,3,50,8|0|0|0,1:2|1:2|1:2|1:2,1:2:0:0:
129,165,39583,1,8,1:2:0:0:
203,271,39719,2,0,B|239:280|239:280|300:266,1,100,0|8,1:2|1:2,1:2:0:0:
390,165,39992,2,0,P|384:190|383:215,1,50,0|0,1:2|1:2,1:2:0:0:
388,222,40129,2,0,L|456:230,3,50,8|0|0|0,1:2|1:2|1:2|1:2,1:2:0:0:
508,163,40401,5,10,1:2:0:0:
472,313,40538,1,0,1:2:0:0:
398,235,40674,1,8,1:2:0:0:
398,235,40742,1,0,1:2:0:0:
398,235,40810,1,0,1:2:0:0:
300,266,40947,2,0,B|308:313|308:313|304:328|304:328|310:380,2,100,8|0|8,1:2|1:2|1:2,1:2:0:0:
225,358,41356,1,0,1:2:0:0:
143,264,41492,6,0,P|123:249|39:245,1,100,12|8,1:2|1:2,1:2:0:0:
45,249,41697,1,8,1:2:0:0:
40,257,41765,1,8,1:2:0:0:
87,333,41901,5,0,1:2:0:0:
229,269,42038,1,8,1:2:0:0:
198,187,42174,1,8,1:2:0:0:
198,187,42242,1,8,1:2:0:0:
198,187,42310,1,8,1:2:0:0:
221,278,42447,1,0,1:2:0:0:
378,217,42583,6,0,L|280:201,1,100,8|0,1:2|1:2,1:2:0:0:
311,305,42856,1,8,1:2:0:0:
141,253,42992,1,0,1:2:0:0:
254,114,43129,2,0,B|231:8|231:8|276:48,1,150,8|0,1:2|1:2,1:2:0:0:
273,40,43401,2,0,P|230:65|181:66,1,100,8|0,1:2|1:2,1:2:0:0:
35,26,43674,6,0,B|68:43|68:43|96:125,1,119.999996337891,8|0,1:2|1:2,1:2:0:0:
23,290,43947,2,0,P|53:225|125:215,1,150,8|0,1:2|1:2,1:2:0:0:
131,222,44219,1,8,1:2:0:0:
205,337,44356,2,0,P|155:332|109:314,1,100,0|8,1:2|1:2,1:2:0:0:
190,145,44629,1,8,1:2:0:0:
199,142,44697,1,8,1:2:0:0:
208,139,44765,6,0,P|239:176|245:226,2,100.000003814697,8|0|0,1:2|1:2|1:2,1:2:0:0:
327,139,45038,2,0,P|358:101|364:51,2,100.000003814697,8|0|0,1:2|1:2|1:2,1:2:0:0:
448,131,45310,2,0,P|479:168|485:218,2,100.000003814697,8|0|0,1:2|1:2|1:2,1:2:0:0:
327,139,45583,5,8,1:2:0:0:
308,146,45674,1,0,1:2:0:0:
288,144,45765,1,0,1:2:0:0:
269,136,45856,6,0,B|284:-4,1,119.999996337891,8|0,1:2|1:2,1:2:0:0:
397,221,46129,2,0,B|257:236,1,119.999996337891,8|0,1:2|1:2,1:2:0:0:
208,384,46401,2,0,B|195:264,1,119.999996337891,8|0,1:2|1:2,1:2:0:0:
28,193,46674,2,8,P|44:180|63:179,3,37.5000014305115,8|8|8|8,1:2|1:2|1:2|1:2,1:2:0:0:
72,179,46947,6,0,P|52:215|18:223,1,75.0000028610231,12|0,1:2|1:2,1:2:0:0:
0,115,47219,1,0,1:2:0:0:
156,158,47492,1,0,1:2:0:0:
156,158,47629,1,0,1:2:0:0:
306,97,47901,1,8,1:2:0:0:
306,97,48038,2,0,L|327:265,1,150.000005722046,8|0,1:2|1:2,1:2:0:0:
318,252,48447,5,0,1:2:0:0:
324,245,48515,2,0,L|379:231,1,37.5000014305115,0|0,1:2|1:2,1:2:0:0:
449,231,48719,1,8,1:2:0:0:
449,231,48788,1,8,1:2:0:0:
449,231,48856,2,0,L|339:258,1,112.500004291535,8|0,1:2|1:2,1:2:0:0:
264,322,49129,5,12,1:2:0:0:
234,315,49197,1,8,1:2:0:0:
204,309,49265,1,8,1:2:0:0:
174,302,49333,1,8,1:2:0:0:
144,294,49401,6,0,P|139:249|152:214,3,59.9999981689454,8|8|8|8,1:2|1:2|1:2|1:2,1:2:0:0:
45,293,49674,2,8,P|58:319|63:348,3,59.9999981689454,8|8|8|8,1:2|1:2|1:2|1:2,1:2:0:0:
140,378,49947,5,8,1:2:0:0:
264,322,50083,1,8,1:2:0:0:
264,322,50151,1,8,1:2:0:0:
264,322,50219,2,8,L|333:312,3,59.9999981689454,8|8|8|8,1:2|1:2|1:2|1:2,1:2:0:0:
408,241,50492,2,0,L|348:232,3,59.9999981689454,8|8|8|8,1:2|1:2|1:2|1:2,1:2:0:0:
279,172,50765,6,8,L|265:90,3,59.9999981689454,8|8|8|8,1:2|1:2|1:2|1:2,1:2:0:0:
182,138,51038,1,8,1:2:0:0:
154,125,51106,1,8,1:2:0:0:
135,100,51175,1,8,1:2:0:0:
133,70,51243,1,8,1:2:0:0:
146,43,51310,6,0,P|186:43|214:77,3,59.9999981689454,8|8|8|8,1:2|1:2|1:2|1:2,1:2:0:0:
284,34,51583,2,8,P|304:69|288:110,3,59.9999981689454,8|8|8|8,1:2|1:2|1:2|1:2,1:2:0:0:
358,149,51856,5,8,1:2:0:0:
367,159,51924,1,8,1:2:0:0:
381,164,51992,1,8,1:2:0:0:
396,162,52060,1,8,1:2:0:0:
409,156,52129,6,0,L|396:69,3,59.9999981689454,8|8|8|8,1:2|1:2|1:2|1:2,1:2:0:0:
484,217,52401,2,8,L|471:304,3,59.9999981689454,8|8|8|8,1:2|1:2|1:2|1:2,1:2:0:0:
405,320,52674,1,8,1:2:0:0:
348,252,52810,1,8,1:2:0:0:
269,294,52947,5,8,1:2:0:0:
239,299,53015,1,8,1:2:0:0:
209,305,53083,1,8,1:2:0:0:
179,310,53151,1,8,1:2:0:0:
149,315,53219,2,0,P|163:277|165:241,3,59.9999981689454,8|8|8|8,1:2|1:2|1:2|1:2,1:2:0:0:
65,259,53492,6,0,L|182:247,1,100,12|0,1:2|1:2,1:2:0:0:
269,150,53765,2,0,P|298:172|308:208,1,75.0000028610231,0|0,1:2|1:2,1:2:0:0:
174,143,54038,1,0,1:2:0:0:
259,148,54174,2,0,P|254:184|228:210,1,75.0000028610231,0|0,1:2|1:2,1:2:0:0:
94,108,54447,1,8,1:2:0:0:
39,213,54583,6,8,B|49:185|25:163|25:163|2:138|9:104,2,112.500004291535,8|8|8,1:2|1:2|1:2,1:2:0:0:
2,346,55129,1,8,1:2:0:0:
6,335,55197,1,8,1:2:0:0:
19,325,55265,1,8,1:2:0:0:
46,316,55333,1,8,1:2:0:0:
89,324,55401,1,10,1:2:0:0:
89,324,55674,6,0,P|118:328|154:341,3,37.5000014305115,12|8|8|8,1:2|1:2|1:2|1:2,1:2:0:0:
167,257,55947,1,8,1:2:0:0:
180,250,56015,1,8,1:2:0:0:
194,247,56083,1,8,1:2:0:0:
208,248,56151,1,8,1:2:0:0:
222,252,56219,6,8,P|229:270|224:334,1,75.0000028610231,8|8,1:2|1:2,1:2:0:0:
153,378,56492,1,8,1:2:0:0:
98,304,56629,1,8,1:2:0:0:
163,167,56765,6,8,P|213:162|237:173,3,59.9999981689454,8|8|8|8,1:2|1:2|1:2|1:2,1:2:0:0:
296,133,57038,1,8,1:2:0:0:
299,121,57106,1,8,1:2:0:0:
303,109,57174,1,8,1:2:0:0:
306,97,57242,1,8,1:2:0:0:
310,85,57310,6,8,L|323:145,3,59.9999981689454,8|8|8|8,1:2|1:2|1:2|1:2,1:2:0:0:
403,164,57583,1,8,1:2:0:0:
415,169,57719,1,8,1:2:0:0:
469,264,57856,5,8,1:2:0:0:
445,262,57924,1,8,1:2:0:0:
426,277,57992,1,8,1:2:0:0:
418,299,58060,1,8,1:2:0:0:
420,323,58129,2,0,P|453:322|492:304,3,59.9999981689454,8|8|8|8,1:2|1:2|1:2|1:2,1:2:0:0:
349,377,58401,5,8,1:2:0:0:
329,272,58538,1,8,1:2:0:0:
237,366,58674,1,8,1:2:0:0:
263,214,58810,1,8,1:2:0:0:
160,273,58947,5,8,1:2:0:0:
142,272,59015,1,8,1:2:0:0:
124,271,59083,1,8,1:2:0:0:
106,271,59151,1,8,1:2:0:0:
88,270,59219,1,8,1:2:0:0:
57,192,59356,1,8,1:2:0:0:
161,140,59492,5,8,1:2:0:0:
172,138,59560,1,8,1:2:0:0:
183,136,59628,1,8,1:2:0:0:
194,135,59696,1,8,1:2:0:0:
205,134,59764,1,8,1:2:0:0:
236,57,59901,1,8,1:2:0:0:
292,181,60038,6,0,L|426:188,1,119.999996337891,12|0,1:2|1:2,1:2:0:0:
491,320,60310,2,0,P|433:318|403:270,1,119.999996337891,8|0,1:2|1:2,1:2:0:0:
432,112,60583,1,8,1:2:0:0:
438,117,60856,2,0,P|428:153|411:186,1,75.0000028610231,8|0,1:2|1:2,1:2:0:0:
316,271,61129,6,0,P|257:262|206:294,1,119.999996337891,8|0,1:2|1:2,1:2:0:0:
276,357,61401,1,8,1:2:0:0:
290,247,61538,1,0,1:2:0:0:
193,193,61674,1,8,1:2:0:0:
173,111,61810,1,0,1:2:0:0:
109,167,61947,1,8,1:2:0:0:
126,248,62083,1,0,1:2:0:0:
290,247,62219,6,0,P|352:227|384:174,1,119.999996337891,8|0,1:2|1:2,1:2:0:0:
305,60,62492,2,0,L|301:160,1,100,8|0,1:2|1:2,1:2:0:0:
432,271,62765,1,8,1:2:0:0:
496,317,62901,1,0,1:2:0:0:
422,349,63038,1,8,1:2:0:0:
506,235,63174,1,8,1:2:0:0:
507,225,63242,1,8,1:2:0:0:
508,216,63310,6,8,B|498:162|498:162|482:183,3,75.0000028610231,8|8|8|8,1:2|1:2|1:2|1:2,1:2:0:0:
400,135,63583,2,8,B|390:189|390:189|374:168,3,75.0000028610231,8|8|8|8,1:2|1:2|1:2|1:2,1:2:0:0:
295,219,63856,5,8,1:2:0:0:
277,204,63924,1,8,1:2:0:0:
255,198,63992,1,8,1:2:0:0:
232,198,64060,1,8,1:2:0:0:
210,204,64129,1,8,1:2:0:0:
188,212,64197,1,8,1:2:0:0:
165,210,64265,1,8,1:2:0:0:
144,202,64333,1,8,1:2:0:0:
132,188,64401,6,0,L|119:79,1,100,10|0,1:2|1:2,1:2:0:0:
280,14,64674,2,0,L|268:113,1,100,2|0,1:2|1:2,1:2:0:0:
237,283,64947,1,10,1:2:0:0:
258,360,65084,1,2,1:2:0:0:
335,339,65219,1,2,1:2:0:0:
314,262,65356,1,2,1:2:0:0:
175,342,65492,6,0,P|117:339|82:302,1,100,10|0,1:2|1:2,1:2:0:0:
253,200,65765,2,0,P|299:165|349:170,1,100,2|0,1:2|1:2,1:2:0:0:
417,323,66038,1,2,1:2:0:0:
478,270,66175,1,2,1:2:0:0:
492,347,66310,1,2,1:2:0:0:
446,195,66447,1,2,1:2:0:0:
333,306,66583,6,8,P|318:283|309:229,3,50,12|8|8|8,1:2|1:2|1:2|1:2,1:2:0:0:
220,267,66856,2,8,P|223:239|251:192,3,50,8|8|8|8,1:2|1:2|1:2|1:2,1:2:0:0:
370,151,67129,2,8,P|384:130|393:106,3,50,8|8|8|8,1:2|1:2|1:2|1:2,1:2:0:0:
484,112,67402,2,8,P|480:84|452:37,3,50,8|8|8|8,1:2|1:2|1:2|1:2,1:2:0:0:
346,37,67674,5,12,1:2:0:0:
338,42,67742,1,0,1:2:0:0:
328,47,67810,1,0,1:2:0:0:
317,49,67879,1,0,1:2:0:0:
308,48,67947,2,0,P|306:19|320:-9,3,50,8|0|0|0,1:2|1:2|1:2|1:2,1:2:0:0:
393,106,68219,5,8,1:2:0:0:
230,75,68356,1,8,1:2:0:0:
141,137,68492,2,0,L|149:187,3,50,8|0|0|0,1:2|1:2|1:2|1:2,1:2:0:0:
91,259,68765,5,12,1:2:0:0:
123,235,68833,1,8,1:2:0:0:
162,232,68901,1,8,1:2:0:0:
197,250,68969,1,8,1:2:0:0:
217,285,69038,2,0,P|245:299|265:298,3,50,8|8|8|8,1:2|1:2|1:2|1:2,1:2:0:0:
324,229,69310,5,8,1:2:0:0:
369,223,69379,1,8,1:2:0:0:
413,219,69447,1,8,1:2:0:0:
457,213,69515,1,8,1:2:0:0:
496,205,69583,2,0,L|506:138,1,50,8|8,1:2|1:2,1:2:0:0:
456,72,69719,6,0,L|424:79,1,25,8|0,1:2|1:2,1:2:0:0:
354,315,69992,6,0,L|322:308,1,25,8|0,1:2|1:2,1:2:0:0:
174,121,70265,6,0,L|142:128,1,25,8|0,1:2|1:2,1:2:0:0:
39,351,70538,5,8,1:2:0:0:
39,351,70606,1,8,1:2:0:0:
39,351,70674,2,0,P|73:327|79:301,1,50,10|0,1:2|1:2,1:2:0:0:
97,312,70810,2,0,P|93:270|73:252,1,50,0|0,1:2|1:2,1:2:0:0:
34,207,70947,6,0,B|62:233|62:233|180:242,1,150.000005722046,12|0,1:2|1:2,1:2:0:0:
188,239,71151,1,0,1:2:0:0:
202,235,71219,1,8,1:2:0:0:
160,139,71356,1,0,1:2:0:0:
289,147,71492,5,8,1:2:0:0:
212,232,71629,2,0,P|179:149|194:83,1,150.000005722046,0|8,1:2|1:2,1:2:0:0:
276,46,71901,1,0,1:2:0:0:
435,150,72038,6,0,B|368:143|368:143|350:154|350:154|288:146,1,150.000005722046,12|0,1:2|1:2,1:2:0:0:
183,325,72310,2,0,B|249:318|249:318|267:329|267:329|329:321,1,150.000005722046,12|0,1:2|1:2,1:2:0:0:
445,375,72583,1,8,1:2:0:0:
499,226,72719,1,8,1:2:0:0:
454,384,72856,1,8,1:2:0:0:
388,255,72992,6,0,P|350:232|307:243,1,75.0000028610231,0|8,1:2|1:2,1:2:0:0:
315,240,73129,2,0,B|334:79,1,150.000005722046,12|0,1:2|1:2,1:2:0:0:
255,15,73401,1,8,1:2:0:0:
354,101,73538,1,0,1:2:0:0:
233,149,73674,1,8,1:2:0:0:
233,149,73742,1,0,1:2:0:0:
233,149,73810,1,0,1:2:0:0:
176,68,73947,1,8,1:2:0:0:
131,246,74083,1,0,1:2:0:0:
48,271,74219,5,8,1:2:0:0:
48,271,74288,1,8,1:2:0:0:
48,271,74356,2,0,P|67:313|114:331,1,75.0000028610231,8|0,1:2|1:2,1:2:0:0:
185,331,74492,1,8,1:2:0:0:
185,331,74561,1,8,1:2:0:0:
185,331,74629,2,0,P|230:335|269:303,1,75.0000028610231,8|0,1:2|1:2,1:2:0:0:
305,239,74765,5,8,1:2:0:0:
379,384,74901,1,8,1:2:0:0:
379,384,74969,1,8,1:2:0:0:
379,384,75038,2,0,P|331:328|209:329,1,150.000005722046,8|0,1:2|1:2,1:2:0:0:
131,246,75310,6,0,L|154:87,1,150.000005722046,12|0,1:2|1:2,1:2:0:0:
34,179,75583,1,8,1:2:0:0:
25,304,75719,2,0,P|79:274|181:281,1,150.000005722046,0|8,1:2|1:2,1:2:0:0:
226,380,75992,1,0,1:2:0:0:
110,352,76129,1,8,1:2:0:0:
218,368,76265,1,0,1:2:0:0:
221,211,76401,5,8,1:2:0:0:
288,320,76538,2,0,B|283:278|283:278|314:207,1,119.999996337891,0|8,1:2|1:2,1:2:0:0:
437,84,76810,2,0,P|360:124|260:99,1,179.999994506836,0|0,1:2|1:2,1:2:0:0:
268,96,77083,1,0,1:2:0:0:
185,47,77219,1,8,1:2:0:0:
94,81,77356,1,0,1:2:0:0:
20,192,77492,6,0,B|49:229|103:214|103:214|151:202|190:231,1,179.999994506836,12|8,1:2|1:2,1:2:0:0:
195,237,77765,2,0,B|161:277|161:277|168:348,1,119.999996337891,8|0,1:2|1:2,1:2:0:0:
282,380,78038,1,8,1:2:0:0:
374,355,78174,1,0,1:2:0:0:
306,286,78310,1,8,1:2:0:0:
167,344,78447,6,0,B|156:296|156:296|192:139,1,179.999994506836,0|0,1:2|1:2,1:2:0:0:
185,156,78719,1,8,1:2:0:0:
268,143,78856,1,8,1:2:0:0:
350,129,78992,1,8,1:2:0:0:
460,183,79129,2,0,L|474:251,3,59.9999981689454,8|0|0|0,1:2|1:2|1:2|1:2,1:2:0:0:
434,314,79401,5,8,1:2:0:0:
407,336,79469,1,0,1:2:0:0:
371,338,79538,1,0,1:2:0:0:
340,320,79606,1,0,1:2:0:0:
327,296,79674,6,0,B|335:235|335:235|325:209|325:209|336:149,1,150.000005722046,12|0,1:2|1:2,1:2:0:0:
345,137,79879,1,0,1:2:0:0:
353,124,79947,1,8,1:2:0:0:
437,92,80083,1,0,1:2:0:0:
303,20,80219,1,8,1:2:0:0:
238,106,80356,2,0,P|171:133|93:112,1,150.000005722046,0|8,1:2|1:2,1:2:0:0:
161,25,80628,1,0,1:2:0:0:
26,75,80765,6,0,B|15:129|15:129|27:155|27:155|8:247,1,150.000005722046,12|0,1:2|1:2,1:2:0:0:
153,365,81038,2,0,B|140:300|140:300|151:274|151:274|141:219,1,150.000005722046,12|0,1:2|1:2,1:2:0:0:
246,112,81310,1,8,1:2:0:0:
42,155,81447,1,10,1:2:0:0:
251,100,81583,1,8,1:2:0:0:
241,258,81719,6,0,P|278:249|315:255,1,75.0000028610231,0|8,1:2|1:2,1:2:0:0:
320,262,81856,2,0,P|395:280|478:240,1,150.000005722046,12|0,1:2|1:2,1:2:0:0:
394,48,82129,2,0,P|340:103|334:195,1,150.000005722046,8|0,1:2|1:2,1:2:0:0:
481,350,82401,5,8,1:2:0:0:
448,234,82537,1,0,1:2:0:0:
362,319,82674,1,8,1:2:0:0:
347,312,82810,1,0,1:2:0:0:
228,375,82947,6,0,L|135:386,3,75.0000028610231,8|8|8|0,1:2|1:2|1:2|1:2,1:2:0:0:
72,336,83219,2,0,L|61:242,3,75.0000028610231,8|8|8|0,1:2|1:2|1:2|1:2,1:2:0:0:
125,167,83492,5,8,1:2:0:0:
186,363,83628,1,8,1:2:0:0:
210,257,83765,2,0,B|147:252|147:252|124:263|124:263|31:260,1,150.000005722046,8|0,1:2|1:2,1:2:0:0:
62,98,84037,6,0,P|160:77|217:173,1,225.000008583069,12|0,1:2|1:2,1:2:0:0:
203,178,84310,1,8,1:2:0:0:
308,253,84447,2,0,P|235:262|195:323,1,150.000005722046,0|8,1:2|1:2,1:2:0:0:
295,356,84719,1,0,1:2:0:0:
322,250,84856,1,8,1:2:0:0:
347,146,84992,1,0,1:2:0:0:
203,178,85129,6,0,L|39:159,1,150.000005722046,8|0,1:2|1:2,1:2:0:0:
52,146,85333,2,0,L|201:163,1,150.000005722046,8|0,1:2|1:2,1:2:0:0:
268,113,85538,2,0,L|254:5,2,100,8|8|0,1:2|1:2|1:2,1:2:0:0:
347,146,85947,1,8,1:2:0:0:
326,273,86083,1,0,1:2:0:0:
425,225,86219,6,0,L|494:211,3,50,12|0|0|0,1:2|1:2|1:2|1:2,1:2:0:0:
455,304,86492,2,0,L|524:290,3,50,8|0|0|0,1:2|1:2|1:2|1:2,1:2:0:0:
393,358,86765,5,8,1:2:0:0:
383,356,86833,1,0,1:2:0:0:
373,354,86901,1,0,1:2:0:0:
363,352,86969,1,0,1:2:0:0:
354,350,87038,2,0,L|346:280,3,50,8|0|0|0,1:2|1:2|1:2|1:2,1:2:0:0:
279,384,87310,5,10,1:2:0:0:
226,298,87447,1,10,1:2:0:0:
152,365,87583,1,10,1:2:0:0:
97,281,87719,1,10,1:2:0:0:
19,344,87856,5,10,1:2:0:0:
6,331,87992,1,10,1:2:0:0:
97,281,88129,1,10,1:2:0:0:
98,264,88265,1,10,1:2:0:0:
35,171,88401,6,0,P|17:140|26:95,5,66.6666666666667,10|0|0|0|0|0,1:2|1:2|1:2|1:2|1:2|1:2,1:2:0:0:
102,121,88947,1,0,1:2:0:0:
177,95,89083,1,0,1:2:0:0:
153,18,89219,1,0,1:2:0:0:
76,42,89356,1,0,1:2:0:0:
182,214,89492,6,0,P|215:201|258:218,5,66.6666666666667,10|0|0|0|0|0,1:2|1:2|1:2|1:2|1:2|1:2,1:2:0:0:
301,291,90038,1,0,1:2:0:0:
220,293,90175,1,0,1:2:0:0:
303,370,90310,1,0,1:2:0:0:
222,372,90447,1,0,1:2:0:0:
406,314,90583,5,10,1:2:0:0:
430,283,90673,1,0,1:2:0:0:
434,243,90764,1,0,1:2:0:0:
417,206,90855,1,0,1:2:0:0:
384,182,90946,1,0,1:2:0:0:
362,148,91037,1,0,1:2:0:0:
362,107,91129,5,0,1:2:0:0:
440,122,91266,1,0,1:2:0:0:
460,45,91402,1,0,1:2:0:0:
382,27,91538,1,0,1:2:0:0:
307,216,91674,5,10,1:2:0:0:
271,234,91765,1,0,1:2:0:0:
231,226,91856,1,0,1:2:0:0:
209,192,91947,1,0,1:2:0:0:
211,152,92038,1,0,1:2:0:0:
235,120,92129,1,0,1:2:0:0:
235,80,92219,5,0,1:2:0:0:
154,92,92356,1,0,1:2:0:0:
136,172,92492,1,0,1:2:0:0:
70,220,92629,1,0,1:2:0:0:
0,156,92765,6,8,L|7:106,3,50,8|8|8|8,1:2|1:2|1:2|1:2,1:2:0:0:
67,231,93038,2,8,L|80:313,3,50,8|8|8|8,1:2|1:2|1:2|1:2,1:2:0:0:
136,172,93310,5,8,1:2:0:0:
154,164,93379,1,8,1:2:0:0:
173,163,93447,1,8,1:2:0:0:
192,168,93515,1,8,1:2:0:0:
206,181,93583,1,8,1:2:0:0:
223,189,93651,1,8,1:2:0:0:
242,193,93719,1,8,1:2:0:0:
261,189,93788,1,8,1:2:0:0:
279,180,93856,6,8,L|272:229,3,50,8|8|8|8,1:2|1:2|1:2|1:2,1:2:0:0:
372,273,94129,2,8,L|366:224,3,50,8|8|8|8,1:2|1:2|1:2|1:2,1:2:0:0:
477,168,94401,2,8,L|471:218,3,50,8|8|8|8,1:2|1:2|1:2|1:2,1:2:0:0:
427,77,94674,2,8,L|420:27,3,50,8|8|8|8,1:2|1:2|1:2|1:2,1:2:0:0:
328,101,94947,6,0,B|298:74|298:74|112:95,1,225.000008583069,12|0,1:2|1:2,1:2:0:0:
49,43,95219,1,8,1:2:0:0:
91,58,95288,1,8,1:2:0:0:
101,101,95356,1,8,1:2:0:0:
83,141,95424,1,8,1:2:0:0:
51,172,95492,6,0,P|37:183|26:251,1,75.0000028610231,8|0,1:2|1:2,1:2:0:0:
0,229,95629,2,0,P|-2:247|32:305,1,75.0000028610231,8|0,1:2|1:2,1:2:0:0:
0,305,95765,2,0,P|9:320|73:343,1,75.0000028610231,8|0,1:2|1:2,1:2:0:0:
261,325,95901,5,8,1:2:0:0:
274,91,96174,1,8,1:2:0:0:
506,105,96447,1,8,1:2:0:0:
492,338,96719,1,8,1:2:0:0:
492,338,96788,1,8,1:2:0:0:
492,338,96856,2,0,L|480:256,1,75,12|0,1:2|1:2,1:2:0:0:
479,251,97129,6,0,B|456:272|456:272|319:262,1,150.000005722046,8|0,1:2|1:2,1:2:0:0:
322,259,97333,1,0,1:2:0:0:
307,254,97401,1,8,1:2:0:0:
352,171,97538,1,0,1:2:0:0:
297,93,97674,2,0,L|289:14,3,59.9999981689454,8|0|0|0,1:2|1:2|1:2|1:2,1:2:0:0:
225,127,97947,5,8,1:2:0:0:
201,123,98015,1,0,1:2:0:0:
177,119,98083,1,0,1:2:0:0:
153,114,98151,1,0,1:2:0:0:
129,110,98219,5,8,1:2:0:0:
93,198,98356,1,0,1:2:0:0:
206,275,98492,2,0,B|221:249|221:249|220:220,3,59.9999981689454,8|0|0|0,1:2|1:2|1:2|1:2,1:2:0:0:
96,309,98765,5,8,1:2:0:0:
96,309,98833,1,0,1:2:0:0:
96,308,98901,2,0,P|149:283|209:282,1,119.999996337891,8|8,1:2|1:2,1:2:0:0:
326,384,99174,2,0,P|360:319|292:235,1,179.999994506836,12|0,1:2|1:2,1:2:0:0:
294,244,99447,1,0,1:2:0:0:
379,287,99583,1,8,1:2:0:0:
461,238,99719,1,0,1:2:0:0:
377,153,99856,6,0,L|364:77,3,59.9999981689454,8|0|0|0,1:2|1:2|1:2|1:2,1:2:0:0:
363,158,100129,1,8,1:2:0:0:
257,144,100265,1,0,1:2:0:0:
151,131,100402,5,12,1:2:0:0:
149,119,100470,1,0,1:2:0:0:
148,107,100538,1,8,1:2:0:0:
147,95,100606,1,0,1:2:0:0:
147,83,100674,2,0,L|166:17,3,59.9999981689454,12|0|8|0,1:2|1:2|1:2|1:2,1:2:0:0:
67,127,100947,5,12,1:2:0:0:
57,133,101015,1,0,1:2:0:0:
48,141,101083,1,8,1:2:0:0:
43,151,101151,1,0,1:2:0:0:
40,160,101219,2,0,L|46:234,3,50,8|0|8|0,1:2|1:2|1:2|1:2,1:2:0:0:
133,222,101492,5,8,1:2:0:0:
77,291,101629,1,0,1:2:0:0:
77,291,101697,1,0,1:2:0:0:
134,360,101833,1,0,1:2:0:0:
148,357,101901,1,0,1:2:0:0:
162,354,101969,1,0,1:2:0:0:
176,351,102037,1,8,1:2:0:0:
191,348,102106,1,0,1:2:0:0:
279,360,102242,1,0,1:2:0:0:
368,373,102379,1,0,1:2:0:0:
474,318,102515,5,0,1:2:0:0:
474,318,102583,2,0,P|475:252|424:202,1,119.999996337891,8|0,1:2|1:2,1:2:0:0:
392,137,102788,1,0,1:2:0:0:
392,137,102856,2,0,P|435:87|428:15,1,119.999996337891,8|0,1:2|1:2,1:2:0:0:
301,111,103129,2,0,P|268:104|244:83,2,59.9999981689454,8|0|0,1:2|1:2|1:2,1:2:0:0:
328,198,103333,1,0,1:2:0:0:
328,198,103401,1,8,1:2:0:0:
328,198,103469,2,0,B|317:239|317:239|355:346,1,119.999996337891,12|0,1:2|1:2,1:2:0:0:
409,361,103674,6,0,P|450:361|482:376,3,59.9999981689454,8|0|0|0,1:2|1:2|1:2|1:2,1:2:0:0:
342,312,103947,1,8,1:2:0:0:
320,300,104015,1,0,1:2:0:0:
296,300,104083,1,0,1:2:0:0:
274,310,104151,1,0,1:2:0:0:
264,332,104219,5,8,1:2:0:0:
219,246,104356,1,0,1:2:0:0:
289,180,104492,1,8,1:2:0:0:
240,96,104629,1,8,1:2:0:0:
114,121,104765,6,0,P|129:146|157:158,3,59.9999981689454,8|8|8|8,1:2|1:2|1:2|1:2,1:2:0:0:
16,217,105038,2,0,P|39:198|68:197,2,59.9999981689454,8|8|8,1:2|1:2|1:2,1:2:0:0:
64,279,105242,1,4,1:2:0:0:
205,226,105379,1,0,1:2:0:0:
205,226,105447,1,8,1:2:0:0:
290,273,105583,1,8,1:2:0:0:
387,254,105719,6,0,B|406:231|406:231|503:218,1,119.999996337891,12|8,1:2|1:2,1:2:0:0:
502,208,105924,1,8,1:2:0:0:
500,196,105992,1,8,1:2:0:0:
497,184,106060,1,8,1:2:0:0:
495,171,106129,1,8,1:2:0:0:
413,91,106265,6,0,B|399:103|399:103|398:151,3,59.9999981689454,8|8|8|8,1:2|1:2|1:2|1:2,1:2:0:0:
329,187,106538,1,8,1:2:0:0:
329,187,106606,1,8,1:2:0:0:
329,187,106674,2,8,B|296:190|296:190|311:221,3,59.9999981689454,8|0|0|0,1:2|1:2|1:2|1:2,1:2:0:0:
327,296,106947,5,12,1:2:0:0:
215,242,107083,1,0,1:2:0:0:
107,294,107219,1,8,1:2:0:0:
107,294,107287,1,0,1:2:0:0:
107,294,107356,1,0,1:2:0:0:
126,145,107492,6,0,L|141:239,1,59.9999981689454,8|0,1:2|1:2,1:2:0:0:
217,250,107629,1,0,1:2:0:0:
53,214,107765,1,8,1:2:0:0:
222,153,107901,6,0,B|234:94|234:94|229:80|229:80|245:10,2,119.999996337891,0|8|0,1:2|1:2|1:2,1:2:0:0:
287,206,108310,1,8,1:2:0:0:
369,195,108447,1,0,1:2:0:0:
483,274,108583,5,8,1:2:0:0:
483,274,108651,1,0,1:2:0:0:
483,274,108719,1,0,1:2:0:0:
424,384,108856,2,0,P|395:329|403:246,1,119.999996337891,8|0,1:2|1:2,1:2:0:0:
449,107,109129,6,0,P|466:131|473:161,3,59.9999981689454,12|0|8|0,1:2|1:2|1:2|1:2,1:2:0:0:
330,105,109401,2,0,P|346:80|353:51,3,59.9999981689454,12|0|8|0,1:2|1:2|1:2|1:2,1:2:0:0:
211,131,109674,2,0,P|227:155|234:184,3,59.9999981689454,12|0|8|0,1:2|1:2|1:2|1:2,1:2:0:0:
108,96,109946,5,8,1:2:0:0:
96,93,110014,1,0,1:2:0:0:
84,90,110083,1,8,1:2:0:0:
72,87,110151,1,0,1:2:0:0:
60,84,110219,5,8,1:2:0:0:
16,172,110356,1,0,1:2:0:0:
61,258,110492,2,0,P|88:240|103:193,2,59.9999981689454,8|0|0,1:2|1:2|1:2,1:2:0:0:
138,348,110765,5,8,1:2:0:0:
109,211,110901,1,0,1:2:0:0:
146,359,111038,1,8,1:2:0:0:
190,227,111174,1,0,1:2:0:0:
64,277,111310,5,8,1:2:0:0:
200,224,111447,1,0,1:2:0:0:
284,350,111583,1,8,1:2:0:0:
307,354,111651,1,0,1:2:0:0:
330,348,111719,1,0,1:2:0:0:
350,334,111788,1,0,1:2:0:0:
363,314,111856,2,0,L|353:254,3,59.9999981689454,8|0|0|0,1:2|1:2|1:2|1:2,1:2:0:0:
423,208,112129,1,8,1:2:0:0:
373,323,112265,1,0,1:2:0:0:
274,218,112401,6,0,L|284:158,3,59.9999981689454,8|0|0|0,1:2|1:2|1:2|1:2,1:2:0:0:
238,93,112674,1,8,1:2:0:0:
240,300,112810,1,0,1:2:0:0:
240,300,112879,1,0,1:2:0:0:
240,300,112947,2,0,P|180:307|143:332,1,100,8|0,1:2|1:2,1:2:0:0:
30,306,113219,5,8,1:2:0:0:
27,275,113288,1,8,1:2:0:0:
23,245,113356,1,8,1:2:0:0:
21,215,113424,1,8,1:2:0:0:
18,185,113492,5,8,1:2:0:0:
137,237,113629,1,0,1:2:0:0:
145,48,113765,1,8,1:2:0:0:
101,150,113901,1,0,1:2:0:0:
40,13,114038,5,8,1:2:0:0:
0,96,114174,1,8,1:2:0:0:
0,96,114242,1,8,1:2:0:0:
0,96,114310,1,8,1:2:0:0:
152,54,114447,1,0,1:2:0:0:
231,242,114583,5,12,1:2:0:0:
256,192,114651,12,0,116697,1:2:0:0:
297,117,116765,6,0,L|138:101,1,150,8|0,1:2|1:2,1:2:0:0:
141,110,117038,1,0,1:2:0:0:
134,118,117310,1,0,1:2:0:0:
185,202,117447,1,8,1:2:0:0:
185,202,117515,1,8,1:2:0:0:
185,202,117583,1,8,1:2:0:0:
97,260,117719,6,0,P|177:315|230:294,1,150.000005722046,12|0,1:2|1:2,1:2:0:0:
284,205,117992,6,0,P|294:183|316:165,1,37.5000014305115,8|0,1:2|1:2,1:2:0:0:
145,106,118265,6,0,P|138:82|120:61,1,37.5000014305115,8|0,1:2|1:2,1:2:0:0:
334,4,118538,5,8,1:2:0:0:
334,4,118606,1,0,1:2:0:0:
334,4,118674,2,0,P|337:54|320:88,1,75,12|0,1:2|1:2,1:2:0:0:
227,91,118947,6,0,B|328:78|328:78|291:108,1,150.000005722046,8|0,1:2|1:2,1:2:0:0:
292,123,119151,1,8,1:2:0:0:
294,137,119219,1,8,1:2:0:0:
404,154,119356,1,8,1:2:0:0:
331,238,119492,6,0,B|300:252|300:252|279:356,1,119.999996337891,8|8,1:2|1:2,1:2:0:0:
396,384,119765,1,8,1:2:0:0:
421,246,119901,1,8,1:2:0:0:
268,299,120038,6,0,P|200:280|127:277,1,119.999996337891,8|0,1:2|1:2,1:2:0:0:
139,280,120242,1,8,1:2:0:0:
129,287,120310,1,8,1:2:0:0:
22,377,120447,2,0,P|62:372|79:357,2,59.9999981689454,8|0|0,1:2|1:2|1:2,1:2:0:0:
76,215,120719,5,8,1:2:0:0:
76,215,120788,1,0,1:2:0:0:
76,215,120856,2,0,P|61:187|62:134,1,59.9999981689454,8|0,1:2|1:2,1:2:0:0:
117,113,120992,2,0,P|122:82|158:41,1,59.9999981689454,8|0,1:2|1:2,1:2:0:0:
235,149,121128,6,0,B|177:140|177:140|31:163,1,179.999994506836,8|8,1:2|1:2,1:2:0:0:
47,165,121401,1,8,1:2:0:0:
158,238,121538,1,0,1:2:0:0:
243,139,121674,2,0,L|228:57,3,59.9999981689454,8|0|0|0,1:2|1:2|1:2|1:2,1:2:0:0:
313,191,121947,5,8,1:2:0:0:
337,194,122015,1,8,1:2:0:0:
361,196,122083,1,8,1:2:0:0:
385,198,122151,1,8,1:2:0:0:
410,202,122219,6,0,B|423:226|409:263|409:263|427:229|465:227,7,125,10|0|2|0|2|0|2|0,1:2|1:2|1:2|1:2|1:2|1:2|1:2|1:2,1:2:0:0:
410,267,122765,6,0,P|352:229|475:206,1,300,14|0,1:2|1:2,1:2:0:0:
512,317,123310,6,0,B|462:285|462:285|273:300,1,225.000008583069,12|0,1:2|1:2,1:2:0:0:
288,310,123583,1,8,1:2:0:0:
108,303,123719,2,0,P|90:245|150:149,1,150.000005722046,0|8,1:2|1:2,1:2:0:0:
255,195,123992,1,0,1:2:0:0:
179,245,124129,1,8,1:2:0:0:
136,83,124265,1,0,1:2:0:0:
301,98,124401,6,0,P|353:149|343:227,1,150.000005722046,8|0,1:2|1:2,1:2:0:0:
338,227,124606,2,0,P|285:175|295:97,1,150.000005722046,8|0,1:2|1:2,1:2:0:0:
301,98,124810,1,8,1:2:0:0:
389,129,124947,1,8,1:2:0:0:
455,61,125083,1,0,1:2:0:0:
277,0,125219,5,8,1:2:0:0:
214,78,125356,1,8,1:2:0:0:
214,78,125424,1,8,1:2:0:0:
214,78,125492,6,0,B|185:98|144:81|144:81|106:67|72:93,1,150.000005722046,12|0,1:2|1:2,1:2:0:0:
22,242,125765,1,8,1:2:0:0:
119,165,125901,1,0,1:2:0:0:
144,323,126038,1,8,1:2:0:0:
20,252,126174,2,0,L|189:239,1,150.000005722046,0|8,1:2|1:2,1:2:0:0:
263,297,126447,1,0,1:2:0:0:
403,244,126583,6,0,L|417:164,3,59.9999981689454,12|0|0|0,1:2|1:2|1:2|1:2,1:2:0:0:
491,221,126856,1,8,1:2:0:0:
337,134,126992,1,0,1:2:0:0:
337,134,127061,1,0,1:2:0:0:
337,134,127129,2,0,P|337:88|316:59,3,59.9999981689454,8|0|0|0,1:2|1:2|1:2|1:2,1:2:0:0:
205,148,127401,2,0,P|197:193|212:225,3,59.9999981689454,8|0|0|0,1:2|1:2|1:2|1:2,1:2:0:0:
265,250,127674,5,12,1:2:0:0:
124,232,127810,1,0,1:2:0:0:
213,140,127947,5,8,1:2:0:0:
186,287,128083,1,0,1:2:0:0:
205,148,128219,1,8,1:2:0:0:
324,174,128356,5,0,1:2:0:0:
303,62,128492,1,8,1:2:0:0:
263,241,128629,1,0,1:2:0:0:
416,216,128765,6,0,P|378:170|313:166,1,119.999996337891,8|0,1:2|1:2,1:2:0:0:
324,174,128969,2,0,P|382:184|434:146,1,119.999996337891,8|0,1:2|1:2,1:2:0:0:
419,72,129174,1,8,1:2:0:0:
499,202,129310,1,8,1:2:0:0:
349,266,129447,2,0,B|299:270|299:270|316:280,2,59.9999981689454,0|0|8,1:2|1:2|1:2,1:2:0:0:
445,289,129719,1,0,1:2:0:0:
321,79,129856,5,12,1:2:0:0:
309,79,129924,1,8,1:2:0:0:
297,75,129992,1,8,1:2:0:0:
287,67,130060,1,8,1:2:0:0:
278,58,130129,1,8,1:2:0:0:
267,51,130197,1,8,1:2:0:0:
255,47,130265,1,8,1:2:0:0:
243,44,130333,1,8,1:2:0:0:
231,46,130401,2,0,P|231:75|245:101,5,59.9999981689454,8|8|8|8|8|8,1:2|1:2|1:2|1:2|1:2|1:2,1:2:0:0:
197,181,130810,5,8,1:2:0:0:
137,48,130947,1,8,1:2:0:0:
30,144,131083,1,0,1:2:0:0:
91,234,131219,5,8,1:2:0:0:
91,240,131287,1,0,1:2:0:0:
92,246,131355,1,0,1:2:0:0:
93,252,131423,1,0,1:2:0:0:
93,258,131491,1,8,1:2:0:0:
94,265,131559,1,0,1:2:0:0:
95,271,131628,1,0,1:2:0:0:
96,277,131696,1,0,1:2:0:0:
96,282,131765,2,0,P|131:270|175:270,3,59.9999981689454,8|0|0|0,1:2|1:2|1:2|1:2,1:2:0:0:
234,282,132037,5,10,1:2:0:0:
321,308,133129,1,2,1:2:0:0:
278,242,134219,5,8,1:2:0:0:
320,155,134356,1,0,1:2:0:0:
320,155,134424,1,0,1:2:0:0:
320,155,134492,1,8,1:2:0:0:
249,83,134629,2,0,L|189:68,2,50,0|0|8,1:2|1:2|1:2,1:2:0:0:
368,245,134901,1,0,1:2:0:0:
368,245,134969,1,0,1:2:0:0:
368,245,135038,2,0,L|428:230,3,50,8|0|0|0,1:2|1:2|1:2|1:2,1:2:0:0:
318,315,135310,5,8,1:2:0:0:
412,382,135447,1,0,1:2:0:0:
412,382,135515,1,0,1:2:0:0:
412,382,135583,1,8,1:2:0:0:
496,328,135719,1,0,1:2:0:0:
441,151,135856,5,8,1:2:0:0:
419,291,135992,1,8,1:2:0:0:
365,43,136129,1,8,1:2:0:0:
