osu file format v14

[General]
AudioFilename: audio.mp3
AudioLeadIn: 0
PreviewTime: 70826
Countdown: 0
SampleSet: Soft
StackLeniency: 0
Mode: 0
LetterboxInBreaks: 0
WidescreenStoryboard: 1

[Editor]
Bookmarks: 38166,42530,44712,46894,49076,53439,55621,59985,64348,70894,83166,88348,92712,97076,114530,123257,136212
DistanceSpacing: 0.2
BeatDivisor: 4
GridSize: 32
TimelineZoom: 6.199997

[Metadata]
Title:Machinegun Poem Doll
TitleUnicode:マシンガンポエムドール
Artist:cosMo@BousouP feat. Hatsune Miku
ArtistUnicode:cosMo@暴走P feat. 初音ミク
Creator:Zoli
Version:Chaotic Burst of Maniac Rhythm
Source:プロジェクトセカイ カラフルステージ! feat. 初音ミク
Tags:vocaloid jrock j-rock japanese rock project sekai colorful stage featuring hatsune miku プロセカ proseka japanese cosmo cosmop jpop machine gun
BeatmapID:3279860
BeatmapSetID:1606218

[Difficulty]
HPDrainRate:5
CircleSize:3.8
OverallDifficulty:9
ApproachRate:9.7
SliderMultiplier:2
SliderTickRate:1

[Events]
//Background and Video events
0,0,"machine gun rick 2.jpg",0,0
//Break Periods
//Storyboard Layer 0 (Background)
//Storyboard Layer 1 (Fail)
//Storyboard Layer 2 (Pass)
//Storyboard Layer 3 (Foreground)
//Storyboard Layer 4 (Overlay)
//Storyboard Sound Samples

[TimingPoints]
1129,272.727272727273,4,2,3,45,1,0
1129,-100,4,2,3,45,0,0
4265,-66.6666666666667,4,2,3,45,0,0
5492,-100,4,2,3,45,0,0
7674,-66.6666666666667,4,2,3,45,0,0
8765,-100,4,2,3,45,0,0
11492,-250,4,2,3,45,0,0
12038,-66.6666666666667,4,2,3,50,0,0
12583,-83.3333333333333,4,2,3,50,0,0
15856,-57.1428571428571,4,2,3,50,0,0
15992,-57.1428571428571,4,2,3,30,0,0
16027,-57.1428571428571,4,2,3,5,0,0
16061,-57.1428571428571,4,2,3,30,0,0
16096,-57.1428571428571,4,2,3,5,0,0
16129,-57.1428571428571,4,2,3,30,0,0
16164,-57.1428571428571,4,2,3,5,0,0
16197,-57.1428571428571,4,2,3,30,0,0
16232,-57.1428571428571,4,2,3,5,0,0
16265,-57.1428571428571,4,2,3,30,0,0
16300,-57.1428571428571,4,2,3,5,0,0
16333,-57.1428571428571,4,2,3,30,0,0
16368,-57.1428571428571,4,2,3,5,0,0
16401,-66.6666666666667,4,2,3,50,0,0
16947,-83.3333333333333,4,2,3,50,0,0
20765,-100,4,2,3,50,0,0
28401,-66.6666666666667,4,2,3,50,0,0
30583,-100,4,2,3,50,0,0
31674,-83.3333333333333,4,2,3,50,0,0
32219,-66.6666666666667,4,2,3,50,0,0
32765,-100,4,2,3,50,0,0
43674,-83.3333333333333,4,2,3,50,0,0
43947,-100,4,2,3,50,0,0
44765,-66.6666666666667,4,2,3,50,0,0
45856,-83.3333333333333,4,2,3,50,0,0
46401,-66.6666666666667,4,2,3,50,0,0
46674,-133.333333333333,4,2,3,50,0,0
46947,-133.333333333333,4,2,3,30,0,0
49129,-66.6666666666667,4,2,4,50,0,0
53492,-100,4,2,3,50,0,0
53765,-133.333333333333,4,2,3,30,0,0
55674,-133.333333333333,4,2,4,50,0,0
56765,-66.6666666666667,4,2,4,50,0,0
60038,-83.3333333333333,4,2,3,50,0,0
60856,-133.333333333333,4,2,3,50,0,0
61129,-83.3333333333333,4,2,3,50,0,0
62492,-100,4,2,3,50,0,0
63310,-66.6666666666667,4,2,4,50,0,0
64401,-66.6666666666667,4,2,3,30,0,0
66583,-100,4,2,3,30,0,0
68765,-100,4,2,3,40,0,0
69754,-100,4,2,3,5,0,0
69993,-100,4,2,3,30,0,0
70027,-100,4,2,3,5,0,0
70266,-100,4,2,3,30,0,0
70300,-100,4,2,3,5,0,0
70539,-100,4,2,3,30,0,0
70573,-100,4,2,3,5,0,0
70607,-100,4,2,3,30,0,0
70947,-66.6666666666667,4,2,3,55,0,1
77492,-83.3333333333333,4,2,3,50,0,0
79674,-66.6666666666667,4,2,3,60,0,1
86219,-100,4,2,3,60,0,1
88401,-66.6666666666667,4,2,3,45,0,0
92765,-100,4,2,3,30,0,0
94947,-66.6666666666667,4,2,3,30,0,0
95254,-66.6666666666667,4,2,3,5,0,0
95288,-66.6666666666667,4,2,3,30,0,0
95323,-66.6666666666667,4,2,3,5,0,0
95356,-66.6666666666667,4,2,3,30,0,0
95391,-66.6666666666667,4,2,3,5,0,0
95424,-66.6666666666667,4,2,3,30,0,0
95459,-66.6666666666667,4,2,3,5,0,0
95492,-66.6666666666667,4,2,3,30,0,0
95527,-66.6666666666667,4,2,3,5,0,0
95560,-66.6666666666667,4,2,3,30,0,0
95595,-66.6666666666667,4,2,3,5,0,0
95629,-66.6666666666667,4,2,3,30,0,0
95664,-66.6666666666667,4,2,3,5,0,0
95697,-66.6666666666667,4,2,3,30,0,0
95732,-66.6666666666667,4,2,3,5,0,0
95765,-66.6666666666667,4,2,3,30,0,0
95800,-66.6666666666667,4,2,3,5,0,0
95833,-66.6666666666667,4,2,3,30,0,0
95868,-66.6666666666667,4,2,3,5,0,0
95901,-66.6666666666667,4,2,3,30,0,0
95935,-66.6666666666667,4,2,3,5,0,0
96174,-66.6666666666667,4,2,3,30,0,0
96208,-66.6666666666667,4,2,3,5,0,0
96447,-66.6666666666667,4,2,3,30,0,0
96481,-66.6666666666667,4,2,3,5,0,0
96720,-66.6666666666667,4,2,3,30,0,0
96754,-66.6666666666667,4,2,3,5,0,0
96788,-66.6666666666667,4,2,3,30,0,0
96856,-100,4,2,3,50,0,0
97129,-66.6666666666667,4,2,3,55,0,1
101219,-100,4,2,3,55,0,1
101492,-66.6666666666667,4,2,3,55,0,1
112810,-100,4,2,3,55,0,1
114583,-66.6666666666667,4,2,3,50,0,0
116697,-66.6666666666667,4,2,3,5,0,0
116765,-100,4,2,3,50,0,0
117719,-66.6666666666667,4,2,3,50,0,0
118026,-66.6666666666667,4,2,3,5,0,0
118265,-66.6666666666667,4,2,3,30,0,0
118299,-66.6666666666667,4,2,3,5,0,0
118538,-66.6666666666667,4,2,3,30,0,0
118572,-66.6666666666667,4,2,3,5,0,0
118606,-66.6666666666667,4,2,3,50,0,0
118674,-100,4,2,3,50,0,0
118811,-100,4,2,3,30,0,0
118845,-100,4,2,3,5,0,0
118879,-100,4,2,3,30,0,0
118947,-66.6666666666667,4,2,3,50,0,0
119492,-83.3333333333333,4,2,3,50,0,0
122219,-55.5555555555556,4,2,3,30,0,0
122254,-55.5555555555556,4,2,3,5,0,0
122288,-55.5555555555556,4,2,3,30,0,0
122323,-55.5555555555556,4,2,3,5,0,0
122356,-55.5555555555556,4,2,3,30,0,0
122391,-55.5555555555556,4,2,3,5,0,0
122424,-55.5555555555556,4,2,3,30,0,0
122459,-55.5555555555556,4,2,3,5,0,0
122492,-55.5555555555556,4,2,3,30,0,0
122527,-55.5555555555556,4,2,3,5,0,0
122560,-55.5555555555556,4,2,3,30,0,0
122595,-55.5555555555556,4,2,3,5,0,0
122629,-55.5555555555556,4,2,3,30,0,0
122664,-55.5555555555556,4,2,3,5,0,0
122697,-55.5555555555556,4,2,3,30,0,0
122732,-55.5555555555556,4,2,3,5,0,0
122765,-100,4,2,3,50,0,0
123310,-66.6666666666667,4,2,3,50,0,0
133947,-133.333333333333,4,2,3,50,0,0
134219,-66.6666666666667,4,2,3,50,0,0

[Colours]
Combo1 : 167,104,223
Combo2 : 60,116,208
Combo3 : 99,170,177
Combo4 : 138,100,155

[HitObjects]
150,274,1129,5,8,1:2:0:0:
379,252,1265,1,8,1:2:0:0:
379,252,3310,5,8,1:2:0:0:
150,230,3446,1,8,1:2:0:0:
150,230,3992,5,0,1:2:0:0:
282,178,4128,1,0,1:2:0:0:
284,165,4197,1,0,1:2:0:0:
287,153,4265,2,0,B|259:127|259:127|237:229|237:229|248:255|248:255|224:364,1,225.000008583069,12|0,1:2|1:2,1:2:0:0:
239,322,4538,1,0,1:2:0:0:
330,313,4674,1,0,1:2:0:0:
144,234,4810,6,0,L|406:212,1,225.000008583069,12|0,1:2|1:2,1:2:0:0:
383,217,5083,1,8,1:2:0:0:
400,127,5219,1,8,1:2:0:0:
311,42,5356,1,0,1:2:0:0:
304,55,5424,1,0,1:2:0:0:
294,58,5492,6,0,P|306:88|301:112,1,50,8|0,1:2|1:2,1:2:0:0:
210,75,5629,2,0,P|209:99|220:122,1,50,8|0,1:2|1:2,1:2:0:0:
275,178,5765,1,0,1:2:0:0:
278,187,5901,1,0,1:2:0:0:
278,187,6174,1,8,1:2:0:0:
246,327,6310,1,8,1:2:0:0:
246,327,6583,6,0,P|247:294|234:272,1,50,8|0,1:2|1:2,1:2:0:0:
161,339,6720,2,0,P|151:315|154:291,1,50,8|0,1:2|1:2,1:2:0:0:
187,218,6856,1,0,1:2:0:0:
187,218,7265,1,8,1:2:0:0:
155,78,7401,1,8,1:2:0:0:
155,78,7674,6,0,B|187:86|197:114|197:114|213:150|250:131|250:131|241:109|216:94,1,150.000005722046,12|0,1:2|1:2,1:2:0:0:
239,101,7879,2,0,P|213:164|210:260,1,150.000005722046,8|0,1:2|1:2,1:2:0:0:
212,251,8083,1,0,1:2:0:0:
216,257,8151,1,0,1:2:0:0:
221,262,8219,1,8,1:2:0:0:
336,253,8356,1,0,1:2:0:0:
266,344,8492,1,8,1:2:0:0:
397,369,8629,1,0,1:2:0:0:
474,252,8765,6,0,P|495:226|492:191,3,50,12|0|0|0,1:2|1:2|1:2|1:2,1:2:0:0:
426,157,9038,1,8,1:2:0:0:
413,141,9106,1,0,1:2:0:0:
405,122,9174,1,0,1:2:0:0:
403,102,9242,1,0,1:2:0:0:
436,60,9310,5,8,1:2:0:0:
399,77,9379,1,0,1:2:0:0:
359,69,9447,1,0,1:2:0:0:
325,47,9515,1,0,1:2:0:0:
292,23,9583,1,8,1:2:0:0:
247,16,9652,1,0,1:2:0:0:
198,26,9720,1,0,1:2:0:0:
169,71,9788,1,0,1:2:0:0:
177,126,9856,6,0,B|185:157|221:172|221:172|161:200|162:283|162:283|88:276|97:221|177:193|249:238|265:303|229:374|229:374|261:339|311:353,1,550,0|0,1:2|1:2,1:2:0:0:
280,351,10674,6,0,P|318:365|333:389,3,50,0|0|0|0,1:2|1:2|1:2|1:2,1:2:0:0:
317,277,10947,2,0,P|355:263|370:239,3,50,0|0|0|0,1:2|1:2|1:2|1:2,1:2:0:0:
393,333,11219,2,0,P|431:347|446:371,3,50,0|0|0|0,1:2|1:2|1:2|1:2,1:2:0:0:
490,186,11492,6,0,L|481:250,1,60,0|0,1:2|1:2,1:2:0:0:
505,324,11765,5,0,1:2:0:0:
512,334,11901,1,0,1:2:0:0:
472,236,12038,6,0,B|485:135|485:135|443:185,1,150.000005722046,12|0,1:2|1:2,1:2:0:0:
378,196,12242,1,8,1:2:0:0:
369,200,12310,1,8,1:2:0:0:
286,161,12447,1,8,1:2:0:0:
189,284,12583,6,0,B|213:308|213:308|318:292,1,119.999996337891,8|0,1:2|1:2,1:2:0:0:
362,204,12856,1,8,1:2:0:0:
306,302,12992,1,8,1:2:0:0:
182,275,13129,6,0,L|179:187,1,59.9999981689454,8|0,1:2|1:2,1:2:0:0:
156,140,13265,1,0,1:2:0:0:
154,134,13333,1,8,1:2:0:0:
152,128,13401,1,8,1:2:0:0:
45,200,13538,2,0,P|76:221|106:221,2,59.9999981689454,8|0|8,1:2|1:2|1:2,1:2:0:0:
166,46,13810,5,0,1:2:0:0:
182,38,13879,1,0,1:2:0:0:
199,37,13947,2,0,P|219:58|218:94,1,59.9999981689454,8|0,1:2|1:2,1:2:0:0:
260,154,14083,2,0,P|251:181|220:198,1,59.9999981689454,8|0,1:2|1:2,1:2:0:0:
42,193,14219,6,0,P|124:220|58:288,1,179.999994506836,8|8,1:2|1:2,1:2:0:0:
88,282,14492,1,8,1:2:0:0:
199,313,14629,1,8,1:2:0:0:
128,372,14765,1,8,1:2:0:0:
127,366,14833,1,0,1:2:0:0:
126,360,14901,1,8,1:2:0:0:
88,282,15038,1,8,1:2:0:0:
271,358,15174,5,8,1:2:0:0:
288,353,15242,1,0,1:2:0:0:
304,346,15310,2,0,L|316:264,2,59.9999981689454,8|0|0,1:2|1:2|1:2,1:2:0:0:
237,219,15515,1,8,1:2:0:0:
227,210,15583,2,0,L|215:128,3,59.9999981689454,8|0|0|8,1:2|1:2|1:2|1:2,1:2:0:0:
383,34,15856,6,0,B|365:63|365:63|284:79,1,87.500000834465,2|0,1:2|1:2,1:2:0:0:
302,72,15992,2,0,P|289:96|291:127,1,43.7500004172325,2|0,1:2|1:2,1:2:0:0:
295,67,16060,2,0,P|268:72|245:93,1,43.7500004172325,2|0,1:2|1:2,1:2:0:0:
290,59,16129,2,0,P|268:42|237:38,1,43.7500004172325,2|0,1:2|1:2,1:2:0:0:
296,55,16197,2,0,P|295:27|278:1,1,43.7500004172325,2|0,1:2|1:2,1:2:0:0:
305,55,16265,2,0,P|325:36|334:7,1,43.7500004172325,2|0,1:2|1:2,1:2:0:0:
312,60,16333,2,0,P|338:64|367:51,1,43.7500004172325,2|0,1:2|1:2,1:2:0:0:
318,69,16401,6,0,L|298:238,1,150.000005722046,14|0,1:2|1:2,1:2:0:0:
338,284,16606,1,8,1:2:0:0:
341,290,16674,1,8,1:2:0:0:
222,215,16810,1,8,1:2:0:0:
418,162,16947,6,0,B|394:138|394:138|289:154,1,119.999996337891,8|8,1:2|1:2,1:2:0:0:
249,302,17220,1,8,1:2:0:0:
300,149,17356,1,8,1:2:0:0:
136,159,17493,6,0,P|103:142|85:102,1,59.9999981689454,8|0,1:2|1:2,1:2:0:0:
169,75,17629,1,0,1:2:0:0:
167,81,17697,1,8,1:2:0:0:
165,87,17765,1,8,1:2:0:0:
260,59,17902,2,0,L|251:-27,2,59.9999981689454,8|0|8,1:2|1:2|1:2,1:2:0:0:
258,203,18174,5,8,1:2:0:0:
250,187,18243,1,0,1:2:0:0:
249,170,18311,2,0,P|270:150|306:151,1,59.9999981689454,8|0,1:2|1:2,1:2:0:0:
366,109,18447,2,0,P|393:118|410:149,1,59.9999981689454,8|0,1:2|1:2,1:2:0:0:
393,256,18583,6,0,L|293:278,1,59.9999981689454,12|0,1:2|1:2,1:2:0:0:
251,326,18719,1,0,1:2:0:0:
245,324,18788,1,0,1:2:0:0:
239,321,18856,2,0,L|139:299,1,59.9999981689454,8|0,1:2|1:2,1:2:0:0:
105,236,18992,2,0,L|5:258,1,59.9999981689454,0|0,1:2|1:2,1:2:0:0:
4,378,19129,5,10,1:2:0:0:
21,377,19197,1,0,1:2:0:0:
37,370,19265,1,0,1:2:0:0:
55,354,19333,1,0,1:2:0:0:
65,325,19401,1,10,1:2:0:0:
53,290,19469,1,0,1:2:0:0:
46,248,19538,1,0,1:2:0:0:
56,207,19606,1,0,1:2:0:0:
95,180,19674,6,8,P|123:204|134:256,2,79.9999975585938,10|8|8,1:2|1:2|1:2,1:2:0:0:
191,328,19947,2,8,P|197:291|237:256,2,79.9999975585938,10|8|8,1:2|1:2|1:2,1:2:0:0:
275,164,20219,6,0,P|242:181|206:180,1,59.9999981689454,10|0,1:2|1:2,1:2:0:0:
217,171,20492,2,0,P|246:167|272:152,1,59.9999981689454,10|0,1:2|1:2,1:2:0:0:
444,99,20765,5,10,1:2:0:0:
399,24,20901,2,0,B|370:37|370:37|349:104,1,100,0|8,1:2|1:2,1:2:0:0:
417,276,21174,2,0,L|397:179,2,100,0|8|0,1:2|1:2|1:2,1:2:0:0:
309,351,21583,1,8,1:2:0:0:
304,349,21651,1,0,1:2:0:0:
299,347,21719,1,0,1:2:0:0:
294,345,21788,1,0,1:2:0:0:
289,342,21856,6,0,B|299:317|299:317|267:291|262:212,1,100,8|0,1:2|1:2,1:2:0:0:
307,169,22129,1,8,1:2:0:0:
178,231,22265,1,0,1:2:0:0:
85,129,22401,1,8,1:2:0:0:
86,124,22469,1,0,1:2:0:0:
88,119,22538,1,0,1:2:0:0:
0,172,22674,1,8,1:2:0:0:
4,164,22947,6,0,L|13:228,1,50,10|0,1:2|1:2,1:2:0:0:
56,293,23083,1,0,1:2:0:0:
69,298,23151,1,0,1:2:0:0:
83,297,23219,1,8,1:2:0:0:
172,233,23356,1,0,1:2:0:0:
283,341,23492,1,8,1:2:0:0:
177,358,23629,1,0,1:2:0:0:
320,210,23765,5,8,1:2:0:0:
323,219,23833,1,8,1:2:0:0:
325,228,23901,1,8,1:2:0:0:
328,237,23969,1,8,1:2:0:0:
348,255,24038,6,0,L|298:248,1,50,8|0,1:2|1:2,1:2:0:0:
221,239,24174,2,0,L|171:232,1,50,8|0,1:2|1:2,1:2:0:0:
104,132,24310,1,8,1:2:0:0:
97,123,24379,1,0,1:2:0:0:
91,114,24447,2,0,P|105:90|206:98,1,100,6|8,1:2|1:2,1:2:0:0:
250,120,24651,5,8,1:2:0:0:
287,132,24719,1,8,1:2:0:0:
326,126,24787,1,8,1:2:0:0:
363,109,24856,2,0,L|379:59,3,50,8|0|0|0,1:2|1:2|1:2|1:2,1:2:0:0:
292,44,25129,5,10,1:2:0:0:
315,209,25265,1,0,1:2:0:0:
341,371,25401,1,8,1:2:0:0:
353,364,25538,1,0,1:2:0:0:
259,282,25674,5,8,1:2:0:0:
244,373,25810,1,0,1:2:0:0:
364,358,25947,1,8,1:2:0:0:
349,267,26083,1,0,1:2:0:0:
173,321,26219,5,8,1:2:0:0:
202,212,26356,1,0,1:2:0:0:
161,312,26492,1,8,1:2:0:0:
63,246,26629,2,0,P|88:244|112:236,1,50,0|0,1:2|1:2,1:2:0:0:
148,135,26765,5,8,1:2:0:0:
145,120,26833,1,0,1:2:0:0:
142,105,26901,1,0,1:2:0:0:
140,90,26969,1,0,1:2:0:0:
137,75,27038,2,0,B|82:67|82:67|74:74|74:74|22:67,1,100,8|0,1:2|1:2,1:2:0:0:
228,29,27310,5,10,1:2:0:0:
33,73,27447,1,0,1:2:0:0:
238,126,27583,5,8,1:2:0:0:
242,123,27651,1,0,1:2:0:0:
246,120,27719,1,0,1:2:0:0:
250,116,27788,1,0,1:2:0:0:
254,113,27856,1,8,1:2:0:0:
327,149,27992,1,0,1:2:0:0:
446,97,28129,5,8,1:2:0:0:
459,101,28197,1,8,1:2:0:0:
471,110,28265,1,8,1:2:0:0:
477,122,28333,1,8,1:2:0:0:
483,138,28401,2,0,B|442:152|404:71|459:16,1,150.000005722046,12|0,1:2|1:2,1:2:0:0:
512,212,28674,1,8,1:2:0:0:
398,199,28810,1,8,1:2:0:0:
394,205,28879,1,8,1:2:0:0:
390,211,28947,6,0,L|380:297,1,75.0000028610231,8|0,1:2|1:2,1:2:0:0:
291,277,29083,2,0,L|282:202,1,75.0000028610231,8|0,1:2|1:2,1:2:0:0:
192,228,29219,2,0,L|182:314,1,75.0000028610231,8|0,1:2|1:2,1:2:0:0:
180,235,29356,2,0,L|170:321,1,75.0000028610231,8|0,1:2|1:2,1:2:0:0:
22,272,29492,6,0,B|41:251|41:251|87:243,1,75.0000028610231,8|0,1:2|1:2,1:2:0:0:
126,161,29629,1,0,1:2:0:0:
136,132,29697,1,8,1:2:0:0:
133,102,29765,1,8,1:2:0:0:
115,77,29833,1,0,1:2:0:0:
87,65,29901,2,0,B|62:174|62:174|74:255|74:255|54:370,1,300.000011444092,8|8,1:2|1:2,1:2:0:0:
214,257,30310,5,8,1:2:0:0:
203,246,30379,1,0,1:2:0:0:
189,241,30447,1,8,1:2:0:0:
175,239,30515,1,0,1:2:0:0:
161,240,30583,2,0,P|164:277|177:300,1,50,8|0,1:2|1:2,1:2:0:0:
228,377,30719,1,0,1:2:0:0:
231,357,30788,1,8,1:2:0:0:
235,337,30856,2,0,L|297:325,1,50,8|0,1:2|1:2,1:2:0:0:
406,330,30992,1,8,1:2:0:0:
403,310,31061,1,0,1:2:0:0:
399,290,31129,6,0,B|351:280|351:280|333:156,1,150,8|0,1:2|1:2,1:2:0:0:
424,210,31401,2,8,P|448:198|473:151,2,50,8|8|8,1:2|1:2|1:2,1:2:0:0:
342,171,31606,1,0,1:2:0:0:
349,162,31674,2,0,P|321:120|231:147,1,119.999996337891,8|0,1:2|1:2,1:2:0:0:
419,110,31947,2,0,P|416:60|324:38,1,119.999996337891,8|8,1:2|1:2,1:2:0:0:
117,150,32219,6,0,L|363:173,1,225.000008583069,10|0,1:2|1:2,1:2:0:0:
262,205,32492,1,8,1:2:0:0:
264,219,32560,1,0,1:2:0:0:
267,233,32629,1,8,1:2:0:0:
269,247,32697,1,0,1:2:0:0:
248,278,32765,2,0,B|233:257|233:257|209:248,1,50,8|0,1:2|1:2,1:2:0:0:
166,314,32901,2,0,B|181:335|181:335|204:343,1,50,0|8,1:2|1:2,1:2:0:0:
336,348,33038,2,0,B|379:338|379:338|391:347|391:347|440:338,1,100,8|8,1:2|1:2,1:2:0:0:
475,149,33310,5,8,1:2:0:0:
467,137,33379,1,0,1:2:0:0:
447,128,33447,1,8,1:2:0:0:
410,124,33515,1,8,1:2:0:0:
372,138,33583,1,8,1:2:0:0:
332,140,33651,1,8,1:2:0:0:
296,122,33719,1,8,1:2:0:0:
281,84,33788,1,8,1:2:0:0:
297,47,33856,6,0,B|299:22|299:22|316:45,2,50,10|0|0,1:2|1:2|1:2,1:2:0:0:
169,127,34129,1,10,1:2:0:0:
171,146,34197,1,0,1:2:0:0:
187,134,34265,1,8,1:2:0:0:
314,258,34401,2,0,P|302:224|264:211,3,50,10|0|8|0,1:2|1:2|1:2|1:2,1:2:0:0:
244,279,34674,5,10,1:2:0:0:
242,288,34742,1,0,1:2:0:0:
240,297,34810,1,8,1:2:0:0:
237,306,34879,1,0,1:2:0:0:
233,315,34947,5,10,1:2:0:0:
205,273,35015,1,0,1:2:0:0:
213,223,35083,1,0,1:2:0:0:
252,193,35151,1,8,1:2:0:0:
301,195,35219,6,0,P|324:175|329:133,3,50,10|0|8|0,1:2|1:2|1:2|1:2,1:2:0:0:
259,62,35492,2,0,P|252:85|257:110,3,50,10|0|8|0,1:2|1:2|1:2|1:2,1:2:0:0:
126,157,35765,2,0,L|176:148,1,50,8|0,1:2|1:2,1:2:0:0:
118,147,35901,2,0,L|167:137,1,50,8|0,1:2|1:2,1:2:0:0:
301,195,36038,5,10,1:2:0:0:
328,223,36106,1,0,1:2:0:0:
329,252,36174,1,0,1:2:0:0:
320,269,36242,1,8,1:2:0:0:
303,279,36310,1,10,1:2:0:0:
231,243,36447,1,8,1:2:0:0:
370,337,36583,5,10,1:2:0:0:
387,327,36651,1,0,1:2:0:0:
405,303,36719,1,8,1:2:0:0:
412,263,36788,1,0,1:2:0:0:
411,213,36856,1,10,1:2:0:0:
385,169,36924,1,0,1:2:0:0:
350,132,36992,1,8,1:2:0:0:
347,82,37060,1,0,1:2:0:0:
377,41,37129,6,0,L|485:53,1,100,8|0,1:2|1:2,1:2:0:0:
268,183,37401,2,0,L|256:83,1,100,8|0,1:2|1:2,1:2:0:0:
75,54,37674,2,0,L|153:44,1,50,8|0,1:2|1:2,1:2:0:0:
86,65,37810,2,0,L|164:55,1,50,8|0,1:2|1:2,1:2:0:0:
183,175,37947,2,0,P|131:181|90:137,1,100,8|0,1:2|1:2,1:2:0:0:
96,152,38219,5,10,1:2:0:0:
112,163,38288,1,0,1:2:0:0:
123,179,38356,1,0,1:2:0:0:
124,198,38424,1,0,1:2:0:0:
120,217,38492,2,0,L|107:276,3,50,8|0|0|0,1:2|1:2|1:2|1:2,1:2:0:0:
105,341,38765,2,0,P|133:341|160:319,1,50,8|0,1:2|1:2,1:2:0:0:
188,302,38901,2,0,P|216:302|243:324,1,50,0|0,1:2|1:2,1:2:0:0:
281,376,39038,1,8,1:2:0:0:
406,309,39174,5,0,1:2:0:0:
402,299,39242,1,0,1:2:0:0:
398,289,39310,2,0,L|413:209,3,50,8|0|0|0,1:2|1:2|1:2|1:2,1:2:0:0:
485,272,39583,1,8,1:2:0:0:
342,178,39719,2,0,B|373:157|373:157|435:149,1,100,0|8,1:2|1:2,1:2:0:0:
317,56,39992,5,0,1:2:0:0:
312,65,40060,1,0,1:2:0:0:
306,74,40129,1,8,1:2:0:0:
286,69,40197,1,0,1:2:0:0:
266,63,40265,1,0,1:2:0:0:
246,57,40333,1,0,1:2:0:0:
226,51,40401,6,0,L|228:102,1,50,10|0,1:2|1:2,1:2:0:0:
145,160,40538,1,0,1:2:0:0:
1,67,40674,1,8,1:2:0:0:
0,86,40742,1,0,1:2:0:0:
15,98,40810,1,0,1:2:0:0:
34,103,40879,1,0,1:2:0:0:
52,96,40947,6,0,L|65:159,1,50,8|0,1:2|1:2,1:2:0:0:
139,168,41083,2,0,L|149:119,1,50,0|0,1:2|1:2,1:2:0:0:
226,51,41219,1,8,1:2:0:0:
247,161,41356,1,0,1:2:0:0:
157,275,41492,6,0,P|177:260|201:254,1,50,12|0,1:2|1:2,1:2:0:0:
288,279,41629,1,8,1:2:0:0:
294,286,41697,1,8,1:2:0:0:
300,294,41765,1,8,1:2:0:0:
382,275,41901,5,0,1:2:0:0:
211,366,42038,1,8,1:2:0:0:
227,193,42174,1,8,1:2:0:0:
241,195,42242,1,8,1:2:0:0:
253,203,42310,1,8,1:2:0:0:
157,284,42447,1,0,1:2:0:0:
357,361,42583,6,0,P|415:357|466:322,1,100,8|0,1:2|1:2,1:2:0:0:
456,328,42788,1,0,1:2:0:0:
457,318,42856,1,8,1:2:0:0:
303,299,42992,1,0,1:2:0:0:
340,138,43129,2,0,B|355:31|355:31|384:84,1,150,8|0,1:2|1:2,1:2:0:0:
448,116,43401,2,0,P|405:141|356:142,1,100,8|0,1:2|1:2,1:2:0:0:
139,84,43674,6,0,B|166:58|166:58|252:44,1,119.999996337891,8|0,1:2|1:2,1:2:0:0:
80,215,43947,2,0,L|41:52,1,150,8|0,1:2|1:2,1:2:0:0:
97,13,44219,1,8,1:2:0:0:
212,134,44356,2,0,L|204:235,1,100,0|8,1:2|1:2,1:2:0:0:
213,350,44560,1,8,1:2:0:0:
216,359,44629,1,8,1:2:0:0:
219,368,44697,1,8,1:2:0:0:
226,375,44765,6,0,P|268:350|318:352,2,100.000003814697,8|0|0,1:2|1:2|1:2,1:2:0:0:
204,233,45038,2,0,P|161:208|111:210,2,100.000003814697,8|0|0,1:2|1:2|1:2,1:2:0:0:
292,136,45310,5,8,1:2:0:0:
340,147,45401,1,0,1:2:0:0:
381,119,45492,1,0,1:2:0:0:
331,50,45583,5,8,1:2:0:0:
320,41,45674,1,0,1:2:0:0:
321,57,45765,1,0,1:2:0:0:
243,82,45856,6,0,B|234:206,1,119.999996337891,8|0,1:2|1:2,1:2:0:0:
421,315,46129,2,0,B|411:195,1,119.999996337891,8|0,1:2|1:2,1:2:0:0:
213,366,46401,2,0,B|154:357|154:357|123:376|123:376|46:366,1,150.000005722046,8|0,1:2|1:2,1:2:0:0:
26,231,46674,2,8,P|31:211|45:198,3,37.5000014305115,8|8|8|8,1:2|1:2|1:2|1:2,1:2:0:0:
101,253,46947,6,0,P|134:233|159:160,1,112.500004291535,12|0,1:2|1:2,1:2:0:0:
154,156,47219,1,0,1:2:0:0:
390,47,47492,1,0,1:2:0:0:
399,129,47629,1,0,1:2:0:0:
298,273,47901,5,8,1:2:0:0:
222,345,48038,2,0,P|297:375|402:285,1,225.000008583069,8|0,1:2|1:2,1:2:0:0:
399,281,48515,1,0,1:2:0:0:
398,269,48583,1,0,1:2:0:0:
209,257,48719,5,8,1:2:0:0:
190,252,48788,1,8,1:2:0:0:
172,246,48856,2,0,P|203:192|194:135,1,112.500004291535,8|0,1:2|1:2,1:2:0:0:
191,139,49129,5,12,1:2:0:0:
176,138,49197,1,8,1:2:0:0:
157,150,49265,1,8,1:2:0:0:
151,179,49333,1,8,1:2:0:0:
170,211,49401,5,8,1:2:0:0:
207,206,49469,1,8,1:2:0:0:
244,198,49538,1,8,1:2:0:0:
281,192,49606,1,8,1:2:0:0:
317,185,49674,2,8,B|320:131|320:131|341:145,3,75.0000028610231,8|8|8|8,1:2|1:2|1:2|1:2,1:2:0:0:
352,265,49947,5,8,1:2:0:0:
419,147,50083,1,8,1:2:0:0:
455,154,50151,1,8,1:2:0:0:
491,161,50219,2,8,L|476:248,3,75.0000028610231,8|8|8|8,1:2|1:2|1:2|1:2,1:2:0:0:
438,303,50492,5,8,1:2:0:0:
415,299,50560,1,8,1:2:0:0:
393,305,50629,1,8,1:2:0:0:
374,318,50697,1,8,1:2:0:0:
364,338,50765,2,8,L|349:251,3,75.0000028610231,8|8|8|8,1:2|1:2|1:2|1:2,1:2:0:0:
255,316,51038,5,8,1:2:0:0:
218,308,51106,1,8,1:2:0:0:
179,303,51175,1,8,1:2:0:0:
142,296,51243,1,8,1:2:0:0:
105,290,51310,2,0,B|92:263|92:263|115:141,1,150.000005722046,8|8,1:2|1:2,1:2:0:0:
243,48,51583,2,8,P|224:84|176:93,3,75.0000028610231,8|8|8|8,1:2|1:2|1:2|1:2,1:2:0:0:
83,41,51856,5,8,1:2:0:0:
82,55,51924,1,8,1:2:0:0:
75,68,51992,1,8,1:2:0:0:
62,76,52060,1,8,1:2:0:0:
13,68,52129,5,8,1:2:0:0:
17,105,52197,1,8,1:2:0:0:
19,142,52265,1,8,1:2:0:0:
23,179,52333,1,8,1:2:0:0:
27,216,52401,6,8,L|11:313,3,75.0000028610231,8|8|8|8,1:2|1:2|1:2|1:2,1:2:0:0:
25,291,52674,2,8,P|64:253|113:253,1,75.0000028610231,8|8,1:2|1:2,1:2:0:0:
143,184,52810,2,8,P|195:198|219:241,1,75.0000028610231,8|8,1:2|1:2,1:2:0:0:
263,297,52947,5,8,1:2:0:0:
310,318,53015,1,8,1:2:0:0:
362,314,53083,1,8,1:2:0:0:
401,280,53151,1,8,1:2:0:0:
410,228,53219,5,8,1:2:0:0:
398,208,53288,1,8,1:2:0:0:
395,193,53356,1,8,1:2:0:0:
395,185,53424,1,8,1:2:0:0:
398,181,53492,6,0,P|445:222|445:269,1,100,12|0,1:2|1:2,1:2:0:0:
245,214,53765,2,0,P|289:203|332:158,1,75.0000028610231,0|0,1:2|1:2,1:2:0:0:
237,124,54038,1,0,1:2:0:0:
172,203,54174,2,0,P|212:222|274:216,1,75.0000028610231,0|0,1:2|1:2,1:2:0:0:
357,113,54447,1,8,1:2:0:0:
179,43,54583,6,8,B|151:33|129:57|129:57|104:80|70:73,2,112.500004291535,8|8|8,1:2|1:2|1:2,1:2:0:0:
264,135,55129,1,8,1:2:0:0:
264,142,55197,1,8,1:2:0:0:
260,152,55265,1,8,1:2:0:0:
221,161,55333,1,8,1:2:0:0:
173,126,55401,1,10,1:2:0:0:
173,126,55674,5,12,1:2:0:0:
177,115,55742,1,8,1:2:0:0:
167,104,55810,1,8,1:2:0:0:
135,104,55879,1,8,1:2:0:0:
115,133,55947,1,8,1:2:0:0:
134,171,56015,1,8,1:2:0:0:
178,180,56083,1,8,1:2:0:0:
203,222,56151,1,8,1:2:0:0:
215,271,56219,6,8,P|200:283|181:291,1,37.5000014305115,8|8,1:2|1:2,1:2:0:0:
120,347,56356,1,8,1:2:0:0:
114,360,56424,1,8,1:2:0:0:
101,368,56492,1,8,1:2:0:0:
25,318,56629,1,8,1:2:0:0:
215,369,56765,6,8,P|261:347|297:350,3,75.0000028610231,8|8|8|8,1:2|1:2|1:2|1:2,1:2:0:0:
370,267,57038,1,8,1:2:0:0:
379,238,57106,1,8,1:2:0:0:
376,208,57174,1,8,1:2:0:0:
362,181,57242,1,8,1:2:0:0:
336,165,57310,6,8,L|316:74,3,75.0000028610231,8|8|8|8,1:2|1:2|1:2|1:2,1:2:0:0:
407,109,57583,1,8,1:2:0:0:
251,202,57719,1,8,1:2:0:0:
83,81,57856,5,8,1:2:0:0:
100,85,57924,1,8,1:2:0:0:
116,103,57992,1,8,1:2:0:0:
116,140,58060,1,8,1:2:0:0:
82,172,58129,5,8,1:2:0:0:
118,163,58197,1,8,1:2:0:0:
155,158,58265,1,8,1:2:0:0:
191,151,58333,1,8,1:2:0:0:
235,168,58401,6,8,L|245:89,1,75.0000028610231,8|8,1:2|1:2,1:2:0:0:
321,159,58538,2,8,L|331:80,1,75.0000028610231,8|8,1:2|1:2,1:2:0:0:
430,229,58674,2,8,P|395:262|365:266,1,75.0000028610231,8|8,1:2|1:2,1:2:0:0:
328,353,58810,2,8,P|279:355|254:339,1,75.0000028610231,8|8,1:2|1:2,1:2:0:0:
103,291,58947,5,8,1:2:0:0:
84,256,59015,1,8,1:2:0:0:
90,218,59083,1,8,1:2:0:0:
113,189,59151,1,8,1:2:0:0:
149,180,59219,1,8,1:2:0:0:
186,260,59356,1,8,1:2:0:0:
290,244,59492,5,8,1:2:0:0:
316,233,59560,1,8,1:2:0:0:
330,209,59628,1,8,1:2:0:0:
331,181,59696,1,8,1:2:0:0:
315,158,59764,1,8,1:2:0:0:
235,184,59901,1,8,1:2:0:0:
287,354,60038,6,0,L|421:361,1,119.999996337891,12|0,1:2|1:2,1:2:0:0:
464,126,60310,2,0,P|386:147|395:251,1,179.999994506836,8|0,1:2|1:2,1:2:0:0:
470,280,60583,1,8,1:2:0:0:
480,288,60856,2,0,P|499:250|508:203,1,75.0000028610231,8|0,1:2|1:2,1:2:0:0:
401,50,61129,6,0,B|334:56|334:56|315:72|315:72|210:81,1,179.999994506836,8|0,1:2|1:2,1:2:0:0:
153,51,61401,1,8,1:2:0:0:
206,179,61538,1,0,1:2:0:0:
82,194,61674,1,8,1:2:0:0:
87,109,61810,1,0,1:2:0:0:
15,345,61947,1,8,1:2:0:0:
10,260,62083,1,0,1:2:0:0:
219,379,62219,6,0,P|163:357|104:361,1,119.999996337891,8|0,1:2|1:2,1:2:0:0:
305,321,62492,2,0,P|351:266|423:273,1,150,8|0,1:2|1:2,1:2:0:0:
382,345,62765,1,8,1:2:0:0:
365,261,62901,1,0,1:2:0:0:
373,353,63038,1,8,1:2:0:0:
482,174,63174,1,8,1:2:0:0:
483,164,63242,1,8,1:2:0:0:
484,155,63310,6,8,L|471:62,3,75.0000028610231,8|8|8|8,1:2|1:2|1:2|1:2,1:2:0:0:
326,120,63583,2,8,L|313:213,3,75.0000028610231,8|8|8|8,1:2|1:2|1:2|1:2,1:2:0:0:
190,36,63856,1,8,1:2:0:0:
152,38,63924,1,8,1:2:0:0:
130,68,63992,1,8,1:2:0:0:
129,105,64060,1,8,1:2:0:0:
148,137,64129,1,8,1:2:0:0:
151,174,64197,1,8,1:2:0:0:
131,206,64265,1,8,1:2:0:0:
94,215,64333,1,8,1:2:0:0:
62,194,64401,5,10,1:2:0:0:
47,119,64538,1,0,1:2:0:0:
160,178,64674,1,2,1:2:0:0:
175,103,64811,1,0,1:2:0:0:
317,182,64947,5,10,1:2:0:0:
302,107,65084,1,2,1:2:0:0:
315,194,65219,1,2,1:2:0:0:
241,53,65356,1,2,1:2:0:0:
247,318,65492,5,10,1:2:0:0:
332,333,65629,1,0,1:2:0:0:
411,218,65765,1,2,1:2:0:0:
326,233,65902,1,0,1:2:0:0:
252,92,66038,5,2,1:2:0:0:
337,107,66175,1,2,1:2:0:0:
186,159,66310,1,2,1:2:0:0:
345,99,66447,1,2,1:2:0:0:
164,252,66583,6,8,L|231:262,3,50,12|8|8|8,1:2|1:2|1:2|1:2,1:2:0:0:
223,351,66856,2,8,L|272:343,3,50,8|8|8|8,1:2|1:2|1:2|1:2,1:2:0:0:
337,279,67129,1,8,1:2:0:0:
346,274,67197,1,8,1:2:0:0:
355,272,67265,1,8,1:2:0:0:
364,270,67333,1,8,1:2:0:0:
373,269,67401,1,8,1:2:0:0:
382,267,67469,1,8,1:2:0:0:
392,267,67538,1,8,1:2:0:0:
401,268,67606,1,8,1:2:0:0:
410,270,67674,5,12,1:2:0:0:
402,246,67742,1,0,1:2:0:0:
403,221,67810,1,0,1:2:0:0:
416,199,67879,1,0,1:2:0:0:
438,187,67947,1,8,1:2:0:0:
456,170,68015,1,0,1:2:0:0:
469,148,68083,1,0,1:2:0:0:
472,123,68151,1,0,1:2:0:0:
465,98,68219,6,0,P|440:119|399:119,1,50,8|0,1:2|1:2,1:2:0:0:
333,179,68356,2,0,P|302:167|281:132,1,50,8|0,1:2|1:2,1:2:0:0:
200,49,68492,2,0,L|192:-1,3,50,8|0|0|0,1:2|1:2|1:2|1:2,1:2:0:0:
114,144,68765,5,12,1:2:0:0:
150,170,68833,1,8,1:2:0:0:
170,210,68901,1,8,1:2:0:0:
170,254,68969,1,8,1:2:0:0:
148,293,69038,5,8,1:2:0:0:
131,282,69106,1,8,1:2:0:0:
124,263,69174,1,8,1:2:0:0:
127,243,69242,1,8,1:2:0:0:
138,227,69310,5,8,1:2:0:0:
183,233,69379,1,8,1:2:0:0:
220,274,69447,5,8,1:2:0:0:
263,283,69515,1,8,1:2:0:0:
298,237,69583,5,8,1:2:0:0:
359,224,69652,1,8,1:2:0:0:
407,253,69720,5,8,1:2:0:0:
188,92,69992,5,8,1:2:0:0:
49,299,70265,5,8,1:2:0:0:
275,371,70538,5,8,1:2:0:0:
273,356,70606,1,8,1:2:0:0:
270,341,70674,2,0,L|281:256,1,50,10|0,1:2|1:2,1:2:0:0:
348,213,70810,2,0,L|355:263,1,50,0|0,1:2|1:2,1:2:0:0:
497,312,70947,6,0,B|469:338|469:338|351:347,1,150.000005722046,12|0,1:2|1:2,1:2:0:0:
282,306,71151,1,0,1:2:0:0:
276,291,71219,1,8,1:2:0:0:
362,129,71356,1,0,1:2:0:0:
192,235,71492,6,0,P|174:193|141:170,1,75.0000028610231,8|0,1:2|1:2,1:2:0:0:
88,230,71629,2,0,P|41:232|9:255,1,75.0000028610231,0|0,1:2|1:2,1:2:0:0:
36,327,71765,1,8,1:2:0:0:
112,103,71901,1,0,1:2:0:0:
350,226,72038,6,0,B|429:236|429:236|436:232|436:232|502:239,1,150.000005722046,12|0,1:2|1:2,1:2:0:0:
320,34,72310,2,0,B|245:40|245:40|239:35|239:35|167:43,1,150.000005722046,12|0,1:2|1:2,1:2:0:0:
135,302,72583,1,8,1:2:0:0:
239,257,72719,2,0,P|252:216|256:184,1,75.0000028610231,8|0,1:2|1:2,1:2:0:0:
196,66,72856,1,8,1:2:0:0:
14,178,72992,6,0,P|43:212|80:213,1,75.0000028610231,0|8,1:2|1:2,1:2:0:0:
137,174,73129,2,0,B|179:148|179:148|283:142,1,150.000005722046,12|0,1:2|1:2,1:2:0:0:
481,237,73401,1,8,1:2:0:0:
337,75,73538,1,0,1:2:0:0:
319,217,73674,1,8,1:2:0:0:
329,225,73742,1,0,1:2:0:0:
343,229,73810,1,0,1:2:0:0:
435,170,73947,1,8,1:2:0:0:
220,228,74083,1,0,1:2:0:0:
453,286,74219,5,8,1:2:0:0:
461,298,74288,1,8,1:2:0:0:
468,310,74356,2,0,L|484:215,1,75.0000028610231,8|0,1:2|1:2,1:2:0:0:
416,144,74492,1,8,1:2:0:0:
408,156,74561,1,8,1:2:0:0:
401,168,74629,2,0,L|385:73,1,75.0000028610231,8|0,1:2|1:2,1:2:0:0:
293,29,74765,5,8,1:2:0:0:
99,77,74901,1,8,1:2:0:0:
93,90,74969,1,8,1:2:0:0:
86,103,75038,2,0,B|106:161|106:161|101:187|101:187|124:277,1,150.000005722046,8|0,1:2|1:2,1:2:0:0:
268,317,75310,6,0,B|226:351|226:351|247:182,1,225.000008583069,12|0,1:2|1:2,1:2:0:0:
310,126,75583,1,8,1:2:0:0:
464,227,75719,2,0,P|383:223|316:256,1,150.000005722046,0|8,1:2|1:2,1:2:0:0:
217,357,75992,1,0,1:2:0:0:
136,304,76129,1,8,1:2:0:0:
150,207,76265,1,0,1:2:0:0:
310,126,76401,5,8,1:2:0:0:
389,217,76538,2,0,L|418:56,1,150.000005722046,0|8,1:2|1:2,1:2:0:0:
236,38,76810,1,0,1:2:0:0:
237,53,76879,1,0,1:2:0:0:
239,68,76947,1,8,1:2:0:0:
318,120,77083,1,0,1:2:0:0:
194,144,77219,1,8,1:2:0:0:
114,95,77356,1,0,1:2:0:0:
0,175,77492,6,0,B|41:212|22:258|22:258|6:300|35:341,1,179.999994506836,12|8,1:2|1:2,1:2:0:0:
47,349,77765,2,0,B|79:321|79:321|183:307,1,119.999996337891,8|0,1:2|1:2,1:2:0:0:
301,384,78038,1,8,1:2:0:0:
332,218,78174,1,0,1:2:0:0:
293,376,78310,1,8,1:2:0:0:
476,301,78447,6,0,B|487:253|487:253|451:96,1,179.999994506836,0|0,1:2|1:2,1:2:0:0:
460,113,78719,1,8,1:2:0:0:
325,94,78856,1,8,1:2:0:0:
190,79,78992,1,8,1:2:0:0:
94,160,79129,5,8,1:2:0:0:
98,171,79197,1,0,1:2:0:0:
102,181,79265,1,0,1:2:0:0:
106,192,79333,1,0,1:2:0:0:
98,222,79401,5,8,1:2:0:0:
124,204,79469,1,0,1:2:0:0:
168,208,79538,1,0,1:2:0:0:
200,239,79606,1,0,1:2:0:0:
209,295,79674,6,0,B|269:284|269:284|295:294|295:294|370:283,1,150.000005722046,12|0,1:2|1:2,1:2:0:0:
434,314,79879,1,0,1:2:0:0:
448,315,79947,1,8,1:2:0:0:
334,382,80083,1,0,1:2:0:0:
202,289,80219,6,0,P|201:251|217:215,1,75.0000028610231,8|0,1:2|1:2,1:2:0:0:
294,213,80356,2,0,P|326:193|365:189,1,75.0000028610231,0|0,1:2|1:2,1:2:0:0:
435,233,80492,1,8,1:2:0:0:
197,137,80628,1,0,1:2:0:0:
423,3,80765,6,0,L|438:154,1,150.000005722046,12|0,1:2|1:2,1:2:0:0:
114,338,81038,2,0,L|129:188,1,150.000005722046,12|0,1:2|1:2,1:2:0:0:
24,70,81310,1,8,1:2:0:0:
35,281,81446,2,0,P|77:266|100:233,1,75.0000028610231,10|0,1:2|1:2,1:2:0:0:
104,118,81583,1,8,1:2:0:0:
257,174,81719,6,0,P|215:159|192:126,1,75.0000028610231,0|8,1:2|1:2,1:2:0:0:
229,25,81856,2,0,P|260:82|255:193,1,150.000005722046,12|0,1:2|1:2,1:2:0:0:
95,243,82128,1,8,1:2:0:0:
111,115,82265,1,0,1:2:0:0:
264,94,82401,5,8,1:2:0:0:
200,302,82537,1,0,1:2:0:0:
194,144,82674,1,8,1:2:0:0:
276,348,82810,1,0,1:2:0:0:
434,173,82946,5,8,1:2:0:0:
450,172,83015,1,8,1:2:0:0:
464,178,83083,2,0,P|440:227|391:249,1,75.0000028610231,8|0,1:2|1:2,1:2:0:0:
280,215,83219,1,8,1:2:0:0:
271,201,83288,1,8,1:2:0:0:
269,186,83356,2,0,P|323:181|367:213,1,75.0000028610231,8|0,1:2|1:2,1:2:0:0:
382,311,83492,5,8,1:2:0:0:
200,302,83628,1,8,1:2:0:0:
189,314,83696,1,8,1:2:0:0:
179,325,83765,2,0,B|117:331|117:331|96:346|96:346|4:359,1,150.000005722046,8|0,1:2|1:2,1:2:0:0:
35,111,84037,6,0,P|121:58|174:144,1,225.000008583069,12|0,1:2|1:2,1:2:0:0:
116,204,84310,1,8,1:2:0:0:
235,17,84446,2,0,B|205:54|205:54|185:161,1,150.000005722046,0|8,1:2|1:2,1:2:0:0:
320,259,84719,1,0,1:2:0:0:
123,299,84856,1,8,1:2:0:0:
318,270,84992,1,0,1:2:0:0:
176,119,85129,6,0,P|237:180|326:159,1,150.000005722046,8|0,1:2|1:2,1:2:0:0:
331,108,85333,2,0,P|270:47|181:68,1,150.000005722046,8|0,1:2|1:2,1:2:0:0:
168,126,85537,1,8,1:2:0:0:
206,256,85674,1,8,1:2:0:0:
123,299,85810,1,0,1:2:0:0:
108,295,85879,1,0,1:2:0:0:
93,290,85946,1,8,1:2:0:0:
213,250,86083,1,0,1:2:0:0:
308,345,86219,6,0,P|344:365|376:365,3,50,12|0|0|0,1:2|1:2|1:2|1:2,1:2:0:0:
410,298,86492,2,0,P|445:276|461:249,3,50,8|0|0|0,1:2|1:2|1:2|1:2,1:2:0:0:
413,181,86765,5,8,1:2:0:0:
411,171,86833,1,0,1:2:0:0:
409,161,86901,1,0,1:2:0:0:
407,151,86969,1,0,1:2:0:0:
410,134,87038,5,8,1:2:0:0:
386,154,87106,1,0,1:2:0:0:
342,158,87174,1,0,1:2:0:0:
298,138,87242,1,0,1:2:0:0:
245,145,87310,5,10,1:2:0:0:
357,73,87447,1,10,1:2:0:0:
178,95,87583,1,10,1:2:0:0:
286,228,87719,1,10,1:2:0:0:
358,59,87856,1,10,1:2:0:0:
169,88,87992,1,10,1:2:0:0:
288,238,88129,1,10,1:2:0:0:
273,132,88265,1,10,1:2:0:0:
165,245,88401,6,0,B|175:295|175:295|209:249,5,100.000003814697,10|0|0|0|0|0,1:2|1:2|1:2|1:2|1:2|1:2,1:2:0:0:
288,238,88947,5,0,1:2:0:0:
220,384,89083,1,0,1:2:0:0:
74,316,89219,1,0,1:2:0:0:
142,170,89356,1,0,1:2:0:0:
378,293,89492,6,0,P|438:298|474:268,5,100.000003814697,10|0|0|0|0|0,1:2|1:2|1:2|1:2|1:2|1:2,1:2:0:0:
410,218,90038,5,0,1:2:0:0:
439,384,90174,1,0,1:2:0:0:
393,139,90310,1,0,1:2:0:0:
437,375,90447,1,0,1:2:0:0:
142,170,90583,5,10,1:2:0:0:
72,196,90673,1,0,1:2:0:0:
49,265,90764,1,0,1:2:0:0:
89,327,90855,1,0,1:2:0:0:
162,335,90946,1,0,1:2:0:0:
213,283,91037,1,0,1:2:0:0:
206,210,91129,5,0,1:2:0:0:
221,202,91265,1,0,1:2:0:0:
415,261,91401,1,0,1:2:0:0:
430,269,91537,1,0,1:2:0:0:
340,36,91674,5,10,1:2:0:0:
398,74,91765,1,0,1:2:0:0:
409,143,91856,1,0,1:2:0:0:
359,192,91947,1,0,1:2:0:0:
328,255,92038,1,0,1:2:0:0:
348,322,92129,1,0,1:2:0:0:
410,351,92219,5,0,1:2:0:0:
430,269,92356,1,0,1:2:0:0:
241,284,92492,1,0,1:2:0:0:
221,202,92629,1,0,1:2:0:0:
24,260,92765,6,8,P|43:273|76:279,3,50,8|8|8|8,1:2|1:2|1:2|1:2,1:2:0:0:
119,348,93038,2,8,P|141:345|171:329,3,50,8|8|8|8,1:2|1:2|1:2|1:2,1:2:0:0:
273,189,93310,5,8,1:2:0:0:
292,182,93379,1,8,1:2:0:0:
311,182,93447,1,8,1:2:0:0:
329,189,93515,1,8,1:2:0:0:
344,201,93583,1,8,1:2:0:0:
358,205,93651,1,8,1:2:0:0:
367,205,93719,1,8,1:2:0:0:
373,203,93788,1,8,1:2:0:0:
377,200,93856,6,8,L|386:126,1,50,8|8,1:2|1:2,1:2:0:0:
271,62,93992,1,8,1:2:0:0:
266,66,94060,1,8,1:2:0:0:
261,70,94129,2,8,L|187:61,1,50,8|8,1:2|1:2,1:2:0:0:
125,177,94265,1,8,1:2:0:0:
130,182,94333,1,8,1:2:0:0:
134,187,94402,2,8,L|125:260,1,50,8|8,1:2|1:2,1:2:0:0:
241,322,94538,1,8,1:2:0:0:
246,318,94606,1,8,1:2:0:0:
251,314,94675,2,8,L|324:323,1,50,8|8,1:2|1:2,1:2:0:0:
386,207,94810,1,8,1:2:0:0:
382,201,94878,1,8,1:2:0:0:
378,196,94947,6,0,B|407:144|420:51|420:51|430:119|454:160,1,225.000008583069,12|0,1:2|1:2,1:2:0:0:
443,128,95219,6,0,P|460:144|482:148,1,37.5000014305115,8|0,1:2|1:2,1:2:0:0:
435,127,95288,2,0,P|437:150|452:167,1,37.5000014305115,8|0,1:2|1:2,1:2:0:0:
428,122,95356,2,0,P|415:141|415:163,1,37.5000014305115,8|0,1:2|1:2,1:2:0:0:
421,117,95424,2,0,P|398:123|384:140,1,37.5000014305115,8|0,1:2|1:2,1:2:0:0:
415,110,95492,6,0,P|409:87|417:63,1,37.5000014305115,0|0,1:2|1:2,1:2:0:0:
423,102,95560,2,0,P|439:85|461:82,1,37.5000014305115,8|0,1:2|1:2,1:2:0:0:
437,108,95629,2,0,P|459:114|473:131,1,37.5000014305115,8|0,1:2|1:2,1:2:0:0:
435,127,95697,2,0,P|440:149|433:169,1,37.5000014305115,8|0,1:2|1:2,1:2:0:0:
419,129,95765,6,0,P|402:145|380:148,1,37.5000014305115,0|0,1:2|1:2,1:2:0:0:
411,106,95833,2,0,P|388:99|374:82,1,37.5000014305115,8|0,1:2|1:2,1:2:0:0:
435,90,95901,6,0,P|429:67|436:47,1,37.5000014305115,8|0,1:2|1:2,1:2:0:0:
350,351,96174,6,0,P|337:369|337:392,1,37.5000014305115,8|0,1:2|1:2,1:2:0:0:
206,127,96447,6,0,P|187:113|179:92,1,37.5000014305115,8|0,1:2|1:2,1:2:0:0:
88,243,96719,6,0,P|65:249|51:266,1,37.5000014305115,8|0,1:2|1:2,1:2:0:0:
55,274,96788,1,8,1:2:0:0:
55,288,96856,2,0,L|215:273,1,150,12|0,1:2|1:2,1:2:0:0:
219,273,97129,6,0,B|233:256|233:256|238:186,1,75.0000028610231,8|0,1:2|1:2,1:2:0:0:
196,123,97265,1,0,1:2:0:0:
191,108,97333,1,0,1:2:0:0:
187,93,97401,1,8,1:2:0:0:
238,11,97538,1,0,1:2:0:0:
326,98,97674,5,8,1:2:0:0:
346,119,97742,1,0,1:2:0:0:
375,122,97810,1,0,1:2:0:0:
403,112,97879,1,0,1:2:0:0:
420,87,97947,5,8,1:2:0:0:
420,101,98015,1,0,1:2:0:0:
431,110,98083,1,0,1:2:0:0:
430,124,98151,1,0,1:2:0:0:
440,134,98219,6,0,B|423:171|423:171|419:230,1,75.0000028610231,8|0,1:2|1:2,1:2:0:0:
512,153,98356,2,0,B|495:190|495:190|491:249,1,75.0000028610231,0|0,1:2|1:2,1:2:0:0:
512,342,98492,1,8,1:2:0:0:
489,321,98560,1,0,1:2:0:0:
460,310,98629,1,0,1:2:0:0:
430,309,98697,1,0,1:2:0:0:
389,340,98765,5,8,1:2:0:0:
344,347,98833,1,0,1:2:0:0:
300,334,98901,2,0,P|279:296|282:234,1,75.0000028610231,8|0,1:2|1:2,1:2:0:0:
228,121,99038,1,8,1:2:0:0:
242,118,99106,1,0,1:2:0:0:
256,115,99174,6,0,B|228:189|228:189|249:243|249:243|214:353,1,225.000008583069,12|0,1:2|1:2,1:2:0:0:
143,339,99447,1,0,1:2:0:0:
206,198,99583,1,8,1:2:0:0:
300,344,99719,1,0,1:2:0:0:
86,244,99856,5,8,1:2:0:0:
82,237,99924,1,0,1:2:0:0:
79,229,99992,1,0,1:2:0:0:
78,221,100060,1,0,1:2:0:0:
79,213,100129,1,8,1:2:0:0:
25,132,100265,1,0,1:2:0:0:
237,21,100402,5,12,1:2:0:0:
282,17,100470,1,0,1:2:0:0:
320,39,100538,1,8,1:2:0:0:
339,79,100606,1,0,1:2:0:0:
356,124,100674,5,12,1:2:0:0:
320,121,100742,1,0,1:2:0:0:
290,139,100810,1,8,1:2:0:0:
274,171,100878,1,0,1:2:0:0:
255,212,100947,5,12,1:2:0:0:
283,209,101015,1,0,1:2:0:0:
308,223,101083,1,8,1:2:0:0:
320,249,101151,1,0,1:2:0:0:
321,279,101219,2,0,P|297:283|273:302,3,50,8|0|8|0,1:2|1:2|1:2|1:2,1:2:0:0:
405,368,101492,6,0,L|303:353,1,75.0000028610231,8|0,1:2|1:2,1:2:0:0:
254,374,101629,1,0,1:2:0:0:
240,379,101697,1,0,1:2:0:0:
117,348,101833,1,0,1:2:0:0:
89,335,101901,1,0,1:2:0:0:
75,305,101969,1,0,1:2:0:0:
93,269,102037,1,8,1:2:0:0:
94,213,102106,1,0,1:2:0:0:
161,143,102242,1,0,1:2:0:0:
127,54,102379,1,0,1:2:0:0:
253,63,102515,5,0,1:2:0:0:
260,76,102583,2,0,P|300:96|341:98,1,75.0000028610231,8|0,1:2|1:2,1:2:0:0:
478,0,102719,1,0,1:2:0:0:
471,13,102788,1,0,1:2:0:0:
464,26,102856,2,0,B|481:59|481:59|483:114,1,75.0000028610231,8|0,1:2|1:2,1:2:0:0:
392,47,102992,2,0,B|409:80|409:80|411:135,1,75.0000028610231,0|0,1:2|1:2,1:2:0:0:
355,173,103129,5,8,1:2:0:0:
352,187,103197,1,0,1:2:0:0:
428,257,103333,1,0,1:2:0:0:
431,271,103401,1,8,1:2:0:0:
434,285,103469,2,0,B|420:301|420:301|286:312,1,150.000005722046,12|0,1:2|1:2,1:2:0:0:
184,365,103674,6,0,P|204:329|205:289,1,75.0000028610231,8|0,1:2|1:2,1:2:0:0:
185,203,103810,1,0,1:2:0:0:
181,187,103879,1,0,1:2:0:0:
177,172,103947,1,8,1:2:0:0:
147,175,104015,1,0,1:2:0:0:
121,158,104083,1,0,1:2:0:0:
112,129,104151,1,0,1:2:0:0:
120,98,104219,5,8,1:2:0:0:
98,252,104356,1,0,1:2:0:0:
261,213,104492,1,8,1:2:0:0:
168,35,104629,1,8,1:2:0:0:
0,143,104765,5,8,1:2:0:0:
23,160,104833,1,8,1:2:0:0:
52,166,104901,1,8,1:2:0:0:
81,164,104969,1,8,1:2:0:0:
107,149,105038,1,8,1:2:0:0:
148,131,105106,1,8,1:2:0:0:
192,133,105174,1,8,1:2:0:0:
230,156,105242,6,0,P|263:125|272:69,1,75.0000028610231,4|0,1:2|1:2,1:2:0:0:
168,35,105379,1,0,1:2:0:0:
152,28,105447,2,0,B|149:58|149:58|169:123,1,75.0000028610231,8|0,1:2|1:2,1:2:0:0:
74,37,105583,2,0,B|71:67|71:67|91:132,1,75.0000028610231,8|0,1:2|1:2,1:2:0:0:
0,279,105719,6,0,B|19:256|19:256|95:240,1,75.0000028610231,12|0,1:2|1:2,1:2:0:0:
165,217,105856,1,8,1:2:0:0:
179,243,105924,1,8,1:2:0:0:
202,261,105992,1,8,1:2:0:0:
230,271,106060,1,8,1:2:0:0:
259,275,106129,2,8,P|294:241|311:199,1,75.0000028610231,8|8,1:2|1:2,1:2:0:0:
416,112,106265,5,8,1:2:0:0:
400,86,106333,1,8,1:2:0:0:
404,56,106401,1,8,1:2:0:0:
430,27,106469,1,8,1:2:0:0:
473,40,106538,1,8,1:2:0:0:
496,87,106606,1,8,1:2:0:0:
488,148,106674,2,8,P|465:178|429:191,1,75.0000028610231,8|0,1:2|1:2,1:2:0:0:
375,268,106810,1,0,1:2:0:0:
404,269,106879,1,0,1:2:0:0:
428,285,106947,5,12,1:2:0:0:
444,384,107083,1,0,1:2:0:0:
276,348,107219,1,8,1:2:0:0:
280,333,107287,1,0,1:2:0:0:
284,318,107356,1,0,1:2:0:0:
158,238,107492,1,8,1:2:0:0:
154,223,107560,1,0,1:2:0:0:
150,208,107629,1,0,1:2:0:0:
42,228,107765,1,8,1:2:0:0:
122,345,107901,6,0,L|146:197,1,150.000005722046,0|8,1:2|1:2,1:2:0:0:
89,86,108174,1,0,1:2:0:0:
37,239,108310,1,8,1:2:0:0:
207,303,108447,1,0,1:2:0:0:
375,274,108583,5,8,1:2:0:0:
388,267,108651,1,0,1:2:0:0:
402,266,108719,1,0,1:2:0:0:
476,337,108856,1,8,1:2:0:0:
373,161,108992,1,0,1:2:0:0:
379,171,109060,1,0,1:2:0:0:
382,182,109129,5,12,1:2:0:0:
340,197,109197,1,0,1:2:0:0:
295,192,109265,1,8,1:2:0:0:
258,164,109333,1,0,1:2:0:0:
249,120,109401,1,12,1:2:0:0:
227,141,109469,1,0,1:2:0:0:
197,149,109538,1,8,1:2:0:0:
167,141,109606,1,0,1:2:0:0:
145,120,109674,5,12,1:2:0:0:
126,143,109742,1,0,1:2:0:0:
97,151,109810,1,8,1:2:0:0:
67,148,109878,1,0,1:2:0:0:
41,131,109946,5,8,1:2:0:0:
44,145,110014,1,0,1:2:0:0:
44,160,110083,1,8,1:2:0:0:
38,173,110151,1,0,1:2:0:0:
31,186,110219,6,0,P|53:240|52:273,1,75.0000028610231,8|0,1:2|1:2,1:2:0:0:
21,353,110356,1,0,1:2:0:0:
155,275,110492,1,8,1:2:0:0:
169,276,110560,1,0,1:2:0:0:
180,286,110629,1,0,1:2:0:0:
306,361,110765,5,8,1:2:0:0:
263,255,110901,1,0,1:2:0:0:
316,356,111038,1,8,1:2:0:0:
338,176,111174,1,0,1:2:0:0:
475,331,111310,6,0,L|399:314,1,75.0000028610231,8|0,1:2|1:2,1:2:0:0:
408,229,111447,2,0,L|482:246,1,75.0000028610231,0|0,1:2|1:2,1:2:0:0:
512,146,111583,1,8,1:2:0:0:
509,116,111651,1,0,1:2:0:0:
493,90,111719,1,0,1:2:0:0:
468,73,111788,1,0,1:2:0:0:
438,69,111856,2,0,P|403:60|377:24,3,75.0000028610231,8|0|0|0,1:2|1:2|1:2|1:2,1:2:0:0:
286,52,112129,1,8,1:2:0:0:
326,263,112265,1,0,1:2:0:0:
186,269,112401,5,8,1:2:0:0:
175,258,112469,1,0,1:2:0:0:
161,250,112538,1,0,1:2:0:0:
146,246,112606,1,0,1:2:0:0:
131,246,112674,1,8,1:2:0:0:
12,194,112810,5,0,1:2:0:0:
18,186,112879,1,0,1:2:0:0:
24,178,112947,2,0,P|45:231|50:304,1,100,8|0,1:2|1:2,1:2:0:0:
238,206,113219,1,8,1:2:0:0:
266,213,113288,1,8,1:2:0:0:
298,200,113356,1,8,1:2:0:0:
328,174,113424,1,8,1:2:0:0:
332,129,113492,5,8,1:2:0:0:
302,34,113629,1,0,1:2:0:0:
189,134,113765,1,8,1:2:0:0:
314,297,113901,1,0,1:2:0:0:
489,206,114038,5,8,1:2:0:0:
475,39,114174,1,8,1:2:0:0:
431,51,114242,1,8,1:2:0:0:
387,61,114310,1,8,1:2:0:0:
296,28,114447,1,0,1:2:0:0:
322,299,114583,5,12,1:2:0:0:
256,192,114651,12,0,116697,1:2:0:0:
146,138,116765,6,0,L|178:309,1,150,8|0,1:2|1:2,1:2:0:0:
172,295,117038,1,0,1:2:0:0:
172,295,117310,1,0,1:2:0:0:
68,271,117447,1,8,1:2:0:0:
59,275,117515,1,8,1:2:0:0:
50,279,117583,1,8,1:2:0:0:
152,143,117719,6,0,B|190:168|190:168|385:175,1,225.000008583069,12|0,1:2|1:2,1:2:0:0:
426,120,117992,2,0,L|435:79,1,37.5000014305115,8|0,1:2|1:2,1:2:0:0:
442,108,118265,2,0,L|451:67,1,37.5000014305115,8|0,1:2|1:2,1:2:0:0:
456,96,118538,2,0,L|465:55,1,37.5000014305115,8|0,1:2|1:2,1:2:0:0:
475,54,118606,1,0,1:2:0:0:
487,47,118674,2,0,L|300:62,1,150,12|0,1:2|1:2,1:2:0:0:
261,50,118947,6,0,B|248:151|248:151|278:114,1,150.000005722046,8|0,1:2|1:2,1:2:0:0:
352,138,119151,1,8,1:2:0:0:
361,134,119219,1,8,1:2:0:0:
386,37,119356,1,8,1:2:0:0:
509,217,119492,6,0,B|485:193|485:193|380:209,1,119.999996337891,8|8,1:2|1:2,1:2:0:0:
248,150,119765,1,8,1:2:0:0:
206,285,119901,1,8,1:2:0:0:
199,295,119969,1,0,1:2:0:0:
188,300,120038,6,0,P|148:295|131:280,1,59.9999981689454,8|0,1:2|1:2,1:2:0:0:
104,197,120174,1,0,1:2:0:0:
109,185,120242,1,8,1:2:0:0:
113,174,120310,1,8,1:2:0:0:
58,43,120447,2,0,P|18:48|1:63,2,59.9999981689454,8|0|0,1:2|1:2|1:2,1:2:0:0:
207,71,120719,5,8,1:2:0:0:
210,88,120788,1,0,1:2:0:0:
213,105,120856,2,0,P|242:128|271:133,1,59.9999981689454,8|0,1:2|1:2,1:2:0:0:
325,187,120992,2,0,P|363:186|388:171,1,59.9999981689454,8|0,1:2|1:2,1:2:0:0:
512,41,121128,6,0,P|430:68|496:136,1,179.999994506836,8|8,1:2|1:2,1:2:0:0:
472,135,121401,1,8,1:2:0:0:
456,247,121538,1,0,1:2:0:0:
354,200,121674,2,0,L|339:118,3,59.9999981689454,8|0|0|0,1:2|1:2|1:2|1:2,1:2:0:0:
285,247,121947,5,8,1:2:0:0:
261,244,122015,1,8,1:2:0:0:
237,242,122083,1,8,1:2:0:0:
213,240,122151,1,8,1:2:0:0:
185,263,122219,6,0,P|172:287|176:320,1,44.999998626709,10|0,1:2|1:2,1:2:0:0:
178,258,122288,2,0,P|151:263|128:284,1,43.7500004172325,2|0,1:2|1:2,1:2:0:0:
173,250,122357,2,0,P|151:233|120:229,1,43.7500004172325,2|0,1:2|1:2,1:2:0:0:
179,246,122425,2,0,P|178:218|161:192,1,43.7500004172325,2|0,1:2|1:2,1:2:0:0:
188,246,122493,2,0,P|208:227|217:198,1,43.7500004172325,10|0,1:2|1:2,1:2:0:0:
195,251,122561,2,0,P|221:255|250:242,1,43.7500004172325,2|0,1:2|1:2,1:2:0:0:
193,267,122629,2,0,P|216:279|247:277,1,43.7500004172325,2|0,1:2|1:2,1:2:0:0:
193,267,122697,2,0,P|193:293|211:319,1,43.7500004172325,2|0,1:2|1:2,1:2:0:0:
182,265,122765,6,0,B|148:168|162:75|162:75|154:131|111:191,1,300,14|0,1:2|1:2,1:2:0:0:
51,315,123310,6,0,B|101:283|101:283|290:298,1,225.000008583069,12|0,1:2|1:2,1:2:0:0:
279,305,123583,1,8,1:2:0:0:
446,257,123719,2,0,P|473:164|398:117,1,150.000005722046,0|8,1:2|1:2,1:2:0:0:
296,150,123992,1,0,1:2:0:0:
281,154,124060,1,0,1:2:0:0:
265,152,124129,1,8,1:2:0:0:
218,56,124265,1,0,1:2:0:0:
71,166,124401,6,0,L|45:358,1,150.000005722046,8|0,1:2|1:2,1:2:0:0:
66,324,124606,2,0,L|87:176,1,150.000005722046,8|0,1:2|1:2,1:2:0:0:
12,112,124810,1,8,1:2:0:0:
24,243,124947,1,8,1:2:0:0:
155,231,125083,1,0,1:2:0:0:
143,100,125219,1,8,1:2:0:0:
92,298,125356,1,8,1:2:0:0:
92,312,125424,1,8,1:2:0:0:
97,325,125492,6,0,B|134:308|170:323|170:323|211:337|241:309,1,150.000005722046,12|0,1:2|1:2,1:2:0:0:
297,169,125765,1,8,1:2:0:0:
247,33,125901,1,0,1:2:0:0:
192,220,126038,1,8,1:2:0:0:
386,159,126174,2,0,L|212:140,1,150.000005722046,0|8,1:2|1:2,1:2:0:0:
85,244,126447,2,0,P|95:281|123:306,1,75.0000028610231,0|0,1:2|1:2,1:2:0:0:
218,319,126583,5,12,1:2:0:0:
238,309,126651,1,0,1:2:0:0:
259,303,126719,1,0,1:2:0:0:
281,301,126788,1,0,1:2:0:0:
303,302,126856,1,8,1:2:0:0:
357,178,126992,1,0,1:2:0:0:
343,181,127061,1,0,1:2:0:0:
329,184,127129,2,0,L|344:108,3,75.0000028610231,8|0|0|0,1:2|1:2|1:2|1:2,1:2:0:0:
233,112,127401,2,0,L|231:34,3,75.0000028610231,8|0|0|0,1:2|1:2|1:2|1:2,1:2:0:0:
144,148,127674,5,12,1:2:0:0:
351,103,127810,1,0,1:2:0:0:
221,37,127947,5,8,1:2:0:0:
170,232,128083,1,0,1:2:0:0:
141,142,128219,1,8,1:2:0:0:
85,318,128356,5,0,1:2:0:0:
59,112,128492,1,8,1:2:0:0:
226,164,128629,1,0,1:2:0:0:
16,266,128765,5,8,1:2:0:0:
91,211,128901,1,0,1:2:0:0:
156,377,129038,1,8,1:2:0:0:
182,242,129174,1,0,1:2:0:0:
285,384,129310,5,8,1:2:0:0:
370,267,129447,1,0,1:2:0:0:
368,252,129515,1,0,1:2:0:0:
365,237,129583,1,8,1:2:0:0:
459,296,129719,1,0,1:2:0:0:
364,11,129856,5,12,1:2:0:0:
321,25,129924,1,8,1:2:0:0:
293,60,129992,1,8,1:2:0:0:
289,104,130060,1,8,1:2:0:0:
327,103,130129,5,8,1:2:0:0:
321,129,130197,1,8,1:2:0:0:
333,153,130265,1,8,1:2:0:0:
350,173,130333,1,8,1:2:0:0:
381,138,130401,5,8,1:2:0:0:
392,148,130469,1,8,1:2:0:0:
409,150,130537,1,8,1:2:0:0:
424,147,130605,1,8,1:2:0:0:
437,105,130674,5,8,1:2:0:0:
444,101,130742,1,8,1:2:0:0:
450,95,130810,2,0,P|412:66|377:54,1,75.0000028610231,8|0,1:2|1:2,1:2:0:0:
266,195,130947,5,12,1:2:0:0:
239,0,131083,1,0,1:2:0:0:
46,136,131219,1,8,1:2:0:0:
48,142,131287,1,0,1:2:0:0:
50,148,131355,1,0,1:2:0:0:
52,154,131423,1,0,1:2:0:0:
53,160,131492,1,8,1:2:0:0:
55,166,131559,1,0,1:2:0:0:
57,172,131628,1,0,1:2:0:0:
59,178,131696,1,0,1:2:0:0:
60,184,131764,1,8,1:2:0:0:
62,190,131832,1,0,1:2:0:0:
64,196,131900,1,0,1:2:0:0:
65,202,131969,1,0,1:2:0:0:
67,208,132037,5,10,1:2:0:0:
145,224,133129,1,2,1:2:0:0:
249,228,133947,2,0,P|267:250|240:228,1,112.500004291535,0|0,1:2|1:2,1:2:0:0:
256,220,134219,6,0,B|267:336|267:336|300:301,1,150.000005722046,8|0,1:2|1:2,1:2:0:0:
343,255,134424,1,0,1:2:0:0:
356,249,134492,1,8,1:2:0:0:
463,144,134629,1,0,1:2:0:0:
449,137,134697,1,0,1:2:0:0:
435,130,134765,6,0,B|391:138|391:138|271:101,1,150.000005722046,8|0,1:2|1:2,1:2:0:0:
253,44,134969,1,0,1:2:0:0:
248,29,135038,1,8,1:2:0:0:
113,104,135174,1,0,1:2:0:0:
109,118,135242,1,0,1:2:0:0:
105,132,135310,6,0,L|124:306,1,150.000005722046,8|0,1:2|1:2,1:2:0:0:
191,323,135515,1,0,1:2:0:0:
197,309,135583,2,0,P|264:279|359:310,1,150.000005722046,8|0,1:2|1:2,1:2:0:0:
498,384,135856,5,8,1:2:0:0:
304,261,135992,1,8,1:2:0:0:
457,19,136129,2,0,B|467:75|467:75|485:95|485:95|500:192,1,150.000005722046,12|0,1:2|1:2,1:2:0:0:
