osu file format v14

[General]
AudioFilename: audio.mp3
AudioLeadIn: 0
PreviewTime: 70826
Countdown: 0
SampleSet: Soft
StackLeniency: 0.5
Mode: 0
LetterboxInBreaks: 0
WidescreenStoryboard: 1

[Editor]
Bookmarks: 38166,42530,44712,46894,49076,53439,55621,59985,64348,70894,83166,88348,92712,97076,114530,123257,136212
DistanceSpacing: 0.6
BeatDivisor: 4
GridSize: 32
TimelineZoom: 6.199997

[Metadata]
Title:Machinegun Poem Doll
TitleUnicode:マシンガンポエムドール
Artist:cosMo@BousouP feat. Hatsune Miku
ArtistUnicode:cosMo@暴走P feat. 初音ミク
Creator:Zoli
Version:Another
Source:プロジェクトセカイ カラフルステージ! feat. 初音ミク
Tags:vocaloid jrock j-rock japanese rock project sekai colorful stage featuring hatsune miku プロセカ proseka japanese cosmo cosmop jpop machine gun
BeatmapID:3303203
BeatmapSetID:1606218

[Difficulty]
HPDrainRate:4
CircleSize:3.6
OverallDifficulty:8
ApproachRate:9
SliderMultiplier:1.6
SliderTickRate:1

[Events]
//Background and Video events
0,0,"machine gun rick 2.jpg",0,0
//Break Periods
//Storyboard Layer 0 (Background)
//Storyboard Layer 1 (Fail)
//Storyboard Layer 2 (Pass)
//Storyboard Layer 3 (Foreground)
//Storyboard Layer 4 (Overlay)
//Storyboard Sound Samples

[TimingPoints]
1129,272.727272727273,4,2,3,45,1,0
1129,-100,4,2,3,45,0,0
4265,-66.6666666666667,4,2,3,45,0,0
5492,-100,4,2,3,45,0,0
7674,-66.6666666666667,4,2,3,45,0,0
8765,-100,4,2,3,45,0,0
9856,-333.333333333333,4,2,3,45,0,0
10674,-100,4,2,3,45,0,0
11492,-133.333333333333,4,2,3,45,0,0
11765,-100,4,2,3,45,0,0
12038,-66.6666666666667,4,2,3,50,0,0
12583,-83.3333333333333,4,2,3,50,0,0
15856,-57.1428571428571,4,2,3,50,0,0
15992,-66.6666666666667,4,2,3,30,0,0
16027,-66.6666666666667,4,2,3,5,0,0
16061,-66.6666666666667,4,2,3,30,0,0
16096,-66.6666666666667,4,2,3,5,0,0
16129,-66.6666666666667,4,2,3,30,0,0
16164,-66.6666666666667,4,2,3,5,0,0
16197,-66.6666666666667,4,2,3,30,0,0
16232,-66.6666666666667,4,2,3,5,0,0
16265,-66.6666666666667,4,2,3,30,0,0
16300,-66.6666666666667,4,2,3,5,0,0
16333,-66.6666666666667,4,2,3,30,0,0
16368,-66.6666666666667,4,2,3,5,0,0
16401,-66.6666666666667,4,2,3,50,0,0
16947,-83.3333333333333,4,2,3,50,0,0
20765,-100,4,2,3,50,0,0
21856,-83.3333333333333,4,2,3,50,0,0
24038,-83.3333333333333,4,2,3,50,0,0
25129,-100,4,2,3,50,0,0
28401,-66.6666666666667,4,2,3,50,0,0
29629,-83.3333333333333,4,2,3,50,0,0
30583,-100,4,2,3,50,0,0
31674,-83.3333333333333,4,2,3,50,0,0
32219,-66.6666666666667,4,2,3,50,0,0
32492,-83.3333333333333,4,2,3,50,0,0
32765,-100,4,2,3,50,0,0
34947,-66.6666666666667,4,2,3,50,0,0
35492,-100,4,2,3,50,0,0
36583,-133.333333333333,4,2,3,50,0,0
37129,-100,4,2,3,50,0,0
43674,-83.3333333333333,4,2,3,50,0,0
43947,-100,4,2,3,50,0,0
44765,-66.6666666666667,4,2,3,50,0,0
45856,-83.3333333333333,4,2,3,50,0,0
46674,-133.333333333333,4,2,3,50,0,0
46947,-133.333333333333,4,2,3,30,0,0
49129,-83.3333333333333,4,2,4,50,0,0
53492,-100,4,2,3,50,0,0
53765,-133.333333333333,4,2,3,30,0,0
55674,-83.3333333333333,4,2,4,50,0,0
56765,-83.3333333333333,4,2,4,50,0,0
60038,-83.3333333333333,4,2,3,50,0,0
60856,-133.333333333333,4,2,3,50,0,0
61129,-83.3333333333333,4,2,3,50,0,0
62492,-100,4,2,3,50,0,0
63310,-66.6666666666667,4,2,4,50,0,0
64401,-100,4,2,3,30,0,0
66583,-100,4,2,3,30,0,0
68765,-100,4,2,3,40,0,0
69754,-100,4,2,3,5,0,0
69993,-100,4,2,3,30,0,0
70027,-100,4,2,3,5,0,0
70266,-100,4,2,3,30,0,0
70300,-100,4,2,3,5,0,0
70539,-100,4,2,3,30,0,0
70573,-100,4,2,3,5,0,0
70607,-100,4,2,3,30,0,0
70947,-66.6666666666667,4,2,3,55,0,1
76538,-83.3333333333333,4,2,3,55,0,1
77492,-83.3333333333333,4,2,3,50,0,0
79674,-66.6666666666667,4,2,3,60,0,1
85538,-100,4,2,3,60,0,1
86219,-100,4,2,3,60,0,1
88401,-100,4,2,3,45,0,0
92765,-100,4,2,3,30,0,0
94947,-66.6666666666667,4,2,3,30,0,0
95254,-66.6666666666667,4,2,3,5,0,0
95288,-66.6666666666667,4,2,3,30,0,0
95323,-66.6666666666667,4,2,3,5,0,0
95356,-66.6666666666667,4,2,3,30,0,0
95391,-66.6666666666667,4,2,3,5,0,0
95424,-66.6666666666667,4,2,3,30,0,0
95459,-66.6666666666667,4,2,3,5,0,0
95492,-66.6666666666667,4,2,3,30,0,0
95527,-66.6666666666667,4,2,3,5,0,0
95560,-66.6666666666667,4,2,3,30,0,0
95595,-66.6666666666667,4,2,3,5,0,0
95629,-66.6666666666667,4,2,3,30,0,0
95664,-66.6666666666667,4,2,3,5,0,0
95697,-66.6666666666667,4,2,3,30,0,0
95732,-66.6666666666667,4,2,3,5,0,0
95765,-66.6666666666667,4,2,3,30,0,0
95800,-66.6666666666667,4,2,3,5,0,0
95833,-66.6666666666667,4,2,3,30,0,0
95868,-66.6666666666667,4,2,3,5,0,0
95901,-66.6666666666667,4,2,3,30,0,0
95935,-66.6666666666667,4,2,3,5,0,0
96174,-66.6666666666667,4,2,3,30,0,0
96208,-66.6666666666667,4,2,3,5,0,0
96447,-66.6666666666667,4,2,3,30,0,0
96481,-66.6666666666667,4,2,3,5,0,0
96720,-66.6666666666667,4,2,3,30,0,0
96754,-66.6666666666667,4,2,3,5,0,0
96788,-66.6666666666667,4,2,3,30,0,0
96856,-200,4,2,3,50,0,0
97129,-66.6666666666667,4,2,3,55,0,1
97674,-83.3333333333333,4,2,3,55,0,1
101219,-100,4,2,3,55,0,1
101492,-66.6666666666667,4,2,3,55,0,1
102583,-83.3333333333333,4,2,3,55,0,1
112810,-100,4,2,3,55,0,1
114583,-66.6666666666667,4,2,3,50,0,0
116697,-66.6666666666667,4,2,3,5,0,0
116765,-133.333333333333,4,2,3,50,0,0
117719,-66.6666666666667,4,2,3,50,0,0
118026,-66.6666666666667,4,2,3,5,0,0
118265,-66.6666666666667,4,2,3,30,0,0
118299,-66.6666666666667,4,2,3,5,0,0
118538,-66.6666666666667,4,2,3,30,0,0
118674,-200,4,2,3,50,0,0
118811,-200,4,2,3,30,0,0
118845,-200,4,2,3,5,0,0
118879,-200,4,2,3,30,0,0
118947,-66.6666666666667,4,2,3,50,0,0
119492,-83.3333333333333,4,2,3,50,0,0
122219,-40,4,2,3,30,0,0
122254,-40,4,2,3,5,0,0
122288,-40,4,2,3,30,0,0
122323,-40,4,2,3,5,0,0
122356,-40,4,2,3,30,0,0
122391,-40,4,2,3,5,0,0
122424,-40,4,2,3,30,0,0
122459,-40,4,2,3,5,0,0
122492,-40,4,2,3,30,0,0
122527,-40,4,2,3,5,0,0
122560,-40,4,2,3,30,0,0
122595,-40,4,2,3,5,0,0
122629,-40,4,2,3,30,0,0
122664,-40,4,2,3,5,0,0
122697,-40,4,2,3,30,0,0
122732,-40,4,2,3,5,0,0
122765,-100,4,2,3,50,0,0
123310,-66.6666666666667,4,2,3,50,0,0
126583,-83.3333333333333,4,2,3,50,0,0
133947,-133.333333333333,4,2,3,50,0,0
134219,-100,4,2,3,50,0,0

[Colours]
Combo1 : 167,104,223
Combo2 : 60,116,208
Combo3 : 99,170,177
Combo4 : 138,100,155

[HitObjects]
150,274,1129,5,8,1:2:0:0:
145,254,1265,1,8,1:2:0:0:
198,110,3310,5,8,1:2:0:0:
193,130,3446,1,8,1:2:0:0:
193,130,3992,5,0,1:2:0:0:
295,181,4128,1,0,1:2:0:0:
295,181,4197,1,0,1:2:0:0:
295,181,4265,2,0,P|232:196|248:104,1,180.000006866455,12|0,1:2|1:2,1:2:0:0:
246,106,4538,1,0,1:2:0:0:
331,103,4674,1,0,1:2:0:0:
396,194,4810,6,0,P|371:254|380:321,1,120.000004577637,12|0,1:2|1:2,1:2:0:0:
458,357,5083,1,8,1:2:0:0:
479,345,5219,1,8,1:2:0:0:
401,283,5356,1,0,1:2:0:0:
401,283,5424,1,0,1:2:0:0:
401,283,5492,5,8,1:2:0:0:
340,384,5629,1,8,1:2:0:0:
240,334,6174,1,8,1:2:0:0:
225,340,6310,1,8,1:2:0:0:
130,362,6583,5,8,1:2:0:0:
160,248,6719,1,8,1:2:0:0:
59,185,7265,1,8,1:2:0:0:
65,199,7401,1,8,1:2:0:0:
65,199,7674,6,0,P|139:233|240:176,1,180.000006866455,12|0,1:2|1:2,1:2:0:0:
229,101,7947,2,0,P|170:97|120:129,1,120.000004577637,0|0,1:2|1:2,1:2:0:0:
127,138,8151,1,0,1:2:0:0:
134,147,8219,1,8,1:2:0:0:
163,16,8356,1,0,1:2:0:0:
239,109,8492,1,8,1:2:0:0:
324,101,8629,1,0,1:2:0:0:
405,179,8765,6,0,P|414:202|410:224,3,40,12|0|0|0,1:2|1:2|1:2|1:2,1:2:0:0:
470,274,9038,2,0,P|461:297|465:319,3,40,8|0|0|0,1:2|1:2|1:2|1:2,1:2:0:0:
387,346,9310,2,0,P|387:370|376:389,3,40,8|0|0|0,1:2|1:2|1:2|1:2,1:2:0:0:
306,343,9583,1,8,1:2:0:0:
283,334,9652,1,0,1:2:0:0:
259,333,9720,1,0,1:2:0:0:
235,339,9788,1,0,1:2:0:0:
220,351,9856,6,0,P|202:303|195:229,1,119.999996337891,0|0,1:2|1:2,1:2:0:0:
201,229,10674,6,0,P|228:249|233:267,3,40,0|0|0|0,1:2|1:2|1:2|1:2,1:2:0:0:
304,224,10947,2,0,P|311:256|304:273,3,40,0|0|0|0,1:2|1:2|1:2|1:2,1:2:0:0:
385,290,11219,2,0,P|369:320|353:328,3,40,0|0|0|0,1:2|1:2|1:2|1:2,1:2:0:0:
476,265,11492,6,0,P|488:237|464:261,1,90.0000034332277,0|0,1:2|1:2,1:2:0:0:
464,224,11765,2,0,L|450:94,1,120,0|0,1:2|1:2,1:2:0:0:
452,93,12038,6,0,B|447:113|447:113|298:144,1,120.000004577637,12|0,1:2|1:2,1:2:0:0:
339,130,12242,1,8,1:2:0:0:
327,127,12310,1,8,1:2:0:0:
318,212,12447,1,8,1:2:0:0:
200,277,12583,2,0,L|302:293,1,95.9999970703126,8|0,1:2|1:2,1:2:0:0:
343,380,12856,1,8,1:2:0:0:
384,280,12992,1,8,1:2:0:0:
211,192,13129,6,0,P|155:198|119:239,1,95.9999970703126,8|0,1:2|1:2,1:2:0:0:
125,232,13333,1,8,1:2:0:0:
126,241,13401,1,8,1:2:0:0:
170,110,13538,2,0,P|170:80|161:60,2,47.9999985351563,8|0|8,1:2|1:2|1:2,1:2:0:0:
200,277,13810,1,0,1:2:0:0:
201,286,13879,1,0,1:2:0:0:
203,295,13947,2,0,L|257:309,2,47.9999985351563,8|0|8,1:2|1:2|1:2,1:2:0:0:
15,349,14219,6,0,P|71:379|118:326,1,143.999995605469,8|8,1:2|1:2,1:2:0:0:
108,323,14492,1,8,1:2:0:0:
32,265,14629,1,8,1:2:0:0:
162,157,14765,2,0,P|133:194|115:239,1,95.9999970703126,8|8,1:2|1:2,1:2:0:0:
203,295,15038,1,8,1:2:0:0:
312,277,15174,5,8,1:2:0:0:
312,277,15242,1,0,1:2:0:0:
312,277,15310,2,0,L|326:334,3,47.9999985351563,8|0|0|8,1:2|1:2|1:2|1:2,1:2:0:0:
401,284,15583,2,0,L|415:341,3,47.9999985351563,8|0|0|8,1:2|1:2|1:2|1:2,1:2:0:0:
473,236,15856,6,0,B|500:215|500:215|509:137,1,70.000000667572,2|0,1:2|1:2,1:2:0:0:
442,124,15992,1,2,1:2:0:0:
442,124,16060,1,2,1:2:0:0:
442,124,16129,2,0,P|422:93|430:51,3,60.0000022888184,2|2|2|2,1:2|1:2|1:2|1:2,1:2:0:0:
429,63,16401,6,0,B|368:65|368:65|355:75|355:75|284:79,1,120.000004577637,14|0,1:2|1:2,1:2:0:0:
300,80,16606,1,8,1:2:0:0:
288,81,16674,1,8,1:2:0:0:
198,48,16810,1,8,1:2:0:0:
113,140,16947,2,0,P|122:186|154:220,1,95.9999970703126,8|8,1:2|1:2,1:2:0:0:
249,172,17220,1,8,1:2:0:0:
145,228,17356,1,8,1:2:0:0:
244,379,17493,6,0,B|236:251,1,95.9999970703126,8|0,1:2|1:2,1:2:0:0:
235,273,17697,1,8,1:2:0:0:
232,263,17765,1,8,1:2:0:0:
98,300,17902,2,0,P|73:281|64:252,2,47.9999985351563,8|0|8,1:2|1:2|1:2,1:2:0:0:
166,140,18174,1,8,1:2:0:0:
163,130,18243,1,0,1:2:0:0:
160,121,18310,2,0,L|174:56,3,47.9999985351563,8|0|8|0,1:2|1:2|1:2|1:2,1:2:0:0:
106,21,18583,5,12,1:2:0:0:
260,73,18719,1,0,1:2:0:0:
260,73,18788,1,0,1:2:0:0:
260,73,18856,2,0,P|292:56|341:56,1,47.9999985351563,8|0,1:2|1:2,1:2:0:0:
348,136,18992,1,0,1:2:0:0:
348,136,19061,1,0,1:2:0:0:
348,136,19129,2,0,P|316:153|267:153,1,47.9999985351563,10|0,1:2|1:2,1:2:0:0:
216,224,19265,2,0,P|262:235|294:258,1,47.9999985351563,0|0,1:2|1:2,1:2:0:0:
342,289,19401,5,10,1:2:0:0:
340,298,19469,1,0,1:2:0:0:
340,307,19538,1,0,1:2:0:0:
340,316,19606,1,0,1:2:0:0:
340,325,19674,6,8,B|362:357|362:357|359:416,2,63.9999980468751,10|8|8,1:2|1:2|1:2,1:2:0:0:
439,360,19947,6,8,B|441:335|441:335|419:303,2,63.9999980468751,10|8|8,1:2|1:2|1:2,1:2:0:0:
493,264,20219,5,10,1:2:0:0:
215,223,20492,1,10,1:2:0:0:
133,258,20765,5,10,1:2:0:0:
133,258,20901,2,0,L|112:161,1,80,0|8,1:2|1:2,1:2:0:0:
0,314,21174,2,0,B|46:295|79:324|79:324|114:352|172:336,1,160,0|0,1:2|1:2,1:2:0:0:
247,315,21583,2,0,P|258:340|260:358,3,40,8|0|0|0,1:2|1:2|1:2|1:2,1:2:0:0:
263,362,21856,6,0,B|274:338|274:338|315:345|342:310,1,95.9999970703126,8|0,1:2|1:2,1:2:0:0:
400,224,22129,1,8,1:2:0:0:
424,306,22265,1,0,1:2:0:0:
272,270,22401,2,0,B|251:242|251:242|277:162,1,95.9999970703126,8|0,1:2|1:2,1:2:0:0:
276,177,22606,2,0,P|338:162|362:83,1,143.999995605469,0|0,1:2|1:2,1:2:0:0:
364,92,22947,5,10,1:2:0:0:
281,99,23083,1,0,1:2:0:0:
281,99,23151,1,0,1:2:0:0:
281,99,23219,2,0,B|276:23|276:23|260:44,1,95.9999970703126,8|0,1:2|1:2,1:2:0:0:
178,69,23492,1,8,1:2:0:0:
162,64,23629,1,0,1:2:0:0:
107,164,23765,1,8,1:2:0:0:
211,148,23901,1,8,1:2:0:0:
262,272,24038,6,0,B|242:255|242:255|173:247,1,95.9999970703126,8|8,1:2|1:2,1:2:0:0:
145,337,24310,1,8,1:2:0:0:
145,337,24379,1,0,1:2:0:0:
145,337,24447,2,0,P|174:297|140:227,1,95.9999970703126,6|8,1:2|1:2,1:2:0:0:
107,164,24719,1,8,1:2:0:0:
97,82,24856,1,8,1:2:0:0:
97,82,24924,1,0,1:2:0:0:
97,82,24992,1,0,1:2:0:0:
202,33,25129,5,10,1:2:0:0:
202,33,25265,2,0,P|240:45|280:49,2,80,0|8|0,1:2|1:2|1:2,1:2:0:0:
358,77,25674,2,0,P|301:83|267:127,1,80,8|0,1:2|1:2,1:2:0:0:
201,170,25947,2,0,P|257:176|291:220,1,80,8|0,1:2|1:2,1:2:0:0:
299,335,26219,2,0,P|314:299|321:259,2,80,8|0|8,1:2|1:2|1:2,1:2:0:0:
366,384,26629,1,0,1:2:0:0:
215,341,26765,5,8,1:2:0:0:
199,343,26833,1,0,1:2:0:0:
184,347,26901,1,0,1:2:0:0:
169,348,26969,1,0,1:2:0:0:
153,352,27038,2,0,B|132:292|132:292|119:333,1,80,8|0,1:2|1:2,1:2:0:0:
119,312,27310,5,10,1:2:0:0:
206,255,27447,1,0,1:2:0:0:
112,212,27583,2,0,P|98:180|94:138,3,40,8|0|0|0,1:2|1:2|1:2|1:2,1:2:0:0:
42,269,27856,1,8,1:2:0:0:
26,264,27992,1,0,1:2:0:0:
0,126,28129,1,8,1:2:0:0:
12,115,28197,1,8,1:2:0:0:
27,110,28265,1,8,1:2:0:0:
42,108,28333,1,8,1:2:0:0:
55,109,28401,6,0,P|117:143|192:134,1,120.000004577637,12|0,1:2|1:2,1:2:0:0:
229,40,28674,1,8,1:2:0:0:
256,129,28810,1,8,1:2:0:0:
431,78,28947,2,0,B|375:66|375:66|366:69|366:69|314:59,2,120.000004577637,8|8|8,1:2|1:2|1:2,1:2:0:0:
263,131,29356,1,8,1:2:0:0:
325,208,29492,5,8,1:2:0:0:
407,201,29629,2,0,P|394:163|365:137,3,47.9999985351563,0|8|8|0,1:2|1:2|1:2|1:2,1:2:0:0:
322,215,29901,2,0,B|335:249|335:249|234:257|234:257|177:280,1,191.999994140625,8|8,1:2|1:2,1:2:0:0:
70,341,30310,2,0,P|57:379|28:405,3,47.9999985351563,8|0|8|0,1:2|1:2|1:2|1:2,1:2:0:0:
45,381,30583,6,0,B|24:369|24:369|9:266,1,120,8|8,1:2|1:2,1:2:0:0:
4,268,30856,2,0,P|26:264|42:256,1,40,8|0,1:2|1:2,1:2:0:0:
84,185,30992,1,8,1:2:0:0:
84,185,31061,1,0,1:2:0:0:
84,185,31129,2,0,B|101:159|101:159|225:177,1,120,8|0,1:2|1:2,1:2:0:0:
196,175,31401,6,8,L|195:219,3,40,8|8|8|0,1:2|1:2|1:2|1:2,1:2:0:0:
253,112,31674,2,0,B|282:120|282:120|289:200,1,95.9999970703126,8|0,1:2|1:2,1:2:0:0:
263,106,31947,2,0,B|292:114|292:114|297:179,1,95.9999970703126,8|8,1:2|1:2,1:2:0:0:
441,295,32219,6,0,B|234:265,1,180.000006866455,10|0,1:2|1:2,1:2:0:0:
255,275,32492,2,0,L|252:337,3,47.9999985351563,8|0|8|0,1:2|1:2|1:2|1:2,1:2:0:0:
174,352,32765,1,8,1:2:0:0:
167,337,32901,1,0,1:2:0:0:
93,246,33038,2,0,B|82:299|82:299|91:312|91:312|81:376,1,120,8|0,1:2|1:2,1:2:0:0:
9,235,33310,5,8,1:2:0:0:
2,220,33379,1,0,1:2:0:0:
0,204,33447,1,8,1:2:0:0:
2,190,33515,1,8,1:2:0:0:
12,177,33583,2,0,P|30:156|44:123,3,40,8|8|8|8,1:2|1:2|1:2|1:2,1:2:0:0:
18,69,33856,6,0,P|73:73|105:112,1,80,10|0,1:2|1:2,1:2:0:0:
172,162,34129,2,0,P|211:163|245:142,1,80,10|8,1:2|1:2,1:2:0:0:
349,109,34401,2,0,P|368:111|386:120,3,40,10|0|8|0,1:2|1:2|1:2|1:2,1:2:0:0:
465,163,34674,1,10,1:2:0:0:
462,172,34743,1,0,1:2:0:0:
460,181,34811,1,8,1:2:0:0:
458,190,34879,1,0,1:2:0:0:
456,197,34947,6,0,P|419:203|383:227,3,60.0000022888184,10|0|0|8,1:2|1:2|1:2|1:2,1:2:0:0:
445,279,35219,1,10,1:2:0:0:
321,252,35356,1,8,1:2:0:0:
246,319,35492,2,0,P|230:327|203:331,3,40,10|0|8|0,1:2|1:2|1:2|1:2,1:2:0:0:
149,275,35765,1,8,1:2:0:0:
128,360,35901,1,8,1:2:0:0:
36,296,36038,6,0,L|23:243,3,40,10|0|0|8,1:2|1:2|1:2|1:2,1:2:0:0:
98,209,36310,1,10,1:2:0:0:
21,177,36447,1,8,1:2:0:0:
86,126,36583,2,0,L|79:87,3,30.0000011444092,10|0|8|0,1:2|1:2|1:2|1:2,1:2:0:0:
159,152,36856,1,10,1:2:0:0:
164,154,36924,1,0,1:2:0:0:
169,156,36992,1,8,1:2:0:0:
174,158,37060,1,0,1:2:0:0:
178,161,37129,6,0,L|185:52,1,80,8|0,1:2|1:2,1:2:0:0:
328,81,37401,2,0,L|334:161,1,80,8|0,1:2|1:2,1:2:0:0:
256,288,37674,1,8,1:2:0:0:
256,288,37810,1,8,1:2:0:0:
256,288,37947,2,0,L|256:192,1,80,8|0,1:2|1:2,1:2:0:0:
199,361,38219,6,0,L|147:370,3,40,10|0|0|0,1:2|1:2|1:2|1:2,1:2:0:0:
313,361,38492,2,0,L|365:370,3,40,8|0|0|0,1:2|1:2|1:2|1:2,1:2:0:0:
429,294,38765,1,8,1:2:0:0:
429,294,38901,2,0,L|432:178,1,80,0|8,1:2|1:2,1:2:0:0:
457,122,39174,1,0,1:2:0:0:
359,128,39310,6,0,P|342:137|331:153,3,40,8|0|0|0,1:2|1:2|1:2|1:2,1:2:0:0:
344,250,39583,1,8,1:2:0:0:
257,220,39719,2,0,P|218:206|174:206,1,80,0|8,1:2|1:2,1:2:0:0:
116,277,39992,1,0,1:2:0:0:
110,282,40060,1,0,1:2:0:0:
104,287,40128,2,0,P|88:267|86:242,3,40,8|0|0|0,1:2|1:2|1:2|1:2,1:2:0:0:
23,190,40401,6,0,B|46:167|46:167|116:149,1,80,10|0,1:2|1:2,1:2:0:0:
171,100,40674,1,8,1:2:0:0:
171,100,40742,1,0,1:2:0:0:
171,100,40810,1,0,1:2:0:0:
260,134,40947,2,0,L|278:24,2,80,8|0|8,1:2|1:2|1:2,1:2:0:0:
265,47,41356,1,0,1:2:0:0:
356,134,41492,6,0,P|376:119|457:115,2,80,12|8|8,1:2|1:2|1:2,1:2:0:0:
326,227,41901,1,0,1:2:0:0:
415,287,42038,2,0,L|422:207,1,80,8|8,1:2|1:2,1:2:0:0:
421,199,42242,1,8,1:2:0:0:
418,191,42310,1,8,1:2:0:0:
500,250,42447,1,0,1:2:0:0:
438,368,42583,6,0,P|389:369|348:336,1,80,8|0,1:2|1:2,1:2:0:0:
274,317,42856,1,8,1:2:0:0:
181,334,42992,1,0,1:2:0:0:
94,302,43129,2,0,P|92:250|112:208,1,80,8|0,1:2|1:2,1:2:0:0:
191,171,43401,2,0,P|208:207|211:247,1,80,8|0,1:2|1:2,1:2:0:0:
141,98,43674,6,0,B|172:77|172:77|252:91,1,95.9999970703126,8|0,1:2|1:2,1:2:0:0:
290,166,43947,2,0,L|404:150,1,80,8|0,1:2|1:2,1:2:0:0:
481,108,44219,2,0,P|462:143|462:183,2,80,8|0|8,1:2|1:2|1:2,1:2:0:0:
487,264,44629,1,8,1:2:0:0:
487,264,44697,1,8,1:2:0:0:
487,264,44765,6,0,P|441:266|386:219,2,80.0000030517579,8|0|0,1:2|1:2|1:2,1:2:0:0:
301,352,45038,6,0,P|306:313|329:281,2,80.0000030517579,8|0|0,1:2|1:2|1:2,1:2:0:0:
296,136,45310,6,0,P|328:160|345:196,2,80.0000030517579,8|0|0,1:2|1:2|1:2,1:2:0:0:
487,264,45583,6,0,P|441:266|386:219,2,80.0000030517579,8|0|0,1:2|1:2|1:2,1:2:0:0:
397,360,45856,6,0,B|270:350,1,95.9999970703126,8|0,1:2|1:2,1:2:0:0:
217,306,46129,2,0,B|90:316,1,95.9999970703126,8|0,1:2|1:2,1:2:0:0:
33,273,46401,2,0,P|8:239|6:164,1,95.9999970703126,8|0,1:2|1:2,1:2:0:0:
77,127,46674,2,8,P|96:120|113:125,3,30.0000011444092,8|8|8|8,1:2|1:2|1:2|1:2,1:2:0:0:
113,125,46947,6,0,L|102:34,1,90.0000034332277,12|0,1:2|1:2,1:2:0:0:
98,31,47219,1,0,1:2:0:0:
197,63,47492,2,0,P|229:76|268:74,2,60.0000022888184,0|0|0,1:2|1:2|1:2,1:2:0:0:
343,31,47901,1,8,1:2:0:0:
343,31,48038,2,0,L|365:218,1,180.000006866455,8|0,1:2|1:2,1:2:0:0:
328,296,48583,1,0,1:2:0:0:
269,224,48719,1,8,1:2:0:0:
262,223,48788,1,8,1:2:0:0:
256,222,48856,2,0,B|228:220|228:220|146:249,1,90.0000034332277,8|0,1:2|1:2,1:2:0:0:
162,247,49129,6,0,L|168:311,3,47.9999985351563,12|8|8|8,1:2|1:2|1:2|1:2,1:2:0:0:
99,193,49401,2,0,L|40:166,3,47.9999985351563,8|8|8|8,1:2|1:2|1:2|1:2,1:2:0:0:
177,162,49674,2,8,L|229:124,3,47.9999985351563,8|8|8|8,1:2|1:2|1:2|1:2,1:2:0:0:
205,38,49947,2,0,L|226:138,1,95.9999970703126,8|8,1:2|1:2,1:2:0:0:
300,183,50219,6,8,P|324:195|355:191,3,47.9999985351563,8|8|8|8,1:2|1:2|1:2|1:2,1:2:0:0:
424,214,50492,2,0,P|446:199|458:170,3,47.9999985351563,8|8|8|8,1:2|1:2|1:2|1:2,1:2:0:0:
464,97,50765,1,8,1:2:0:0:
460,88,50833,1,8,1:2:0:0:
455,79,50901,1,8,1:2:0:0:
451,69,50969,1,8,1:2:0:0:
448,59,51038,2,0,L|465:-18,3,47.9999985351563,8|8|8|8,1:2|1:2|1:2|1:2,1:2:0:0:
366,73,51310,6,0,P|311:64|246:61,1,95.9999970703126,8|8,1:2|1:2,1:2:0:0:
178,95,51583,1,8,1:2:0:0:
172,102,51651,1,8,1:2:0:0:
164,107,51719,1,8,1:2:0:0:
154,110,51788,1,8,1:2:0:0:
144,111,51856,2,0,P|125:87|122:63,3,47.9999985351563,8|8|8|8,1:2|1:2|1:2|1:2,1:2:0:0:
85,172,52129,1,8,1:2:0:0:
173,209,52265,1,8,1:2:0:0:
130,294,52401,6,8,L|118:375,3,47.9999985351563,8|8|8|8,1:2|1:2|1:2|1:2,1:2:0:0:
203,362,52674,1,8,1:2:0:0:
221,358,52810,1,8,1:2:0:0:
300,299,52947,2,0,P|287:268|291:226,3,47.9999985351563,8|8|8|8,1:2|1:2|1:2|1:2,1:2:0:0:
358,209,53219,2,0,P|371:178|367:136,3,47.9999985351563,8|8|8|8,1:2|1:2|1:2|1:2,1:2:0:0:
389,295,53492,6,0,P|437:279|487:277,1,80,12|0,1:2|1:2,1:2:0:0:
512,346,53765,1,0,1:2:0:0:
447,189,54038,1,0,1:2:0:0:
447,189,54174,2,0,L|457:110,1,60.0000022888184,0|0,1:2|1:2,1:2:0:0:
385,63,54447,1,8,1:2:0:0:
330,143,54583,2,8,P|299:122|295:55,2,90.0000034332277,8|8|8,1:2|1:2|1:2,1:2:0:0:
277,216,55129,5,8,1:2:0:0:
277,216,55197,1,8,1:2:0:0:
277,216,55265,1,8,1:2:0:0:
277,216,55333,1,8,1:2:0:0:
277,216,55401,2,0,B|264:250|264:250|267:294,1,60.0000022888184,10|0,1:2|1:2,1:2:0:0:
316,376,55674,6,0,L|375:384,3,47.9999985351563,12|8|8|8,1:2|1:2|1:2|1:2,1:2:0:0:
429,330,55947,2,0,L|485:317,3,47.9999985351563,8|8|8|8,1:2|1:2|1:2|1:2,1:2:0:0:
393,253,56219,2,8,P|369:215|366:160,1,95.9999970703126,8|8,1:2|1:2,1:2:0:0:
460,181,56492,1,8,1:2:0:0:
366,155,56629,1,8,1:2:0:0:
277,195,56765,6,8,P|254:212|216:216,3,47.9999985351563,8|8|8|8,1:2|1:2|1:2|1:2,1:2:0:0:
167,176,57038,2,0,P|140:164|118:133,3,47.9999985351563,8|8|8|8,1:2|1:2|1:2|1:2,1:2:0:0:
53,187,57310,1,8,1:2:0:0:
51,196,57379,1,8,1:2:0:0:
49,205,57447,1,8,1:2:0:0:
47,214,57515,1,8,1:2:0:0:
45,223,57583,2,0,L|61:334,1,95.9999970703126,8|8,1:2|1:2,1:2:0:0:
150,384,57856,6,0,L|158:330,3,47.9999985351563,8|8|8|8,1:2|1:2|1:2|1:2,1:2:0:0:
237,314,58129,2,0,L|245:368,3,47.9999985351563,8|8|8|8,1:2|1:2|1:2|1:2,1:2:0:0:
339,354,58401,2,8,P|394:373|443:367,1,95.9999970703126,8|8,1:2|1:2,1:2:0:0:
492,268,58674,2,8,P|444:266|400:284,1,95.9999970703126,8|8,1:2|1:2,1:2:0:0:
309,245,58947,6,0,L|297:183,3,47.9999985351563,8|8|8|8,1:2|1:2|1:2|1:2,1:2:0:0:
354,135,59219,1,8,1:2:0:0:
257,116,59356,1,8,1:2:0:0:
181,212,59492,2,0,P|193:235|213:222,3,47.9999985351563,8|8|8|8,1:2|1:2|1:2|1:2,1:2:0:0:
121,158,59764,1,8,1:2:0:0:
116,139,59901,1,8,1:2:0:0:
25,173,60038,6,0,B|25:213|25:213|58:290,1,95.9999970703126,12|0,1:2|1:2,1:2:0:0:
120,348,60310,2,0,P|62:350|37:391,1,95.9999970703126,8|0,1:2|1:2,1:2:0:0:
131,342,60583,1,8,1:2:0:0:
131,342,60856,2,0,P|154:314|163:266,1,60.0000022888184,8|0,1:2|1:2,1:2:0:0:
257,262,61129,6,0,L|277:364,1,95.9999970703126,8|0,1:2|1:2,1:2:0:0:
372,364,61401,1,8,1:2:0:0:
388,353,61538,1,0,1:2:0:0:
457,288,61674,2,0,P|419:258|372:258,1,95.9999970703126,8|0,1:2|1:2,1:2:0:0:
385,147,61947,2,0,P|347:176|300:176,1,95.9999970703126,8|0,1:2|1:2,1:2:0:0:
193,194,62219,6,0,L|159:29,1,143.999995605469,8|0,1:2|1:2,1:2:0:0:
169,46,62492,2,0,P|123:53|117:81,1,80,8|0,1:2|1:2,1:2:0:0:
51,153,62765,2,0,L|71:232,1,80,8|0,1:2|1:2,1:2:0:0:
150,281,63038,1,8,1:2:0:0:
250,281,63174,1,8,1:2:0:0:
250,281,63242,1,8,1:2:0:0:
250,281,63310,6,8,B|299:291|299:291|283:307,3,60.0000022888184,8|8|8|8,1:2|1:2|1:2|1:2,1:2:0:0:
307,380,63583,2,8,P|315:319|335:240,1,120.000004577637,8|8,1:2|1:2,1:2:0:0:
405,203,63856,2,0,B|389:99,3,60.0000022888184,8|8|8|8,1:2|1:2|1:2|1:2,1:2:0:0:
491,131,64129,2,0,B|500:190,3,60.0000022888184,8|8|8|8,1:2|1:2|1:2|1:2,1:2:0:0:
405,203,64401,6,0,P|370:170|321:172,1,80,10|0,1:2|1:2,1:2:0:0:
268,127,64674,2,0,P|221:140|199:184,1,80,2|0,1:2|1:2,1:2:0:0:
137,217,64947,2,0,L|161:318,3,80,10|2|2|2,1:2|1:2|1:2|1:2,1:2:0:0:
140,210,65492,6,0,P|175:177|224:179,1,80,10|0,1:2|1:2,1:2:0:0:
277,134,65765,2,0,P|323:147|345:191,1,80,2|0,1:2|1:2,1:2:0:0:
408,224,66038,2,0,L|384:325,3,80,2|2|2|2,1:2|1:2|1:2|1:2,1:2:0:0:
326,354,66583,6,8,P|311:331|313:291,3,40,12|8|8|8,1:2|1:2|1:2|1:2,1:2:0:0:
250,384,66856,2,8,P|235:361|237:321,3,40,8|8|8|8,1:2|1:2|1:2|1:2,1:2:0:0:
171,297,67129,2,8,P|156:320|158:360,3,40,8|8|8|8,1:2|1:2|1:2|1:2,1:2:0:0:
95,267,67402,2,8,P|80:290|82:330,3,40,8|8|8|8,1:2|1:2|1:2|1:2,1:2:0:0:
36,210,67674,5,12,1:2:0:0:
34,202,67742,1,0,1:2:0:0:
33,194,67810,1,0,1:2:0:0:
31,185,67879,1,0,1:2:0:0:
30,177,67947,2,0,L|39:124,3,40,8|0|0|0,1:2|1:2|1:2|1:2,1:2:0:0:
116,166,68219,1,8,1:2:0:0:
193,137,68356,1,8,1:2:0:0:
217,54,68492,2,0,L|207:15,3,40,8|0|0|0,1:2|1:2|1:2|1:2,1:2:0:0:
275,117,68765,5,12,1:2:0:0:
282,119,68833,1,8,1:2:0:0:
289,121,68901,1,8,1:2:0:0:
296,123,68969,1,8,1:2:0:0:
303,126,69038,2,0,L|302:183,3,40,8|8|8|8,1:2|1:2|1:2|1:2,1:2:0:0:
375,201,69310,6,0,P|398:186|436:183,1,40,8|8,1:2|1:2,1:2:0:0:
379,210,69447,2,0,P|402:195|440:192,1,40,8|8,1:2|1:2,1:2:0:0:
382,220,69583,2,0,P|398:208|416:201,1,40,8|8,1:2|1:2,1:2:0:0:
324,282,69720,6,0,P|301:267|263:264,1,40,8|0,1:2|1:2,1:2:0:0:
321,292,69992,6,0,P|298:277|260:274,1,40,8|0,1:2|1:2,1:2:0:0:
317,303,70265,6,0,P|294:288|256:285,1,40,8|0,1:2|1:2,1:2:0:0:
205,331,70538,5,8,1:2:0:0:
205,331,70606,1,8,1:2:0:0:
205,331,70674,2,0,L|191:231,1,80,10|0,1:2|1:2,1:2:0:0:
108,208,70947,6,0,B|82:236|82:236|75:341,1,120.000004577637,12|0,1:2|1:2,1:2:0:0:
138,378,71151,1,0,1:2:0:0:
138,378,71219,2,0,P|236:354|265:357,1,120.000004577637,8|0,1:2|1:2,1:2:0:0:
352,304,71492,1,8,1:2:0:0:
326,384,71629,2,0,P|272:337|275:272,1,120.000004577637,0|8,1:2|1:2,1:2:0:0:
319,213,71901,1,0,1:2:0:0:
261,136,72038,6,0,B|210:131|210:131|192:142|192:142|130:134,1,120.000004577637,12|0,1:2|1:2,1:2:0:0:
289,56,72310,2,0,B|340:51|340:51|358:62|358:62|420:54,1,120.000004577637,12|0,1:2|1:2,1:2:0:0:
491,99,72583,1,8,1:2:0:0:
410,151,72719,1,8,1:2:0:0:
495,195,72856,2,0,P|512:245|462:295,1,120.000004577637,8|0,1:2|1:2,1:2:0:0:
383,364,73129,6,0,B|392:245,1,120.000004577637,12|0,1:2|1:2,1:2:0:0:
311,191,73401,1,8,1:2:0:0:
303,168,73538,1,0,1:2:0:0:
269,266,73674,1,8,1:2:0:0:
269,266,73742,1,0,1:2:0:0:
269,266,73810,1,0,1:2:0:0:
180,283,73947,1,8,1:2:0:0:
213,184,74083,1,0,1:2:0:0:
101,157,74219,6,0,P|110:186|131:208,3,60.0000022888184,8|8|8|0,1:2|1:2|1:2|1:2,1:2:0:0:
60,62,74492,2,0,P|40:84|32:113,3,60.0000022888184,8|8|8|0,1:2|1:2|1:2|1:2,1:2:0:0:
153,30,74765,2,0,P|211:56|303:55,2,120.000004577637,8|8|8,1:2|1:2|1:2,1:2:0:0:
65,68,75174,1,0,1:2:0:0:
139,147,75310,6,0,P|112:200|47:201,1,120.000004577637,12|0,1:2|1:2,1:2:0:0:
3,269,75583,1,8,1:2:0:0:
30,364,75719,2,0,P|84:334|205:349,1,180.000006866455,0|0,1:2|1:2,1:2:0:0:
206,353,75992,1,0,1:2:0:0:
296,322,76129,1,8,1:2:0:0:
376,344,76265,1,0,1:2:0:0:
471,287,76401,5,8,1:2:0:0:
390,258,76538,2,0,B|385:216|385:216|401:150,1,95.9999970703126,0|8,1:2|1:2,1:2:0:0:
483,124,76810,2,0,P|398:105|460:45,1,191.999994140625,0|0,1:2|1:2,1:2:0:0:
512,205,77219,1,8,1:2:0:0:
509,224,77356,1,0,1:2:0:0:
448,304,77492,6,0,B|427:334|380:318|380:318|343:297|283:338,1,143.999995605469,12|8,1:2|1:2,1:2:0:0:
306,326,77765,2,0,P|304:269|281:228,1,95.9999970703126,8|0,1:2|1:2,1:2:0:0:
201,189,78038,1,8,1:2:0:0:
109,214,78174,1,0,1:2:0:0:
177,283,78310,1,8,1:2:0:0:
286,235,78447,6,0,B|304:132,1,95.9999970703126,0|8,1:2|1:2,1:2:0:0:
287,47,78719,1,8,1:2:0:0:
372,90,78856,1,8,1:2:0:0:
464,68,78992,1,8,1:2:0:0:
441,164,79129,2,0,P|461:203|483:223,3,47.9999985351563,8|0|0|0,1:2|1:2|1:2|1:2,1:2:0:0:
424,291,79401,1,8,1:2:0:0:
409,303,79469,1,0,1:2:0:0:
390,308,79538,1,0,1:2:0:0:
371,305,79606,1,0,1:2:0:0:
357,296,79674,6,0,B|302:301|302:301|282:321|282:321|218:326,1,120.000004577637,12|0,1:2|1:2,1:2:0:0:
235,330,79879,1,0,1:2:0:0:
224,336,79947,1,8,1:2:0:0:
186,244,80083,1,0,1:2:0:0:
129,360,80219,1,8,1:2:0:0:
87,271,80356,2,0,P|182:217|195:146,1,180.000006866455,0|0,1:2|1:2,1:2:0:0:
190,143,80628,1,0,1:2:0:0:
94,58,80765,6,0,B|105:97|105:97|93:123|93:123|104:173,1,120.000004577637,12|0,1:2|1:2,1:2:0:0:
271,214,81038,2,0,B|320:203|320:203|346:215|346:215|385:204,1,120.000004577637,12|0,1:2|1:2,1:2:0:0:
475,152,81310,1,8,1:2:0:0:
468,249,81447,1,10,1:2:0:0:
389,198,81583,2,0,P|374:137|374:73,1,120.000004577637,8|0,1:2|1:2,1:2:0:0:
278,217,81856,6,0,P|271:279|249:339,1,120.000004577637,12|0,1:2|1:2,1:2:0:0:
157,329,82129,1,8,1:2:0:0:
149,306,82265,1,0,1:2:0:0:
182,216,82401,1,8,1:2:0:0:
86,244,82537,1,0,1:2:0:0:
44,154,82674,1,8,1:2:0:0:
10,286,82810,1,0,1:2:0:0:
138,365,82947,6,0,L|150:299,3,60.0000022888184,8|8|8|0,1:2|1:2|1:2|1:2,1:2:0:0:
244,290,83219,2,0,L|256:356,3,60.0000022888184,8|8|8|0,1:2|1:2|1:2|1:2,1:2:0:0:
347,379,83492,1,8,1:2:0:0:
369,370,83628,1,8,1:2:0:0:
443,312,83765,2,0,P|394:276|332:278,1,120.000004577637,8|0,1:2|1:2,1:2:0:0:
362,157,84037,6,0,P|457:187|449:312,1,240.000009155274,12|8,1:2|1:2,1:2:0:0:
333,285,84447,2,0,P|274:327|206:314,1,120.000004577637,0|8,1:2|1:2,1:2:0:0:
253,232,84719,1,0,1:2:0:0:
240,136,84856,1,8,1:2:0:0:
227,41,84992,1,0,1:2:0:0:
122,110,85129,6,0,P|191:145|271:127,1,120.000004577637,8|0,1:2|1:2,1:2:0:0:
240,136,85333,2,0,P|296:118|354:130,1,120.000004577637,8|0,1:2|1:2,1:2:0:0:
360,135,85538,2,0,L|384:242,2,80,8|8|0,1:2|1:2|1:2,1:2:0:0:
456,230,85947,1,8,1:2:0:0:
403,294,86083,1,0,1:2:0:0:
309,279,86219,6,0,P|286:284|262:297,3,40,12|0|0|0,1:2|1:2|1:2|1:2,1:2:0:0:
235,368,86492,1,8,1:2:0:0:
171,317,86629,1,0,1:2:0:0:
207,239,86765,2,0,P|226:207|226:156,1,80,8|0,1:2|1:2,1:2:0:0:
199,87,87038,2,0,P|177:64|152:50,3,40,8|0|0|0,1:2|1:2|1:2|1:2,1:2:0:0:
128,134,87310,5,10,1:2:0:0:
37,169,87447,1,10,1:2:0:0:
59,87,87583,1,10,1:2:0:0:
104,217,87719,1,10,1:2:0:0:
51,280,87856,5,10,1:2:0:0:
35,277,87992,1,10,1:2:0:0:
99,348,88129,1,10,1:2:0:0:
115,345,88265,1,10,1:2:0:0:
192,275,88401,6,0,L|249:280,5,53.3333333333333,10|0|0|0|0|0,1:2|1:2|1:2|1:2|1:2|1:2,1:2:0:0:
260,363,88947,2,0,P|265:318|296:289,1,80,0|0,1:2|1:2,1:2:0:0:
365,326,89219,2,0,P|406:307|447:320,1,80,0|0,1:2|1:2,1:2:0:0:
503,209,89492,6,0,L|492:124,5,53.3333333333333,10|0|0|0|0|0,1:2|1:2|1:2|1:2|1:2|1:2,1:2:0:0:
405,124,90038,2,0,L|391:222,1,80,0|0,1:2|1:2,1:2:0:0:
299,225,90310,2,0,L|287:145,1,80,0|0,1:2|1:2,1:2:0:0:
192,68,90583,6,0,P|156:59|121:74,5,53.3333333333333,10|0|0|0|0|0,1:2|1:2|1:2|1:2|1:2|1:2,1:2:0:0:
85,125,91129,1,0,1:2:0:0:
94,137,91266,1,0,1:2:0:0:
52,213,91401,1,0,1:2:0:0:
47,227,91538,1,0,1:2:0:0:
95,342,91674,6,0,P|130:338|158:312,5,53.3333333333333,10|0|0|0|0|0,1:2|1:2|1:2|1:2|1:2|1:2,1:2:0:0:
220,368,92219,1,0,1:2:0:0:
294,338,92356,1,0,1:2:0:0:
365,372,92492,1,0,1:2:0:0:
439,341,92629,1,0,1:2:0:0:
503,250,92765,6,8,P|501:224|488:202,3,40,8|8|8|8,1:2|1:2|1:2|1:2,1:2:0:0:
377,184,93038,2,8,P|394:193|414:196,3,40,8|8|8|8,1:2|1:2|1:2|1:2,1:2:0:0:
498,107,93310,2,0,P|481:117|469:133,7,40,8|8|8|8|8|8|8|8,1:2|1:2|1:2|1:2|1:2|1:2|1:2|1:2,1:2:0:0:
391,99,93856,5,8,1:2:0:0:
375,93,93924,1,8,1:2:0:0:
359,92,93992,1,8,1:2:0:0:
343,96,94060,1,8,1:2:0:0:
331,107,94129,2,8,L|314:59,3,40,8|8|8|8,1:2|1:2|1:2|1:2,1:2:0:0:
238,95,94401,2,8,L|251:132,3,40,8|8|8|8,1:2|1:2|1:2|1:2,1:2:0:0:
174,168,94674,5,8,1:2:0:0:
158,166,94742,1,8,1:2:0:0:
144,157,94810,1,8,1:2:0:0:
136,142,94879,1,8,1:2:0:0:
135,129,94947,6,0,B|108:158|108:158|129:340,1,180.000006866455,12|0,1:2|1:2,1:2:0:0:
124,309,95219,2,0,P|100:325|64:323,3,60.0000022888184,8|0|8|0,1:2|1:2|1:2|1:2,1:2:0:0:
208,260,95492,2,0,B|260:286|260:286|320:277,2,120.000004577637,0|8|0,1:2|1:2|1:2,1:2:0:0:
340,360,95901,5,8,1:2:0:0:
323,192,96174,1,8,1:2:0:0:
306,24,96447,1,8,1:2:0:0:
427,121,96719,1,8,1:2:0:0:
427,121,96788,1,8,1:2:0:0:
427,121,96856,2,0,P|394:107|368:106,1,60,12|0,1:2|1:2,1:2:0:0:
358,110,97129,6,0,P|353:176|336:243,1,120.000004577637,8|0,1:2|1:2,1:2:0:0:
333,238,97333,1,0,1:2:0:0:
323,245,97401,1,8,1:2:0:0:
228,224,97538,1,0,1:2:0:0:
145,271,97674,2,0,P|122:289|96:293,3,47.9999985351563,8|0|0|0,1:2|1:2|1:2|1:2,1:2:0:0:
51,375,97947,2,0,P|80:375|102:389,3,47.9999985351563,8|0|0|0,1:2|1:2|1:2|1:2,1:2:0:0:
188,359,98219,6,0,P|240:363|284:376,1,95.9999970703126,8|0,1:2|1:2,1:2:0:0:
398,327,98492,2,0,B|413:306|413:306|412:273,3,47.9999985351563,8|0|0|0,1:2|1:2|1:2|1:2,1:2:0:0:
448,211,98765,1,8,1:2:0:0:
448,211,98833,1,0,1:2:0:0:
448,211,98901,2,0,B|431:165|431:165|430:117,1,95.9999970703126,8|8,1:2|1:2,1:2:0:0:
493,39,99174,6,0,P|428:5|341:101,1,191.999994140625,12|0,1:2|1:2,1:2:0:0:
353,165,99583,1,8,1:2:0:0:
430,118,99719,1,0,1:2:0:0:
342,70,99856,2,0,P|323:58|297:56,3,47.9999985351563,8|0|0|0,1:2|1:2|1:2|1:2,1:2:0:0:
228,100,100129,1,8,1:2:0:0:
220,117,100265,1,0,1:2:0:0:
112,90,100401,6,0,L|99:33,3,47.9999985351563,12|0|8|0,1:2|1:2|1:2|1:2,1:2:0:0:
145,198,100674,2,0,L|158:255,3,47.9999985351563,12|0|8|0,1:2|1:2|1:2|1:2,1:2:0:0:
51,167,100947,2,0,L|4:177,3,47.9999985351563,12|0|8|0,1:2|1:2|1:2|1:2,1:2:0:0:
201,130,101219,1,8,1:2:0:0:
201,130,101288,1,0,1:2:0:0:
201,130,101356,1,8,1:2:0:0:
262,184,101492,6,0,B|249:216|249:216|238:307,1,120.000004577637,8|0,1:2|1:2,1:2:0:0:
296,361,101697,1,0,1:2:0:0:
303,370,101765,2,0,L|378:377,3,60.0000022888184,8|0|0|0,1:2|1:2|1:2|1:2,1:2:0:0:
415,318,102037,1,8,1:2:0:0:
412,306,102106,1,0,1:2:0:0:
440,227,102242,1,0,1:2:0:0:
499,293,102379,1,0,1:2:0:0:
356,243,102515,5,0,1:2:0:0:
356,243,102583,2,0,P|290:242|250:274,1,95.9999970703126,8|0,1:2|1:2,1:2:0:0:
177,257,102788,1,0,1:2:0:0:
177,257,102856,2,0,P|143:313|150:364,1,95.9999970703126,8|0,1:2|1:2,1:2:0:0:
297,361,103129,2,0,P|313:344|322:322,2,47.9999985351563,8|0|0,1:2|1:2|1:2,1:2:0:0:
350,235,103333,1,0,1:2:0:0:
350,235,103401,1,8,1:2:0:0:
350,235,103469,2,0,P|296:232|250:211,1,95.9999970703126,12|0,1:2|1:2,1:2:0:0:
207,148,103674,6,0,L|198:85,3,47.9999985351563,8|0|0|0,1:2|1:2|1:2|1:2,1:2:0:0:
286,112,103947,1,8,1:2:0:0:
295,113,104015,1,0,1:2:0:0:
304,116,104083,1,0,1:2:0:0:
313,118,104151,1,0,1:2:0:0:
322,120,104219,1,8,1:2:0:0:
344,203,104356,1,0,1:2:0:0:
427,181,104492,1,8,1:2:0:0:
405,98,104629,1,8,1:2:0:0:
286,112,104765,6,0,L|274:58,3,47.9999985351563,8|8|8|8,1:2|1:2|1:2|1:2,1:2:0:0:
210,147,105038,2,0,L|198:93,2,47.9999985351563,8|8|8,1:2|1:2|1:2,1:2:0:0:
291,117,105242,1,4,1:2:0:0:
205,264,105447,2,0,P|159:262|116:191,1,95.9999970703126,8|8,1:2|1:2,1:2:0:0:
167,75,105719,6,0,B|190:94|190:94|206:174,1,95.9999970703126,12|8,1:2|1:2,1:2:0:0:
281,186,105924,1,8,1:2:0:0:
300,187,105992,1,8,1:2:0:0:
319,188,106060,1,8,1:2:0:0:
338,189,106129,2,8,L|326:302,1,95.9999970703126,8|8,1:2|1:2,1:2:0:0:
368,374,106401,5,8,1:2:0:0:
380,358,106469,1,8,1:2:0:0:
399,350,106538,1,8,1:2:0:0:
419,350,106606,1,8,1:2:0:0:
436,359,106674,2,8,P|455:359|482:349,3,47.9999985351563,8|0|0|0,1:2|1:2|1:2|1:2,1:2:0:0:
452,273,106947,5,12,1:2:0:0:
358,255,107083,1,0,1:2:0:0:
422,183,107219,1,8,1:2:0:0:
422,183,107287,1,0,1:2:0:0:
422,183,107356,1,0,1:2:0:0:
352,107,107492,6,0,P|303:75|252:87,1,95.9999970703126,8|0,1:2|1:2,1:2:0:0:
199,149,107765,1,8,1:2:0:0:
192,244,107901,2,0,P|276:273|327:199,1,191.999994140625,0|0,1:2|1:2,1:2:0:0:
422,183,108310,1,8,1:2:0:0:
501,237,108447,1,0,1:2:0:0:
415,285,108583,1,8,1:2:0:0:
415,285,108651,1,0,1:2:0:0:
415,285,108719,1,0,1:2:0:0:
447,375,108856,2,0,P|400:380|356:363,1,95.9999970703126,8|0,1:2|1:2,1:2:0:0:
197,324,109129,6,0,L|204:382,3,47.9999985351563,12|0|8|0,1:2|1:2|1:2|1:2,1:2:0:0:
100,295,109401,2,0,L|107:353,3,47.9999985351563,12|0|8|0,1:2|1:2|1:2|1:2,1:2:0:0:
2,263,109674,2,0,L|9:321,3,47.9999985351563,12|0|8|0,1:2|1:2|1:2|1:2,1:2:0:0:
76,212,109947,1,8,1:2:0:0:
76,212,110016,1,0,1:2:0:0:
76,212,110084,1,8,1:2:0:0:
55,121,110219,6,0,P|113:126|146:173,1,95.9999970703126,8|0,1:2|1:2,1:2:0:0:
168,244,110492,2,0,P|172:272|186:299,2,47.9999985351563,8|0|0,1:2|1:2|1:2,1:2:0:0:
253,246,110765,1,8,1:2:0:0:
272,150,110901,1,0,1:2:0:0:
336,230,111038,1,8,1:2:0:0:
272,141,111174,1,0,1:2:0:0:
347,109,111310,5,8,1:2:0:0:
420,145,111447,1,0,1:2:0:0:
488,100,111583,2,0,L|479:53,3,47.9999985351563,8|0|0|0,1:2|1:2|1:2|1:2,1:2:0:0:
405,13,111856,2,0,P|352:15|296:-6,1,95.9999970703126,8|0,1:2|1:2,1:2:0:0:
228,53,112129,1,8,1:2:0:0:
210,61,112265,1,0,1:2:0:0:
226,175,112401,6,0,P|241:157|248:134,3,47.9999985351563,8|0|0|0,1:2|1:2|1:2|1:2,1:2:0:0:
146,188,112674,1,8,1:2:0:0:
198,282,112810,1,0,1:2:0:0:
198,282,112879,1,0,1:2:0:0:
198,282,112947,2,0,P|258:289|292:313,1,80,8|0,1:2|1:2,1:2:0:0:
346,359,113219,5,8,1:2:0:0:
361,356,113288,1,8,1:2:0:0:
374,347,113356,1,8,1:2:0:0:
383,333,113424,1,8,1:2:0:0:
388,318,113492,2,0,L|373:205,1,80,8|0,1:2|1:2,1:2:0:0:
406,148,113765,1,8,1:2:0:0:
483,209,113901,1,0,1:2:0:0:
373,250,114038,5,8,1:2:0:0:
289,246,114174,1,8,1:2:0:0:
289,246,114242,1,8,1:2:0:0:
289,246,114310,1,8,1:2:0:0:
202,236,114447,1,0,1:2:0:0:
106,294,114583,5,12,1:2:0:0:
256,192,114651,12,0,116697,1:2:0:0:
189,109,116765,5,8,1:2:0:0:
109,72,117038,2,0,P|105:142|149:184,1,120.000004577637,0|0,1:2|1:2,1:2:0:0:
234,204,117447,1,8,1:2:0:0:
234,204,117515,1,8,1:2:0:0:
234,204,117583,1,8,1:2:0:0:
295,126,117719,6,0,B|341:180|319:242|319:242|293:307|332:363,2,240.000009155274,12|8|8,1:2|1:2|1:2,1:2:0:0:
398,299,118538,5,8,1:2:0:0:
398,299,118606,1,0,1:2:0:0:
398,299,118674,2,0,P|428:293|457:300,1,60,12|0,1:2|1:2,1:2:0:0:
464,309,118947,6,0,P|440:247|458:179,1,120.000004577637,8|0,1:2|1:2,1:2:0:0:
458,188,119151,1,8,1:2:0:0:
469,183,119219,1,8,1:2:0:0:
364,166,119356,1,8,1:2:0:0:
276,235,119492,2,0,B|294:261|294:261|310:355,1,95.9999970703126,8|8,1:2|1:2,1:2:0:0:
220,369,119765,1,8,1:2:0:0:
126,364,119901,1,8,1:2:0:0:
56,298,120038,6,0,P|88:263|134:260,1,95.9999970703126,8|0,1:2|1:2,1:2:0:0:
143,265,120242,1,8,1:2:0:0:
150,270,120310,1,8,1:2:0:0:
53,189,120447,2,0,P|48:149|33:132,2,47.9999985351563,8|0|0,1:2|1:2|1:2,1:2:0:0:
103,86,120719,1,8,1:2:0:0:
103,86,120788,1,0,1:2:0:0:
103,86,120856,1,8,1:2:0:0:
137,163,120992,1,8,1:2:0:0:
231,109,121128,6,0,B|288:97|288:97|406:117,1,143.999995605469,8|8,1:2|1:2,1:2:0:0:
380,117,121401,1,8,1:2:0:0:
391,215,121538,1,0,1:2:0:0:
297,231,121674,2,0,P|283:207|280:153,3,47.9999985351563,8|0|0|0,1:2|1:2|1:2|1:2,1:2:0:0:
355,296,121947,1,8,1:2:0:0:
352,305,122015,1,8,1:2:0:0:
349,314,122083,1,8,1:2:0:0:
346,323,122151,1,8,1:2:0:0:
343,334,122219,6,0,B|369:348|393:339|393:339|371:340|337:372,7,100,10|0|2|0|2|0|2|0,1:2|1:2|1:2|1:2|1:2|1:2|1:2|1:2,1:2:0:0:
229,371,122765,6,0,B|214:215|214:215|185:330,1,240,14|0,1:2|1:2,1:2:0:0:
194,296,123310,6,0,B|169:323|169:323|35:310,1,120.000004577637,12|0,1:2|1:2,1:2:0:0:
43,228,123583,1,8,1:2:0:0:
34,134,123719,2,0,P|90:143|126:195,1,120.000004577637,0|8,1:2|1:2,1:2:0:0:
194,296,123992,2,0,L|220:154,2,120.000004577637,0|8|0,1:2|1:2|1:2,1:2:0:0:
281,365,124401,6,0,B|339:359|339:359|349:369|349:369|411:361,1,120.000004577637,8|0,1:2|1:2,1:2:0:0:
398,355,124606,2,0,B|350:361|350:361|340:351|340:351|282:357,1,120.000004577637,8|0,1:2|1:2,1:2:0:0:
194,296,124810,1,8,1:2:0:0:
207,213,124947,1,8,1:2:0:0:
222,129,125083,1,0,1:2:0:0:
291,183,125219,2,0,L|421:172,1,120.000004577637,8|8,1:2|1:2,1:2:0:0:
485,214,125424,1,8,1:2:0:0:
492,222,125492,6,0,P|477:287|406:314,1,120.000004577637,12|0,1:2|1:2,1:2:0:0:
345,280,125765,1,8,1:2:0:0:
353,183,125901,1,0,1:2:0:0:
266,228,126038,1,8,1:2:0:0:
266,228,126174,2,0,P|236:178|178:171,1,120.000004577637,0|8,1:2|1:2,1:2:0:0:
180,268,126447,1,0,1:2:0:0:
33,273,126583,6,0,L|23:193,3,47.9999985351563,12|0|0|0,1:2|1:2|1:2|1:2,1:2:0:0:
92,171,126856,1,8,1:2:0:0:
1,137,126992,1,0,1:2:0:0:
77,39,127129,2,0,L|72:87,3,47.9999985351563,8|0|0|0,1:2|1:2|1:2|1:2,1:2:0:0:
159,57,127401,2,0,L|154:105,3,47.9999985351563,8|0|0|0,1:2|1:2|1:2|1:2,1:2:0:0:
235,130,127674,6,0,L|351:117,1,95.9999970703126,12|0,1:2|1:2,1:2:0:0:
392,195,127947,1,8,1:2:0:0:
301,227,128083,2,0,P|272:188|272:137,1,95.9999970703126,0|8,1:2|1:2,1:2:0:0:
363,44,128356,1,0,1:2:0:0:
434,116,128492,1,8,1:2:0:0:
490,32,128629,1,0,1:2:0:0:
432,125,128765,6,0,B|409:167|409:167|414:214,1,95.9999970703126,8|0,1:2|1:2,1:2:0:0:
422,219,128969,2,0,B|445:177|445:177|439:129,1,95.9999970703126,8|0,1:2|1:2,1:2:0:0:
377,63,129174,1,8,1:2:0:0:
238,110,129310,1,8,1:2:0:0:
122,26,129447,2,0,P|145:31|165:45,2,47.9999985351563,0|0|8,1:2|1:2|1:2,1:2:0:0:
232,0,129719,1,0,1:2:0:0:
11,94,129856,5,12,1:2:0:0:
15,85,129924,1,8,1:2:0:0:
20,77,129992,1,8,1:2:0:0:
26,69,130060,1,8,1:2:0:0:
30,60,130129,2,0,L|20:6,8,47.9999985351563,8|8|8|8|8|8|8|8|8,1:2|1:2|1:2|1:2|1:2|1:2|1:2|1:2|1:2,1:2:0:0:
106,12,130810,5,8,1:2:0:0:
146,84,130947,1,8,1:2:0:0:
100,151,131083,1,0,1:2:0:0:
149,242,131219,5,8,1:2:0:0:
149,242,131287,1,0,1:2:0:0:
149,242,131355,1,0,1:2:0:0:
149,242,131423,1,0,1:2:0:0:
149,242,131492,2,0,P|182:225|221:220,3,47.9999985351563,8|0|0|0,1:2|1:2|1:2|1:2,1:2:0:0:
202,307,131765,2,0,P|238:315|271:336,3,47.9999985351563,8|0|0|0,1:2|1:2|1:2|1:2,1:2:0:0:
299,384,132037,5,10,1:2:0:0:
321,308,133129,5,2,1:2:0:0:
278,242,134219,5,8,1:2:0:0:
180,241,134356,2,0,P|181:260|187:280,2,40,0|0|8,1:2|1:2|1:2,1:2:0:0:
220,136,134629,2,0,P|236:124|250:110,2,40,0|0|8,1:2|1:2|1:2,1:2:0:0:
110,139,134901,1,0,1:2:0:0:
110,139,134969,1,0,1:2:0:0:
110,139,135038,2,0,P|92:130|72:125,2,40,8|0|0,1:2|1:2|1:2,1:2:0:0:
250,110,135310,6,0,P|295:113|340:88,1,80,8|0,1:2|1:2,1:2:0:0:
332,94,135515,1,0,1:2:0:0:
337,87,135583,1,8,1:2:0:0:
376,179,135719,1,0,1:2:0:0:
436,103,135856,5,8,1:2:0:0:
379,266,135992,1,8,1:2:0:0:
494,216,136129,1,8,1:2:0:0:
