osu file format v14

[General]
AudioFilename: shousitu.mp3
AudioLeadIn: 0
PreviewTime: 106701
Countdown: 0
SampleSet: Normal
StackLeniency: 0.7
Mode: 3
LetterboxInBreaks: 0
SpecialStyle: 0
WidescreenStoryboard: 0

[Editor]
Bookmarks: 33701,130701
DistanceSpacing: 1
BeatDivisor: 4
GridSize: 4
TimelineZoom: 2.1

[Metadata]
Title:Hatsune Miku no Shoushitsu
TitleUnicode:初音ミクの消失
Artist:cosMo@BousouP feat. Hatsune Miku
ArtistUnicode:cosMo@暴走P feat. 初音ミク
Creator:juankristal
Version:HD
Source:
Tags:Electronic JRock J-Rock Japanese Rock Hydria Nihilese EXIT TUNES QWCE-00075 こすも 黒猫アンティーク cosMo@Bousou-P Kuroneko Antique cosMo@暴走Ultimate こすも8bit PONY CANYON INC. QUAKE INC. The Disappearance of Hatsune Miku dead end long version Hatsune Miku -Project DIVA- Miku Flick maimai CHUNITHM MUSIC GUNGUN! GROOVE COASTER SOUND VOLTEX III GRAVITY WARS NOSTALGIA ONGEKI BEATSTREAM project SEKAI DanceDanceRevolution A Taiko No tatsujin video game metal electronic vocaloid
BeatmapID:932567
BeatmapSetID:360565

[Difficulty]
HPDrainRate:7
CircleSize:4
OverallDifficulty:7.5
ApproachRate:5
SliderMultiplier:1.4
SliderTickRate:1

[Events]
//Background and Video events
0,0,"49785_vocaloid_hatsune_miku.jpg",0,0
Video,0,"dead end.mp4"
//Break Periods
//Storyboard Layer 0 (Background)
//Storyboard Layer 1 (Fail)
//Storyboard Layer 2 (Pass)
//Storyboard Layer 3 (Foreground)
//Storyboard Layer 4 (Overlay)
//Storyboard Sound Samples

[TimingPoints]
1000,400.0,4,1,1,50,1,0
1000,-62.5,4,1,1,50,0,0
25000,428.571428571429,4,1,1,50,1,0
25000,-58.4795321637427,4,1,1,50,0,0
26701,250.0,4,1,1,65,1,0
26701,-100.0,4,1,1,65,0,1
42701,-100.0,4,1,1,50,0,0
100888,-100.0,4,1,1,65,0,0
102763,-100.0,4,1,1,50,0,0
104701,-100.0,4,1,1,65,0,0
106763,-100.0,4,1,1,50,0,0
122701,-100.0,4,1,1,65,0,1
138701,-100.0,4,1,1,30,0,0
146638,-100.0,4,1,1,50,0,0
204763,-100.0,4,1,1,65,0,0
206763,-100.0,4,1,1,50,0,0
208701,-100.0,4,1,1,65,0,0
210763,-100.0,4,1,1,50,0,0
226701,-100.0,4,1,1,65,0,1
242701,-100.0,4,1,1,65,0,0
258701,-100.0,4,1,1,50,0,0
266701,-100.0,4,1,1,65,0,0

[HitObjects]
192,192,1000,1,0,0:0:0:0:
448,192,1400,1,0,0:0:0:0:
64,192,1800,1,0,0:0:0:0:
320,192,2200,1,0,0:0:0:0:
192,192,2600,1,0,0:0:0:0:
448,192,3000,1,0,0:0:0:0:
192,192,3400,1,0,0:0:0:0:
320,192,3800,1,0,0:0:0:0:
64,192,4200,1,0,0:0:0:0:
448,192,4600,1,0,0:0:0:0:
192,192,5000,1,0,0:0:0:0:
320,192,5400,1,0,0:0:0:0:
64,192,5800,1,0,0:0:0:0:
448,192,6200,1,0,0:0:0:0:
192,192,6600,1,0,0:0:0:0:
320,192,7000,1,0,0:0:0:0:
192,192,7200,1,0,0:0:0:0:
64,192,7400,1,0,0:0:0:0:
448,192,7800,1,0,0:0:0:0:
320,192,8000,1,0,0:0:0:0:
64,192,8400,1,0,0:0:0:0:
192,192,8600,1,0,0:0:0:0:
320,192,8800,1,0,0:0:0:0:
448,192,9000,1,0,0:0:0:0:
64,192,9400,1,0,0:0:0:0:
192,192,9800,1,0,0:0:0:0:
320,192,10200,1,0,0:0:0:0:
448,192,10600,1,0,0:0:0:0:
320,192,11000,1,0,0:0:0:0:
64,192,11400,1,0,0:0:0:0:
320,192,11800,1,0,0:0:0:0:
64,192,12200,1,0,0:0:0:0:
192,192,12600,1,0,0:0:0:0:
320,192,13000,1,0,0:0:0:0:
448,192,13400,1,0,0:0:0:0:
320,192,13600,1,0,0:0:0:0:
64,192,13800,1,0,0:0:0:0:
64,192,14200,1,0,0:0:0:0:
192,192,14600,1,0,0:0:0:0:
320,192,14800,1,0,0:0:0:0:
448,192,15200,1,0,0:0:0:0:
192,192,15800,1,0,0:0:0:0:
448,192,16200,1,0,0:0:0:0:
320,192,16400,1,0,0:0:0:0:
192,192,16600,1,0,0:0:0:0:
64,192,16800,1,0,0:0:0:0:
448,192,17000,1,0,0:0:0:0:
192,192,17400,1,0,0:0:0:0:
320,192,17800,1,0,0:0:0:0:
64,192,18200,1,0,0:0:0:0:
448,192,18600,1,0,0:0:0:0:
192,192,19000,1,0,0:0:0:0:
320,192,19400,1,0,0:0:0:0:
64,192,19700,1,0,0:0:0:0:
448,192,19800,1,0,0:0:0:0:
192,192,20200,1,0,0:0:0:0:
320,192,20600,1,0,0:0:0:0:
192,192,21000,1,0,0:0:0:0:
64,192,21400,1,0,0:0:0:0:
320,192,21800,1,0,0:0:0:0:
448,192,22200,1,0,0:0:0:0:
64,192,22600,1,0,0:0:0:0:
448,192,23000,1,0,0:0:0:0:
192,192,23400,1,0,0:0:0:0:
448,192,23800,1,0,0:0:0:0:
320,192,24200,1,0,0:0:0:0:
192,192,24600,1,0,0:0:0:0:
64,192,25000,128,0,25857:0:0:0:0:
320,192,25857,1,0,0:0:0:0:
192,192,26701,1,4,0:0:0:65:
320,192,26701,1,2,0:0:0:0:
448,192,26701,1,0,0:0:0:0:
64,192,27701,1,4,0:0:0:65:
192,192,27701,1,2,0:0:0:0:
320,192,27701,1,0,0:0:0:0:
64,192,28701,1,4,0:0:0:65:
192,192,28701,1,2,0:0:0:0:
448,192,28701,1,0,0:0:0:0:
192,192,29201,1,0,0:0:0:0:
320,192,29201,1,0,0:0:0:0:
64,192,29701,1,4,0:0:0:65:
320,192,29701,1,2,0:0:0:0:
448,192,29701,1,0,0:0:0:0:
192,192,30201,1,8,0:0:0:65:
320,192,30201,1,0,0:0:0:0:
64,192,30701,1,4,0:0:0:65:
320,192,30701,1,2,0:0:0:0:
448,192,30701,1,0,0:0:0:0:
192,192,30951,1,2,0:0:0:0:
192,192,31201,1,2,0:0:0:0:
192,192,31451,1,2,0:0:0:0:
320,192,31701,1,4,0:0:0:0:
448,192,31701,1,2,0:0:0:0:
64,192,31951,1,2,0:0:0:0:
64,192,32201,1,2,0:0:0:0:
64,192,32451,1,2,0:0:0:0:
448,192,32701,1,10,0:0:0:0:
320,192,32826,1,8,0:0:0:0:
192,192,32951,1,10,0:0:0:0:
64,192,33076,1,8,0:0:0:0:
448,192,33201,1,10,0:0:0:0:
320,192,33326,1,8,0:0:0:0:
64,192,33451,1,10,0:0:0:0:
192,192,33576,1,8,0:0:0:0:
320,192,33701,1,10,0:0:0:65:
448,192,33826,1,8,0:0:0:65:
64,192,33951,1,10,0:0:0:65:
192,192,34076,1,8,0:0:0:65:
64,192,34201,1,4,0:0:0:65:
320,192,34201,1,2,0:0:0:0:
448,192,34326,1,0,0:0:0:0:
320,192,34451,1,8,0:0:0:65:
192,192,34576,1,8,0:0:0:65:
64,192,34701,1,6,0:0:0:0:
448,192,34701,1,8,0:0:0:65:
320,192,34826,1,0,0:0:0:0:
64,192,34951,1,8,0:0:0:65:
192,192,34951,1,0,0:0:0:0:
448,192,35076,1,0,0:0:0:0:
320,192,35201,1,2,0:0:0:0:
192,192,35326,1,2,0:0:0:0:
64,192,35451,1,8,0:0:0:65:
448,192,35451,1,0,0:0:0:0:
192,192,35576,1,0,0:0:0:0:
320,192,35701,1,2,0:0:0:65:
448,192,35826,1,2,0:0:0:0:
64,192,35951,1,8,0:0:0:65:
192,192,35951,1,0,0:0:0:0:
320,192,36076,1,2,0:0:0:0:
448,192,36201,1,0,0:0:0:0:
320,192,36326,1,2,0:0:0:0:
64,192,36451,1,8,0:0:0:65:
192,192,36451,1,0,0:0:0:0:
320,192,36576,1,8,0:0:0:65:
448,192,36576,1,0,0:0:0:0:
192,192,36701,1,2,0:0:0:0:
64,192,36826,1,0,0:0:0:0:
192,192,36951,1,8,0:0:0:65:
448,192,36951,1,0,0:0:0:0:
320,192,37076,1,0,0:0:0:0:
448,192,37201,1,2,0:0:0:0:
64,192,37326,1,2,0:0:0:0:
320,192,37451,1,8,0:0:0:65:
448,192,37451,1,0,0:0:0:0:
192,192,37576,1,0,0:0:0:0:
64,192,37701,1,2,0:0:0:65:
448,192,37826,1,2,0:0:0:0:
192,192,37951,1,8,0:0:0:65:
320,192,37951,1,0,0:0:0:0:
64,192,38076,1,2,0:0:0:65:
448,192,38201,1,0,0:0:0:0:
320,192,38326,1,2,0:0:0:0:
64,192,38451,1,8,0:0:0:65:
192,192,38451,1,0,0:0:0:0:
320,192,38576,1,8,0:0:0:65:
448,192,38576,1,0,0:0:0:0:
192,192,38701,1,2,0:0:0:65:
64,192,38826,1,2,0:0:0:0:
320,192,38951,1,8,0:0:0:65:
448,192,38951,1,0,0:0:0:0:
192,192,39076,1,8,0:0:0:0:
64,192,39201,1,2,0:0:0:0:
448,192,39326,1,2,0:0:0:0:
64,192,39451,1,8,0:0:0:65:
320,192,39451,1,0,0:0:0:0:
192,192,39576,1,0,0:0:0:0:
64,192,39701,1,2,0:0:0:65:
448,192,39826,1,2,0:0:0:0:
192,192,39951,1,8,0:0:0:65:
320,192,39951,1,0,0:0:0:0:
64,192,40076,1,2,0:0:0:0:
448,192,40201,1,0,0:0:0:0:
320,192,40326,1,2,0:0:0:0:
64,192,40451,1,4,0:0:0:65:
448,192,40451,1,8,0:0:0:65:
320,192,40701,1,2,0:0:0:65:
448,192,40701,1,0,0:0:0:0:
64,192,40826,1,8,0:0:0:65:
192,192,40951,1,10,0:0:0:65:
64,192,41076,1,8,0:0:0:65:
320,192,41201,1,10,0:0:0:65:
64,192,41326,1,8,0:0:0:0:
192,192,41451,1,4,0:0:0:65:
448,192,41451,1,2,0:0:0:0:
320,192,41576,1,8,0:0:0:65:
448,192,41701,1,10,0:0:0:65:
64,192,41826,1,8,0:0:0:65:
192,192,41951,1,10,0:0:0:65:
320,192,42076,1,8,0:0:0:65:
448,192,42201,1,10,0:0:0:65:
64,192,42326,1,8,0:0:0:65:
192,192,42451,1,10,0:0:0:65:
320,192,42576,1,8,0:0:0:65:
64,192,42701,1,10,0:0:0:65:
448,192,42701,128,4,43076:0:0:0:0:
64,192,43076,128,0,43451:0:0:0:0:
320,192,43451,1,8,0:0:0:65:
448,192,43451,1,0,0:0:0:0:
192,192,43576,1,0,0:0:0:0:
64,192,43701,1,2,0:0:0:65:
64,192,43826,1,2,0:0:0:65:
320,192,43951,1,8,0:0:0:65:
448,192,43951,1,0,0:0:0:0:
192,192,44201,1,0,0:0:0:0:
64,192,44451,1,8,0:0:0:65:
448,192,44451,1,0,0:0:0:0:
192,192,44576,1,8,0:0:0:65:
320,192,44701,1,2,0:0:0:65:
448,192,44826,1,0,0:0:0:0:
64,192,44951,1,8,0:0:0:65:
192,192,44951,1,0,0:0:0:0:
320,192,45076,1,0,0:0:0:0:
192,192,45326,1,2,0:0:0:65:
320,192,45451,1,8,0:0:0:65:
448,192,45451,1,0,0:0:0:0:
64,192,45701,128,2,45951:0:0:0:65:
192,192,45951,128,8,46201:0:0:0:65:
448,192,45951,1,0,0:0:0:0:
320,192,46201,128,0,46451:0:0:0:0:
64,192,46451,1,8,0:0:0:65:
448,192,46451,128,0,46701:0:0:0:0:
192,192,46576,1,8,0:0:0:65:
320,192,46701,1,2,0:0:0:65:
64,192,46951,1,8,0:0:0:65:
448,192,46951,1,0,0:0:0:0:
192,192,47076,1,0,0:0:0:0:
448,192,47326,1,2,0:0:0:65:
64,192,47451,1,8,0:0:0:65:
320,192,47451,1,0,0:0:0:0:
448,192,47701,1,2,0:0:0:65:
320,192,47826,1,2,0:0:0:65:
192,192,47951,1,8,0:0:0:65:
448,192,47951,1,0,0:0:0:0:
64,192,48076,1,2,0:0:0:65:
192,192,48326,1,2,0:0:0:65:
320,192,48451,1,8,0:0:0:65:
448,192,48451,1,0,0:0:0:0:
448,192,48701,128,2,49201:0:0:0:65:
64,192,48951,1,8,0:0:0:65:
192,192,48951,1,0,0:0:0:0:
320,192,49201,128,2,49701:0:0:0:65:
64,192,49451,1,8,0:0:0:65:
192,192,49451,1,0,0:0:0:0:
64,192,49701,128,2,50701:0:0:0:65:
320,192,49951,1,8,0:0:0:65:
448,192,49951,1,0,0:0:0:0:
320,192,50201,1,8,0:0:0:65:
448,192,50201,1,2,0:0:0:65:
192,192,50451,1,8,0:0:0:65:
320,192,50576,1,8,0:0:0:65:
192,192,50701,1,2,0:0:0:65:
448,192,50701,1,4,0:0:0:0:
320,192,50951,1,8,0:0:0:65:
448,192,50951,1,0,0:0:0:0:
192,192,51076,1,0,0:0:0:0:
320,192,51326,1,2,0:0:0:65:
64,192,51451,1,8,0:0:0:65:
192,192,51451,1,0,0:0:0:0:
320,192,51701,1,2,0:0:0:65:
192,192,51826,1,2,0:0:0:65:
64,192,51951,1,8,0:0:0:65:
448,192,51951,1,0,0:0:0:0:
320,192,52201,1,0,0:0:0:0:
64,192,52451,1,8,0:0:0:65:
192,192,52451,1,0,0:0:0:0:
320,192,52576,1,8,0:0:0:65:
448,192,52701,128,2,53201:0:0:0:65:
64,192,52951,1,8,0:0:0:65:
192,192,52951,1,0,0:0:0:0:
320,192,53201,128,2,53701:0:0:0:65:
64,192,53451,1,8,0:0:0:65:
192,192,53451,1,0,0:0:0:0:
192,192,53701,128,2,54201:0:0:0:65:
320,192,53951,1,8,0:0:0:65:
448,192,53951,1,0,0:0:0:0:
448,192,54201,128,0,54701:0:0:0:0:
320,192,54451,1,8,0:0:0:65:
192,192,54576,1,8,0:0:0:65:
64,192,54701,1,2,0:0:0:65:
320,192,54701,1,0,0:0:0:0:
192,192,54951,1,8,0:0:0:65:
448,192,54951,1,0,0:0:0:0:
320,192,55201,1,2,0:0:0:65:
64,192,55451,1,8,0:0:0:65:
448,192,55451,1,0,0:0:0:0:
320,192,55701,1,2,0:0:0:65:
192,192,55951,1,8,0:0:0:65:
448,192,55951,1,0,0:0:0:0:
64,192,56201,1,0,0:0:0:0:
192,192,56451,1,8,0:0:0:65:
320,192,56576,1,8,0:0:0:65:
64,192,56701,1,2,0:0:0:65:
448,192,56701,128,4,57201:0:0:0:0:
64,192,56951,1,8,0:0:0:65:
192,192,57076,1,0,0:0:0:0:
64,192,57201,128,2,57701:0:0:0:0:
320,192,57201,1,4,0:0:0:0:
448,192,57451,1,8,0:0:0:65:
320,192,57576,1,0,0:0:0:0:
192,192,57701,1,4,0:0:0:65:
448,192,57701,1,2,0:0:0:65:
320,192,57826,1,2,0:0:0:65:
64,192,57951,1,8,0:0:0:65:
192,192,57951,1,4,0:0:0:65:
448,192,58201,1,10,0:0:0:65:
320,192,58326,1,8,0:0:0:65:
192,192,58451,1,8,0:0:0:65:
64,192,58576,1,8,0:0:0:65:
320,192,58701,1,2,0:0:0:65:
448,192,58701,1,4,0:0:0:0:
64,192,58951,1,8,0:0:0:65:
192,192,58951,1,0,0:0:0:0:
320,192,59201,1,2,0:0:0:65:
320,192,59326,1,2,0:0:0:65:
64,192,59451,1,8,0:0:0:65:
192,192,59451,1,0,0:0:0:0:
448,192,59701,1,2,0:0:0:65:
192,192,59951,1,8,0:0:0:65:
320,192,59951,1,0,0:0:0:0:
64,192,60201,1,0,0:0:0:0:
448,192,60201,1,0,0:0:0:0:
192,192,60326,1,2,0:0:0:65:
320,192,60451,1,8,0:0:0:65:
448,192,60451,1,0,0:0:0:0:
64,192,60701,1,2,0:0:0:65:
320,192,60701,1,0,0:0:0:0:
64,192,60951,1,8,0:0:0:65:
448,192,60951,1,0,0:0:0:0:
192,192,61201,1,2,0:0:0:65:
192,192,61326,1,2,0:0:0:65:
320,192,61451,1,8,0:0:0:65:
448,192,61451,1,0,0:0:0:0:
64,192,61701,1,2,0:0:0:65:
192,192,61701,1,0,0:0:0:0:
320,192,61951,1,8,0:0:0:65:
448,192,61951,1,0,0:0:0:0:
64,192,62201,1,0,0:0:0:0:
448,192,62201,1,0,0:0:0:0:
192,192,62326,1,2,0:0:0:65:
64,192,62451,1,8,0:0:0:65:
320,192,62451,1,0,0:0:0:0:
448,192,62576,1,0,0:0:0:0:
64,192,62701,1,2,0:0:0:65:
192,192,62701,1,0,0:0:0:0:
320,192,62951,1,8,0:0:0:65:
448,192,62951,1,0,0:0:0:0:
64,192,63201,1,2,0:0:0:65:
64,192,63326,1,2,0:0:0:65:
320,192,63451,1,8,0:0:0:65:
448,192,63451,1,0,0:0:0:0:
64,192,63701,1,2,0:0:0:65:
192,192,63701,1,0,0:0:0:0:
64,192,63951,1,8,0:0:0:65:
448,192,63951,1,0,0:0:0:0:
320,192,64201,1,0,0:0:0:0:
448,192,64201,1,0,0:0:0:0:
64,192,64326,1,2,0:0:0:65:
192,192,64451,1,8,0:0:0:65:
64,192,64576,1,8,0:0:0:65:
320,192,64701,1,2,0:0:0:65:
448,192,64701,1,0,0:0:0:0:
64,192,64951,1,8,0:0:0:65:
192,192,65076,1,0,0:0:0:0:
320,192,65201,1,2,0:0:0:0:
448,192,65201,1,0,0:0:0:0:
64,192,65326,1,2,0:0:0:0:
192,192,65451,1,8,0:0:0:65:
448,192,65451,1,0,0:0:0:0:
64,192,65701,1,2,0:0:0:65:
192,192,65701,1,0,0:0:0:0:
448,192,65951,1,8,0:0:0:65:
320,192,66076,1,0,0:0:0:0:
64,192,66201,1,2,0:0:0:65:
192,192,66201,1,0,0:0:0:0:
448,192,66326,1,2,0:0:0:65:
320,192,66451,1,8,0:0:0:65:
192,192,66576,1,8,0:0:0:65:
64,192,66701,1,2,0:0:0:65:
448,192,66701,1,0,0:0:0:0:
192,192,66951,1,8,0:0:0:65:
320,192,66951,1,0,0:0:0:0:
448,192,67201,1,2,0:0:0:65:
448,192,67326,1,2,0:0:0:65:
64,192,67451,1,8,0:0:0:65:
192,192,67451,1,0,0:0:0:0:
64,192,67701,1,2,0:0:0:65:
320,192,67701,1,0,0:0:0:0:
192,192,67951,1,8,0:0:0:65:
448,192,67951,1,0,0:0:0:0:
192,192,68201,1,0,0:0:0:0:
192,192,68326,1,2,0:0:0:65:
64,192,68451,1,8,0:0:0:65:
448,192,68451,1,0,0:0:0:0:
320,192,68576,1,0,0:0:0:0:
64,192,68701,1,2,0:0:0:65:
192,192,68701,1,0,0:0:0:0:
320,192,68951,1,8,0:0:0:65:
64,192,69076,1,0,0:0:0:0:
192,192,69076,1,0,0:0:0:0:
320,192,69326,1,2,0:0:0:65:
64,192,69451,1,8,0:0:0:65:
448,192,69451,1,0,0:0:0:0:
448,192,69701,1,2,0:0:0:65:
320,192,69826,1,2,0:0:0:65:
64,192,69951,1,8,0:0:0:65:
192,192,69951,1,0,0:0:0:0:
64,192,70201,1,0,0:0:0:0:
448,192,70201,1,0,0:0:0:0:
192,192,70451,1,8,0:0:0:65:
320,192,70451,1,0,0:0:0:0:
192,192,70701,1,2,0:0:0:65:
320,192,70701,1,0,0:0:0:0:
320,192,70951,1,8,0:0:0:65:
448,192,70951,1,0,0:0:0:0:
64,192,71201,1,2,0:0:0:65:
64,192,71326,1,2,0:0:0:65:
192,192,71451,1,8,0:0:0:65:
448,192,71451,1,0,0:0:0:0:
64,192,71701,1,2,0:0:0:65:
448,192,71701,1,0,0:0:0:0:
320,192,71951,1,8,0:0:0:65:
448,192,71951,1,0,0:0:0:0:
64,192,72201,1,0,0:0:0:0:
192,192,72201,1,0,0:0:0:0:
448,192,72326,1,2,0:0:0:65:
64,192,72451,1,8,0:0:0:65:
320,192,72451,1,0,0:0:0:0:
192,192,72576,1,8,0:0:0:65:
320,192,72701,1,2,0:0:0:65:
448,192,72701,1,0,0:0:0:0:
192,192,72951,1,8,0:0:0:65:
448,192,72951,1,0,0:0:0:0:
64,192,73201,1,2,0:0:0:65:
64,192,73326,1,2,0:0:0:65:
192,192,73451,1,8,0:0:0:65:
320,192,73451,1,0,0:0:0:0:
448,192,73576,1,0,0:0:0:0:
64,192,73701,1,2,0:0:0:65:
192,192,73701,1,0,0:0:0:0:
320,192,73951,1,8,0:0:0:65:
448,192,73951,1,0,0:0:0:0:
64,192,74201,1,2,0:0:0:65:
64,192,74326,1,2,0:0:0:65:
320,192,74451,1,8,0:0:0:65:
448,192,74451,1,0,0:0:0:0:
192,192,74576,1,8,0:0:0:65:
64,192,74701,1,2,0:0:0:65:
448,192,74701,1,4,0:0:0:0:
320,192,74826,1,0,0:0:0:0:
192,192,74951,1,8,0:0:0:65:
448,192,75076,1,0,0:0:0:0:
64,192,75201,1,2,0:0:0:65:
320,192,75326,1,2,0:0:0:65:
448,192,75451,128,8,75576:0:0:0:65:
320,192,75701,1,2,0:0:0:65:
192,192,75826,1,2,0:0:0:65:
64,192,75951,1,8,0:0:0:65:
448,192,76076,1,2,0:0:0:0:
320,192,76201,1,0,0:0:0:0:
192,192,76326,1,2,0:0:0:0:
64,192,76451,1,8,0:0:0:65:
320,192,76576,1,0,0:0:0:0:
192,192,76701,1,2,0:0:0:65:
448,192,76826,1,0,0:0:0:0:
64,192,76951,1,8,0:0:0:65:
192,192,77076,1,0,0:0:0:0:
320,192,77201,1,2,0:0:0:65:
64,192,77326,1,2,0:0:0:65:
448,192,77451,128,8,77576:0:0:0:65:
192,192,77701,1,2,0:0:0:65:
64,192,77826,1,2,0:0:0:65:
448,192,77951,1,8,0:0:0:65:
320,192,78076,1,2,0:0:0:0:
192,192,78201,1,0,0:0:0:0:
64,192,78326,1,2,0:0:0:0:
192,192,78451,1,8,0:0:0:65:
320,192,78576,1,0,0:0:0:0:
448,192,78701,1,2,0:0:0:65:
64,192,78826,1,2,0:0:0:65:
320,192,78951,1,8,0:0:0:65:
448,192,79076,128,0,79326:0:0:0:0:
64,192,79326,1,2,0:0:0:65:
192,192,79451,1,8,0:0:0:65:
320,192,79576,1,0,0:0:0:0:
448,192,79701,1,2,0:0:0:65:
320,192,79826,1,0,0:0:0:0:
192,192,79951,1,8,0:0:0:65:
320,192,80076,1,2,0:0:0:65:
448,192,80201,1,0,0:0:0:0:
320,192,80326,1,2,0:0:0:0:
192,192,80451,1,8,0:0:0:65:
64,192,80576,1,8,0:0:0:65:
448,192,80701,1,2,0:0:0:65:
192,192,80826,1,2,0:0:0:65:
320,192,80951,1,8,0:0:0:65:
448,192,81076,1,0,0:0:0:0:
192,192,81201,1,2,0:0:0:65:
448,192,81326,1,2,0:0:0:65:
320,192,81451,1,8,0:0:0:65:
64,192,81576,1,0,0:0:0:0:
448,192,81701,1,2,0:0:0:65:
320,192,81826,1,2,0:0:0:65:
192,192,81951,1,8,0:0:0:65:
64,192,82076,1,0,0:0:0:0:
448,192,82201,1,2,0:0:0:65:
320,192,82326,1,2,0:0:0:65:
64,192,82451,1,8,0:0:0:65:
192,192,82576,1,8,0:0:0:65:
320,192,82701,1,6,0:0:0:65:
64,192,82826,1,0,0:0:0:0:
448,192,82951,1,8,0:0:0:65:
320,192,83076,1,0,0:0:0:0:
192,192,83201,1,2,0:0:0:65:
64,192,83326,1,2,0:0:0:65:
448,192,83451,128,8,83576:0:0:0:65:
320,192,83701,1,2,0:0:0:65:
192,192,83826,1,2,0:0:0:65:
64,192,83951,1,8,0:0:0:65:
320,192,84076,1,2,0:0:0:0:
448,192,84201,1,0,0:0:0:0:
320,192,84326,1,2,0:0:0:0:
192,192,84451,1,8,0:0:0:65:
64,192,84576,1,0,0:0:0:0:
320,192,84701,1,2,0:0:0:65:
192,192,84826,1,0,0:0:0:0:
64,192,84951,1,8,0:0:0:65:
448,192,85076,1,0,0:0:0:0:
192,192,85201,1,2,0:0:0:65:
320,192,85326,1,2,0:0:0:65:
448,192,85451,128,8,85576:0:0:0:65:
64,192,85701,1,2,0:0:0:65:
192,192,85826,1,2,0:0:0:65:
448,192,85951,1,8,0:0:0:65:
320,192,86076,1,2,0:0:0:65:
64,192,86201,1,0,0:0:0:0:
192,192,86326,1,2,0:0:0:65:
448,192,86451,1,8,0:0:0:65:
320,192,86576,1,0,0:0:0:0:
192,192,86701,1,2,0:0:0:65:
64,192,86826,1,2,0:0:0:65:
320,192,86951,1,8,0:0:0:65:
448,192,87076,128,0,87326:0:0:0:0:
64,192,87326,1,2,0:0:0:65:
320,192,87451,1,8,0:0:0:65:
192,192,87576,1,0,0:0:0:0:
448,192,87701,1,2,0:0:0:65:
320,192,87826,1,2,0:0:0:65:
192,192,87951,1,8,0:0:0:65:
64,192,88076,1,2,0:0:0:65:
448,192,88201,1,0,0:0:0:0:
320,192,88326,1,2,0:0:0:65:
192,192,88451,1,8,0:0:0:65:
64,192,88576,1,8,0:0:0:65:
192,192,88701,1,2,0:0:0:65:
320,192,88826,1,2,0:0:0:65:
448,192,88951,1,8,0:0:0:65:
192,192,89076,1,0,0:0:0:0:
64,192,89201,1,2,0:0:0:65:
320,192,89326,1,2,0:0:0:65:
448,192,89451,1,8,0:0:0:65:
64,192,89576,1,0,0:0:0:0:
448,192,89701,128,2,89951:0:0:0:65:
64,192,89951,128,8,90201:0:0:0:65:
192,192,90201,128,2,90451:0:0:0:65:
448,192,90451,128,8,90951:0:0:0:65:
192,192,90951,1,4,0:0:0:65:
320,192,90951,1,8,0:0:0:65:
64,192,91201,1,2,0:0:0:65:
192,192,91326,1,2,0:0:0:65:
64,192,91451,1,8,0:0:0:65:
192,192,91576,1,0,0:0:0:0:
320,192,91701,1,2,0:0:0:65:
192,192,91826,1,0,0:0:0:0:
64,192,91951,1,8,0:0:0:65:
192,192,92076,1,0,0:0:0:0:
320,192,92201,1,2,0:0:0:65:
448,192,92326,1,2,0:0:0:65:
320,192,92451,1,8,0:0:0:65:
192,192,92576,1,0,0:0:0:0:
64,192,92701,1,2,0:0:0:65:
448,192,92826,1,2,0:0:0:65:
320,192,92951,1,8,0:0:0:65:
192,192,93076,1,0,0:0:0:0:
64,192,93201,1,2,0:0:0:65:
320,192,93326,1,2,0:0:0:65:
192,192,93451,1,8,0:0:0:65:
448,192,93576,1,0,0:0:0:0:
320,192,93701,1,2,0:0:0:65:
192,192,93826,1,2,0:0:0:65:
64,192,93951,1,8,0:0:0:65:
192,192,94076,1,0,0:0:0:0:
320,192,94201,1,2,0:0:0:65:
448,192,94326,1,2,0:0:0:65:
64,192,94451,1,8,0:0:0:65:
192,192,94576,1,0,0:0:0:0:
448,192,94701,1,2,0:0:0:65:
320,192,94826,1,2,0:0:0:65:
192,192,94951,1,8,0:0:0:65:
64,192,95076,1,0,0:0:0:0:
448,192,95201,1,2,0:0:0:65:
192,192,95326,1,2,0:0:0:65:
320,192,95451,1,8,0:0:0:65:
448,192,95576,1,0,0:0:0:0:
64,192,95701,1,2,0:0:0:65:
192,192,95826,1,0,0:0:0:0:
320,192,95951,1,8,0:0:0:65:
448,192,96076,1,0,0:0:0:0:
320,192,96201,1,2,0:0:0:65:
192,192,96326,1,2,0:0:0:65:
64,192,96451,1,8,0:0:0:65:
320,192,96576,1,0,0:0:0:0:
64,192,96701,1,2,0:0:0:65:
192,192,96826,1,2,0:0:0:65:
448,192,96951,1,8,0:0:0:65:
320,192,97076,1,0,0:0:0:0:
448,192,97201,1,2,0:0:0:65:
320,192,97326,1,2,0:0:0:0:
192,192,97451,1,8,0:0:0:65:
64,192,97576,1,0,0:0:0:0:
448,192,97701,1,2,0:0:0:65:
320,192,97826,1,2,0:0:0:65:
192,192,97951,1,8,0:0:0:65:
64,192,98076,1,0,0:0:0:0:
192,192,98201,1,2,0:0:0:65:
448,192,98326,1,2,0:0:0:65:
320,192,98451,1,8,0:0:0:65:
192,192,98576,1,0,0:0:0:0:
448,192,98701,1,2,0:0:0:65:
320,192,98826,1,2,0:0:0:65:
192,192,98951,1,8,0:0:0:65:
448,192,99076,1,0,0:0:0:0:
64,192,99201,1,2,0:0:0:65:
192,192,99326,1,2,0:0:0:65:
320,192,99451,1,8,0:0:0:65:
448,192,99576,1,0,0:0:0:0:
320,192,99701,1,2,0:0:0:65:
192,192,99826,1,0,0:0:0:0:
64,192,99951,1,8,0:0:0:65:
192,192,100076,1,0,0:0:0:0:
448,192,100201,1,2,0:0:0:65:
320,192,100326,1,2,0:0:0:65:
64,192,100451,1,8,0:0:0:65:
192,192,100576,1,0,0:0:0:0:
320,192,100701,1,2,0:0:0:65:
448,192,100701,1,4,0:0:0:0:
64,192,100951,1,2,0:0:0:65:
320,192,101076,1,8,0:0:0:65:
64,192,101201,1,2,0:0:0:65:
320,192,101326,1,8,0:0:0:65:
64,192,101451,1,2,0:0:0:65:
320,192,101576,1,8,0:0:0:65:
64,192,101701,1,2,0:0:0:65:
448,192,101701,1,0,0:0:0:0:
192,192,101826,1,8,0:0:0:65:
448,192,101951,1,2,0:0:0:65:
192,192,102201,1,2,0:0:0:65:
448,192,102326,1,8,0:0:0:65:
192,192,102451,1,2,0:0:0:65:
64,192,102701,1,4,0:0:0:65:
448,192,102701,1,2,0:0:0:0:
192,192,102826,1,0,0:0:0:0:
448,192,102951,1,8,0:0:0:65:
320,192,103076,1,0,0:0:0:0:
64,192,103201,1,2,0:0:0:65:
448,192,103326,1,2,0:0:0:65:
320,192,103451,1,8,0:0:0:65:
192,192,103576,1,0,0:0:0:0:
64,192,103701,1,2,0:0:0:0:
448,192,103826,1,0,0:0:0:0:
320,192,103951,1,8,0:0:0:65:
192,192,104076,1,0,0:0:0:0:
64,192,104201,1,2,0:0:0:65:
320,192,104326,1,2,0:0:0:65:
448,192,104451,1,8,0:0:0:65:
64,192,104576,1,0,0:0:0:0:
192,192,104701,1,8,0:0:0:65:
320,192,104701,1,4,0:0:0:0:
448,192,104826,1,2,0:0:0:0:
192,192,104951,1,2,0:0:0:65:
64,192,105076,1,8,0:0:0:65:
448,192,105076,1,4,0:0:0:65:
192,192,105326,1,2,0:0:0:65:
320,192,105451,1,8,0:0:0:65:
448,192,105451,1,4,0:0:0:0:
64,192,105701,1,8,0:0:0:65:
192,192,105701,1,2,0:0:0:0:
320,192,105826,1,8,0:0:0:65:
448,192,105826,1,2,0:0:0:0:
64,192,105951,1,0,0:0:0:0:
192,192,106076,1,0,0:0:0:0:
448,192,106201,1,8,0:0:0:0:
320,192,106326,1,8,0:0:0:0:
192,192,106451,1,8,0:0:0:65:
64,192,106576,1,8,0:0:0:65:
448,192,106701,1,6,0:0:0:0:
320,192,106826,1,0,0:0:0:0:
192,192,106951,1,8,0:0:0:65:
64,192,107076,1,0,0:0:0:0:
192,192,107201,1,2,0:0:0:65:
320,192,107326,1,2,0:0:0:65:
64,192,107451,1,8,0:0:0:65:
192,192,107576,1,0,0:0:0:0:
448,192,107701,1,2,0:0:0:65:
320,192,107826,1,2,0:0:0:65:
192,192,107951,1,8,0:0:0:65:
64,192,108076,1,2,0:0:0:65:
320,192,108201,1,0,0:0:0:0:
192,192,108326,1,2,0:0:0:65:
64,192,108451,1,8,0:0:0:65:
320,192,108576,1,0,0:0:0:0:
448,192,108701,1,2,0:0:0:65:
320,192,108826,1,0,0:0:0:0:
192,192,108951,1,8,0:0:0:65:
64,192,109076,1,0,0:0:0:0:
448,192,109201,1,2,0:0:0:65:
320,192,109326,1,2,0:0:0:65:
192,192,109451,1,8,0:0:0:65:
64,192,109576,1,0,0:0:0:0:
448,192,109701,128,2,109951:0:0:0:65:
192,192,109951,128,8,110201:0:0:0:65:
320,192,110201,128,0,110451:0:0:0:0:
64,192,110451,128,8,110701:0:0:0:65:
448,192,110701,1,2,0:0:0:0:
192,192,110826,1,2,0:0:0:65:
448,192,110951,1,8,0:0:0:65:
320,192,111076,1,0,0:0:0:0:
192,192,111201,1,2,0:0:0:65:
64,192,111326,1,2,0:0:0:65:
320,192,111451,1,8,0:0:0:65:
192,192,111576,1,0,0:0:0:0:
64,192,111701,1,2,0:0:0:65:
320,192,111826,1,2,0:0:0:65:
192,192,111951,1,8,0:0:0:65:
448,192,112076,1,2,0:0:0:65:
64,192,112201,1,0,0:0:0:0:
192,192,112326,1,2,0:0:0:65:
320,192,112451,1,12,0:0:0:65:
64,192,112576,1,0,0:0:0:0:
448,192,112701,1,2,0:0:0:65:
64,192,112826,1,0,0:0:0:0:
192,192,112951,1,8,0:0:0:65:
320,192,113076,1,0,0:0:0:0:
448,192,113201,1,2,0:0:0:0:
320,192,113326,1,2,0:0:0:65:
192,192,113451,1,8,0:0:0:65:
64,192,113576,1,0,0:0:0:0:
320,192,113701,1,2,0:0:0:65:
192,192,113826,1,2,0:0:0:65:
64,192,113951,1,8,0:0:0:65:
448,192,114076,1,2,0:0:0:0:
64,192,114201,1,8,0:0:0:65:
192,192,114326,1,8,0:0:0:65:
320,192,114451,1,8,0:0:0:65:
448,192,114576,1,8,0:0:0:65:
64,192,114701,1,2,0:0:0:0:
192,192,114701,1,4,0:0:0:65:
320,192,114826,1,0,0:0:0:0:
64,192,114951,1,8,0:0:0:65:
448,192,114951,1,2,0:0:0:0:
192,192,115076,1,0,0:0:0:0:
64,192,115201,1,2,0:0:0:0:
448,192,115326,1,0,0:0:0:0:
192,192,115451,1,8,0:0:0:65:
320,192,115451,1,2,0:0:0:0:
64,192,115576,1,0,0:0:0:0:
448,192,115701,1,2,0:0:0:65:
320,192,115826,1,0,0:0:0:0:
64,192,115951,1,8,0:0:0:65:
448,192,115951,1,2,0:0:0:0:
192,192,116076,1,0,0:0:0:0:
64,192,116201,1,2,0:0:0:0:
448,192,116326,1,0,0:0:0:0:
192,192,116451,1,8,0:0:0:65:
320,192,116451,1,2,0:0:0:0:
64,192,116576,1,0,0:0:0:0:
448,192,116701,1,2,0:0:0:65:
320,192,116826,1,0,0:0:0:0:
64,192,116951,1,8,0:0:0:65:
192,192,116951,1,2,0:0:0:0:
448,192,117076,1,0,0:0:0:0:
320,192,117201,1,2,0:0:0:0:
192,192,117326,1,0,0:0:0:0:
64,192,117451,1,8,0:0:0:65:
448,192,117451,1,2,0:0:0:0:
192,192,117576,1,0,0:0:0:0:
320,192,117701,1,2,0:0:0:65:
448,192,117826,1,0,0:0:0:0:
64,192,117951,1,8,0:0:0:65:
192,192,117951,1,2,0:0:0:0:
320,192,118076,1,0,0:0:0:0:
448,192,118201,1,2,0:0:0:0:
64,192,118326,1,0,0:0:0:0:
192,192,118451,1,8,0:0:0:65:
448,192,118451,1,2,0:0:0:0:
320,192,118576,1,0,0:0:0:0:
448,192,118701,1,2,0:0:0:65:
64,192,118826,1,0,0:0:0:0:
192,192,118951,1,8,0:0:0:65:
320,192,118951,1,2,0:0:0:0:
448,192,119076,1,0,0:0:0:0:
64,192,119201,1,2,0:0:0:0:
192,192,119326,1,0,0:0:0:0:
320,192,119451,1,8,0:0:0:65:
448,192,119451,1,2,0:0:0:0:
192,192,119576,1,0,0:0:0:0:
64,192,119701,1,2,0:0:0:65:
448,192,119826,1,0,0:0:0:0:
192,192,119951,1,8,0:0:0:65:
320,192,119951,1,2,0:0:0:0:
64,192,120076,1,0,0:0:0:0:
448,192,120201,1,2,0:0:0:0:
320,192,120326,1,0,0:0:0:0:
64,192,120451,1,8,0:0:0:65:
192,192,120451,1,2,0:0:0:0:
192,192,120701,1,2,0:0:0:0:
320,192,120701,1,8,0:0:0:0:
64,192,121201,1,2,0:0:0:0:
448,192,121201,1,8,0:0:0:0:
192,192,121326,1,8,0:0:0:0:
320,192,121326,1,0,0:0:0:0:
320,192,121576,1,8,0:0:0:65:
448,192,121576,1,0,0:0:0:0:
64,192,121701,1,8,0:0:0:65:
192,192,121701,1,2,0:0:0:0:
320,192,121826,1,8,0:0:0:65:
64,192,121951,1,8,0:0:0:65:
448,192,121951,1,2,0:0:0:0:
64,192,122201,1,10,0:0:0:65:
192,192,122326,1,8,0:0:0:65:
320,192,122451,1,10,0:0:0:65:
448,192,122576,1,8,0:0:0:65:
64,192,122701,1,2,0:0:0:0:
192,192,122701,1,4,0:0:0:0:
448,192,122826,1,0,0:0:0:0:
64,192,122951,1,8,0:0:0:65:
320,192,122951,1,0,0:0:0:0:
192,192,123076,1,0,0:0:0:0:
448,192,123201,1,2,0:0:0:0:
64,192,123326,1,2,0:0:0:0:
192,192,123451,1,8,0:0:0:65:
320,192,123451,1,0,0:0:0:0:
448,192,123576,1,0,0:0:0:0:
64,192,123701,1,2,0:0:0:0:
192,192,123826,1,2,0:0:0:0:
320,192,123951,1,8,0:0:0:65:
448,192,123951,1,0,0:0:0:0:
192,192,124076,1,2,0:0:0:0:
64,192,124201,1,0,0:0:0:0:
448,192,124326,1,2,0:0:0:0:
192,192,124451,1,8,0:0:0:65:
320,192,124451,1,0,0:0:0:0:
64,192,124576,1,0,0:0:0:0:
320,192,124701,1,2,0:0:0:0:
448,192,124826,1,0,0:0:0:0:
64,192,124951,1,8,0:0:0:65:
192,192,124951,1,0,0:0:0:0:
320,192,125076,1,0,0:0:0:0:
448,192,125201,1,2,0:0:0:0:
64,192,125326,1,2,0:0:0:0:
192,192,125451,1,8,0:0:0:65:
320,192,125451,1,0,0:0:0:0:
448,192,125576,1,0,0:0:0:0:
64,192,125701,1,2,0:0:0:0:
192,192,125826,1,2,0:0:0:0:
320,192,125951,1,8,0:0:0:65:
448,192,125951,1,0,0:0:0:0:
192,192,126076,1,2,0:0:0:0:
64,192,126201,1,0,0:0:0:0:
448,192,126326,1,2,0:0:0:0:
64,192,126451,1,8,0:0:0:65:
192,192,126451,1,0,0:0:0:0:
320,192,126576,1,8,0:0:0:65:
448,192,126576,1,0,0:0:0:0:
64,192,126701,1,2,0:0:0:0:
192,192,126826,1,2,0:0:0:0:
320,192,126951,1,8,0:0:0:65:
448,192,126951,1,0,0:0:0:0:
192,192,127076,1,0,0:0:0:0:
64,192,127201,1,2,0:0:0:0:
448,192,127326,1,2,0:0:0:0:
192,192,127451,1,8,0:0:0:65:
320,192,127451,1,0,0:0:0:0:
64,192,127576,1,0,0:0:0:0:
448,192,127701,1,2,0:0:0:0:
320,192,127826,1,2,0:0:0:0:
64,192,127951,1,8,0:0:0:65:
192,192,127951,1,0,0:0:0:0:
320,192,128076,1,2,0:0:0:0:
448,192,128201,1,0,0:0:0:0:
64,192,128326,1,2,0:0:0:0:
192,192,128451,1,8,0:0:0:65:
320,192,128451,1,4,0:0:0:65:
448,192,128576,1,0,0:0:0:0:
64,192,128701,1,2,0:0:0:0:
192,192,128826,1,0,0:0:0:0:
320,192,128951,1,8,0:0:0:65:
448,192,128951,1,0,0:0:0:0:
192,192,129076,1,0,0:0:0:0:
64,192,129201,1,2,0:0:0:0:
448,192,129326,1,2,0:0:0:0:
64,192,129451,1,8,0:0:0:65:
192,192,129576,1,8,0:0:0:0:
320,192,129701,1,8,0:0:0:65:
448,192,129701,1,0,0:0:0:0:
64,192,129951,1,8,0:0:0:65:
320,192,130076,1,8,0:0:0:65:
448,192,130076,1,0,0:0:0:0:
192,192,130326,1,8,0:0:0:65:
64,192,130451,1,8,0:0:0:65:
448,192,130451,1,0,0:0:0:0:
320,192,130701,1,2,0:0:0:0:
448,192,130701,1,4,0:0:0:65:
64,192,130826,1,0,0:0:0:0:
320,192,130951,1,8,0:0:0:65:
448,192,130951,1,2,0:0:0:0:
192,192,131076,1,0,0:0:0:0:
64,192,131201,1,2,0:0:0:0:
448,192,131326,1,0,0:0:0:0:
192,192,131451,1,8,0:0:0:65:
320,192,131451,1,2,0:0:0:0:
64,192,131576,1,0,0:0:0:0:
448,192,131701,1,2,0:0:0:0:
320,192,131826,1,0,0:0:0:0:
64,192,131951,1,8,0:0:0:65:
192,192,131951,1,2,0:0:0:0:
448,192,132076,1,0,0:0:0:0:
320,192,132201,1,2,0:0:0:0:
192,192,132326,1,0,0:0:0:0:
64,192,132451,1,8,0:0:0:65:
448,192,132451,1,2,0:0:0:0:
192,192,132576,1,0,0:0:0:0:
320,192,132701,1,2,0:0:0:0:
192,192,132826,1,0,0:0:0:0:
64,192,132951,1,8,0:0:0:65:
448,192,132951,1,2,0:0:0:0:
192,192,133076,1,0,0:0:0:0:
320,192,133201,1,2,0:0:0:0:
448,192,133326,1,0,0:0:0:0:
64,192,133451,1,8,0:0:0:65:
192,192,133451,1,2,0:0:0:0:
320,192,133576,1,0,0:0:0:0:
448,192,133701,1,2,0:0:0:0:
320,192,133826,1,0,0:0:0:0:
64,192,133951,1,8,0:0:0:65:
192,192,133951,1,2,0:0:0:0:
448,192,134076,1,0,0:0:0:0:
64,192,134201,1,2,0:0:0:0:
192,192,134326,1,0,0:0:0:0:
320,192,134451,1,8,0:0:0:65:
448,192,134451,1,2,0:0:0:0:
64,192,134576,1,0,0:0:0:0:
192,192,134576,1,0,0:0:0:0:
448,192,134701,1,2,0:0:0:0:
320,192,134826,1,0,0:0:0:0:
64,192,134951,1,8,0:0:0:65:
192,192,134951,1,2,0:0:0:0:
320,192,135076,1,0,0:0:0:0:
448,192,135201,1,2,0:0:0:0:
64,192,135326,1,0,0:0:0:0:
192,192,135451,1,8,0:0:0:65:
448,192,135451,1,2,0:0:0:0:
320,192,135576,1,0,0:0:0:0:
448,192,135701,1,2,0:0:0:0:
64,192,135826,1,0,0:0:0:0:
192,192,135951,1,8,0:0:0:65:
448,192,135951,1,2,0:0:0:0:
320,192,136076,1,0,0:0:0:0:
448,192,136201,1,2,0:0:0:0:
64,192,136326,1,0,0:0:0:0:
192,192,136451,1,10,0:0:0:0:
320,192,136451,1,4,0:0:0:65:
448,192,136576,1,0,0:0:0:0:
64,192,136701,1,8,0:0:0:65:
192,192,136701,1,0,0:0:0:0:
64,192,137076,1,8,0:0:0:65:
192,192,137076,1,0,0:0:0:0:
320,192,137451,1,8,0:0:0:65:
448,192,137451,1,0,0:0:0:0:
64,192,137701,1,2,0:0:0:0:
192,192,137701,1,8,0:0:0:0:
320,192,137951,1,10,0:0:0:0:
448,192,137951,1,4,0:0:0:65:
64,192,138201,1,8,0:0:0:65:
192,192,138326,1,0,0:0:0:0:
320,192,138451,1,8,0:0:0:65:
448,192,138576,1,0,0:0:0:0:
64,192,138701,1,8,0:0:0:65:
192,192,138701,1,0,0:0:0:0:
64,192,139201,1,0,0:0:0:0:
448,192,139701,1,0,0:0:0:0:
64,192,140201,1,0,0:0:0:0:
192,192,140701,1,0,0:0:0:0:
320,192,141076,1,0,0:0:0:0:
448,192,141201,1,0,0:0:0:0:
192,192,141326,1,0,0:0:0:0:
64,192,141451,1,0,0:0:0:0:
320,192,141576,1,0,0:0:0:0:
448,192,141701,1,0,0:0:0:0:
448,192,142201,1,0,0:0:0:0:
192,192,142701,1,0,0:0:0:0:
320,192,143201,1,0,0:0:0:0:
320,192,143701,1,0,0:0:0:0:
448,192,143826,1,0,0:0:0:0:
320,192,144201,1,0,0:0:0:0:
192,192,144701,1,0,0:0:0:0:
320,192,144951,1,0,0:0:0:0:
192,192,145076,1,0,0:0:0:0:
448,192,145201,1,0,0:0:0:0:
64,192,145326,1,0,0:0:0:0:
192,192,145451,1,0,0:0:0:0:
320,192,145576,128,0,146701:0:0:0:0:
448,192,146701,128,6,147076:0:0:0:65:
64,192,146951,1,8,0:0:0:65:
192,192,146951,1,0,0:0:0:0:
320,192,147076,128,0,147451:0:0:0:0:
64,192,147451,1,8,0:0:0:65:
448,192,147451,1,0,0:0:0:0:
192,192,147576,1,0,0:0:0:0:
320,192,147701,1,2,0:0:0:65:
320,192,147826,1,2,0:0:0:65:
64,192,147951,1,8,0:0:0:65:
448,192,147951,1,0,0:0:0:0:
192,192,148201,1,0,0:0:0:0:
320,192,148451,1,8,0:0:0:65:
448,192,148451,1,0,0:0:0:0:
192,192,148576,1,8,0:0:0:65:
64,192,148701,1,2,0:0:0:65:
448,192,148826,1,0,0:0:0:0:
64,192,148951,1,8,0:0:0:65:
192,192,148951,1,0,0:0:0:0:
448,192,149076,1,0,0:0:0:0:
320,192,149326,1,2,0:0:0:65:
64,192,149451,1,8,0:0:0:65:
192,192,149451,1,0,0:0:0:0:
448,192,149701,128,2,149951:0:0:0:65:
64,192,149951,1,8,0:0:0:65:
320,192,149951,128,0,150201:0:0:0:0:
192,192,150201,128,0,150451:0:0:0:0:
64,192,150451,128,8,150701:0:0:0:65:
320,192,150451,1,0,0:0:0:0:
448,192,150576,1,8,0:0:0:65:
192,192,150701,1,2,0:0:0:65:
320,192,150951,1,8,0:0:0:0:
448,192,150951,1,0,0:0:0:0:
64,192,151201,1,2,0:0:0:65:
64,192,151326,1,2,0:0:0:0:
320,192,151451,1,8,0:0:0:65:
448,192,151451,1,0,0:0:0:0:
448,192,151701,128,2,152076:0:0:0:65:
64,192,151951,1,8,0:0:0:0:
192,192,151951,1,0,0:0:0:0:
320,192,152076,1,2,0:0:0:0:
448,192,152326,1,2,0:0:0:0:
64,192,152451,1,8,0:0:0:0:
192,192,152451,1,0,0:0:0:0:
320,192,152576,1,8,0:0:0:0:
448,192,152576,1,0,0:0:0:0:
64,192,152701,1,2,0:0:0:65:
64,192,152826,1,2,0:0:0:0:
320,192,152951,1,8,0:0:0:65:
448,192,152951,1,0,0:0:0:0:
64,192,153076,1,0,0:0:0:0:
320,192,153201,1,2,0:0:0:0:
320,192,153326,1,2,0:0:0:65:
64,192,153451,1,8,0:0:0:65:
192,192,153451,1,0,0:0:0:0:
64,192,153701,1,2,0:0:0:0:
192,192,153701,1,0,0:0:0:0:
320,192,153951,1,8,0:0:0:65:
448,192,153951,1,0,0:0:0:0:
320,192,154201,1,10,0:0:0:65:
192,192,154326,1,8,0:0:0:0:
64,192,154451,1,8,0:0:0:65:
192,192,154576,1,8,0:0:0:65:
320,192,154701,1,2,0:0:0:65:
448,192,154701,1,4,0:0:0:65:
192,192,154826,1,0,0:0:0:0:
64,192,154951,1,8,0:0:0:65:
448,192,154951,1,0,0:0:0:0:
320,192,155076,1,0,0:0:0:0:
192,192,155201,1,2,0:0:0:65:
64,192,155326,1,2,0:0:0:65:
320,192,155451,1,8,0:0:0:65:
448,192,155451,1,0,0:0:0:0:
192,192,155576,1,8,0:0:0:0:
64,192,155701,1,2,0:0:0:0:
64,192,155826,1,2,0:0:0:65:
320,192,155951,1,8,0:0:0:65:
448,192,155951,1,0,0:0:0:0:
192,192,156201,1,0,0:0:0:0:
64,192,156451,1,8,0:0:0:65:
192,192,156451,1,0,0:0:0:0:
320,192,156576,1,8,0:0:0:0:
448,192,156701,1,2,0:0:0:65:
320,192,156826,1,0,0:0:0:0:
64,192,156951,1,8,0:0:0:65:
192,192,156951,1,0,0:0:0:0:
320,192,157076,1,0,0:0:0:0:
192,192,157326,1,2,0:0:0:65:
64,192,157451,1,8,0:0:0:65:
448,192,157451,1,0,0:0:0:0:
448,192,157701,128,2,157951:0:0:0:65:
64,192,157951,1,8,0:0:0:65:
320,192,157951,128,0,158201:0:0:0:0:
192,192,158201,128,0,158451:0:0:0:0:
64,192,158451,128,8,158701:0:0:0:65:
448,192,158451,1,0,0:0:0:0:
320,192,158576,1,8,0:0:0:65:
192,192,158701,1,2,0:0:0:65:
320,192,158951,1,8,0:0:0:0:
448,192,158951,1,0,0:0:0:0:
64,192,159076,1,0,0:0:0:0:
192,192,159326,1,2,0:0:0:0:
320,192,159451,1,8,0:0:0:0:
448,192,159451,1,0,0:0:0:0:
320,192,159701,1,2,0:0:0:65:
64,192,159826,1,2,0:0:0:65:
192,192,159951,1,8,0:0:0:65:
320,192,159951,1,0,0:0:0:0:
448,192,160076,1,2,0:0:0:65:
192,192,160326,1,2,0:0:0:65:
320,192,160451,1,8,0:0:0:65:
448,192,160451,1,0,0:0:0:0:
64,192,160576,1,8,0:0:0:65:
192,192,160576,1,0,0:0:0:0:
320,192,160701,1,2,0:0:0:65:
448,192,160701,1,4,0:0:0:65:
64,192,160951,1,8,0:0:0:65:
448,192,160951,1,0,0:0:0:0:
192,192,161076,1,0,0:0:0:0:
320,192,161076,1,0,0:0:0:0:
64,192,161201,1,2,0:0:0:0:
448,192,161201,1,4,0:0:0:0:
320,192,161451,1,8,0:0:0:65:
448,192,161451,1,0,0:0:0:0:
64,192,161576,1,0,0:0:0:0:
192,192,161576,1,0,0:0:0:0:
320,192,161701,1,2,0:0:0:0:
448,192,161701,1,4,0:0:0:65:
192,192,161951,1,8,0:0:0:0:
448,192,161951,1,4,0:0:0:65:
64,192,162201,1,10,0:0:0:65:
192,192,162326,1,8,0:0:0:65:
320,192,162451,1,8,0:0:0:65:
448,192,162576,1,8,0:0:0:65:
64,192,162701,1,2,0:0:0:0:
192,192,162701,1,4,0:0:0:65:
320,192,162951,1,8,0:0:0:65:
448,192,162951,1,0,0:0:0:0:
64,192,163201,1,2,0:0:0:65:
64,192,163326,1,2,0:0:0:65:
320,192,163451,1,8,0:0:0:65:
448,192,163451,1,0,0:0:0:0:
192,192,163701,1,2,0:0:0:65:
192,192,163826,1,2,0:0:0:0:
64,192,163951,1,8,0:0:0:65:
448,192,163951,1,0,0:0:0:0:
320,192,164076,1,2,0:0:0:65:
320,192,164326,1,2,0:0:0:65:
64,192,164451,1,8,0:0:0:65:
448,192,164451,1,0,0:0:0:0:
192,192,164701,1,2,0:0:0:65:
320,192,164701,1,0,0:0:0:0:
320,192,164951,1,8,0:0:0:65:
448,192,164951,1,0,0:0:0:0:
64,192,165201,1,2,0:0:0:65:
64,192,165326,1,2,0:0:0:65:
192,192,165451,1,8,0:0:0:65:
448,192,165451,1,0,0:0:0:0:
320,192,165701,1,2,0:0:0:65:
448,192,165701,1,0,0:0:0:0:
192,192,165826,1,2,0:0:0:65:
64,192,165951,1,8,0:0:0:65:
448,192,165951,1,0,0:0:0:0:
320,192,166076,1,2,0:0:0:0:
448,192,166326,1,2,0:0:0:65:
64,192,166451,1,8,0:0:0:65:
192,192,166451,1,0,0:0:0:0:
64,192,166701,1,2,0:0:0:65:
448,192,166701,1,0,0:0:0:0:
192,192,166826,1,2,0:0:0:65:
320,192,166951,1,8,0:0:0:65:
448,192,166951,1,0,0:0:0:0:
64,192,167201,1,2,0:0:0:0:
64,192,167326,1,2,0:0:0:65:
320,192,167451,1,8,0:0:0:65:
448,192,167451,1,0,0:0:0:0:
192,192,167576,1,0,0:0:0:0:
64,192,167701,1,2,0:0:0:65:
448,192,167701,1,0,0:0:0:0:
320,192,167826,1,2,0:0:0:0:
64,192,167951,1,8,0:0:0:65:
192,192,167951,1,0,0:0:0:0:
448,192,168201,1,0,0:0:0:0:
320,192,168326,1,2,0:0:0:65:
64,192,168451,1,8,0:0:0:65:
192,192,168451,1,0,0:0:0:0:
320,192,168576,1,8,0:0:0:0:
448,192,168576,1,0,0:0:0:0:
64,192,168701,1,2,0:0:0:65:
192,192,168701,1,0,0:0:0:0:
192,192,168951,1,8,0:0:0:65:
320,192,168951,1,0,0:0:0:0:
448,192,169201,1,2,0:0:0:65:
448,192,169326,1,2,0:0:0:65:
64,192,169451,1,8,0:0:0:65:
192,192,169451,1,0,0:0:0:0:
320,192,169576,1,0,0:0:0:0:
64,192,169701,1,2,0:0:0:65:
448,192,169701,1,0,0:0:0:0:
192,192,169951,1,8,0:0:0:65:
320,192,169951,1,0,0:0:0:0:
64,192,170201,1,2,0:0:0:65:
64,192,170326,1,2,0:0:0:65:
320,192,170451,1,8,0:0:0:65:
448,192,170451,1,0,0:0:0:0:
192,192,170576,1,8,0:0:0:65:
64,192,170701,1,2,0:0:0:65:
448,192,170701,1,0,0:0:0:0:
192,192,170951,1,8,0:0:0:65:
320,192,170951,1,0,0:0:0:0:
64,192,171201,1,2,0:0:0:65:
64,192,171326,1,2,0:0:0:65:
320,192,171451,1,8,0:0:0:65:
448,192,171451,1,0,0:0:0:0:
192,192,171576,1,0,0:0:0:0:
64,192,171701,1,2,0:0:0:65:
320,192,171701,1,0,0:0:0:0:
192,192,171951,1,8,0:0:0:65:
448,192,171951,1,0,0:0:0:0:
64,192,172076,1,2,0:0:0:0:
64,192,172326,1,2,0:0:0:65:
320,192,172451,1,8,0:0:0:65:
448,192,172451,1,0,0:0:0:0:
192,192,172701,1,2,0:0:0:65:
320,192,172701,1,0,0:0:0:0:
448,192,172951,1,8,0:0:0:65:
192,192,173076,1,0,0:0:0:0:
320,192,173076,1,0,0:0:0:0:
64,192,173326,1,2,0:0:0:65:
192,192,173451,1,8,0:0:0:65:
320,192,173451,1,0,0:0:0:0:
64,192,173701,1,2,0:0:0:65:
448,192,173701,1,0,0:0:0:0:
320,192,173826,1,2,0:0:0:65:
64,192,173951,1,8,0:0:0:65:
192,192,173951,1,0,0:0:0:0:
320,192,174201,1,0,0:0:0:0:
448,192,174201,1,0,0:0:0:0:
64,192,174451,1,8,0:0:0:65:
192,192,174451,1,0,0:0:0:0:
64,192,174701,1,2,0:0:0:65:
192,192,174701,1,0,0:0:0:0:
320,192,174951,1,8,0:0:0:65:
448,192,174951,1,0,0:0:0:0:
64,192,175201,1,2,0:0:0:0:
64,192,175326,1,2,0:0:0:65:
320,192,175451,1,8,0:0:0:65:
448,192,175451,1,0,0:0:0:0:
192,192,175576,1,8,0:0:0:0:
64,192,175701,1,2,0:0:0:65:
448,192,175701,1,0,0:0:0:0:
192,192,175951,1,8,0:0:0:65:
320,192,175951,1,0,0:0:0:0:
64,192,176201,1,0,0:0:0:0:
448,192,176201,1,0,0:0:0:0:
192,192,176326,1,2,0:0:0:0:
320,192,176451,1,8,0:0:0:65:
448,192,176451,1,0,0:0:0:0:
192,192,176576,1,8,0:0:0:65:
64,192,176701,1,2,0:0:0:65:
448,192,176701,1,0,0:0:0:0:
192,192,176951,1,8,0:0:0:65:
320,192,176951,1,0,0:0:0:0:
64,192,177201,1,2,0:0:0:0:
64,192,177326,1,2,0:0:0:0:
320,192,177451,1,8,0:0:0:65:
448,192,177451,1,0,0:0:0:0:
64,192,177576,1,0,0:0:0:0:
192,192,177701,1,2,0:0:0:0:
448,192,177701,1,0,0:0:0:0:
64,192,177951,1,8,0:0:0:65:
320,192,177951,1,0,0:0:0:0:
448,192,178076,1,0,0:0:0:0:
64,192,178201,1,2,0:0:0:65:
64,192,178326,1,2,0:0:0:0:
320,192,178451,1,8,0:0:0:65:
448,192,178451,1,0,0:0:0:0:
192,192,178576,1,8,0:0:0:65:
64,192,178701,1,2,0:0:0:65:
448,192,178701,1,4,0:0:0:65:
320,192,178826,1,0,0:0:0:0:
192,192,178951,1,8,0:0:0:65:
64,192,179076,1,0,0:0:0:0:
192,192,179201,1,2,0:0:0:65:
320,192,179326,1,2,0:0:0:65:
448,192,179451,128,8,179576:0:0:0:65:
192,192,179701,1,2,0:0:0:65:
64,192,179826,1,2,0:0:0:0:
320,192,179951,1,8,0:0:0:65:
192,192,180076,1,2,0:0:0:0:
64,192,180201,1,0,0:0:0:0:
448,192,180326,1,2,0:0:0:0:
320,192,180451,1,8,0:0:0:65:
192,192,180576,1,0,0:0:0:0:
64,192,180701,1,2,0:0:0:65:
320,192,180826,1,0,0:0:0:0:
192,192,180951,1,8,0:0:0:65:
448,192,181076,1,0,0:0:0:0:
64,192,181201,1,2,0:0:0:65:
320,192,181326,1,2,0:0:0:65:
448,192,181451,128,8,181576:0:0:0:65:
320,192,181701,1,2,0:0:0:65:
192,192,181826,1,2,0:0:0:0:
64,192,181951,1,8,0:0:0:65:
448,192,182076,1,2,0:0:0:0:
320,192,182201,1,0,0:0:0:0:
192,192,182326,1,2,0:0:0:0:
64,192,182451,1,8,0:0:0:65:
320,192,182576,1,0,0:0:0:0:
192,192,182701,1,2,0:0:0:65:
64,192,182826,1,2,0:0:0:65:
192,192,182951,1,8,0:0:0:0:
320,192,183076,128,0,183326:0:0:0:0:
64,192,183326,1,2,0:0:0:0:
192,192,183451,1,8,0:0:0:65:
320,192,183576,1,0,0:0:0:0:
448,192,183701,1,2,0:0:0:65:
64,192,183826,1,2,0:0:0:65:
192,192,183951,1,8,0:0:0:0:
320,192,184076,1,2,0:0:0:65:
448,192,184201,1,0,0:0:0:0:
320,192,184326,1,2,0:0:0:0:
448,192,184451,1,8,0:0:0:65:
192,192,184576,1,8,0:0:0:0:
64,192,184701,1,2,0:0:0:0:
320,192,184826,1,2,0:0:0:0:
192,192,184951,1,8,0:0:0:0:
448,192,185076,1,0,0:0:0:0:
320,192,185201,1,2,0:0:0:0:
192,192,185326,1,2,0:0:0:0:
64,192,185451,1,8,0:0:0:0:
448,192,185576,1,0,0:0:0:0:
320,192,185701,1,2,0:0:0:0:
192,192,185826,1,2,0:0:0:0:
64,192,185951,1,8,0:0:0:0:
320,192,186076,1,0,0:0:0:0:
192,192,186201,1,2,0:0:0:0:
320,192,186326,1,2,0:0:0:65:
448,192,186451,1,8,0:0:0:65:
64,192,186576,1,8,0:0:0:65:
192,192,186701,1,6,0:0:0:65:
320,192,186826,1,0,0:0:0:0:
64,192,186951,1,8,0:0:0:65:
192,192,187076,1,0,0:0:0:0:
320,192,187201,1,2,0:0:0:65:
64,192,187326,1,2,0:0:0:65:
192,192,187451,128,8,187576:0:0:0:65:
320,192,187701,1,2,0:0:0:65:
448,192,187826,1,2,0:0:0:0:
320,192,187951,1,8,0:0:0:65:
192,192,188076,1,2,0:0:0:0:
64,192,188201,1,0,0:0:0:0:
320,192,188326,1,2,0:0:0:0:
192,192,188451,1,8,0:0:0:65:
64,192,188576,1,0,0:0:0:0:
448,192,188701,1,2,0:0:0:65:
320,192,188826,1,0,0:0:0:0:
192,192,188951,1,8,0:0:0:65:
64,192,189076,1,0,0:0:0:0:
192,192,189201,1,2,0:0:0:65:
320,192,189326,1,2,0:0:0:65:
448,192,189451,128,8,189576:0:0:0:65:
192,192,189701,1,2,0:0:0:65:
448,192,189826,1,2,0:0:0:0:
320,192,189951,1,8,0:0:0:65:
192,192,190076,1,2,0:0:0:65:
64,192,190201,1,0,0:0:0:0:
448,192,190326,1,2,0:0:0:65:
320,192,190451,1,8,0:0:0:65:
192,192,190576,1,0,0:0:0:0:
64,192,190701,1,2,0:0:0:65:
192,192,190826,1,2,0:0:0:0:
448,192,190951,128,8,191201:0:0:0:0:
192,192,191201,1,2,0:0:0:65:
64,192,191326,1,2,0:0:0:0:
320,192,191451,1,8,0:0:0:0:
192,192,191576,1,0,0:0:0:0:
320,192,191701,1,2,0:0:0:0:
448,192,191826,1,2,0:0:0:65:
320,192,191951,1,8,0:0:0:65:
192,192,192076,1,2,0:0:0:0:
448,192,192201,1,0,0:0:0:0:
320,192,192326,1,2,0:0:0:65:
192,192,192451,1,8,0:0:0:65:
64,192,192576,1,8,0:0:0:65:
448,192,192701,1,2,0:0:0:65:
320,192,192826,1,2,0:0:0:65:
192,192,192951,1,8,0:0:0:65:
64,192,193076,1,0,0:0:0:0:
448,192,193201,1,2,0:0:0:65:
64,192,193326,1,2,0:0:0:65:
320,192,193451,1,8,0:0:0:65:
192,192,193576,1,0,0:0:0:0:
448,192,193701,128,2,193951:0:0:0:0:
64,192,193951,128,8,194201:0:0:0:65:
448,192,194201,128,2,194451:0:0:0:65:
192,192,194451,128,8,194951:0:0:0:65:
320,192,194951,1,8,0:0:0:65:
448,192,194951,1,4,0:0:0:65:
320,192,195201,1,2,0:0:0:65:
192,192,195326,1,2,0:0:0:65:
64,192,195451,1,8,0:0:0:65:
320,192,195576,1,0,0:0:0:0:
448,192,195701,1,2,0:0:0:65:
64,192,195826,1,0,0:0:0:0:
192,192,195951,1,8,0:0:0:65:
320,192,196076,1,0,0:0:0:0:
448,192,196201,1,2,0:0:0:65:
320,192,196326,1,2,0:0:0:65:
192,192,196451,1,8,0:0:0:65:
64,192,196576,1,0,0:0:0:0:
320,192,196701,1,2,0:0:0:65:
192,192,196826,1,2,0:0:0:65:
64,192,196951,1,8,0:0:0:65:
320,192,197076,1,0,0:0:0:0:
192,192,197201,1,2,0:0:0:65:
64,192,197326,1,2,0:0:0:65:
448,192,197451,1,8,0:0:0:65:
320,192,197576,1,0,0:0:0:0:
192,192,197701,1,2,0:0:0:65:
64,192,197826,1,2,0:0:0:65:
320,192,197951,1,8,0:0:0:65:
64,192,198076,1,0,0:0:0:0:
192,192,198201,1,2,0:0:0:65:
320,192,198326,1,2,0:0:0:65:
448,192,198451,1,8,0:0:0:65:
64,192,198576,1,0,0:0:0:0:
448,192,198701,1,2,0:0:0:65:
320,192,198826,1,2,0:0:0:65:
192,192,198951,1,8,0:0:0:65:
64,192,199076,1,0,0:0:0:0:
448,192,199201,1,2,0:0:0:65:
192,192,199326,1,2,0:0:0:65:
320,192,199451,1,8,0:0:0:65:
448,192,199576,1,0,0:0:0:0:
320,192,199701,1,2,0:0:0:65:
192,192,199826,1,0,0:0:0:0:
64,192,199951,1,8,0:0:0:65:
448,192,200076,1,0,0:0:0:0:
320,192,200201,1,2,0:0:0:65:
192,192,200326,1,2,0:0:0:65:
64,192,200451,1,8,0:0:0:0:
192,192,200576,1,0,0:0:0:0:
448,192,200701,1,2,0:0:0:65:
320,192,200826,1,2,0:0:0:65:
192,192,200951,1,8,0:0:0:65:
64,192,201076,1,0,0:0:0:0:
448,192,201201,1,2,0:0:0:65:
320,192,201326,1,2,0:0:0:65:
192,192,201451,1,8,0:0:0:65:
64,192,201576,1,0,0:0:0:0:
192,192,201701,1,2,0:0:0:65:
320,192,201826,1,2,0:0:0:65:
448,192,201951,1,8,0:0:0:65:
320,192,202076,1,0,0:0:0:0:
192,192,202201,1,2,0:0:0:65:
64,192,202326,1,2,0:0:0:65:
320,192,202451,1,8,0:0:0:65:
192,192,202576,1,0,0:0:0:0:
448,192,202701,1,2,0:0:0:65:
320,192,202826,1,2,0:0:0:65:
192,192,202951,1,8,0:0:0:65:
64,192,203076,1,0,0:0:0:0:
192,192,203201,1,2,0:0:0:65:
320,192,203326,1,2,0:0:0:65:
448,192,203451,1,8,0:0:0:65:
320,192,203576,1,0,0:0:0:0:
192,192,203701,1,2,0:0:0:65:
64,192,203826,1,0,0:0:0:0:
448,192,203951,1,8,0:0:0:65:
320,192,204076,1,0,0:0:0:0:
192,192,204201,1,2,0:0:0:65:
448,192,204326,1,2,0:0:0:65:
320,192,204451,1,8,0:0:0:65:
64,192,204576,1,0,0:0:0:0:
192,192,204701,1,2,0:0:0:0:
448,192,204701,1,4,0:0:0:0:
320,192,204951,1,2,0:0:0:0:
64,192,205076,1,8,0:0:0:65:
320,192,205201,1,2,0:0:0:0:
64,192,205326,1,8,0:0:0:65:
320,192,205451,1,2,0:0:0:0:
64,192,205576,1,8,0:0:0:65:
320,192,205701,1,2,0:0:0:0:
448,192,205701,1,0,0:0:0:0:
192,192,205826,1,8,0:0:0:65:
448,192,205951,1,2,0:0:0:0:
448,192,206201,1,2,0:0:0:0:
192,192,206326,1,8,0:0:0:65:
448,192,206451,1,2,0:0:0:0:
64,192,206701,1,2,0:0:0:65:
192,192,206701,1,4,0:0:0:65:
320,192,206826,1,0,0:0:0:0:
448,192,206951,1,8,0:0:0:65:
320,192,207076,1,0,0:0:0:0:
192,192,207201,1,2,0:0:0:65:
64,192,207326,1,2,0:0:0:65:
448,192,207451,1,8,0:0:0:65:
320,192,207576,1,0,0:0:0:0:
448,192,207701,1,2,0:0:0:65:
320,192,207826,1,0,0:0:0:0:
192,192,207951,1,8,0:0:0:65:
64,192,208076,1,0,0:0:0:0:
448,192,208201,1,2,0:0:0:65:
192,192,208326,1,2,0:0:0:0:
64,192,208451,1,8,0:0:0:65:
448,192,208576,1,0,0:0:0:0:
192,192,208701,1,8,0:0:0:65:
320,192,208701,1,4,0:0:0:65:
64,192,208826,1,2,0:0:0:0:
320,192,208951,1,2,0:0:0:65:
64,192,209076,1,8,0:0:0:65:
448,192,209076,1,4,0:0:0:65:
320,192,209326,1,2,0:0:0:65:
64,192,209451,1,8,0:0:0:65:
192,192,209451,1,4,0:0:0:65:
320,192,209701,1,8,0:0:0:65:
448,192,209701,1,2,0:0:0:0:
64,192,209826,1,8,0:0:0:65:
192,192,209826,1,2,0:0:0:0:
320,192,209951,1,0,0:0:0:0:
448,192,210076,1,0,0:0:0:0:
192,192,210201,1,8,0:0:0:0:
64,192,210326,1,8,0:0:0:0:
320,192,210451,1,8,0:0:0:65:
192,192,210576,1,8,0:0:0:65:
448,192,210701,1,6,0:0:0:0:
320,192,210826,1,0,0:0:0:0:
192,192,210951,1,8,0:0:0:65:
64,192,211076,1,0,0:0:0:0:
192,192,211201,1,2,0:0:0:65:
448,192,211326,1,2,0:0:0:65:
320,192,211451,1,8,0:0:0:65:
64,192,211576,1,0,0:0:0:0:
192,192,211701,1,2,0:0:0:65:
448,192,211826,1,2,0:0:0:65:
320,192,211951,1,8,0:0:0:65:
192,192,212076,1,2,0:0:0:65:
64,192,212201,1,0,0:0:0:0:
192,192,212326,1,2,0:0:0:65:
320,192,212451,1,8,0:0:0:65:
64,192,212576,1,0,0:0:0:0:
192,192,212701,1,2,0:0:0:65:
448,192,212826,1,0,0:0:0:0:
320,192,212951,1,8,0:0:0:65:
64,192,213076,1,0,0:0:0:0:
448,192,213201,1,2,0:0:0:65:
320,192,213326,1,2,0:0:0:65:
192,192,213451,1,8,0:0:0:65:
64,192,213576,1,0,0:0:0:0:
192,192,213701,128,2,213951:0:0:0:65:
320,192,213951,128,8,214201:0:0:0:65:
448,192,214201,128,0,214451:0:0:0:0:
64,192,214451,128,8,214701:0:0:0:65:
320,192,214701,1,2,0:0:0:0:
192,192,214826,1,2,0:0:0:65:
448,192,214951,1,8,0:0:0:65:
320,192,215076,1,0,0:0:0:0:
192,192,215201,1,2,0:0:0:65:
64,192,215326,1,2,0:0:0:65:
320,192,215451,1,8,0:0:0:65:
192,192,215576,1,0,0:0:0:0:
448,192,215701,1,2,0:0:0:65:
320,192,215826,1,2,0:0:0:65:
192,192,215951,1,8,0:0:0:65:
64,192,216076,1,2,0:0:0:65:
192,192,216201,1,0,0:0:0:0:
448,192,216326,1,2,0:0:0:65:
320,192,216451,1,12,0:0:0:65:
192,192,216576,1,0,0:0:0:0:
448,192,216701,1,2,0:0:0:65:
320,192,216826,1,0,0:0:0:0:
192,192,216951,1,8,0:0:0:65:
64,192,217076,1,0,0:0:0:0:
192,192,217201,1,2,0:0:0:0:
448,192,217326,1,2,0:0:0:65:
320,192,217451,1,8,0:0:0:65:
64,192,217576,1,0,0:0:0:0:
192,192,217701,1,2,0:0:0:65:
320,192,217826,1,2,0:0:0:65:
448,192,217951,1,8,0:0:0:65:
64,192,218076,1,2,0:0:0:0:
448,192,218201,1,8,0:0:0:65:
320,192,218326,1,8,0:0:0:65:
192,192,218451,1,8,0:0:0:65:
64,192,218576,1,8,0:0:0:65:
320,192,218701,1,2,0:0:0:0:
448,192,218701,1,4,0:0:0:65:
64,192,218826,1,0,0:0:0:0:
192,192,218951,1,8,0:0:0:65:
448,192,218951,1,2,0:0:0:0:
320,192,219076,1,0,0:0:0:0:
64,192,219201,1,2,0:0:0:0:
192,192,219326,1,0,0:0:0:0:
320,192,219451,1,8,0:0:0:65:
448,192,219451,1,2,0:0:0:0:
64,192,219576,1,0,0:0:0:0:
192,192,219701,1,2,0:0:0:65:
320,192,219826,1,0,0:0:0:0:
64,192,219951,1,8,0:0:0:65:
448,192,219951,1,2,0:0:0:0:
192,192,220076,1,0,0:0:0:0:
320,192,220201,1,2,0:0:0:0:
448,192,220326,1,0,0:0:0:0:
64,192,220451,1,8,0:0:0:65:
192,192,220451,1,2,0:0:0:0:
320,192,220576,1,0,0:0:0:0:
448,192,220701,1,2,0:0:0:65:
64,192,220826,1,0,0:0:0:0:
192,192,220951,1,8,0:0:0:65:
320,192,220951,1,2,0:0:0:0:
448,192,221076,1,0,0:0:0:0:
64,192,221201,1,2,0:0:0:0:
192,192,221326,1,0,0:0:0:0:
320,192,221451,1,8,0:0:0:65:
448,192,221451,1,2,0:0:0:0:
192,192,221576,1,0,0:0:0:0:
64,192,221701,1,2,0:0:0:65:
448,192,221826,1,0,0:0:0:0:
192,192,221951,1,8,0:0:0:65:
320,192,221951,1,2,0:0:0:0:
64,192,222076,1,0,0:0:0:0:
448,192,222201,1,2,0:0:0:0:
320,192,222326,1,0,0:0:0:0:
64,192,222451,1,8,0:0:0:65:
192,192,222451,1,2,0:0:0:0:
448,192,222576,1,0,0:0:0:0:
320,192,222701,1,2,0:0:0:65:
192,192,222826,1,0,0:0:0:0:
64,192,222951,1,8,0:0:0:65:
448,192,222951,1,2,0:0:0:0:
192,192,223076,1,0,0:0:0:0:
320,192,223201,1,2,0:0:0:0:
448,192,223326,1,0,0:0:0:0:
64,192,223451,1,8,0:0:0:65:
192,192,223451,1,2,0:0:0:0:
448,192,223576,1,0,0:0:0:0:
320,192,223701,1,2,0:0:0:65:
192,192,223826,1,0,0:0:0:0:
64,192,223951,1,8,0:0:0:65:
448,192,223951,1,2,0:0:0:0:
320,192,224076,1,0,0:0:0:0:
192,192,224201,1,2,0:0:0:0:
64,192,224326,1,0,0:0:0:0:
320,192,224451,1,10,0:0:0:65:
448,192,224451,1,4,0:0:0:0:
192,192,224576,1,0,0:0:0:0:
64,192,224701,1,2,0:0:0:0:
448,192,224701,1,8,0:0:0:0:
320,192,224826,1,8,0:0:0:0:
448,192,224951,1,10,0:0:0:0:
64,192,225076,1,8,0:0:0:0:
192,192,225076,1,0,0:0:0:0:
320,192,225201,1,2,0:0:0:0:
448,192,225201,1,8,0:0:0:0:
64,192,225326,1,8,0:0:0:0:
192,192,225326,1,0,0:0:0:0:
320,192,225451,1,6,0:0:0:0:
64,192,225576,1,8,0:0:0:65:
448,192,225576,1,0,0:0:0:0:
192,192,225701,1,8,0:0:0:65:
320,192,225701,1,2,0:0:0:0:
64,192,225826,1,8,0:0:0:65:
320,192,225951,1,8,0:0:0:65:
448,192,225951,1,2,0:0:0:0:
192,192,226076,1,8,0:0:0:65:
64,192,226201,1,10,0:0:0:65:
192,192,226326,1,8,0:0:0:65:
320,192,226451,1,10,0:0:0:65:
448,192,226576,1,8,0:0:0:65:
64,192,226701,1,2,0:0:0:0:
192,192,226701,1,4,0:0:0:0:
320,192,226826,1,0,0:0:0:0:
192,192,226951,1,8,0:0:0:65:
448,192,226951,1,0,0:0:0:0:
64,192,227076,1,0,0:0:0:0:
192,192,227201,1,2,0:0:0:0:
320,192,227326,1,2,0:0:0:0:
64,192,227451,1,8,0:0:0:65:
448,192,227451,1,0,0:0:0:0:
192,192,227576,1,0,0:0:0:0:
320,192,227701,1,2,0:0:0:0:
448,192,227826,1,2,0:0:0:0:
64,192,227951,1,8,0:0:0:65:
320,192,227951,1,0,0:0:0:0:
192,192,228076,1,2,0:0:0:0:
64,192,228201,1,0,0:0:0:0:
448,192,228326,1,2,0:0:0:0:
192,192,228451,1,8,0:0:0:65:
320,192,228451,1,0,0:0:0:0:
64,192,228576,1,0,0:0:0:0:
448,192,228701,1,2,0:0:0:0:
320,192,228826,1,0,0:0:0:0:
64,192,228951,1,8,0:0:0:65:
192,192,228951,1,0,0:0:0:0:
448,192,229076,1,0,0:0:0:0:
320,192,229201,1,2,0:0:0:0:
192,192,229326,1,2,0:0:0:0:
64,192,229451,1,8,0:0:0:65:
320,192,229451,1,0,0:0:0:0:
448,192,229576,1,0,0:0:0:0:
64,192,229701,1,2,0:0:0:0:
192,192,229826,1,2,0:0:0:0:
320,192,229951,1,8,0:0:0:65:
448,192,229951,1,0,0:0:0:0:
192,192,230076,1,2,0:0:0:0:
64,192,230201,1,0,0:0:0:0:
192,192,230326,1,2,0:0:0:0:
320,192,230451,1,8,0:0:0:65:
448,192,230451,1,0,0:0:0:0:
64,192,230576,1,8,0:0:0:65:
192,192,230576,1,0,0:0:0:0:
320,192,230701,1,2,0:0:0:0:
192,192,230826,1,2,0:0:0:0:
64,192,230951,1,8,0:0:0:65:
448,192,230951,1,0,0:0:0:0:
320,192,231076,1,0,0:0:0:0:
192,192,231201,1,2,0:0:0:0:
64,192,231326,1,2,0:0:0:0:
320,192,231451,1,8,0:0:0:65:
448,192,231451,1,0,0:0:0:0:
64,192,231576,1,0,0:0:0:0:
192,192,231701,1,2,0:0:0:0:
320,192,231826,1,2,0:0:0:0:
64,192,231951,1,8,0:0:0:65:
448,192,231951,1,0,0:0:0:0:
192,192,232076,1,2,0:0:0:0:
320,192,232201,1,0,0:0:0:0:
448,192,232326,1,2,0:0:0:0:
192,192,232451,1,8,0:0:0:65:
320,192,232451,1,4,0:0:0:65:
64,192,232576,1,0,0:0:0:0:
448,192,232701,1,2,0:0:0:0:
320,192,232826,1,0,0:0:0:0:
64,192,232951,1,8,0:0:0:65:
192,192,232951,1,0,0:0:0:0:
320,192,233076,1,0,0:0:0:0:
448,192,233201,1,2,0:0:0:0:
64,192,233326,1,2,0:0:0:0:
192,192,233451,1,8,0:0:0:65:
320,192,233451,1,0,0:0:0:0:
448,192,233576,1,8,0:0:0:0:
64,192,233701,1,8,0:0:0:65:
192,192,233701,1,0,0:0:0:0:
320,192,233826,1,8,0:0:0:0:
448,192,233951,1,2,0:0:0:0:
192,192,234076,1,8,0:0:0:65:
320,192,234076,1,0,0:0:0:0:
64,192,234201,1,8,0:0:0:0:
320,192,234326,1,2,0:0:0:0:
64,192,234451,1,8,0:0:0:65:
192,192,234451,1,0,0:0:0:0:
448,192,234576,1,8,0:0:0:65:
192,192,234701,1,2,0:0:0:0:
320,192,234701,1,4,0:0:0:65:
64,192,234826,1,0,0:0:0:0:
320,192,234951,1,8,0:0:0:65:
448,192,234951,1,2,0:0:0:0:
192,192,235076,1,0,0:0:0:0:
64,192,235201,1,2,0:0:0:0:
448,192,235326,1,0,0:0:0:0:
64,192,235451,1,8,0:0:0:65:
320,192,235451,1,2,0:0:0:0:
192,192,235576,1,0,0:0:0:0:
64,192,235701,1,2,0:0:0:0:
448,192,235826,1,0,0:0:0:0:
192,192,235951,1,8,0:0:0:65:
320,192,235951,1,2,0:0:0:0:
64,192,236076,1,0,0:0:0:0:
448,192,236201,1,2,0:0:0:0:
320,192,236326,1,0,0:0:0:0:
64,192,236451,1,8,0:0:0:65:
192,192,236451,1,2,0:0:0:0:
320,192,236576,1,0,0:0:0:0:
448,192,236701,1,2,0:0:0:0:
64,192,236826,1,0,0:0:0:0:
192,192,236951,1,8,0:0:0:65:
320,192,236951,1,2,0:0:0:0:
448,192,237076,1,0,0:0:0:0:
64,192,237201,1,2,0:0:0:0:
192,192,237326,1,0,0:0:0:0:
320,192,237451,1,8,0:0:0:65:
448,192,237451,1,2,0:0:0:0:
64,192,237576,1,0,0:0:0:0:
192,192,237701,1,2,0:0:0:0:
320,192,237826,1,0,0:0:0:0:
64,192,237951,1,8,0:0:0:65:
448,192,237951,1,2,0:0:0:0:
192,192,238076,1,0,0:0:0:0:
448,192,238201,1,2,0:0:0:0:
320,192,238326,1,0,0:0:0:0:
64,192,238451,1,8,0:0:0:65:
192,192,238451,1,2,0:0:0:0:
320,192,238576,1,8,0:0:0:0:
448,192,238576,1,0,0:0:0:0:
64,192,238701,1,2,0:0:0:0:
192,192,238826,1,0,0:0:0:0:
320,192,238951,1,8,0:0:0:65:
448,192,238951,1,2,0:0:0:0:
192,192,239076,1,0,0:0:0:0:
64,192,239201,1,2,0:0:0:0:
448,192,239326,1,0,0:0:0:0:
64,192,239451,1,8,0:0:0:65:
320,192,239451,1,2,0:0:0:0:
192,192,239576,1,0,0:0:0:0:
64,192,239701,1,2,0:0:0:0:
448,192,239826,1,0,0:0:0:0:
192,192,239951,1,8,0:0:0:65:
320,192,239951,1,2,0:0:0:0:
64,192,240076,1,0,0:0:0:0:
448,192,240201,1,2,0:0:0:0:
320,192,240326,1,0,0:0:0:0:
64,192,240451,1,10,0:0:0:0:
192,192,240451,1,4,0:0:0:65:
320,192,240576,1,0,0:0:0:0:
64,192,240701,1,2,0:0:0:0:
192,192,240701,1,4,0:0:0:0:
448,192,240826,1,0,0:0:0:0:
320,192,240951,1,2,0:0:0:0:
192,192,241076,1,8,0:0:0:65:
320,192,241201,1,2,0:0:0:0:
448,192,241201,1,8,0:0:0:0:
64,192,241326,1,8,0:0:0:0:
192,192,241326,1,0,0:0:0:0:
320,192,241451,1,8,0:0:0:65:
448,192,241451,1,2,0:0:0:0:
192,192,241576,1,8,0:0:0:0:
64,192,241701,1,10,0:0:0:0:
320,192,241701,1,4,0:0:0:0:
192,192,241951,1,10,0:0:0:0:
448,192,241951,1,4,0:0:0:65:
320,192,242201,1,10,0:0:0:65:
192,192,242326,1,8,0:0:0:0:
64,192,242451,1,10,0:0:0:0:
192,192,242576,1,8,0:0:0:0:
448,192,242701,1,14,0:0:0:65:
448,192,242951,1,10,0:0:0:65:
448,192,243201,1,8,0:0:0:65:
448,192,243451,1,8,0:0:0:65:
64,192,243701,1,10,0:0:0:65:
320,192,243701,1,4,0:0:0:0:
64,192,243951,1,10,0:0:0:65:
64,192,244201,1,8,0:0:0:65:
64,192,244451,1,8,0:0:0:65:
320,192,244701,1,10,0:0:0:65:
448,192,244701,1,4,0:0:0:0:
320,192,244951,1,10,0:0:0:65:
320,192,245201,1,8,0:0:0:65:
320,192,245451,1,8,0:0:0:65:
192,192,245701,1,10,0:0:0:65:
448,192,245701,1,4,0:0:0:0:
192,192,245951,1,10,0:0:0:65:
192,192,246201,1,8,0:0:0:65:
192,192,246451,1,8,0:0:0:65:
64,192,246701,1,10,0:0:0:65:
448,192,246701,1,4,0:0:0:0:
64,192,246951,1,10,0:0:0:65:
64,192,247201,1,8,0:0:0:65:
64,192,247451,1,8,0:0:0:65:
192,192,247701,1,10,0:0:0:65:
448,192,247701,1,4,0:0:0:0:
448,192,247951,1,10,0:0:0:65:
448,192,248201,1,8,0:0:0:65:
448,192,248451,1,12,0:0:0:65:
192,192,248701,1,10,0:0:0:0:
320,192,248701,1,4,0:0:0:0:
192,192,248951,1,10,0:0:0:65:
192,192,249201,1,8,0:0:0:65:
192,192,249451,1,8,0:0:0:65:
64,192,249701,1,10,0:0:0:0:
320,192,249701,1,4,0:0:0:0:
192,192,249951,1,8,0:0:0:0:
448,192,249951,1,2,0:0:0:0:
64,192,250201,1,8,0:0:0:65:
192,192,250201,1,0,0:0:0:0:
320,192,250326,1,10,0:0:0:0:
64,192,250451,1,8,0:0:0:0:
448,192,250451,1,0,0:0:0:0:
192,192,250576,1,8,0:0:0:0:
320,192,250701,1,10,0:0:0:65:
448,192,250701,1,4,0:0:0:0:
64,192,250951,1,14,0:0:0:65:
192,192,251201,1,10,0:0:0:65:
448,192,251201,1,4,0:0:0:0:
64,192,251451,1,14,0:0:0:65:
192,192,251701,1,10,0:0:0:65:
448,192,251701,1,4,0:0:0:0:
320,192,251951,1,14,0:0:0:65:
64,192,252201,1,10,0:0:0:65:
192,192,252201,1,4,0:0:0:0:
320,192,252451,1,14,0:0:0:65:
64,192,252701,1,10,0:0:0:65:
192,192,252701,1,4,0:0:0:0:
448,192,252951,1,14,0:0:0:65:
192,192,253201,1,10,0:0:0:65:
320,192,253201,1,4,0:0:0:0:
448,192,253451,1,14,0:0:0:65:
192,192,253701,1,10,0:0:0:65:
320,192,253701,1,4,0:0:0:0:
64,192,253951,1,14,0:0:0:65:
320,192,254201,1,10,0:0:0:65:
448,192,254201,1,4,0:0:0:0:
64,192,254451,1,14,0:0:0:65:
320,192,254701,1,10,0:0:0:65:
448,192,254701,1,4,0:0:0:0:
192,192,254951,1,14,0:0:0:65:
64,192,255201,1,10,0:0:0:65:
448,192,255201,1,4,0:0:0:0:
192,192,255451,1,14,0:0:0:65:
64,192,255701,1,10,0:0:0:65:
448,192,255701,1,4,0:0:0:0:
320,192,255951,1,14,0:0:0:65:
192,192,256201,1,10,0:0:0:65:
448,192,256201,1,4,0:0:0:0:
320,192,256451,1,14,0:0:0:65:
192,192,256701,1,10,0:0:0:65:
448,192,256701,1,4,0:0:0:0:
64,192,256951,1,14,0:0:0:65:
320,192,257201,1,10,0:0:0:65:
448,192,257201,1,4,0:0:0:0:
64,192,257451,1,14,0:0:0:65:
320,192,257701,1,10,0:0:0:65:
448,192,257701,1,4,0:0:0:0:
64,192,257951,1,14,0:0:0:65:
192,192,258201,1,2,0:0:0:0:
320,192,258201,1,4,0:0:0:0:
448,192,258451,1,6,0:0:0:0:
64,192,258701,1,2,0:0:0:65:
320,192,258701,1,4,0:0:0:65:
448,192,258826,1,0,0:0:0:0:
192,192,258951,1,0,0:0:0:0:
64,192,259076,1,2,0:0:0:0:
320,192,259201,1,8,0:0:0:65:
448,192,259201,1,0,0:0:0:0:
192,192,259326,1,2,0:0:0:0:
64,192,259451,1,0,0:0:0:0:
320,192,259576,1,8,0:0:0:0:
448,192,259701,1,2,0:0:0:65:
320,192,259826,1,8,0:0:0:0:
192,192,259951,1,0,0:0:0:0:
64,192,260076,1,2,0:0:0:65:
320,192,260201,1,8,0:0:0:65:
448,192,260201,1,0,0:0:0:0:
64,192,260326,1,2,0:0:0:65:
192,192,260451,1,8,0:0:0:65:
320,192,260451,1,0,0:0:0:0:
448,192,260576,1,0,0:0:0:0:
64,192,260701,1,2,0:0:0:65:
192,192,260826,1,0,0:0:0:0:
320,192,260951,1,8,0:0:0:0:
448,192,261076,1,2,0:0:0:65:
64,192,261201,1,8,0:0:0:65:
192,192,261201,1,0,0:0:0:0:
320,192,261326,1,2,0:0:0:65:
192,192,261451,1,0,0:0:0:0:
64,192,261576,1,0,0:0:0:0:
192,192,261701,1,2,0:0:0:65:
320,192,261826,1,0,0:0:0:0:
448,192,261951,1,2,0:0:0:65:
64,192,262076,1,0,0:0:0:0:
192,192,262201,1,8,0:0:0:65:
320,192,262201,1,0,0:0:0:0:
448,192,262326,1,2,0:0:0:0:
64,192,262451,128,8,262701:0:0:0:65:
320,192,262451,1,0,0:0:0:0:
448,192,262701,1,2,0:0:0:65:
320,192,262826,1,0,0:0:0:0:
192,192,262951,1,8,0:0:0:65:
448,192,262951,1,0,0:0:0:0:
64,192,263076,1,0,0:0:0:0:
192,192,263201,1,2,0:0:0:65:
320,192,263326,1,2,0:0:0:65:
192,192,263451,1,8,0:0:0:65:
448,192,263451,1,0,0:0:0:0:
64,192,263576,1,0,0:0:0:0:
192,192,263701,1,2,0:0:0:65:
320,192,263826,1,0,0:0:0:0:
64,192,263951,1,8,0:0:0:65:
448,192,263951,1,0,0:0:0:0:
320,192,264076,1,2,0:0:0:65:
192,192,264201,1,0,0:0:0:0:
64,192,264326,1,2,0:0:0:65:
192,192,264451,1,8,0:0:0:65:
448,192,264451,1,0,0:0:0:0:
320,192,264576,1,0,0:0:0:0:
448,192,264701,1,2,0:0:0:65:
64,192,264826,1,0,0:0:0:0:
192,192,264951,1,8,0:0:0:65:
448,192,264951,1,0,0:0:0:0:
320,192,265076,1,0,0:0:0:0:
448,192,265201,1,2,0:0:0:65:
192,192,265326,1,2,0:0:0:65:
64,192,265451,1,8,0:0:0:65:
448,192,265451,1,0,0:0:0:0:
320,192,265576,1,0,0:0:0:0:
192,192,265701,1,10,0:0:0:65:
320,192,265826,1,8,0:0:0:65:
192,192,265951,1,10,0:0:0:65:
320,192,266076,1,8,0:0:0:65:
64,192,266201,1,8,0:0:0:65:
448,192,266326,1,8,0:0:0:65:
64,192,266451,1,8,0:0:0:65:
448,192,266576,1,8,0:0:0:65:
64,192,266701,1,2,0:0:0:65:
192,192,266701,1,4,0:0:0:65:
320,192,266826,1,2,0:0:0:0:
192,192,266951,1,2,0:0:0:0:
64,192,267076,1,2,0:0:0:0:
448,192,267201,1,2,0:0:0:0:
320,192,267326,1,2,0:0:0:0:
192,192,267451,1,2,0:0:0:0:
64,192,267576,1,2,0:0:0:0:
320,192,267701,1,2,0:0:0:65:
448,192,267701,1,0,0:0:0:0:
64,192,267826,1,2,0:0:0:0:
192,192,267951,1,2,0:0:0:0:
320,192,268076,1,2,0:0:0:0:
448,192,268201,1,2,0:0:0:0:
192,192,268326,1,2,0:0:0:0:
64,192,268451,1,2,0:0:0:0:
320,192,268576,1,2,0:0:0:0:
64,192,268701,1,2,0:0:0:65:
448,192,268701,1,0,0:0:0:0:
192,192,268826,1,2,0:0:0:0:
320,192,268951,1,2,0:0:0:0:
448,192,269076,1,2,0:0:0:0:
64,192,269201,1,2,0:0:0:0:
192,192,269326,1,2,0:0:0:0:
320,192,269451,1,2,0:0:0:0:
448,192,269576,1,2,0:0:0:0:
64,192,269701,1,2,0:0:0:65:
192,192,269701,1,0,0:0:0:0:
448,192,269826,1,2,0:0:0:0:
320,192,269951,1,2,0:0:0:0:
64,192,270076,1,2,0:0:0:0:
192,192,270076,1,0,0:0:0:0:
320,192,270201,1,2,0:0:0:0:
448,192,270326,1,2,0:0:0:0:
64,192,270451,1,2,0:0:0:0:
320,192,270451,1,8,0:0:0:0:
192,192,270576,1,10,0:0:0:0:
320,192,270701,1,2,0:0:0:0:
448,192,270701,1,0,0:0:0:0:
64,192,270826,1,0,0:0:0:0:
192,192,270951,1,2,0:0:0:0:
448,192,271076,1,0,0:0:0:0:
320,192,271201,1,2,0:0:0:0:
64,192,271326,1,0,0:0:0:0:
192,192,271451,1,2,0:0:0:0:
448,192,271451,1,0,0:0:0:0:
320,192,271576,1,0,0:0:0:0:
64,192,271701,1,2,0:0:0:0:
448,192,271701,1,0,0:0:0:0:
192,192,271826,1,0,0:0:0:0:
320,192,271951,1,2,0:0:0:0:
448,192,272076,1,0,0:0:0:0:
320,192,272201,1,2,0:0:0:0:
192,192,272326,1,0,0:0:0:0:
64,192,272451,1,2,0:0:0:0:
448,192,272451,1,0,0:0:0:0:
192,192,272576,1,0,0:0:0:0:
320,192,272701,1,2,0:0:0:0:
448,192,272701,1,0,0:0:0:0:
64,192,272826,1,0,0:0:0:0:
192,192,272951,1,2,0:0:0:0:
320,192,273076,1,0,0:0:0:0:
448,192,273201,1,2,0:0:0:0:
320,192,273326,1,0,0:0:0:0:
192,192,273451,1,2,0:0:0:0:
64,192,273576,1,0,0:0:0:0:
192,192,273701,1,2,0:0:0:0:
448,192,273701,1,0,0:0:0:0:
320,192,273826,1,0,0:0:0:0:
192,192,273951,1,2,0:0:0:0:
64,192,274076,1,0,0:0:0:0:
320,192,274201,1,2,0:0:0:0:
448,192,274201,1,0,0:0:0:0:
192,192,274326,1,0,0:0:0:0:
64,192,274451,1,2,0:0:0:0:
448,192,274576,1,0,0:0:0:0:
192,192,274701,128,14,279201:0:0:0:0:
448,192,279201,1,0,0:0:0:0:
