osu file format v14

[General]
AudioFilename: audio.mp3
AudioLeadIn: 0
PreviewTime: 119547
Countdown: 0
SampleSet: Normal
StackLeniency: 0.7
Mode: 1
LetterboxInBreaks: 0
WidescreenStoryboard: 1

[Editor]
Bookmarks: 5310,16848,26079,44541,53771,64156,73387,82617,101079,110310,119541,129925,139156,157617,171464
DistanceSpacing: 0.6
BeatDivisor: 12
GridSize: 32
TimelineZoom: 2.1

[Metadata]
Title:Bamboo Sword Girl (Extend version)
TitleUnicode:バンブーソード・ガール (Extend version)
Artist:cosMo@BousouP feat. GUMI
ArtistUnicode:cosMo@暴走P feat. GUMI
Creator:Eyenine
Version:Oni
Source:beatmania IIDX 21 SPADA
Tags:japanese video game j-speedmetal metal rock j-rock jrock vocaloid megpoid gumi chemical system le BPM200以上はおやつに含まれますか? shinai shoujo 竹刀少女 竹刀✕少女 bpm200 ijou wa oyatsu ni fukumaremasu ka for ultraplayers bemaniシリーズ bemani series dancedancerevolution (2014) ddr2014 gitadora overdrive ギタドラ jubeat saucer fulfill pop'n music ラピストリア lapistoria reflec beat groovin'!! sound voltex ii -infinite infection- sdvx ポップンリズミン rhythmin beatstream nostalgia ノスタルジア op.2
BeatmapID:2603243
BeatmapSetID:1246773

[Difficulty]
HPDrainRate:5
CircleSize:5
OverallDifficulty:6
ApproachRate:7
SliderMultiplier:1.4
SliderTickRate:1

[Events]
//Background and Video events
0,0,"sinai syouzyo.jpg",0,70
//Break Periods
//Storyboard Layer 0 (Background)
//Storyboard Layer 1 (Fail)
//Storyboard Layer 2 (Pass)
//Storyboard Layer 3 (Foreground)
//Storyboard Layer 4 (Overlay)
//Storyboard Sound Samples

[TimingPoints]
-452,288.461538461538,4,1,0,65,1,0
665,-90.9090909090909,4,1,0,85,0,0
1819,-100,4,1,0,85,0,0
2973,-90.9090909090909,4,1,0,85,0,0
4091,-100,4,1,0,85,0,0
14511,-100,4,1,0,75,0,0
15665,-100,4,1,0,85,0,0
16819,-111.111111111111,4,1,0,65,0,0
23742,-105.263157894737,4,1,0,75,0,0
24896,-95.2380952380952,4,1,0,75,0,0
25617,-96.3855421686747,4,1,0,75,0,0
25689,-96.969696969697,4,1,0,75,0,0
25761,-97.5609756097561,4,1,0,75,0,0
25906,-98.7654320987654,4,1,0,75,0,0
26050,-100,4,1,0,85,0,0
34127,-95.2380952380952,4,1,0,85,0,0
34848,-97.5609756097561,4,1,0,85,0,0
34920,-98.7654320987654,4,1,0,85,0,0
34992,-100,4,1,0,85,0,0
35064,-101.26582278481,4,1,0,85,0,0
35136,-102.564102564103,4,1,0,85,0,0
35281,-105.263157894737,4,1,0,75,0,0
44511,-100,4,1,0,85,0,0
53778,-95.2380952380952,4,1,0,90,0,1
61855,-90.9090909090909,4,1,0,90,0,0
62648,-100,4,1,0,90,0,0
62937,-90.9090909090909,4,1,0,90,0,0
63694,-95.2380952380952,4,1,0,90,0,0
64163,-95.2380952380952,4,1,0,90,0,1
72168,-90.9090909090909,4,1,0,90,0,1
72925,-93.0232558139535,4,1,0,90,0,1
72997,-94.1176470588235,4,1,0,90,0,1
73069,-95.2380952380952,4,1,0,90,0,1
73177,-97.5609756097561,4,1,0,90,0,1
73394,-100,4,1,0,85,0,0
82805,-111.111111111111,4,1,0,65,0,0
89187,-105.263157894737,4,1,0,65,0,0
91242,-100,4,1,0,75,0,0
91819,-100,4,1,0,85,0,0
99896,-95.2380952380952,4,1,0,85,0,0
100617,-97.5609756097561,4,1,0,85,0,0
100689,-98.7654320987654,4,1,0,85,0,0
100761,-100,4,1,0,85,0,0
100833,-101.26582278481,4,1,0,85,0,0
100905,-102.564102564103,4,1,0,85,0,0
101050,-105.263157894737,4,1,0,75,0,0
110281,-100,4,1,0,85,0,0
119547,-100,4,1,0,90,0,1
127624,-90.9090909090909,4,1,0,90,0,0
128417,-100,4,1,0,90,0,0
128706,-90.9090909090909,4,1,0,90,0,0
129463,-95.2380952380952,4,1,0,90,0,0
129932,-95.2380952380952,4,1,0,90,0,1
137937,-90.9090909090909,4,1,0,90,0,1
138694,-93.0232558139535,4,1,0,90,0,1
138766,-94.1176470588235,4,1,0,90,0,1
138838,-95.2380952380952,4,1,0,90,0,1
138946,-97.5609756097561,4,1,0,90,0,1
139163,-100,4,1,0,90,0,0
148394,-100,4,1,0,90,0,1
156398,-90.9090909090909,4,1,0,90,0,1
157312,-95.2380952380952,4,1,0,90,0,1
157408,-96.7773153972709,4,1,0,90,0,1
157504,-98.3574309039048,4,1,0,90,0,1
157624,-100,4,1,0,90,0,0
157697,-111.111111111111,4,1,0,55,0,0
161014,-111.111111111111,4,1,0,75,0,0
162204,-100,4,1,0,85,0,0
171435,-100,4,1,0,90,0,0
179475,-90.9090909090909,4,1,0,90,0,0
180701,-95.2380952380952,4,1,0,90,0,1
188742,-90.9090909090909,4,1,0,90,0,1
189463,-93.0232558139535,4,1,0,90,0,1
189535,-94.1176470588235,4,1,0,90,0,1
189608,-95.2380952380952,4,1,0,90,0,1
189680,-96.3855421686747,4,1,0,90,0,1
189752,-97.5609756097561,4,1,0,90,0,1
189932,-90.9090909090909,4,1,0,85,0,0
191050,-100,4,1,0,85,0,0
192204,-90.9090909090909,4,1,0,85,0,0
193322,-100,4,1,0,85,0,0
194223,-100,4,1,0,75,0,0

[HitObjects]
320,96,124,5,8,0:0:0:0:
320,96,197,1,8,0:0:0:0:
320,96,269,1,8,0:0:0:0:
320,96,413,1,8,0:0:0:0:
320,96,557,1,8,0:0:0:0:
256,224,701,1,4,0:0:0:0:
256,224,990,1,4,0:0:0:0:
256,224,1278,1,4,0:0:0:0:
256,224,1567,1,4,0:0:0:0:
256,224,1711,1,12,0:0:0:0:
320,96,1999,1,8,0:0:0:0:
320,96,2072,1,8,0:0:0:0:
320,96,2144,1,8,0:0:0:0:
160,128,2288,1,0,0:0:0:0:
320,96,2432,1,8,0:0:0:0:
160,128,2576,1,0,0:0:0:0:
160,128,2648,1,0,0:0:0:0:
320,96,2721,1,8,0:0:0:0:
160,128,2865,1,0,0:0:0:0:
256,224,3009,1,12,0:0:0:0:
256,224,3297,1,12,0:0:0:0:
256,224,3586,1,12,0:0:0:0:
256,224,3730,1,12,0:0:0:0:
256,224,4019,1,12,0:0:0:0:
160,128,4307,1,0,0:0:0:0:
160,128,4379,1,0,0:0:0:0:
320,96,4451,1,8,0:0:0:0:
320,96,4596,1,8,0:0:0:0:
160,128,4740,1,0,0:0:0:0:
160,128,4812,1,0,0:0:0:0:
160,128,4884,1,0,0:0:0:0:
320,96,5028,1,8,0:0:0:0:
256,224,5317,1,4,0:0:0:0:
160,128,5605,1,0,0:0:0:0:
320,96,5749,1,8,0:0:0:0:
160,128,5894,1,0,0:0:0:0:
320,96,6038,1,8,0:0:0:0:
320,96,6110,1,8,0:0:0:0:
160,128,6182,1,0,0:0:0:0:
160,128,6326,1,0,0:0:0:0:
320,96,6471,1,8,0:0:0:0:
320,96,6615,1,8,0:0:0:0:
320,96,6687,1,8,0:0:0:0:
160,128,6759,1,0,0:0:0:0:
320,96,6903,1,8,0:0:0:0:
160,128,7047,1,0,0:0:0:0:
320,96,7192,1,8,0:0:0:0:
160,128,7336,1,0,0:0:0:0:
160,128,7624,1,0,0:0:0:0:
320,96,7769,1,8,0:0:0:0:
160,128,7913,1,0,0:0:0:0:
160,128,7985,1,0,0:0:0:0:
320,96,8057,1,8,0:0:0:0:
160,128,8201,1,0,0:0:0:0:
320,96,8346,1,8,0:0:0:0:
320,96,8418,1,8,0:0:0:0:
160,128,8490,1,0,0:0:0:0:
160,128,8634,1,0,0:0:0:0:
256,224,8778,1,12,0:0:0:0:
256,224,8995,1,12,0:0:0:0:
256,224,9211,1,12,0:0:0:0:
256,224,9355,1,4,0:0:0:0:
256,224,9499,1,4,0:0:0:0:
256,224,9644,1,12,0:0:0:0:
256,224,9932,1,4,0:0:0:0:
320,96,10076,1,8,0:0:0:0:
160,128,10221,1,0,0:0:0:0:
160,128,10293,1,0,0:0:0:0:
320,96,10365,1,8,0:0:0:0:
160,128,10509,1,0,0:0:0:0:
320,96,10653,1,8,0:0:0:0:
320,96,10725,1,8,0:0:0:0:
320,96,10797,1,8,0:0:0:0:
160,128,10942,1,0,0:0:0:0:
320,96,11086,1,8,0:0:0:0:
160,128,11230,1,0,0:0:0:0:
160,128,11302,1,0,0:0:0:0:
320,96,11374,1,8,0:0:0:0:
320,96,11447,1,8,0:0:0:0:
160,128,11519,1,0,0:0:0:0:
320,96,11663,1,8,0:0:0:0:
160,128,11807,1,0,0:0:0:0:
320,96,11951,1,8,0:0:0:0:
256,224,12240,1,4,0:0:0:0:
320,96,12528,1,8,0:0:0:0:
160,128,12672,1,0,0:0:0:0:
320,96,12817,1,8,0:0:0:0:
160,128,12961,1,0,0:0:0:0:
160,128,13033,1,0,0:0:0:0:
320,96,13105,1,8,0:0:0:0:
160,128,13249,1,0,0:0:0:0:
256,224,13394,1,12,0:0:0:0:
256,224,13610,1,12,0:0:0:0:
256,224,13826,1,12,0:0:0:0:
256,224,13971,1,4,0:0:0:0:
256,224,14115,1,12,0:0:0:0:
256,224,14259,1,12,0:0:0:0:
160,128,14547,1,0,0:0:0:0:
160,128,14836,1,0,0:0:0:0:
160,128,15124,1,0,0:0:0:0:
160,128,15413,1,0,0:0:0:0:
320,96,15701,1,8,0:0:0:0:
160,128,15894,1,0,0:0:0:0:
320,96,15990,1,8,0:0:0:0:
160,128,16182,1,0,0:0:0:0:
320,96,16278,1,8,0:0:0:0:
320,96,16374,1,8,0:0:0:0:
320,96,16471,1,8,0:0:0:0:
320,96,16567,1,8,0:0:0:0:
160,128,16855,1,0,0:0:0:0:
160,128,16999,1,0,0:0:0:0:
160,128,17432,1,0,0:0:0:0:
160,128,17576,1,0,0:0:0:0:
160,128,18009,1,0,0:0:0:0:
160,128,18153,1,0,0:0:0:0:
160,128,18586,1,0,0:0:0:0:
160,128,18730,1,0,0:0:0:0:
160,128,19163,1,0,0:0:0:0:
160,128,19307,1,0,0:0:0:0:
160,128,19740,1,0,0:0:0:0:
160,128,19884,1,0,0:0:0:0:
160,128,20317,1,0,0:0:0:0:
160,128,20461,1,0,0:0:0:0:
320,96,20894,1,8,0:0:0:0:
160,128,21038,1,0,0:0:0:0:
320,96,21110,1,8,0:0:0:0:
320,96,21182,1,8,0:0:0:0:
160,128,21326,1,0,0:0:0:0:
160,128,21398,1,0,0:0:0:0:
160,128,21471,1,0,0:0:0:0:
160,128,21615,1,0,0:0:0:0:
160,128,22047,1,0,0:0:0:0:
160,128,22192,1,0,0:0:0:0:
160,128,22624,1,0,0:0:0:0:
160,128,22769,1,0,0:0:0:0:
160,128,23201,1,0,0:0:0:0:
160,128,23346,1,0,0:0:0:0:
160,128,23778,1,0,0:0:0:0:
320,96,24067,1,8,0:0:0:0:
320,96,24211,1,8,0:0:0:0:
160,128,24355,1,0,0:0:0:0:
160,128,24499,1,0,0:0:0:0:
320,96,24644,1,8,0:0:0:0:
320,96,24788,1,8,0:0:0:0:
256,224,24932,1,12,0:0:0:0:
256,224,25148,1,12,0:0:0:0:
256,224,25365,1,12,0:0:0:0:
320,96,25509,1,8,0:0:0:0:
160,128,25653,1,0,0:0:0:0:
160,128,25725,1,0,0:0:0:0:
320,96,25797,1,8,0:0:0:0:
320,96,25942,1,8,0:0:0:0:
256,224,26086,1,4,0:0:0:0:
320,96,26374,1,8,0:0:0:0:
160,128,26663,1,0,0:0:0:0:
160,128,26807,1,0,0:0:0:0:
320,96,26951,1,8,0:0:0:0:
320,96,27240,1,8,0:0:0:0:
160,128,27384,1,0,0:0:0:0:
160,128,27456,1,0,0:0:0:0:
320,96,27528,1,8,0:0:0:0:
160,128,27672,1,0,0:0:0:0:
320,96,27817,1,8,0:0:0:0:
160,128,27961,1,0,0:0:0:0:
320,96,28105,1,8,0:0:0:0:
320,96,28249,1,8,0:0:0:0:
160,128,28394,1,0,0:0:0:0:
320,96,28682,1,8,0:0:0:0:
160,128,28826,1,0,0:0:0:0:
160,128,28898,1,0,0:0:0:0:
320,96,28971,1,8,0:0:0:0:
320,96,29115,1,8,0:0:0:0:
320,96,29187,1,8,0:0:0:0:
160,128,29259,1,0,0:0:0:0:
320,96,29403,1,8,0:0:0:0:
160,128,29547,1,0,0:0:0:0:
320,96,29836,1,8,0:0:0:0:
160,128,29980,1,0,0:0:0:0:
160,128,30052,1,0,0:0:0:0:
160,128,30124,1,0,0:0:0:0:
160,128,30269,1,0,0:0:0:0:
320,96,30413,1,8,0:0:0:0:
320,96,30557,1,8,0:0:0:0:
320,96,30629,1,8,0:0:0:0:
160,128,30701,1,0,0:0:0:0:
160,128,30846,1,0,0:0:0:0:
320,96,30990,1,8,0:0:0:0:
320,96,31062,1,8,0:0:0:0:
320,96,31134,1,8,0:0:0:0:
160,128,31278,1,0,0:0:0:0:
160,128,31422,1,0,0:0:0:0:
320,96,31567,1,8,0:0:0:0:
320,96,31639,1,8,0:0:0:0:
160,128,31711,1,0,0:0:0:0:
320,96,31855,1,8,0:0:0:0:
160,128,31999,1,0,0:0:0:0:
160,128,32072,1,0,0:0:0:0:
320,96,32144,1,8,0:0:0:0:
160,128,32288,1,0,0:0:0:0:
160,128,32360,1,0,0:0:0:0:
320,96,32432,1,8,0:0:0:0:
160,128,32576,1,0,0:0:0:0:
320,96,32721,1,8,0:0:0:0:
160,128,32865,1,0,0:0:0:0:
160,128,32937,1,0,0:0:0:0:
160,128,33009,1,0,0:0:0:0:
320,96,33297,1,8,0:0:0:0:
160,128,33586,1,0,0:0:0:0:
160,128,33730,1,0,0:0:0:0:
320,96,33874,1,8,0:0:0:0:
160,128,34019,1,0,0:0:0:0:
256,224,34163,1,12,0:0:0:0:
256,224,34379,1,12,0:0:0:0:
256,224,34596,1,12,0:0:0:0:
256,224,34740,1,12,0:0:0:0:
160,128,34884,1,0,0:0:0:0:
320,96,35028,1,8,0:0:0:0:
320,96,35100,1,8,0:0:0:0:
320,96,35172,1,8,0:0:0:0:
256,224,35317,1,4,0:0:0:0:
320,96,35605,1,8,0:0:0:0:
160,128,35894,1,0,0:0:0:0:
160,128,36038,1,0,0:0:0:0:
320,96,36182,1,8,0:0:0:0:
160,128,36471,1,0,0:0:0:0:
160,128,36615,1,0,0:0:0:0:
160,128,36687,1,0,0:0:0:0:
320,96,36759,1,8,0:0:0:0:
160,128,36903,1,0,0:0:0:0:
160,128,37047,1,0,0:0:0:0:
160,128,37120,1,0,0:0:0:0:
160,128,37192,1,0,0:0:0:0:
160,128,37264,1,0,0:0:0:0:
320,96,37336,1,8,0:0:0:0:
160,128,37624,1,0,0:0:0:0:
320,96,37913,1,8,0:0:0:0:
160,128,38201,1,0,0:0:0:0:
160,128,38346,1,0,0:0:0:0:
320,96,38490,1,8,0:0:0:0:
160,128,38778,1,0,0:0:0:0:
160,128,38922,1,0,0:0:0:0:
320,96,39067,1,8,0:0:0:0:
160,128,39211,1,0,0:0:0:0:
160,128,39355,1,0,0:0:0:0:
160,128,39427,1,0,0:0:0:0:
160,128,39499,1,0,0:0:0:0:
160,128,39572,1,0,0:0:0:0:
320,96,39644,1,8,0:0:0:0:
160,128,39932,1,0,0:0:0:0:
160,128,40148,1,0,0:0:0:0:
320,96,40221,1,8,0:0:0:0:
160,128,40365,1,0,0:0:0:0:
160,128,40437,1,0,0:0:0:0:
160,128,40509,1,0,0:0:0:0:
160,128,40653,1,0,0:0:0:0:
320,96,40797,1,8,0:0:0:0:
160,128,40942,1,0,0:0:0:0:
160,128,41086,1,0,0:0:0:0:
160,128,41302,1,0,0:0:0:0:
320,96,41374,1,8,0:0:0:0:
160,128,41519,1,0,0:0:0:0:
160,128,41591,1,0,0:0:0:0:
160,128,41663,1,0,0:0:0:0:
160,128,41807,1,0,0:0:0:0:
320,96,41951,1,8,0:0:0:0:
320,96,42096,1,8,0:0:0:0:
160,128,42240,1,0,0:0:0:0:
320,96,42528,1,8,0:0:0:0:
160,128,42817,1,0,0:0:0:0:
160,128,42961,1,0,0:0:0:0:
320,96,43105,1,8,0:0:0:0:
320,96,43394,1,8,0:0:0:0:
160,128,43538,1,0,0:0:0:0:
320,96,43610,1,8,0:0:0:0:
320,96,43682,1,8,0:0:0:0:
160,128,43826,1,0,0:0:0:0:
320,96,43971,1,8,0:0:0:0:
320,96,44043,1,8,0:0:0:0:
160,128,44115,1,0,0:0:0:0:
320,96,44259,1,8,0:0:0:0:
160,128,44547,1,0,0:0:0:0:
160,128,44620,1,0,0:0:0:0:
320,96,44692,1,8,0:0:0:0:
160,128,44836,1,0,0:0:0:0:
320,96,44980,1,8,0:0:0:0:
320,96,45269,1,8,0:0:0:0:
160,128,45413,1,0,0:0:0:0:
320,96,45557,1,8,0:0:0:0:
160,128,45701,1,0,0:0:0:0:
160,128,45773,1,0,0:0:0:0:
320,96,45846,1,8,0:0:0:0:
160,128,45990,1,0,0:0:0:0:
320,96,46134,1,8,0:0:0:0:
160,128,46278,1,0,0:0:0:0:
160,128,46350,1,0,0:0:0:0:
320,96,46422,1,8,0:0:0:0:
320,96,46567,1,8,0:0:0:0:
160,128,46711,1,0,0:0:0:0:
160,128,46855,1,0,0:0:0:0:
160,128,46927,1,0,0:0:0:0:
320,96,46999,1,8,0:0:0:0:
160,128,47288,1,0,0:0:0:0:
160,128,47360,1,0,0:0:0:0:
160,128,47432,1,0,0:0:0:0:
320,96,47576,1,8,0:0:0:0:
160,128,47721,1,0,0:0:0:0:
320,96,47865,1,8,0:0:0:0:
160,128,48009,1,0,0:0:0:0:
160,128,48297,1,0,0:0:0:0:
320,96,48442,1,8,0:0:0:0:
160,128,48514,1,0,0:0:0:0:
160,128,48586,1,0,0:0:0:0:
320,96,48730,1,8,0:0:0:0:
320,96,48874,1,8,0:0:0:0:
320,96,49019,1,8,0:0:0:0:
160,128,49163,1,0,0:0:0:0:
160,128,49596,1,0,0:0:0:0:
160,128,49668,1,0,0:0:0:0:
160,128,49740,1,0,0:0:0:0:
160,128,50172,1,0,0:0:0:0:
160,128,50317,1,0,0:0:0:0:
320,96,50461,1,8,0:0:0:0:
320,96,50605,1,8,0:0:0:0:
160,128,50749,1,0,0:0:0:0:
160,128,50822,1,0,0:0:0:0:
320,96,50894,1,8,0:0:0:0:
320,96,51182,1,8,0:0:0:0:
320,96,51326,1,8,0:0:0:0:
320,96,51398,1,8,0:0:0:0:
160,128,51471,1,0,0:0:0:0:
160,128,51615,1,0,0:0:0:0:
320,96,51759,1,8,0:0:0:0:
160,128,51903,1,0,0:0:0:0:
320,96,52047,1,8,0:0:0:0:
160,128,52192,1,0,0:0:0:0:
320,96,52336,1,8,0:0:0:0:
320,96,52480,1,8,0:0:0:0:
256,224,52624,1,4,0:0:0:0:
320,96,53201,1,8,0:0:0:0:
160,128,53346,1,0,0:0:0:0:
320,96,53418,1,8,0:0:0:0:
160,128,53562,1,0,0:0:0:0:
320,96,53634,1,8,0:0:0:0:
256,224,53778,1,4,0:0:0:0:
320,96,53922,1,8,0:0:0:0:
160,128,54067,1,0,0:0:0:0:
160,128,54139,1,0,0:0:0:0:
320,96,54211,1,8,0:0:0:0:
160,128,54355,1,0,0:0:0:0:
320,96,54499,1,8,0:0:0:0:
320,96,54572,1,8,0:0:0:0:
160,128,54644,1,0,0:0:0:0:
320,96,54788,1,8,0:0:0:0:
160,128,54932,1,0,0:0:0:0:
320,96,55076,1,8,0:0:0:0:
160,128,55221,1,0,0:0:0:0:
320,96,55365,1,8,0:0:0:0:
320,96,55437,1,8,0:0:0:0:
160,128,55509,1,0,0:0:0:0:
320,96,55653,1,8,0:0:0:0:
160,128,55797,1,0,0:0:0:0:
160,128,55870,1,0,0:0:0:0:
320,96,55942,1,8,0:0:0:0:
160,128,56086,1,0,0:0:0:0:
160,128,56374,1,0,0:0:0:0:
160,128,56447,1,0,0:0:0:0:
320,96,56519,1,8,0:0:0:0:
160,128,56663,1,0,0:0:0:0:
320,96,56807,1,8,0:0:0:0:
160,128,56951,1,0,0:0:0:0:
160,128,57023,1,0,0:0:0:0:
320,96,57096,1,8,0:0:0:0:
160,128,57240,1,0,0:0:0:0:
320,96,57384,1,8,0:0:0:0:
160,128,57528,1,0,0:0:0:0:
320,96,57672,1,8,0:0:0:0:
320,96,57745,1,8,0:0:0:0:
160,128,57817,1,0,0:0:0:0:
320,96,57961,1,8,0:0:0:0:
160,128,58105,1,0,0:0:0:0:
160,128,58394,1,0,0:0:0:0:
320,96,58538,1,8,0:0:0:0:
160,128,58682,1,0,0:0:0:0:
160,128,58754,1,0,0:0:0:0:
320,96,58826,1,8,0:0:0:0:
160,128,58971,1,0,0:0:0:0:
320,96,59115,1,8,0:0:0:0:
320,96,59187,1,8,0:0:0:0:
160,128,59259,1,0,0:0:0:0:
320,96,59403,1,8,0:0:0:0:
160,128,59547,1,0,0:0:0:0:
320,96,59692,1,8,0:0:0:0:
160,128,59836,1,0,0:0:0:0:
320,96,59980,1,8,0:0:0:0:
320,96,60052,1,8,0:0:0:0:
160,128,60124,1,0,0:0:0:0:
320,96,60269,1,8,0:0:0:0:
160,128,60413,1,0,0:0:0:0:
160,128,60485,1,0,0:0:0:0:
320,96,60557,1,8,0:0:0:0:
160,128,60701,1,0,0:0:0:0:
320,96,60990,1,8,0:0:0:0:
160,128,61134,1,0,0:0:0:0:
320,96,61278,1,8,0:0:0:0:
160,128,61422,1,0,0:0:0:0:
320,96,61567,1,8,0:0:0:0:
320,96,61711,1,8,0:0:0:0:
256,224,61855,1,4,0:0:0:0:
256,224,62144,1,4,0:0:0:0:
256,224,62432,1,4,0:0:0:0:
320,96,62721,1,8,0:0:0:0:
320,96,62793,1,8,0:0:0:0:
320,96,62865,1,8,0:0:0:0:
256,224,63009,1,4,0:0:0:0:
256,224,63225,1,12,0:0:0:0:
256,224,63442,1,12,0:0:0:0:
256,224,63586,1,4,0:0:0:0:
320,96,63874,1,8,0:0:0:0:
160,128,64163,1,0,0:0:0:0:
160,128,64235,1,0,0:0:0:0:
160,128,64307,1,0,0:0:0:0:
320,96,64451,1,8,0:0:0:0:
320,96,64596,1,8,0:0:0:0:
160,128,64740,1,0,0:0:0:0:
160,128,64812,1,0,0:0:0:0:
160,128,64884,1,0,0:0:0:0:
160,128,65028,1,0,0:0:0:0:
320,96,65172,1,8,0:0:0:0:
320,96,65245,1,8,0:0:0:0:
160,128,65317,1,0,0:0:0:0:
160,128,65461,1,0,0:0:0:0:
320,96,65605,1,8,0:0:0:0:
160,128,65749,1,0,0:0:0:0:
160,128,65822,1,0,0:0:0:0:
320,96,65894,1,8,0:0:0:0:
160,128,66038,1,0,0:0:0:0:
320,96,66182,1,8,0:0:0:0:
320,96,66254,1,8,0:0:0:0:
160,128,66326,1,0,0:0:0:0:
160,128,66398,1,0,0:0:0:0:
320,96,66471,1,8,0:0:0:0:
160,128,66615,1,0,0:0:0:0:
320,96,66687,1,8,0:0:0:0:
320,96,66759,1,8,0:0:0:0:
160,128,66903,1,0,0:0:0:0:
320,96,67047,1,8,0:0:0:0:
320,96,67120,1,8,0:0:0:0:
160,128,67192,1,0,0:0:0:0:
320,96,67336,1,8,0:0:0:0:
320,96,67480,1,8,0:0:0:0:
160,128,67624,1,0,0:0:0:0:
320,96,67769,1,8,0:0:0:0:
160,128,67841,1,0,0:0:0:0:
320,96,67913,1,8,0:0:0:0:
320,96,68057,1,8,0:0:0:0:
320,96,68129,1,8,0:0:0:0:
160,128,68201,1,0,0:0:0:0:
320,96,68346,1,8,0:0:0:0:
160,128,68490,1,0,0:0:0:0:
160,128,68778,1,0,0:0:0:0:
320,96,68922,1,8,0:0:0:0:
320,96,69067,1,8,0:0:0:0:
320,96,69211,1,8,0:0:0:0:
320,96,69355,1,8,0:0:0:0:
320,96,69427,1,8,0:0:0:0:
320,96,69499,1,8,0:0:0:0:
160,128,69644,1,0,0:0:0:0:
320,96,69788,1,8,0:0:0:0:
320,96,69860,1,8,0:0:0:0:
320,96,69932,1,8,0:0:0:0:
160,128,70076,1,0,0:0:0:0:
320,96,70221,1,8,0:0:0:0:
320,96,70365,1,8,0:0:0:0:
160,128,70437,1,0,0:0:0:0:
320,96,70509,1,8,0:0:0:0:
160,128,70653,1,0,0:0:0:0:
320,96,70797,1,8,0:0:0:0:
320,96,70870,1,8,0:0:0:0:
160,128,70942,1,0,0:0:0:0:
160,128,71014,1,0,0:0:0:0:
160,128,71086,1,0,0:0:0:0:
320,96,71230,1,8,0:0:0:0:
320,96,71302,1,8,0:0:0:0:
160,128,71374,1,0,0:0:0:0:
320,96,71519,1,8,0:0:0:0:
320,96,71591,1,8,0:0:0:0:
160,128,71663,1,0,0:0:0:0:
160,128,71735,1,0,0:0:0:0:
320,96,71807,1,8,0:0:0:0:
320,96,71879,1,8,0:0:0:0:
320,96,71951,1,8,0:0:0:0:
160,128,72096,1,0,0:0:0:0:
256,224,72240,1,4,0:0:0:0:
256,224,72456,1,4,0:0:0:0:
256,224,72672,1,4,0:0:0:0:
256,224,72817,1,4,0:0:0:0:
320,96,72961,1,8,0:0:0:0:
320,96,73033,1,8,0:0:0:0:
320,96,73105,1,8,0:0:0:0:
320,96,73249,1,8,0:0:0:0:
256,224,73394,1,4,0:0:0:0:
160,128,73682,1,0,0:0:0:0:
320,96,73826,1,8,0:0:0:0:
160,128,73971,1,0,0:0:0:0:
320,96,74115,1,8,0:0:0:0:
320,96,74187,1,8,0:0:0:0:
160,128,74259,1,0,0:0:0:0:
160,128,74403,1,0,0:0:0:0:
320,96,74547,1,8,0:0:0:0:
320,96,74692,1,8,0:0:0:0:
320,96,74764,1,8,0:0:0:0:
160,128,74836,1,0,0:0:0:0:
320,96,74980,1,8,0:0:0:0:
160,128,75124,1,0,0:0:0:0:
320,96,75269,1,8,0:0:0:0:
160,128,75413,1,0,0:0:0:0:
160,128,75701,1,0,0:0:0:0:
320,96,75846,1,8,0:0:0:0:
160,128,75990,1,0,0:0:0:0:
160,128,76062,1,0,0:0:0:0:
320,96,76134,1,8,0:0:0:0:
160,128,76278,1,0,0:0:0:0:
320,96,76422,1,8,0:0:0:0:
320,96,76495,1,8,0:0:0:0:
160,128,76567,1,0,0:0:0:0:
160,128,76711,1,0,0:0:0:0:
256,224,76855,1,12,0:0:0:0:
256,224,77072,1,12,0:0:0:0:
256,224,77288,1,12,0:0:0:0:
256,224,77432,1,4,0:0:0:0:
256,224,77576,1,4,0:0:0:0:
256,224,77721,1,12,0:0:0:0:
256,224,78009,1,4,0:0:0:0:
320,96,78153,1,8,0:0:0:0:
160,128,78297,1,0,0:0:0:0:
160,128,78370,1,0,0:0:0:0:
320,96,78442,1,8,0:0:0:0:
160,128,78586,1,0,0:0:0:0:
320,96,78730,1,8,0:0:0:0:
320,96,78802,1,8,0:0:0:0:
320,96,78874,1,8,0:0:0:0:
160,128,79019,1,0,0:0:0:0:
320,96,79163,1,8,0:0:0:0:
160,128,79307,1,0,0:0:0:0:
160,128,79379,1,0,0:0:0:0:
320,96,79451,1,8,0:0:0:0:
320,96,79523,1,8,0:0:0:0:
160,128,79596,1,0,0:0:0:0:
320,96,79740,1,8,0:0:0:0:
160,128,79884,1,0,0:0:0:0:
320,96,80028,1,8,0:0:0:0:
320,96,80100,1,8,0:0:0:0:
320,96,80172,1,8,0:0:0:0:
256,224,80317,1,4,0:0:0:0:
320,96,80605,1,8,0:0:0:0:
160,128,80749,1,0,0:0:0:0:
320,96,80894,1,8,0:0:0:0:
160,128,81038,1,0,0:0:0:0:
160,128,81110,1,0,0:0:0:0:
320,96,81182,1,8,0:0:0:0:
160,128,81326,1,0,0:0:0:0:
320,96,81471,1,8,0:0:0:0:
160,128,81615,1,0,0:0:0:0:
320,96,81687,1,8,0:0:0:0:
160,128,81831,1,0,0:0:0:0:
320,96,81903,1,8,0:0:0:0:
160,128,82047,1,0,0:0:0:0:
320,96,82192,1,8,0:0:0:0:
320,96,82336,1,8,0:0:0:0:
320,96,82480,1,8,0:0:0:0:
160,128,82624,1,0,0:0:0:0:
160,128,82913,1,0,0:0:0:0:
320,96,83201,1,8,0:0:0:0:
320,96,83490,1,8,0:0:0:0:
160,128,83778,1,0,0:0:0:0:
160,128,83922,1,0,0:0:0:0:
320,96,84067,1,8,0:0:0:0:
160,128,84211,1,0,0:0:0:0:
320,96,84355,1,8,0:0:0:0:
320,96,84644,1,8,0:0:0:0:
160,128,84788,1,0,0:0:0:0:
160,128,84932,1,0,0:0:0:0:
160,128,85221,1,0,0:0:0:0:
320,96,85365,1,8,0:0:0:0:
160,128,85509,1,0,0:0:0:0:
320,96,85797,1,8,0:0:0:0:
160,128,86086,1,0,0:0:0:0:
160,128,86374,1,0,0:0:0:0:
320,96,86519,1,8,0:0:0:0:
160,128,86663,1,0,0:0:0:0:
160,128,86807,1,0,0:0:0:0:
160,128,86879,1,0,0:0:0:0:
320,96,86951,1,8,0:0:0:0:
160,128,87096,1,0,0:0:0:0:
160,128,87168,1,0,0:0:0:0:
160,128,87240,1,0,0:0:0:0:
160,128,87528,1,0,0:0:0:0:
320,96,87672,1,8,0:0:0:0:
160,128,87817,1,0,0:0:0:0:
320,96,88105,1,8,0:0:0:0:
160,128,88249,1,0,0:0:0:0:
320,96,88394,1,8,0:0:0:0:
160,128,88682,1,0,0:0:0:0:
320,96,88826,1,8,0:0:0:0:
320,96,88971,1,8,0:0:0:0:
320,96,89259,1,8,0:0:0:0:
320,96,89403,1,8,0:0:0:0:
160,128,89547,1,0,0:0:0:0:
320,96,89692,1,8,0:0:0:0:
160,128,89836,1,0,0:0:0:0:
320,96,89980,1,8,0:0:0:0:
160,128,90124,1,0,0:0:0:0:
320,96,90269,1,8,0:0:0:0:
320,96,90413,1,8,0:0:0:0:
320,96,90557,1,8,0:0:0:0:
160,128,90701,1,0,0:0:0:0:
320,96,91278,1,8,0:0:0:0:
160,128,91422,1,0,0:0:0:0:
160,128,91495,1,0,0:0:0:0:
320,96,91567,1,8,0:0:0:0:
320,96,91711,1,8,0:0:0:0:
256,224,91855,1,4,0:0:0:0:
320,96,92144,1,8,0:0:0:0:
160,128,92432,1,0,0:0:0:0:
160,128,92576,1,0,0:0:0:0:
320,96,92721,1,8,0:0:0:0:
320,96,93009,1,8,0:0:0:0:
160,128,93153,1,0,0:0:0:0:
160,128,93225,1,0,0:0:0:0:
320,96,93297,1,8,0:0:0:0:
160,128,93442,1,0,0:0:0:0:
320,96,93586,1,8,0:0:0:0:
160,128,93730,1,0,0:0:0:0:
320,96,93874,1,8,0:0:0:0:
320,96,94019,1,8,0:0:0:0:
160,128,94163,1,0,0:0:0:0:
320,96,94451,1,8,0:0:0:0:
160,128,94596,1,0,0:0:0:0:
160,128,94668,1,0,0:0:0:0:
320,96,94740,1,8,0:0:0:0:
320,96,94884,1,8,0:0:0:0:
320,96,94956,1,8,0:0:0:0:
160,128,95028,1,0,0:0:0:0:
320,96,95172,1,8,0:0:0:0:
160,128,95317,1,0,0:0:0:0:
320,96,95605,1,8,0:0:0:0:
160,128,95749,1,0,0:0:0:0:
320,96,95822,1,8,0:0:0:0:
160,128,95894,1,0,0:0:0:0:
160,128,96038,1,0,0:0:0:0:
320,96,96182,1,8,0:0:0:0:
320,96,96326,1,8,0:0:0:0:
320,96,96398,1,8,0:0:0:0:
160,128,96471,1,0,0:0:0:0:
160,128,96615,1,0,0:0:0:0:
320,96,96759,1,8,0:0:0:0:
320,96,96831,1,8,0:0:0:0:
320,96,96903,1,8,0:0:0:0:
160,128,97047,1,0,0:0:0:0:
160,128,97192,1,0,0:0:0:0:
320,96,97336,1,8,0:0:0:0:
320,96,97408,1,8,0:0:0:0:
160,128,97480,1,0,0:0:0:0:
320,96,97624,1,8,0:0:0:0:
160,128,97769,1,0,0:0:0:0:
160,128,97841,1,0,0:0:0:0:
320,96,97913,1,8,0:0:0:0:
160,128,98057,1,0,0:0:0:0:
160,128,98129,1,0,0:0:0:0:
320,96,98201,1,8,0:0:0:0:
160,128,98346,1,0,0:0:0:0:
320,96,98490,1,8,0:0:0:0:
160,128,98634,1,0,0:0:0:0:
160,128,98706,1,0,0:0:0:0:
160,128,98778,1,0,0:0:0:0:
320,96,99067,1,8,0:0:0:0:
160,128,99355,1,0,0:0:0:0:
160,128,99499,1,0,0:0:0:0:
320,96,99644,1,8,0:0:0:0:
160,128,99788,1,0,0:0:0:0:
256,224,99932,1,12,0:0:0:0:
256,224,100148,1,12,0:0:0:0:
256,224,100365,1,12,0:0:0:0:
256,224,100509,1,12,0:0:0:0:
160,128,100653,1,0,0:0:0:0:
320,96,100797,1,8,0:0:0:0:
320,96,100870,1,8,0:0:0:0:
320,96,100942,1,8,0:0:0:0:
256,224,101086,1,4,0:0:0:0:
320,96,101374,1,8,0:0:0:0:
160,128,101663,1,0,0:0:0:0:
160,128,101807,1,0,0:0:0:0:
320,96,101951,1,8,0:0:0:0:
160,128,102240,1,0,0:0:0:0:
160,128,102384,1,0,0:0:0:0:
160,128,102456,1,0,0:0:0:0:
320,96,102528,1,8,0:0:0:0:
160,128,102672,1,0,0:0:0:0:
160,128,102817,1,0,0:0:0:0:
160,128,102889,1,0,0:0:0:0:
160,128,102961,1,0,0:0:0:0:
160,128,103033,1,0,0:0:0:0:
320,96,103105,1,8,0:0:0:0:
160,128,103394,1,0,0:0:0:0:
320,96,103682,1,8,0:0:0:0:
160,128,103971,1,0,0:0:0:0:
160,128,104115,1,0,0:0:0:0:
320,96,104259,1,8,0:0:0:0:
320,96,104547,1,8,0:0:0:0:
160,128,104692,1,0,0:0:0:0:
320,96,104836,1,8,0:0:0:0:
160,128,104980,1,0,0:0:0:0:
160,128,105124,1,0,0:0:0:0:
160,128,105197,1,0,0:0:0:0:
160,128,105269,1,0,0:0:0:0:
160,128,105341,1,0,0:0:0:0:
320,96,105413,1,8,0:0:0:0:
160,128,105701,1,0,0:0:0:0:
160,128,105918,1,0,0:0:0:0:
320,96,105990,1,8,0:0:0:0:
160,128,106134,1,0,0:0:0:0:
160,128,106206,1,0,0:0:0:0:
320,96,106278,1,8,0:0:0:0:
160,128,106422,1,0,0:0:0:0:
320,96,106567,1,8,0:0:0:0:
160,128,106711,1,0,0:0:0:0:
320,96,106855,1,8,0:0:0:0:
160,128,107072,1,0,0:0:0:0:
320,96,107144,1,8,0:0:0:0:
160,128,107288,1,0,0:0:0:0:
160,128,107360,1,0,0:0:0:0:
320,96,107432,1,8,0:0:0:0:
160,128,107576,1,0,0:0:0:0:
320,96,107721,1,8,0:0:0:0:
320,96,107865,1,8,0:0:0:0:
160,128,108009,1,0,0:0:0:0:
320,96,108297,1,8,0:0:0:0:
160,128,108586,1,0,0:0:0:0:
160,128,108730,1,0,0:0:0:0:
320,96,108874,1,8,0:0:0:0:
160,128,109019,1,0,0:0:0:0:
320,96,109163,1,8,0:0:0:0:
160,128,109307,1,0,0:0:0:0:
320,96,109379,1,8,0:0:0:0:
320,96,109451,1,8,0:0:0:0:
160,128,109596,1,0,0:0:0:0:
320,96,109740,1,8,0:0:0:0:
320,96,109812,1,8,0:0:0:0:
160,128,109884,1,0,0:0:0:0:
320,96,110028,1,8,0:0:0:0:
160,128,110317,1,0,0:0:0:0:
320,96,110389,1,8,0:0:0:0:
320,96,110461,1,8,0:0:0:0:
160,128,110605,1,0,0:0:0:0:
320,96,110749,1,8,0:0:0:0:
320,96,111038,1,8,0:0:0:0:
160,128,111182,1,0,0:0:0:0:
320,96,111326,1,8,0:0:0:0:
160,128,111471,1,0,0:0:0:0:
160,128,111543,1,0,0:0:0:0:
320,96,111615,1,8,0:0:0:0:
160,128,111759,1,0,0:0:0:0:
320,96,111903,1,8,0:0:0:0:
160,128,112047,1,0,0:0:0:0:
160,128,112120,1,0,0:0:0:0:
320,96,112192,1,8,0:0:0:0:
320,96,112336,1,8,0:0:0:0:
160,128,112480,1,0,0:0:0:0:
160,128,112624,1,0,0:0:0:0:
160,128,112697,1,0,0:0:0:0:
320,96,112769,1,8,0:0:0:0:
320,96,113057,1,8,0:0:0:0:
320,96,113129,1,8,0:0:0:0:
160,128,113201,1,0,0:0:0:0:
320,96,113346,1,8,0:0:0:0:
160,128,113490,1,0,0:0:0:0:
320,96,113634,1,8,0:0:0:0:
160,128,113778,1,0,0:0:0:0:
160,128,114067,1,0,0:0:0:0:
320,96,114211,1,8,0:0:0:0:
320,96,114283,1,8,0:0:0:0:
160,128,114355,1,0,0:0:0:0:
320,96,114499,1,8,0:0:0:0:
320,96,114644,1,8,0:0:0:0:
320,96,114788,1,8,0:0:0:0:
256,224,114932,1,4,0:0:0:0:
160,128,115365,1,0,0:0:0:0:
160,128,115437,1,0,0:0:0:0:
320,96,115509,1,8,0:0:0:0:
160,128,115942,1,0,0:0:0:0:
160,128,116086,1,0,0:0:0:0:
320,96,116230,1,8,0:0:0:0:
160,128,116374,1,0,0:0:0:0:
160,128,116519,1,0,0:0:0:0:
160,128,116591,1,0,0:0:0:0:
320,96,116663,1,8,0:0:0:0:
320,96,116951,1,8,0:0:0:0:
320,96,117096,1,8,0:0:0:0:
320,96,117168,1,8,0:0:0:0:
160,128,117240,1,0,0:0:0:0:
160,128,117384,1,0,0:0:0:0:
320,96,117528,1,8,0:0:0:0:
160,128,117672,1,0,0:0:0:0:
320,96,117817,1,8,0:0:0:0:
160,128,117961,1,0,0:0:0:0:
320,96,118105,1,8,0:0:0:0:
320,96,118249,1,8,0:0:0:0:
256,224,118394,1,4,0:0:0:0:
320,96,118971,1,8,0:0:0:0:
160,128,119115,1,0,0:0:0:0:
320,96,119187,1,8,0:0:0:0:
160,128,119331,1,0,0:0:0:0:
320,96,119403,1,8,0:0:0:0:
256,224,119547,1,4,0:0:0:0:
320,96,119692,1,8,0:0:0:0:
160,128,119836,1,0,0:0:0:0:
160,128,119908,1,0,0:0:0:0:
320,96,119980,1,8,0:0:0:0:
160,128,120124,1,0,0:0:0:0:
320,96,120269,1,8,0:0:0:0:
320,96,120341,1,8,0:0:0:0:
160,128,120413,1,0,0:0:0:0:
320,96,120557,1,8,0:0:0:0:
160,128,120701,1,0,0:0:0:0:
320,96,120846,1,8,0:0:0:0:
160,128,120990,1,0,0:0:0:0:
320,96,121134,1,8,0:0:0:0:
320,96,121206,1,8,0:0:0:0:
160,128,121278,1,0,0:0:0:0:
320,96,121422,1,8,0:0:0:0:
160,128,121567,1,0,0:0:0:0:
160,128,121639,1,0,0:0:0:0:
320,96,121711,1,8,0:0:0:0:
160,128,121855,1,0,0:0:0:0:
160,128,122144,1,0,0:0:0:0:
160,128,122216,1,0,0:0:0:0:
320,96,122288,1,8,0:0:0:0:
160,128,122432,1,0,0:0:0:0:
320,96,122576,1,8,0:0:0:0:
160,128,122721,1,0,0:0:0:0:
160,128,122793,1,0,0:0:0:0:
320,96,122865,1,8,0:0:0:0:
160,128,123009,1,0,0:0:0:0:
320,96,123153,1,8,0:0:0:0:
160,128,123297,1,0,0:0:0:0:
320,96,123442,1,8,0:0:0:0:
320,96,123514,1,8,0:0:0:0:
160,128,123586,1,0,0:0:0:0:
320,96,123730,1,8,0:0:0:0:
160,128,123874,1,0,0:0:0:0:
160,128,124163,1,0,0:0:0:0:
320,96,124307,1,8,0:0:0:0:
160,128,124451,1,0,0:0:0:0:
160,128,124523,1,0,0:0:0:0:
320,96,124596,1,8,0:0:0:0:
160,128,124740,1,0,0:0:0:0:
320,96,124884,1,8,0:0:0:0:
320,96,124956,1,8,0:0:0:0:
160,128,125028,1,0,0:0:0:0:
320,96,125172,1,8,0:0:0:0:
160,128,125317,1,0,0:0:0:0:
320,96,125461,1,8,0:0:0:0:
160,128,125605,1,0,0:0:0:0:
320,96,125749,1,8,0:0:0:0:
320,96,125822,1,8,0:0:0:0:
160,128,125894,1,0,0:0:0:0:
320,96,126038,1,8,0:0:0:0:
160,128,126182,1,0,0:0:0:0:
160,128,126254,1,0,0:0:0:0:
320,96,126326,1,8,0:0:0:0:
160,128,126471,1,0,0:0:0:0:
320,96,126759,1,8,0:0:0:0:
160,128,126903,1,0,0:0:0:0:
320,96,127047,1,8,0:0:0:0:
160,128,127192,1,0,0:0:0:0:
320,96,127336,1,8,0:0:0:0:
320,96,127480,1,8,0:0:0:0:
256,224,127624,1,4,0:0:0:0:
256,224,127913,1,4,0:0:0:0:
256,224,128201,1,4,0:0:0:0:
320,96,128490,1,8,0:0:0:0:
320,96,128562,1,8,0:0:0:0:
320,96,128634,1,8,0:0:0:0:
256,224,128778,1,4,0:0:0:0:
256,224,128995,1,12,0:0:0:0:
256,224,129211,1,12,0:0:0:0:
256,224,129355,1,4,0:0:0:0:
320,96,129644,1,8,0:0:0:0:
160,128,129932,1,0,0:0:0:0:
160,128,130004,1,0,0:0:0:0:
320,96,130076,1,8,0:0:0:0:
160,128,130221,1,0,0:0:0:0:
320,96,130365,1,8,0:0:0:0:
160,128,130509,1,0,0:0:0:0:
160,128,130581,1,0,0:0:0:0:
320,96,130653,1,8,0:0:0:0:
160,128,130797,1,0,0:0:0:0:
320,96,130942,1,8,0:0:0:0:
320,96,131014,1,8,0:0:0:0:
320,96,131086,1,8,0:0:0:0:
160,128,131230,1,0,0:0:0:0:
320,96,131374,1,8,0:0:0:0:
160,128,131519,1,0,0:0:0:0:
160,128,131591,1,0,0:0:0:0:
320,96,131663,1,8,0:0:0:0:
160,128,131807,1,0,0:0:0:0:
320,96,131951,1,8,0:0:0:0:
320,96,132023,1,8,0:0:0:0:
160,128,132096,1,0,0:0:0:0:
160,128,132168,1,0,0:0:0:0:
320,96,132240,1,8,0:0:0:0:
160,128,132384,1,0,0:0:0:0:
160,128,132456,1,0,0:0:0:0:
320,96,132528,1,8,0:0:0:0:
160,128,132672,1,0,0:0:0:0:
320,96,132817,1,8,0:0:0:0:
160,128,132961,1,0,0:0:0:0:
160,128,133033,1,0,0:0:0:0:
320,96,133105,1,8,0:0:0:0:
160,128,133249,1,0,0:0:0:0:
320,96,133394,1,8,0:0:0:0:
160,128,133538,1,0,0:0:0:0:
320,96,133610,1,8,0:0:0:0:
160,128,133682,1,0,0:0:0:0:
320,96,133826,1,8,0:0:0:0:
320,96,133898,1,8,0:0:0:0:
160,128,133971,1,0,0:0:0:0:
160,128,134115,1,0,0:0:0:0:
320,96,134259,1,8,0:0:0:0:
160,128,134547,1,0,0:0:0:0:
320,96,134692,1,8,0:0:0:0:
320,96,134836,1,8,0:0:0:0:
320,96,134980,1,8,0:0:0:0:
320,96,135124,1,8,0:0:0:0:
320,96,135197,1,8,0:0:0:0:
320,96,135269,1,8,0:0:0:0:
160,128,135413,1,0,0:0:0:0:
320,96,135557,1,8,0:0:0:0:
320,96,135629,1,8,0:0:0:0:
320,96,135701,1,8,0:0:0:0:
160,128,135846,1,0,0:0:0:0:
320,96,135990,1,8,0:0:0:0:
320,96,136062,1,8,0:0:0:0:
160,128,136134,1,0,0:0:0:0:
160,128,136206,1,0,0:0:0:0:
320,96,136278,1,8,0:0:0:0:
160,128,136422,1,0,0:0:0:0:
320,96,136567,1,8,0:0:0:0:
320,96,136639,1,8,0:0:0:0:
160,128,136711,1,0,0:0:0:0:
320,96,136855,1,8,0:0:0:0:
160,128,136999,1,0,0:0:0:0:
160,128,137072,1,0,0:0:0:0:
320,96,137144,1,8,0:0:0:0:
320,96,137288,1,8,0:0:0:0:
160,128,137432,1,0,0:0:0:0:
160,128,137504,1,0,0:0:0:0:
320,96,137576,1,8,0:0:0:0:
320,96,137648,1,8,0:0:0:0:
320,96,137721,1,8,0:0:0:0:
320,96,137793,1,8,0:0:0:0:
160,128,137865,1,0,0:0:0:0:
256,224,138009,1,4,0:0:0:0:
256,224,138225,1,4,0:0:0:0:
256,224,138442,1,4,0:0:0:0:
256,224,138586,1,4,0:0:0:0:
320,96,138730,1,8,0:0:0:0:
320,96,138802,1,8,0:0:0:0:
320,96,138874,1,8,0:0:0:0:
320,96,139019,1,8,0:0:0:0:
256,224,139163,1,4,0:0:0:0:
160,128,139451,1,0,0:0:0:0:
320,96,139596,1,8,0:0:0:0:
160,128,139740,1,0,0:0:0:0:
320,96,139884,1,8,0:0:0:0:
320,96,139956,1,8,0:0:0:0:
160,128,140028,1,0,0:0:0:0:
320,96,140172,1,8,0:0:0:0:
160,128,140317,1,0,0:0:0:0:
160,128,140389,1,0,0:0:0:0:
320,96,140461,1,8,0:0:0:0:
320,96,140533,1,8,0:0:0:0:
160,128,140605,1,0,0:0:0:0:
320,96,140749,1,8,0:0:0:0:
160,128,140894,1,0,0:0:0:0:
160,128,140966,1,0,0:0:0:0:
320,96,141038,1,8,0:0:0:0:
160,128,141182,1,0,0:0:0:0:
320,96,141326,1,8,0:0:0:0:
160,128,141471,1,0,0:0:0:0:
160,128,141759,1,0,0:0:0:0:
320,96,141903,1,8,0:0:0:0:
320,96,141975,1,8,0:0:0:0:
160,128,142047,1,0,0:0:0:0:
320,96,142192,1,8,0:0:0:0:
160,128,142336,1,0,0:0:0:0:
320,96,142480,1,8,0:0:0:0:
160,128,142624,1,0,0:0:0:0:
320,96,142769,1,8,0:0:0:0:
320,96,142841,1,8,0:0:0:0:
160,128,142913,1,0,0:0:0:0:
320,96,143057,1,8,0:0:0:0:
320,96,143129,1,8,0:0:0:0:
160,128,143201,1,0,0:0:0:0:
320,96,143346,1,8,0:0:0:0:
160,128,143490,1,0,0:0:0:0:
320,96,143778,1,8,0:0:0:0:
160,128,143850,1,0,0:0:0:0:
320,96,143922,1,8,0:0:0:0:
160,128,144067,1,0,0:0:0:0:
320,96,144211,1,8,0:0:0:0:
160,128,144355,1,0,0:0:0:0:
320,96,144499,1,8,0:0:0:0:
320,96,144572,1,8,0:0:0:0:
160,128,144644,1,0,0:0:0:0:
160,128,144716,1,0,0:0:0:0:
320,96,144788,1,8,0:0:0:0:
160,128,144932,1,0,0:0:0:0:
160,128,145004,1,0,0:0:0:0:
320,96,145076,1,8,0:0:0:0:
160,128,145221,1,0,0:0:0:0:
160,128,145365,1,0,0:0:0:0:
320,96,145509,1,8,0:0:0:0:
160,128,145653,1,0,0:0:0:0:
320,96,145797,1,8,0:0:0:0:
320,96,145870,1,8,0:0:0:0:
320,96,145942,1,8,0:0:0:0:
160,128,146086,1,0,0:0:0:0:
320,96,146230,1,8,0:0:0:0:
320,96,146302,1,8,0:0:0:0:
160,128,146374,1,0,0:0:0:0:
160,128,146519,1,0,0:0:0:0:
320,96,146663,1,8,0:0:0:0:
320,96,146735,1,8,0:0:0:0:
160,128,146807,1,0,0:0:0:0:
160,128,146951,1,0,0:0:0:0:
320,96,147096,1,8,0:0:0:0:
160,128,147240,1,0,0:0:0:0:
320,96,147528,1,8,0:0:0:0:
160,128,147672,1,0,0:0:0:0:
320,96,147817,1,8,0:0:0:0:
160,128,147961,1,0,0:0:0:0:
320,96,148105,1,8,0:0:0:0:
160,128,148394,1,0,0:0:0:0:
160,128,148466,1,0,0:0:0:0:
160,128,148538,1,0,0:0:0:0:
320,96,148682,1,8,0:0:0:0:
320,96,148826,1,8,0:0:0:0:
160,128,148971,1,0,0:0:0:0:
160,128,149043,1,0,0:0:0:0:
320,96,149115,1,8,0:0:0:0:
320,96,149187,1,8,0:0:0:0:
160,128,149259,1,0,0:0:0:0:
320,96,149403,1,8,0:0:0:0:
160,128,149547,1,0,0:0:0:0:
320,96,149692,1,8,0:0:0:0:
320,96,149836,1,8,0:0:0:0:
160,128,149980,1,0,0:0:0:0:
320,96,150124,1,8,0:0:0:0:
320,96,150197,1,8,0:0:0:0:
160,128,150269,1,0,0:0:0:0:
320,96,150341,1,8,0:0:0:0:
160,128,150413,1,0,0:0:0:0:
320,96,150557,1,8,0:0:0:0:
160,128,150701,1,0,0:0:0:0:
160,128,150990,1,0,0:0:0:0:
320,96,151134,1,8,0:0:0:0:
160,128,151278,1,0,0:0:0:0:
160,128,151350,1,0,0:0:0:0:
320,96,151422,1,8,0:0:0:0:
320,96,151495,1,8,0:0:0:0:
160,128,151567,1,0,0:0:0:0:
320,96,151711,1,8,0:0:0:0:
160,128,151855,1,0,0:0:0:0:
320,96,151999,1,8,0:0:0:0:
320,96,152072,1,8,0:0:0:0:
160,128,152144,1,0,0:0:0:0:
320,96,152288,1,8,0:0:0:0:
320,96,152360,1,8,0:0:0:0:
160,128,152432,1,0,0:0:0:0:
160,128,152504,1,0,0:0:0:0:
160,128,152576,1,0,0:0:0:0:
320,96,152721,1,8,0:0:0:0:
320,96,153009,1,8,0:0:0:0:
320,96,153081,1,8,0:0:0:0:
160,128,153153,1,0,0:0:0:0:
320,96,153225,1,8,0:0:0:0:
160,128,153297,1,0,0:0:0:0:
320,96,153442,1,8,0:0:0:0:
160,128,153586,1,0,0:0:0:0:
320,96,153730,1,8,0:0:0:0:
160,128,153874,1,0,0:0:0:0:
160,128,153947,1,0,0:0:0:0:
320,96,154019,1,8,0:0:0:0:
160,128,154163,1,0,0:0:0:0:
160,128,154235,1,0,0:0:0:0:
320,96,154307,1,8,0:0:0:0:
320,96,154379,1,8,0:0:0:0:
160,128,154451,1,0,0:0:0:0:
320,96,154596,1,8,0:0:0:0:
160,128,154740,1,0,0:0:0:0:
320,96,154884,1,8,0:0:0:0:
160,128,155028,1,0,0:0:0:0:
320,96,155100,1,8,0:0:0:0:
320,96,155172,1,8,0:0:0:0:
160,128,155317,1,0,0:0:0:0:
320,96,155461,1,8,0:0:0:0:
320,96,155533,1,8,0:0:0:0:
160,128,155605,1,0,0:0:0:0:
160,128,155677,1,0,0:0:0:0:
160,128,155749,1,0,0:0:0:0:
320,96,155894,1,8,0:0:0:0:
320,96,156038,1,8,0:0:0:0:
320,96,156110,1,8,0:0:0:0:
160,128,156182,1,0,0:0:0:0:
160,128,156254,1,0,0:0:0:0:
320,96,156326,1,8,0:0:0:0:
256,224,156471,1,4,0:0:0:0:
256,224,156687,1,4,0:0:0:0:
256,224,156903,1,4,0:0:0:0:
256,224,157047,1,4,0:0:0:0:
256,224,157336,1,8,0:0:0:0:
320,96,157432,1,8,0:0:0:0:
320,96,157528,1,8,0:0:0:0:
256,224,157624,1,4,0:0:0:0:
320,96,158201,1,8,0:0:0:0:
320,96,158490,1,8,0:0:0:0:
160,128,158778,1,0,0:0:0:0:
320,96,159355,1,8,0:0:0:0:
160,128,159644,1,0,0:0:0:0:
160,128,159932,1,0,0:0:0:0:
320,96,160509,1,8,0:0:0:0:
160,128,160797,1,0,0:0:0:0:
320,96,161086,1,8,0:0:0:0:
160,128,161230,1,0,0:0:0:0:
320,96,161374,1,8,0:0:0:0:
160,128,161519,1,0,0:0:0:0:
320,96,161663,1,8,0:0:0:0:
160,128,161807,1,0,0:0:0:0:
320,96,161951,1,8,0:0:0:0:
256,224,162240,1,4,0:0:0:0:
320,96,162456,1,8,0:0:0:0:
160,128,162528,1,0,0:0:0:0:
320,96,162672,1,8,0:0:0:0:
160,128,162817,1,0,0:0:0:0:
320,96,163033,1,8,0:0:0:0:
160,128,163105,1,0,0:0:0:0:
320,96,163249,1,8,0:0:0:0:
320,96,163394,1,8,0:0:0:0:
160,128,163538,1,0,0:0:0:0:
320,96,163610,1,8,0:0:0:0:
160,128,163682,1,0,0:0:0:0:
320,96,163826,1,8,0:0:0:0:
160,128,163971,1,0,0:0:0:0:
320,96,164259,1,8,0:0:0:0:
320,96,164403,1,8,0:0:0:0:
256,224,164547,1,4,0:0:0:0:
320,96,164764,1,8,0:0:0:0:
160,128,164836,1,0,0:0:0:0:
320,96,164980,1,8,0:0:0:0:
160,128,165124,1,0,0:0:0:0:
320,96,165341,1,8,0:0:0:0:
160,128,165413,1,0,0:0:0:0:
320,96,165557,1,8,0:0:0:0:
160,128,165701,1,0,0:0:0:0:
160,128,165846,1,0,0:0:0:0:
320,96,165918,1,8,0:0:0:0:
160,128,165990,1,0,0:0:0:0:
320,96,166134,1,8,0:0:0:0:
160,128,166278,1,0,0:0:0:0:
320,96,166567,1,8,0:0:0:0:
320,96,166711,1,8,0:0:0:0:
256,224,166855,1,4,0:0:0:0:
160,128,167072,1,0,0:0:0:0:
320,96,167144,1,8,0:0:0:0:
160,128,167288,1,0,0:0:0:0:
320,96,167432,1,8,0:0:0:0:
160,128,167648,1,0,0:0:0:0:
320,96,167721,1,8,0:0:0:0:
160,128,167865,1,0,0:0:0:0:
160,128,168009,1,0,0:0:0:0:
160,128,168081,1,0,0:0:0:0:
160,128,168153,1,0,0:0:0:0:
320,96,168297,1,8,0:0:0:0:
160,128,168442,1,0,0:0:0:0:
320,96,168586,1,8,0:0:0:0:
320,96,168658,1,8,0:0:0:0:
160,128,168730,1,0,0:0:0:0:
320,96,168874,1,8,0:0:0:0:
160,128,169163,1,0,0:0:0:0:
320,96,169307,1,8,0:0:0:0:
160,128,169451,1,0,0:0:0:0:
320,96,169596,1,8,0:0:0:0:
160,128,169740,1,0,0:0:0:0:
320,96,169884,1,8,0:0:0:0:
160,128,170028,1,0,0:0:0:0:
320,96,170172,1,8,0:0:0:0:
320,96,170245,1,8,0:0:0:0:
160,128,170317,1,0,0:0:0:0:
160,128,170461,1,0,0:0:0:0:
320,96,170605,1,8,0:0:0:0:
320,96,170749,1,8,0:0:0:0:
160,128,170894,1,0,0:0:0:0:
160,128,171110,1,0,0:0:0:0:
160,128,171326,1,0,0:0:0:0:
256,224,171471,1,4,0:0:0:0:
320,96,171615,1,8,0:0:0:0:
160,128,171759,1,0,0:0:0:0:
320,96,171903,1,8,0:0:0:0:
160,128,172047,1,0,0:0:0:0:
320,96,172192,1,8,0:0:0:0:
320,96,172264,1,8,0:0:0:0:
160,128,172336,1,0,0:0:0:0:
320,96,172480,1,8,0:0:0:0:
160,128,172624,1,0,0:0:0:0:
320,96,172769,1,8,0:0:0:0:
160,128,172913,1,0,0:0:0:0:
160,128,172985,1,0,0:0:0:0:
320,96,173057,1,8,0:0:0:0:
160,128,173201,1,0,0:0:0:0:
320,96,173346,1,8,0:0:0:0:
160,128,173490,1,0,0:0:0:0:
160,128,173562,1,0,0:0:0:0:
320,96,173634,1,8,0:0:0:0:
160,128,173778,1,0,0:0:0:0:
160,128,174067,1,0,0:0:0:0:
160,128,174139,1,0,0:0:0:0:
320,96,174211,1,8,0:0:0:0:
160,128,174355,1,0,0:0:0:0:
320,96,174499,1,8,0:0:0:0:
160,128,174644,1,0,0:0:0:0:
160,128,174716,1,0,0:0:0:0:
320,96,174788,1,8,0:0:0:0:
160,128,174932,1,0,0:0:0:0:
320,96,175076,1,8,0:0:0:0:
320,96,175148,1,8,0:0:0:0:
160,128,175221,1,0,0:0:0:0:
320,96,175365,1,8,0:0:0:0:
320,96,175437,1,8,0:0:0:0:
160,128,175509,1,0,0:0:0:0:
320,96,175653,1,8,0:0:0:0:
160,128,175797,1,0,0:0:0:0:
160,128,176086,1,0,0:0:0:0:
320,96,176230,1,8,0:0:0:0:
160,128,176374,1,0,0:0:0:0:
160,128,176447,1,0,0:0:0:0:
320,96,176519,1,8,0:0:0:0:
160,128,176663,1,0,0:0:0:0:
320,96,176807,1,8,0:0:0:0:
320,96,176879,1,8,0:0:0:0:
160,128,176951,1,0,0:0:0:0:
320,96,177096,1,8,0:0:0:0:
160,128,177240,1,0,0:0:0:0:
320,96,177384,1,8,0:0:0:0:
160,128,177528,1,0,0:0:0:0:
160,128,177600,1,0,0:0:0:0:
320,96,177672,1,8,0:0:0:0:
160,128,177817,1,0,0:0:0:0:
320,96,177961,1,8,0:0:0:0:
160,128,178105,1,0,0:0:0:0:
160,128,178177,1,0,0:0:0:0:
320,96,178249,1,8,0:0:0:0:
160,128,178394,1,0,0:0:0:0:
160,128,178682,1,0,0:0:0:0:
320,96,178826,1,8,0:0:0:0:
160,128,178971,1,0,0:0:0:0:
160,128,179043,1,0,0:0:0:0:
320,96,179115,1,8,0:0:0:0:
320,96,179187,1,8,0:0:0:0:
160,128,179259,1,0,0:0:0:0:
320,96,179403,1,8,0:0:0:0:
256,224,179547,1,4,0:0:0:0:
256,224,179836,1,4,0:0:0:0:
256,224,180124,1,12,0:0:0:0:
256,224,180269,1,12,0:0:0:0:
256,224,180413,1,12,0:0:0:0:
160,128,180701,1,0,0:0:0:0:
160,128,180773,1,0,0:0:0:0:
160,128,180846,1,0,0:0:0:0:
320,96,180990,1,8,0:0:0:0:
320,96,181134,1,8,0:0:0:0:
160,128,181278,1,0,0:0:0:0:
160,128,181350,1,0,0:0:0:0:
160,128,181422,1,0,0:0:0:0:
160,128,181567,1,0,0:0:0:0:
320,96,181711,1,8,0:0:0:0:
320,96,181783,1,8,0:0:0:0:
160,128,181855,1,0,0:0:0:0:
320,96,181999,1,8,0:0:0:0:
320,96,182144,1,8,0:0:0:0:
320,96,182288,1,8,0:0:0:0:
160,128,182432,1,0,0:0:0:0:
160,128,182504,1,0,0:0:0:0:
320,96,182576,1,8,0:0:0:0:
160,128,182721,1,0,0:0:0:0:
160,128,183009,1,0,0:0:0:0:
320,96,183153,1,8,0:0:0:0:
160,128,183225,1,0,0:0:0:0:
320,96,183297,1,8,0:0:0:0:
160,128,183442,1,0,0:0:0:0:
320,96,183586,1,8,0:0:0:0:
160,128,183730,1,0,0:0:0:0:
320,96,183802,1,8,0:0:0:0:
160,128,183874,1,0,0:0:0:0:
160,128,184019,1,0,0:0:0:0:
320,96,184163,1,8,0:0:0:0:
320,96,184235,1,8,0:0:0:0:
160,128,184307,1,0,0:0:0:0:
160,128,184379,1,0,0:0:0:0:
320,96,184451,1,8,0:0:0:0:
160,128,184596,1,0,0:0:0:0:
320,96,184740,1,8,0:0:0:0:
320,96,184812,1,8,0:0:0:0:
320,96,184884,1,8,0:0:0:0:
320,96,184956,1,8,0:0:0:0:
160,128,185028,1,0,0:0:0:0:
160,128,185317,1,0,0:0:0:0:
160,128,185389,1,0,0:0:0:0:
320,96,185461,1,8,0:0:0:0:
320,96,185605,1,8,0:0:0:0:
160,128,185749,1,0,0:0:0:0:
320,96,185894,1,8,0:0:0:0:
320,96,185966,1,8,0:0:0:0:
160,128,186038,1,0,0:0:0:0:
320,96,186182,1,8,0:0:0:0:
160,128,186326,1,0,0:0:0:0:
320,96,186471,1,8,0:0:0:0:
320,96,186543,1,8,0:0:0:0:
320,96,186615,1,8,0:0:0:0:
320,96,186759,1,8,0:0:0:0:
320,96,186831,1,8,0:0:0:0:
160,128,186903,1,0,0:0:0:0:
320,96,187047,1,8,0:0:0:0:
320,96,187192,1,8,0:0:0:0:
160,128,187336,1,0,0:0:0:0:
160,128,187408,1,0,0:0:0:0:
320,96,187480,1,8,0:0:0:0:
320,96,187552,1,8,0:0:0:0:
160,128,187624,1,0,0:0:0:0:
320,96,187769,1,8,0:0:0:0:
320,96,187841,1,8,0:0:0:0:
160,128,187913,1,0,0:0:0:0:
320,96,187985,1,8,0:0:0:0:
160,128,188057,1,0,0:0:0:0:
160,128,188201,1,0,0:0:0:0:
320,96,188346,1,8,0:0:0:0:
320,96,188418,1,8,0:0:0:0:
160,128,188490,1,0,0:0:0:0:
160,128,188562,1,0,0:0:0:0:
320,96,188634,1,8,0:0:0:0:
256,224,188778,1,4,0:0:0:0:
256,224,189067,1,4,0:0:0:0:
256,224,189355,1,4,0:0:0:0:
160,128,189499,1,0,0:0:0:0:
320,96,189644,1,8,0:0:0:0:
320,96,189716,1,8,0:0:0:0:
320,96,189788,1,8,0:0:0:0:
256,224,189932,1,4,0:0:0:0:
256,224,190221,1,4,0:0:0:0:
256,224,190509,1,4,0:0:0:0:
256,224,190797,1,4,0:0:0:0:
256,224,190942,1,12,0:0:0:0:
320,96,191230,1,8,0:0:0:0:
320,96,191302,1,8,0:0:0:0:
320,96,191374,1,8,0:0:0:0:
160,128,191519,1,0,0:0:0:0:
320,96,191663,1,8,0:0:0:0:
160,128,191807,1,0,0:0:0:0:
160,128,191879,1,0,0:0:0:0:
320,96,191951,1,8,0:0:0:0:
160,128,192096,1,0,0:0:0:0:
256,224,192240,1,12,0:0:0:0:
256,224,192528,1,12,0:0:0:0:
256,224,192817,1,12,0:0:0:0:
256,224,192961,1,12,0:0:0:0:
256,224,193249,1,12,0:0:0:0:
160,128,193538,1,0,0:0:0:0:
160,128,193610,1,0,0:0:0:0:
320,96,193682,1,8,0:0:0:0:
320,96,193826,1,8,0:0:0:0:
160,128,193971,1,0,0:0:0:0:
256,224,194259,1,4,0:0:0:0:
