osu file format v14

[General]
AudioFilename: audio.mp3
AudioLeadIn: 0
PreviewTime: 54273
Countdown: 0
SampleSet: None
StackLeniency: 0.7
Mode: 1
LetterboxInBreaks: 0
WidescreenStoryboard: 1

[Editor]
Bookmarks: 17350,26581,35812
DistanceSpacing: 1.1
BeatDivisor: 4
GridSize: 32
TimelineZoom: 2.750002

[Metadata]
Title:Bamboo Sword Girl
TitleUnicode:バンブーソード・ガール
Artist:cosMo@BousouP feat. GUMI
ArtistUnicode:cosMo@暴走P feat. GUMI
Creator:Cychloryn
Version:Muzukashii
Source:
Tags:vocaloid gumi
BeatmapID:2045772
BeatmapSetID:976136

[Difficulty]
HPDrainRate:5
CircleSize:3
OverallDifficulty:5
ApproachRate:9
SliderMultiplier:1.4
SliderTickRate:1

[Events]
//Background and Video events
0,0,"background.png",0,64
//Break Periods
2,74089,76750
//Storyboard Layer 0 (Background)
//Storyboard Layer 1 (Fail)
//Storyboard Layer 2 (Pass)
//Storyboard Layer 3 (Foreground)
//Storyboard Sound Samples

[TimingPoints]
1197,288.461538461538,4,1,0,80,1,0
1197,-100,4,1,0,80,0,0
15043,-111.111111111111,4,1,0,60,0,0
16196,-111.111111111111,4,1,0,65,0,0
17350,-125,4,1,0,60,0,0
25427,-120.481927710843,4,1,0,75,0,0
25644,-117.647058823529,4,1,0,75,0,0
25860,-113.636363636364,4,1,0,75,0,0
26004,-109.89010989011,4,1,0,75,0,0
26437,-105.263157894737,4,1,0,75,0,0
35235,-106.382978723404,4,1,0,74,0,0
35379,-107.52688172043,4,1,0,73,0,0
35523,-108.695652173913,4,1,0,72,0,0
35668,-109.89010989011,4,1,0,71,0,0
35740,-110.497237569061,4,1,0,70,0,0
35812,-112.359550561798,4,1,0,70,0,0
40427,-112.359550561798,4,1,0,73,0,0
44898,-105.263157894737,4,1,0,76,0,0
49658,-105.263157894737,4,1,0,80,0,0
53696,-95.2380952380952,4,1,0,100,0,0
54273,-100,4,1,0,100,0,1
62350,-100,4,1,0,100,0,0
64658,-100,4,1,0,100,0,1
72735,-100,4,1,0,100,0,0
73925,-133.333333333333,4,1,0,100,0,0
77350,-125,4,1,0,20,0,0
77495,-125,4,1,0,28,0,0
77639,-125,4,1,0,36,0,0
77783,-125,4,1,0,44,0,0
77927,-120.481927710843,4,1,0,52,0,0
78071,-116.279069767442,4,1,0,60,0,0
78216,-112.359550561798,4,1,0,68,0,0
78360,-108.695652173913,4,1,0,76,0,0
78504,-105.263157894737,4,1,0,84,0,0
87735,-100,4,1,0,100,0,0
96966,-95.2380952380952,4,1,0,100,0,1
105043,-96.1538461538461,4,1,0,95,0,0
105331,-97.0873786407767,4,1,0,90,0,0
105620,-98.0392156862745,4,1,0,85,0,0
105812,-100,4,1,0,80,0,0
110523,-80,4,1,0,100,0,0

[HitObjects]
256,192,1197,5,4,0:0:0:0:
256,192,1485,1,4,0:0:0:0:
256,192,1773,1,4,0:0:0:0:
256,192,2062,1,8,0:0:0:0:
256,192,2206,1,0,0:0:0:0:
256,192,2495,1,0,0:0:0:0:
256,192,2639,1,8,0:0:0:0:
256,192,2783,1,8,0:0:0:0:
256,192,2927,1,0,0:0:0:0:
256,192,3216,1,8,0:0:0:0:
256,192,3360,1,0,0:0:0:0:
256,192,3504,1,4,0:0:0:0:
256,192,3793,1,4,0:0:0:0:
256,192,4081,1,4,0:0:0:0:
256,192,4225,1,8,0:0:0:0:
256,192,4514,1,8,0:0:0:0:
256,192,4802,1,8,0:0:0:0:
256,192,4874,1,8,0:0:0:0:
256,192,4946,1,8,0:0:0:0:
256,192,5235,1,4,0:0:0:0:
256,192,5812,5,8,0:0:0:0:
256,192,5956,1,0,0:0:0:0:
256,192,6100,1,8,0:0:0:0:
256,192,6389,1,8,0:0:0:0:
256,192,6533,1,8,0:0:0:0:
256,192,6605,1,8,0:0:0:0:
256,192,6677,1,8,0:0:0:0:
256,192,6821,1,0,0:0:0:0:
256,192,6966,1,8,0:0:0:0:
256,192,7110,1,0,0:0:0:0:
256,192,7254,1,0,0:0:0:0:
256,192,7543,1,0,0:0:0:0:
256,192,7687,1,8,0:0:0:0:
256,192,7831,1,8,0:0:0:0:
256,192,8120,1,8,0:0:0:0:
256,192,8264,1,0,0:0:0:0:
256,192,8408,1,8,0:0:0:0:
256,192,8696,1,8,0:0:0:0:
256,192,8841,1,0,0:0:0:0:
256,192,8913,1,0,0:0:0:0:
256,192,8985,1,0,0:0:0:0:
256,192,9129,1,0,0:0:0:0:
256,192,9273,1,8,0:0:0:0:
256,192,9490,1,0,0:0:0:0:
256,192,9706,1,0,0:0:0:0:
256,192,9850,1,8,0:0:0:0:
256,192,10427,5,8,0:0:0:0:
256,192,10571,1,0,0:0:0:0:
256,192,10715,1,8,0:0:0:0:
256,192,11004,1,8,0:0:0:0:
256,192,11148,1,8,0:0:0:0:
256,192,11220,1,8,0:0:0:0:
256,192,11292,1,8,0:0:0:0:
256,192,11436,1,0,0:0:0:0:
256,192,11581,1,8,0:0:0:0:
256,192,11725,1,0,0:0:0:0:
256,192,11869,1,0,0:0:0:0:
256,192,12158,1,0,0:0:0:0:
256,192,12302,1,8,0:0:0:0:
256,192,12446,1,8,0:0:0:0:
256,192,12735,1,8,0:0:0:0:
256,192,12879,1,0,0:0:0:0:
256,192,13023,1,8,0:0:0:0:
256,192,13312,1,0,0:0:0:0:
256,192,13456,1,8,0:0:0:0:
256,192,13528,1,8,0:0:0:0:
256,192,13600,1,8,0:0:0:0:
256,192,13745,1,0,0:0:0:0:
256,192,13889,1,8,0:0:0:0:
256,192,14105,1,0,0:0:0:0:
256,192,14321,1,0,0:0:0:0:
256,192,14466,1,8,0:0:0:0:
256,192,15043,5,0,0:0:0:0:
256,192,15331,1,8,0:0:0:0:
256,192,15620,1,0,0:0:0:0:
256,192,15908,1,8,0:0:0:0:
256,192,16196,1,0,0:0:0:0:
256,192,16293,1,0,0:0:0:0:
256,192,16389,1,0,0:0:0:0:
256,192,16485,1,0,0:0:0:0:
256,192,16773,1,8,0:0:0:0:
256,192,16870,1,8,0:0:0:0:
256,192,16966,1,8,0:0:0:0:
256,192,17062,1,8,0:0:0:0:
256,192,17350,5,0,0:0:0:0:
256,192,17495,1,0,0:0:0:0:
256,192,17927,1,0,0:0:0:0:
256,192,18071,1,0,0:0:0:0:
256,192,18216,1,8,0:0:0:0:
256,192,18504,1,0,0:0:0:0:
256,192,18648,1,8,0:0:0:0:
256,192,18793,1,0,0:0:0:0:
256,192,18937,1,0,0:0:0:0:
256,192,19081,1,8,0:0:0:0:
256,192,19370,1,0,0:0:0:0:
256,192,19514,1,8,0:0:0:0:
256,192,19658,1,0,0:0:0:0:
256,192,19802,1,0,0:0:0:0:
256,192,20091,1,8,0:0:0:0:
256,192,20235,1,0,0:0:0:0:
256,192,20379,1,0,0:0:0:0:
256,192,20523,1,8,0:0:0:0:
256,192,20812,1,0,0:0:0:0:
256,192,20956,1,0,0:0:0:0:
256,192,21245,1,8,0:0:0:0:
256,192,21389,1,0,0:0:0:0:
256,192,21966,1,0,0:0:0:0:
256,192,22110,1,0,0:0:0:0:
256,192,22398,1,8,0:0:0:0:
256,192,22543,1,0,0:0:0:0:
256,192,22687,1,0,0:0:0:0:
256,192,22831,1,8,0:0:0:0:
256,192,23120,1,0,0:0:0:0:
256,192,23264,1,0,0:0:0:0:
256,192,23552,1,0,0:0:0:0:
256,192,23696,1,8,0:0:0:0:
256,192,23841,1,8,0:0:0:0:
256,192,23985,1,0,0:0:0:0:
256,192,24273,1,8,0:0:0:0:
288,192,24562,1,0,0:0:0:0:
256,192,24706,1,8,0:0:0:0:
256,192,24995,1,0,0:0:0:0:
256,192,25139,1,8,0:0:0:0:
256,192,25283,1,8,0:0:0:0:
256,192,25427,1,4,0:0:0:0:
256,192,25644,1,4,0:0:0:0:
256,192,25860,1,4,0:0:0:0:
256,192,26004,1,12,0:0:0:0:
256,192,26148,1,0,0:0:0:0:
256,192,26221,1,0,0:0:0:0:
256,192,26293,1,0,0:0:0:0:
256,192,26581,5,8,0:0:0:0:
256,192,27158,1,8,0:0:0:0:
256,192,27302,1,8,0:0:0:0:
256,192,27446,1,0,0:0:0:0:
256,192,27735,1,0,0:0:0:0:
256,192,27879,1,8,0:0:0:0:
256,192,27951,1,8,0:0:0:0:
256,192,28023,1,8,0:0:0:0:
256,192,28168,1,0,0:0:0:0:
256,192,28312,1,8,0:0:0:0:
256,192,28456,1,8,0:0:0:0:
256,192,28600,1,0,0:0:0:0:
256,192,28889,1,8,0:0:0:0:
256,192,29321,1,0,0:0:0:0:
256,192,29466,1,0,0:0:0:0:
256,192,29610,1,8,0:0:0:0:
256,192,29682,1,8,0:0:0:0:
256,192,29754,1,8,0:0:0:0:
256,192,29898,1,8,0:0:0:0:
256,192,30043,1,0,0:0:0:0:
256,192,30331,1,8,0:0:0:0:
256,192,30475,1,0,0:0:0:0:
256,192,30547,1,0,0:0:0:0:
256,192,30620,1,0,0:0:0:0:
256,192,30764,1,0,0:0:0:0:
256,192,30908,1,8,0:0:0:0:
256,192,31196,1,0,0:0:0:0:
256,192,31485,1,8,0:0:0:0:
256,192,31629,1,0,0:0:0:0:
256,192,31701,1,0,0:0:0:0:
256,192,31773,1,0,0:0:0:0:
256,192,31918,1,0,0:0:0:0:
256,192,32062,1,8,0:0:0:0:
256,192,32350,1,8,0:0:0:0:
256,192,32495,1,8,0:0:0:0:
256,192,32639,1,0,0:0:0:0:
256,192,32783,1,0,0:0:0:0:
256,192,32927,1,8,0:0:0:0:
256,192,33216,1,0,0:0:0:0:
256,192,33360,1,0,0:0:0:0:
256,192,33504,1,8,0:0:0:0:
256,192,33793,1,0,0:0:0:0:
256,192,33937,1,8,0:0:0:0:
256,192,34225,1,0,0:0:0:0:
256,192,34370,1,8,0:0:0:0:
256,192,34514,1,8,0:0:0:0:
256,192,34658,1,0,0:0:0:0:
256,192,34874,1,0,0:0:0:0:
256,192,35091,1,0,0:0:0:0:
256,192,35235,1,8,0:0:0:0:
256,192,35379,1,0,0:0:0:0:
256,192,35523,1,8,0:0:0:0:
256,192,35668,1,8,0:0:0:0:
256,192,35740,1,8,0:0:0:0:
256,192,35812,5,8,0:0:0:0:
256,192,36245,1,0,0:0:0:0:
256,192,36533,1,0,0:0:0:0:
256,192,36677,1,8,0:0:0:0:
256,192,36821,1,8,0:0:0:0:
256,192,36966,1,8,0:0:0:0:
256,192,37110,1,0,0:0:0:0:
256,192,37182,1,0,0:0:0:0:
256,192,37254,1,0,0:0:0:0:
256,192,37398,1,0,0:0:0:0:
256,192,37543,1,8,0:0:0:0:
256,192,37831,1,0,0:0:0:0:
256,192,37975,1,0,0:0:0:0:
256,192,38120,1,8,0:0:0:0:
256,192,38264,1,8,0:0:0:0:
256,192,38336,1,8,0:0:0:0:
256,192,38408,1,8,0:0:0:0:
256,192,38552,1,0,0:0:0:0:
256,192,38696,1,8,0:0:0:0:
256,192,38985,1,0,0:0:0:0:
256,192,39129,1,0,0:0:0:0:
256,192,39273,1,8,0:0:0:0:
256,192,39850,1,0,0:0:0:0:
256,192,39995,1,0,0:0:0:0:
256,192,40139,1,8,0:0:0:0:
256,192,40283,1,0,0:0:0:0:
256,192,40427,1,8,0:0:0:0:
256,192,40644,1,0,0:0:0:0:
256,192,40860,1,0,0:0:0:0:
256,192,41004,1,8,0:0:0:0:
256,192,41148,1,0,0:0:0:0:
256,192,41293,1,0,0:0:0:0:
256,192,41581,1,8,0:0:0:0:
256,192,41797,1,0,0:0:0:0:
256,192,42014,1,8,0:0:0:0:
256,192,42158,1,8,0:0:0:0:
256,192,42735,1,8,0:0:0:0:
256,192,42879,1,8,0:0:0:0:
256,192,42951,1,8,0:0:0:0:
256,192,43023,1,8,0:0:0:0:
256,192,43168,1,0,0:0:0:0:
256,192,43456,1,0,0:0:0:0:
256,192,43600,1,8,0:0:0:0:
256,192,43745,1,0,0:0:0:0:
256,192,43817,1,0,0:0:0:0:
256,192,43889,1,0,0:0:0:0:
256,192,44177,1,0,0:0:0:0:
256,192,44321,1,0,0:0:0:0:
256,192,44466,1,8,0:0:0:0:
256,192,44898,1,8,0:0:0:0:
256,192,44971,1,8,0:0:0:0:
256,192,45043,1,8,0:0:0:0:
256,192,45187,1,0,0:0:0:0:
256,192,45331,1,0,0:0:0:0:
256,192,45475,1,8,0:0:0:0:
256,192,45764,1,0,0:0:0:0:
256,192,45908,1,0,0:0:0:0:
256,192,46052,1,8,0:0:0:0:
256,192,46124,1,8,0:0:0:0:
256,192,46196,1,8,0:0:0:0:
256,192,46341,1,8,0:0:0:0:
256,192,46485,1,0,0:0:0:0:
256,192,46629,1,0,0:0:0:0:
256,192,46773,1,8,0:0:0:0:
256,192,47062,1,0,0:0:0:0:
256,192,47206,1,8,0:0:0:0:
256,192,47278,1,8,0:0:0:0:
256,192,47350,1,8,0:0:0:0:
256,192,47495,1,8,0:0:0:0:
256,192,47639,1,0,0:0:0:0:
256,192,47783,1,8,0:0:0:0:
256,192,47927,1,8,0:0:0:0:
256,192,48071,1,0,0:0:0:0:
256,192,48216,1,0,0:0:0:0:
256,192,48504,1,8,0:0:0:0:
256,192,49081,1,0,0:0:0:0:
256,192,49225,1,0,0:0:0:0:
256,192,49370,1,8,0:0:0:0:
256,192,49514,1,8,0:0:0:0:
256,192,49658,5,4,0:0:0:0:
256,192,50091,1,0,0:0:0:0:
256,192,50235,1,12,0:0:0:0:
256,192,50668,1,8,0:0:0:0:
256,192,50812,1,4,0:0:0:0:
256,192,51245,1,0,0:0:0:0:
256,192,51389,1,12,0:0:0:0:
256,192,51677,1,0,0:0:0:0:
256,192,51821,1,8,0:0:0:0:
256,192,51894,1,8,0:0:0:0:
256,192,51966,1,8,0:0:0:0:
256,192,52182,1,8,0:0:0:0:
256,192,52398,1,0,0:0:0:0:
256,192,52687,1,0,0:0:0:0:
256,192,52831,1,8,0:0:0:0:
256,192,52975,1,8,0:0:0:0:
256,192,53120,1,8,0:0:0:0:
256,192,53696,1,12,0:0:0:0:
256,192,53913,1,4,0:0:0:0:
256,192,54129,1,4,0:0:0:0:
256,192,54273,5,8,0:0:0:0:
256,192,54562,1,0,0:0:0:0:
256,192,54706,1,0,0:0:0:0:
256,192,54850,1,8,0:0:0:0:
256,192,54995,1,0,0:0:0:0:
256,192,55139,1,8,0:0:0:0:
256,192,55283,1,8,0:0:0:0:
256,192,55571,1,8,0:0:0:0:
256,192,55644,1,8,0:0:0:0:
256,192,55716,1,8,0:0:0:0:
256,192,55860,1,8,0:0:0:0:
256,192,56004,1,0,0:0:0:0:
256,192,56148,1,0,0:0:0:0:
256,192,56293,1,8,0:0:0:0:
256,192,56581,1,8,0:0:0:0:
256,192,56870,1,0,0:0:0:0:
256,192,57014,1,0,0:0:0:0:
256,192,57158,1,8,0:0:0:0:
256,192,57302,1,8,0:0:0:0:
256,192,57446,1,0,0:0:0:0:
256,192,57591,1,8,0:0:0:0:
256,192,57735,1,0,0:0:0:0:
256,192,58023,1,0,0:0:0:0:
256,192,58168,1,8,0:0:0:0:
256,192,58600,1,0,0:0:0:0:
256,192,58889,5,8,0:0:0:0:
256,192,59178,1,0,0:0:0:0:
256,192,59322,1,0,0:0:0:0:
256,192,59466,1,8,0:0:0:0:
256,192,59611,1,0,0:0:0:0:
256,192,59755,1,8,0:0:0:0:
256,192,59899,1,8,0:0:0:0:
256,192,60187,1,8,0:0:0:0:
256,192,60260,1,8,0:0:0:0:
256,192,60332,1,8,0:0:0:0:
256,192,60476,1,8,0:0:0:0:
256,192,60620,1,0,0:0:0:0:
256,192,60764,1,0,0:0:0:0:
256,192,60909,1,8,0:0:0:0:
256,192,61196,1,8,0:0:0:0:
256,192,61485,1,8,0:0:0:0:
256,192,61629,1,0,0:0:0:0:
256,192,61773,1,8,0:0:0:0:
256,192,61918,1,8,0:0:0:0:
256,192,62062,1,0,0:0:0:0:
256,192,62206,1,8,0:0:0:0:
256,192,62350,1,4,0:0:0:0:
256,192,62639,1,4,0:0:0:0:
256,192,62927,1,4,0:0:0:0:
256,192,63071,1,8,0:0:0:0:
256,192,63216,1,8,0:0:0:0:
256,192,63360,1,0,0:0:0:0:
256,192,63504,1,4,0:0:0:0:
256,192,63721,1,4,0:0:0:0:
256,192,63937,1,4,0:0:0:0:
256,192,64081,1,4,0:0:0:0:
256,192,64658,5,8,0:0:0:0:
256,192,64947,1,0,0:0:0:0:
256,192,65091,1,0,0:0:0:0:
256,192,65235,1,8,0:0:0:0:
256,192,65380,1,0,0:0:0:0:
256,192,65524,1,8,0:0:0:0:
256,192,65668,1,8,0:0:0:0:
256,192,65956,1,8,0:0:0:0:
256,192,66029,1,8,0:0:0:0:
256,192,66101,1,8,0:0:0:0:
256,192,66245,1,8,0:0:0:0:
256,192,66389,1,0,0:0:0:0:
256,192,66533,1,0,0:0:0:0:
256,192,66678,1,8,0:0:0:0:
256,192,66966,1,8,0:0:0:0:
256,192,67255,1,8,0:0:0:0:
256,192,67399,1,0,0:0:0:0:
256,192,67543,1,8,0:0:0:0:
256,192,67687,1,8,0:0:0:0:
256,192,67831,1,0,0:0:0:0:
256,192,67976,1,8,0:0:0:0:
256,192,68120,1,0,0:0:0:0:
256,192,68408,1,0,0:0:0:0:
256,192,68553,1,8,0:0:0:0:
256,192,68985,1,0,0:0:0:0:
256,192,69273,5,8,0:0:0:0:
256,192,69562,1,0,0:0:0:0:
256,192,69706,1,0,0:0:0:0:
256,192,69850,1,8,0:0:0:0:
256,192,69995,1,0,0:0:0:0:
256,192,70139,1,8,0:0:0:0:
256,192,70283,1,8,0:0:0:0:
256,192,70571,1,8,0:0:0:0:
256,192,70644,1,8,0:0:0:0:
256,192,70716,1,8,0:0:0:0:
256,192,70860,1,8,0:0:0:0:
256,192,71004,1,0,0:0:0:0:
256,192,71148,1,0,0:0:0:0:
256,192,71293,1,8,0:0:0:0:
256,192,71581,1,8,0:0:0:0:
256,192,71870,1,8,0:0:0:0:
256,192,72014,1,0,0:0:0:0:
256,192,72158,1,8,0:0:0:0:
256,192,72302,1,8,0:0:0:0:
256,192,72446,1,0,0:0:0:0:
256,192,72735,1,0,0:0:0:0:
256,192,72951,1,0,0:0:0:0:
256,192,73168,1,8,0:0:0:0:
256,192,73312,1,4,0:0:0:0:
256,192,73600,1,8,0:0:0:0:
256,192,73696,1,8,0:0:0:0:
256,192,73793,1,8,0:0:0:0:
256,192,73889,1,8,0:0:0:0:
256,192,77350,5,8,0:0:0:0:
256,192,77495,1,8,0:0:0:0:
256,192,77639,1,8,0:0:0:0:
256,192,77783,1,8,0:0:0:0:
256,192,77927,1,8,0:0:0:0:
256,192,78071,1,8,0:0:0:0:
256,192,78216,1,8,0:0:0:0:
256,192,78360,1,8,0:0:0:0:
256,192,78504,1,0,0:0:0:0:
256,192,78721,1,8,0:0:0:0:
256,192,78937,1,8,0:0:0:0:
256,192,79081,1,0,0:0:0:0:
256,192,79297,1,8,0:0:0:0:
256,192,79514,1,8,0:0:0:0:
256,192,79658,1,8,0:0:0:0:
256,192,79874,1,0,0:0:0:0:
256,192,80091,1,0,0:0:0:0:
256,192,80235,1,8,0:0:0:0:
256,192,80668,1,8,0:0:0:0:
256,192,80812,1,8,0:0:0:0:
256,192,81028,1,0,0:0:0:0:
256,192,81245,1,8,0:0:0:0:
256,192,81389,1,8,0:0:0:0:
256,192,81605,1,0,0:0:0:0:
256,192,81821,1,0,0:0:0:0:
256,192,81966,1,8,0:0:0:0:
256,192,82182,1,8,0:0:0:0:
256,192,82398,1,8,0:0:0:0:
256,192,82543,1,0,0:0:0:0:
256,192,82975,1,0,0:0:0:0:
256,192,83120,1,8,0:0:0:0:
256,192,83337,1,0,0:0:0:0:
256,192,83553,1,8,0:0:0:0:
256,192,83697,1,8,0:0:0:0:
256,192,83913,1,8,0:0:0:0:
256,192,84130,1,0,0:0:0:0:
256,192,84274,1,8,0:0:0:0:
256,192,84490,1,0,0:0:0:0:
256,192,84707,1,0,0:0:0:0:
256,192,84851,1,8,0:0:0:0:
256,192,85139,1,8,0:0:0:0:
256,192,85284,1,0,0:0:0:0:
256,192,85428,1,8,0:0:0:0:
256,192,86004,1,0,0:0:0:0:
256,192,86148,1,8,0:0:0:0:
256,192,86293,1,8,0:0:0:0:
256,192,86365,1,8,0:0:0:0:
256,192,86437,1,8,0:0:0:0:
256,192,86581,1,0,0:0:0:0:
256,192,86870,1,0,0:0:0:0:
256,192,87014,1,8,0:0:0:0:
256,192,87158,1,0,0:0:0:0:
256,192,87374,1,8,0:0:0:0:
256,192,87591,1,8,0:0:0:0:
256,192,87735,5,8,0:0:0:0:
256,192,88024,1,0,0:0:0:0:
256,192,88168,1,0,0:0:0:0:
256,192,88312,1,8,0:0:0:0:
256,192,88457,1,0,0:0:0:0:
256,192,88601,1,8,0:0:0:0:
256,192,88745,1,8,0:0:0:0:
256,192,89033,1,8,0:0:0:0:
256,192,89106,1,8,0:0:0:0:
256,192,89178,1,8,0:0:0:0:
256,192,89322,1,8,0:0:0:0:
256,192,89466,1,0,0:0:0:0:
256,192,90043,1,8,0:0:0:0:
256,192,90187,1,8,0:0:0:0:
256,192,90331,1,0,0:0:0:0:
256,192,90475,1,0,0:0:0:0:
256,192,90620,1,8,0:0:0:0:
256,192,90908,1,8,0:0:0:0:
256,192,91052,1,8,0:0:0:0:
256,192,91341,1,0,0:0:0:0:
256,192,91485,1,8,0:0:0:0:
256,192,91629,1,8,0:0:0:0:
256,192,91701,1,8,0:0:0:0:
256,192,91773,1,8,0:0:0:0:
256,192,91918,1,8,0:0:0:0:
256,192,92062,1,0,0:0:0:0:
256,192,92350,5,8,0:0:0:0:
256,192,92639,1,0,0:0:0:0:
256,192,92783,1,0,0:0:0:0:
256,192,92927,1,8,0:0:0:0:
256,192,93072,1,0,0:0:0:0:
256,192,93216,1,8,0:0:0:0:
256,192,93360,1,8,0:0:0:0:
256,192,93648,1,8,0:0:0:0:
256,192,93721,1,8,0:0:0:0:
256,192,93793,1,8,0:0:0:0:
256,192,93937,1,8,0:0:0:0:
256,192,94081,1,0,0:0:0:0:
256,192,94658,1,8,0:0:0:0:
256,192,94802,1,8,0:0:0:0:
256,192,94874,1,8,0:0:0:0:
256,192,94946,1,8,0:0:0:0:
256,192,95091,1,0,0:0:0:0:
256,192,95235,1,8,0:0:0:0:
256,192,95379,1,8,0:0:0:0:
256,192,95523,1,0,0:0:0:0:
256,192,95812,1,8,0:0:0:0:
256,192,95956,1,0,0:0:0:0:
256,192,96028,1,0,0:0:0:0:
256,192,96100,1,0,0:0:0:0:
256,192,96245,1,0,0:0:0:0:
256,192,96389,1,8,0:0:0:0:
256,192,96966,5,8,0:0:0:0:
256,192,97255,1,0,0:0:0:0:
256,192,97399,1,0,0:0:0:0:
256,192,97543,1,8,0:0:0:0:
256,192,97688,1,0,0:0:0:0:
256,192,97832,1,8,0:0:0:0:
256,192,97976,1,8,0:0:0:0:
256,192,98264,1,8,0:0:0:0:
256,192,98337,1,8,0:0:0:0:
256,192,98408,1,8,0:0:0:0:
256,192,98553,1,8,0:0:0:0:
256,192,98697,1,0,0:0:0:0:
256,192,98841,1,0,0:0:0:0:
256,192,98986,1,8,0:0:0:0:
256,192,99273,1,8,0:0:0:0:
256,192,99346,1,8,0:0:0:0:
256,192,99418,1,8,0:0:0:0:
256,192,99562,1,0,0:0:0:0:
256,192,99850,1,8,0:0:0:0:
256,192,99923,1,8,0:0:0:0:
256,192,99995,1,8,0:0:0:0:
256,192,100139,1,0,0:0:0:0:
256,192,100427,1,8,0:0:0:0:
256,192,100571,1,8,0:0:0:0:
256,192,100716,1,0,0:0:0:0:
256,192,100860,1,0,0:0:0:0:
256,192,101004,1,8,0:0:0:0:
256,192,101581,1,8,0:0:0:0:
256,192,101725,1,8,0:0:0:0:
256,192,101870,1,0,0:0:0:0:
256,192,102158,1,8,0:0:0:0:
256,192,102230,1,8,0:0:0:0:
256,192,102302,1,8,0:0:0:0:
256,192,102446,1,0,0:0:0:0:
256,192,102735,1,8,0:0:0:0:
256,192,102807,1,8,0:0:0:0:
256,192,102879,1,8,0:0:0:0:
256,192,103023,1,0,0:0:0:0:
256,192,103312,1,8,0:0:0:0:
256,192,103889,1,0,0:0:0:0:
256,192,104033,1,8,0:0:0:0:
256,192,104105,1,8,0:0:0:0:
256,192,104177,1,8,0:0:0:0:
256,192,104321,1,0,0:0:0:0:
256,192,104466,1,8,0:0:0:0:
256,192,104610,1,8,0:0:0:0:
256,192,104682,1,8,0:0:0:0:
256,192,104754,1,8,0:0:0:0:
256,192,104898,1,8,0:0:0:0:
256,192,105043,1,4,0:0:0:0:
256,192,105331,1,4,0:0:0:0:
256,192,105620,1,4,0:0:0:0:
256,192,106196,5,4,0:0:0:0:
256,192,106484,1,4,0:0:0:0:
256,192,106772,1,4,0:0:0:0:
256,192,107061,1,8,0:0:0:0:
256,192,107205,1,0,0:0:0:0:
256,192,107494,1,0,0:0:0:0:
256,192,107638,1,8,0:0:0:0:
256,192,107782,1,8,0:0:0:0:
256,192,107926,1,0,0:0:0:0:
256,192,108215,1,8,0:0:0:0:
256,192,108359,1,0,0:0:0:0:
256,192,108503,1,4,0:0:0:0:
256,192,108792,1,4,0:0:0:0:
256,192,109080,1,4,0:0:0:0:
256,192,109224,1,8,0:0:0:0:
256,192,109513,1,8,0:0:0:0:
256,192,109801,1,8,0:0:0:0:
256,192,109873,1,8,0:0:0:0:
256,192,109945,1,8,0:0:0:0:
256,192,110235,1,0,0:0:0:0:
256,192,110523,1,4,0:0:0:0:
