osu file format v14

[General]
AudioFilename: audio.mp3
AudioLeadIn: 0
PreviewTime: 208158
Countdown: 0
SampleSet: Soft
StackLeniency: 0.5
Mode: 0
LetterboxInBreaks: 0
WidescreenStoryboard: 1

[Editor]
Bookmarks: 125609,131942,166157,176657,187158,197658,208157,220158,232158,238158,248658,255594
DistanceSpacing: 0.8
BeatDivisor: 6
GridSize: 8
TimelineZoom: 2.099999

[Metadata]
Title:Yuuki Seimeitai Shinkaron
TitleUnicode:有機生命体進化論
Artist:cosMo@BousouP
ArtistUnicode:cosMo@暴走P
Creator:SaltyLucario
Version:Organic Theater
Source:
Tags:saltking salty thanh_nemo nemodoko theneg jazz piano avant-garde avant garde ピアノアバンギャルド cosmo bousoup bousou-p syuri22 cosMo@暴走Pインストコレクション cosmo instrumental collection vol.1 -オルガニックシアタ- 2016リメイク 2016 Remake Evolutionary Theory of Organic Life Forms
BeatmapID:3129805
BeatmapSetID:1369766

[Difficulty]
HPDrainRate:5.5
CircleSize:4.5
OverallDifficulty:9.2
ApproachRate:9.5
SliderMultiplier:2
SliderTickRate:1

[Events]
//Background and Video events
0,0,"bg.jpg",0,0
//Break Periods
//Storyboard Layer 0 (Background)
//Storyboard Layer 1 (Fail)
//Storyboard Layer 2 (Pass)
//Storyboard Layer 3 (Foreground)
//Storyboard Layer 4 (Overlay)
//Storyboard Sound Samples

[TimingPoints]
1118,545.454545454546,7,2,1,25,1,0
4936,-285.714285714286,7,2,1,25,0,0
20219,545.454545454546,4,2,1,55,1,0
20488,545.454545454546,4,2,1,55,1,0
20488,-83.3333333333333,4,2,1,55,0,0
22397,545.454545454546,4,2,1,55,1,0
22397,-83.3333333333333,4,2,1,55,0,0
24306,545.454545454546,4,2,1,55,1,0
24306,-83.3333333333333,4,2,1,55,0,0
26215,545.454545454546,4,2,1,55,1,0
26215,-83.3333333333333,4,2,1,55,0,0
27033,-133.333333333333,4,2,1,55,0,0
28124,545.454545454546,4,2,1,55,1,0
28124,-83.3333333333333,4,2,1,55,0,0
30033,545.454545454546,4,2,1,55,1,0
30033,-83.3333333333333,4,2,1,55,0,0
31942,545.454545454546,4,2,1,55,1,0
31942,-83.3333333333333,4,2,1,55,0,0
33851,545.454545454546,4,2,1,55,1,0
33851,-83.3333333333333,4,2,1,55,0,0
35760,545.454545454546,4,2,1,55,1,0
35760,-76.9230769230769,4,2,1,55,0,0
37669,545.454545454546,4,2,1,55,1,0
37669,-76.9230769230769,4,2,1,55,0,0
39578,545.454545454546,4,2,1,55,1,0
39578,-76.9230769230769,4,2,1,55,0,0
41488,545.454545454546,4,2,1,55,1,0
41488,-76.9230769230769,4,2,1,55,0,0
42851,-166.666666666667,4,2,1,55,0,0
43397,545.454545454546,4,2,1,55,1,0
43397,-76.9230769230769,4,2,1,55,0,0
45306,545.454545454546,4,2,1,55,1,0
45306,-76.9230769230769,4,2,1,55,0,0
47215,545.454545454546,4,2,1,55,1,0
47215,-76.9230769230769,4,2,1,55,0,0
49124,545.454545454546,4,2,1,55,1,0
49124,-76.9230769230769,4,2,1,55,0,0
51033,272.727272727273,3,2,1,50,1,0
51033,-166.666666666667,3,2,1,50,0,0
57578,-133.333333333333,3,2,1,60,0,0
60033,-200,3,2,1,60,0,0
60442,-133.333333333333,3,2,1,60,0,0
64123,-285.714285714284,3,2,1,40,0,0
67396,-200,3,2,1,55,0,0
67669,-166.666666666667,3,2,1,55,0,0
67942,-142.857142857143,3,2,1,55,0,0
68214,-125,3,2,1,55,0,0
70669,-181.818181818182,3,2,1,55,0,0
77214,-142.857142857143,3,2,1,60,0,0
80487,-142.857142857143,3,2,1,35,0,0
80760,-142.857142857143,3,2,1,65,0,0
81033,-142.857142857143,3,2,1,35,0,0
81306,-142.857142857143,3,2,1,65,0,0
81578,-142.857142857143,3,2,1,35,0,0
81851,-142.857142857143,3,2,1,65,0,0
82123,-142.857142857143,3,2,1,60,0,0
83760,-588.235294117647,3,2,1,60,0,0
83828,-588.235294117647,3,2,1,35,0,0
86214,-1000,3,2,1,35,0,0
89078,-1000,3,2,1,20,0,0
89214,437.956204379562,4,2,1,30,1,0
89214,-166.666666666667,4,2,1,30,0,0
90746,437.956204379562,4,2,1,30,1,0
90746,-166.666666666667,4,2,1,30,0,0
92279,437.956204379562,4,2,1,30,1,0
92279,-166.666666666667,4,2,1,30,0,0
93812,437.956204379562,4,2,1,30,1,0
93812,-166.666666666667,4,2,1,30,0,0
97096,-166.666666666667,4,2,1,25,0,0
99943,222.222222222222,3,2,1,30,1,0
99943,-400,3,2,1,30,0,0
102609,-333.333333333333,3,2,1,35,0,0
105276,-250,3,2,1,40,0,0
107942,-250,3,2,1,45,0,0
110609,-200,3,2,1,50,0,0
112609,-153.846153846154,3,2,1,50,0,0
113276,-200,3,2,1,50,0,0
115942,-142.857142857143,3,2,1,50,0,0
116276,-400,3,2,1,50,0,0
116609,-142.857142857143,3,2,1,50,0,0
116943,-400,3,2,1,50,0,0
117276,-142.857142857143,3,2,1,50,0,0
121276,-166.666666666667,3,2,1,55,0,0
131942,-142.857142857143,3,2,1,55,0,0
137276,-250.000000000001,3,2,1,55,0,0
141942,-142.857142857143,3,2,1,55,0,0
142609,-117.647058823529,3,2,1,45,0,0
143942,444.444444444444,7,2,1,30,1,0
147053,422.535211267606,7,2,1,35,1,0
147686,-100,7,2,1,15,0,0
147898,-100,7,2,1,35,0,0
149165,-100,7,2,1,15,0,0
149306,-100,7,2,1,35,0,0
150010,412.371134020619,7,2,1,40,1,0
151315,-100,7,2,1,15,0,0
151522,-100,7,2,1,20,0,0
151659,-100,7,2,1,40,0,0
152896,394.736842105263,7,2,1,45,1,0
153685,-100,7,2,1,20,0,0
154606,-100,7,2,1,45,0,0
155067,-200,7,2,1,45,0,0
155658,375,7,2,1,55,1,0
156970,375,4,2,1,55,1,0
158283,375,4,2,1,55,1,0
159595,375,4,2,1,55,1,0
160908,375,4,2,1,55,1,0
162220,375,4,2,1,55,1,0
163533,375,4,2,1,55,1,0
163814,-100,4,2,1,25,0,0
164376,-100,4,2,1,35,0,0
164845,375,4,2,1,45,1,0
165407,-100,4,2,1,55,0,0
166158,375,4,2,1,60,1,0
166158,-86.9565217391304,4,2,1,60,0,0
167470,375,4,2,1,60,1,0
167470,-86.9565217391304,4,2,1,60,0,0
168783,375,4,2,1,60,1,0
168783,-86.9565217391304,4,2,1,60,0,0
170095,375,4,2,1,60,1,0
170095,-86.9565217391304,4,2,1,60,0,0
171032,-200,4,2,1,60,0,0
171408,375,4,2,1,60,1,0
171408,-86.9565217391304,4,2,1,60,0,0
172720,375,4,2,1,60,1,0
172720,-86.9565217391304,4,2,1,60,0,0
174033,375,4,2,1,60,1,0
174033,-86.9565217391304,4,2,1,60,0,0
175345,375,4,2,1,60,1,0
175345,-86.9565217391304,4,2,1,60,0,0
176658,375,4,2,1,60,1,0
176658,-86.9565217391304,4,2,1,60,0,0
177970,375,4,2,1,60,1,0
177970,-86.9565217391304,4,2,1,60,0,0
179283,375,4,2,1,60,1,0
179283,-86.9565217391304,4,2,1,60,0,0
180595,375,4,2,1,60,1,0
180595,-86.9565217391304,4,2,1,60,0,0
181532,-133.333333333333,4,2,1,60,0,0
181908,375,4,2,1,60,1,0
181908,-86.9565217391304,4,2,1,60,0,0
183220,375,4,2,1,60,1,0
183220,-86.9565217391304,4,2,1,60,0,0
184533,375,4,2,1,60,1,0
184533,-86.9565217391304,4,2,1,60,0,0
185845,375,4,2,1,60,1,0
185845,-86.9565217391304,4,2,1,60,0,0
187158,375,4,2,1,65,1,0
187158,-86.9565217391304,4,2,1,65,0,0
188470,375,4,2,1,65,1,0
188470,-86.9565217391304,4,2,1,65,0,0
189783,375,4,2,1,65,1,0
189783,-86.9565217391304,4,2,1,65,0,0
191095,375,4,2,1,65,1,0
191095,-86.9565217391304,4,2,1,65,0,0
192408,375,4,2,1,65,1,0
192408,-86.9565217391304,4,2,1,65,0,0
193720,375,4,2,1,65,1,0
193720,-86.9565217391304,4,2,1,65,0,0
195033,375,4,2,1,65,1,0
195033,-86.9565217391304,4,2,1,65,0,0
196345,375,4,2,1,65,1,0
196345,-86.9565217391304,4,2,1,65,0,0
197658,375,4,2,1,70,1,0
197658,-80,4,2,1,70,0,0
198970,375,4,2,1,70,1,0
198970,-80,4,2,1,70,0,0
200283,375,4,2,1,70,1,0
200283,-80,4,2,1,70,0,0
201595,375,4,2,1,70,1,0
201595,-80,4,2,1,70,0,0
202908,375,4,2,1,70,1,0
202908,-80,4,2,1,70,0,0
204220,375,4,2,1,70,1,0
204220,-80,4,2,1,70,0,0
205533,375,4,2,1,70,1,0
205533,-71.4285714285714,4,2,1,70,0,0
206845,375,4,2,1,70,1,0
206845,-71.4285714285714,4,2,1,70,0,0
208158,375,4,2,1,60,1,0
208158,-125,4,2,1,60,0,0
209001,-83.3333333333333,4,2,1,60,0,0
209283,-62.5,4,2,1,60,0,0
209658,-83.3333333333333,4,2,1,60,0,0
211720,-62.5,4,2,1,60,0,0
212001,-83.3333333333333,4,2,1,60,0,0
212283,-125,4,2,1,60,0,0
212658,-83.3333333333333,4,2,1,60,0,0
214158,-125,4,2,1,60,0,0
215001,-83.3333333333333,4,2,1,60,0,0
215283,-62.5,4,2,1,60,0,0
215658,-83.3333333333333,4,2,1,60,0,0
217720,-62.5,4,2,1,60,0,0
218001,-83.3333333333333,4,2,1,60,0,0
218283,-125,4,2,1,60,0,0
218658,-83.3333333333333,4,2,1,60,0,0
220158,-83.3333333333333,4,2,1,65,0,0
226720,-125,4,2,1,65,0,0
227001,-83.3333333333333,4,2,1,65,0,0
227283,-62.5,4,2,1,65,0,0
227658,-83.3333333333333,4,2,1,65,0,0
232158,-83.3333333333333,4,2,1,50,0,0
235158,-83.3333333333333,4,2,1,55,0,0
236658,-83.3333333333333,4,2,1,60,0,0
237408,-100,4,2,1,60,0,0
238158,375,7,2,1,60,1,0
247345,375,4,2,1,60,1,0
248658,375,4,2,1,60,1,0
248658,-90.9090909090909,4,2,1,60,0,0
249970,375,4,2,1,60,1,0
249970,-90.9090909090909,4,2,1,60,0,0
250907,-133.333333333333,4,2,1,60,0,0
251283,375,4,2,1,60,1,0
251283,-90.9090909090909,4,2,1,60,0,0
252595,375,5,2,1,60,1,0
252595,-71.4285714285714,4,2,1,60,0,0
253532,-100,4,2,1,60,0,0
254282,375,4,2,1,60,1,0
254282,-71.4285714285714,4,2,1,60,0,0
255594,375,7,2,1,60,1,0
255594,-238.095238095238,7,2,1,60,0,0
260656,-238.095238095238,7,2,1,20,0,0

[Colours]
Combo1 : 222,219,209
Combo2 : 198,154,252
Combo3 : 242,201,115

[HitObjects]
89,90,4936,5,2,0:0:0:0:
93,84,5004,1,2,0:0:0:0:
98,77,5072,2,0,P|159:68|289:55,1,192.499994125366,2|0,0:0|0:0,0:0:0:0:
346,160,6845,6,0,P|317:156|291:154,1,52.4999983978272,2|0,0:0|0:0,0:0:0:0:
335,252,7663,2,0,P|360:248|387:246,2,52.4999983978272
260,318,8754,5,2,0:0:0:0:
255,328,8822,1,2,0:0:0:0:
248,338,8890,2,0,B|214:288|238:257|244:253|251:249|268:202|239:154,1,192.499994125366,2|0,0:0|0:0,0:0:0:0:
168,58,10663,6,0,P|161:108|161:116,1,52.4999983978272,2|0,0:0|0:0,0:0:0:0:
282,64,11481,2,0,P|274:47|263:10,2,52.4999983978272
333,159,12572,5,2,0:0:0:0:
340,149,12640,1,2,0:0:0:0:
344,135,12708,2,0,P|395:130|500:213,1,192.499994125366,2|0,0:0|0:0,0:0:0:0:
356,233,14481,6,0,P|386:225|415:223,1,52.4999983978272,2|0,0:0|0:0,0:0:0:0:
453,326,15299,2,0,P|410:312|396:310,2,52.4999983978272
318,342,16390,5,2,0:0:0:0:
321,350,16458,2,0,B|265:369|241:335|238:330|236:326|208:280|135:315,1,201.249993858338
276,229,18299,6,0,P|291:262|295:279,1,52.4999983978272,2|0,0:0|0:0,0:0:0:0:
148,230,19118,2,0,P|174:231|207:239,2,52.4999983978272
34,114,20219,6,0,L|37:145,1,16.6666666666667,8|8,0:2|0:2,0:0:0:0:
42,103,20488,6,0,L|59:241,1,119.999996337891,6|2,1:1|0:0,0:0:0:0:
47,240,20897,1,0,0:0:0:0:
136,140,21033,2,0,L|148:233,1,89.9999972534181,10|0,0:1|0:0,0:0:0:0:
147,229,21306,6,0,P|193:193|255:193,1,119.999996337891,10|8,0:2|0:1,0:0:0:0:
266,217,21715,1,8,0:1:0:0:
226,329,21851,2,0,L|218:269,1,59.9999981689454,8|0,1:1|0:0,0:0:0:0:
201,113,22124,1,8,1:2:0:0:
201,113,22397,6,0,L|293:123,1,59.9999981689454,2|0,1:0|0:0,0:0:0:0:
344,57,22669,1,2,0:0:0:0:
218,44,22806,1,8,0:1:0:0:
206,33,22942,2,0,L|265:39,1,59.9999981689454,2|0,0:0|0:0,0:0:0:0:
361,148,23215,5,2,1:0:0:0:
342,153,23351,1,8,0:1:0:0:
465,188,23487,2,0,L|471:148,2,39.9999987792969,8|0|0,0:1|0:0|0:0,0:0:0:0:
378,309,23760,5,10,0:1:0:0:
372,256,23851,1,8,0:1:0:0:
366,202,23942,1,8,1:1:0:0:
361,148,24033,1,6,0:3:0:0:
361,148,24306,6,0,L|217:131,1,119.999996337891,6|2,1:2|0:0,0:0:0:0:
226,152,24715,1,8,0:1:0:0:
315,54,24851,2,0,L|222:43,1,89.9999972534181,10|0,1:1|0:0,0:0:0:0:
225,43,25124,6,0,P|247:93|215:160,1,119.999996337891,10|0,0:0|0:0,0:0:0:0:
198,170,25533,1,8,0:1:0:0:
100,106,25669,2,0,L|171:94,1,59.9999981689454,8|0,1:1|0:0,0:0:0:0:
321,69,25942,1,10,1:2:0:0:
321,69,26215,6,0,L|310:156,1,59.9999981689454,6|0,1:1|0:0,0:0:0:0:
295,254,26487,1,2,0:0:0:0:
278,239,26624,1,8,0:1:0:0:
420,200,26760,1,10,0:1:0:0:
180,177,27033,6,0,P|198:242|203:320,1,131.25000500679,10|0,1:2|0:0,0:0:0:0:
172,372,27578,5,4,0:3:0:0:
172,372,28124,6,0,P|162:319|152:289,1,59.9999981689454,6|0,1:1|0:0,0:0:0:0:
168,296,28396,2,0,P|175:325|179:354,1,59.9999981689454,2|0,0:0|0:0,0:0:0:0:
15,331,28669,2,0,P|43:339|71:350,1,59.9999981689454,10|0,0:0|0:0,0:0:0:0:
177,210,28942,6,0,P|149:220|56:241,1,119.999996337891,10|0,1:2|0:0,0:0:0:0:
24,169,29351,1,8,0:1:0:0:
117,81,29487,6,0,L|108:156,1,59.9999981689454,8|0,0:1|0:0,0:0:0:0:
0,0,29760,2,0,L|9:75,1,59.9999981689454,10|0,1:2|0:0,0:0:0:0:
217,35,30033,6,0,P|221:64|229:94,1,59.9999981689454,4|0,1:1|0:0,0:0:0:0:
271,179,30305,1,2,0:0:0:0:
368,100,30442,1,8,0:1:0:0:
373,115,30578,2,0,P|345:103|316:95,1,59.9999981689454,2|8,0:0|0:1,0:0:0:0:
210,208,30851,1,2,1:0:0:0:
225,218,30987,2,0,P|248:199|270:178,1,59.9999981689454,8|8,0:1|0:1,0:0:0:0:
392,235,31259,5,0,0:0:0:0:
321,332,31396,5,2,1:0:0:0:
317,260,31532,1,0,0:0:0:0:
438,293,31668,5,6,0:3:0:0:
395,351,31805,1,0,0:0:0:0:
406,224,31942,6,0,P|443:224|504:211,1,59.9999981689454,6|0,1:2|0:0,0:0:0:0:
477,205,32214,2,0,P|447:208|417:207,1,59.9999981689454,2|8,0:0|0:1,0:0:0:0:
421,56,32487,2,0,P|433:120|441:140,1,59.9999981689454,10|0,0:1|0:0,0:0:0:0:
313,232,32760,6,0,P|320:202|329:99,1,119.999996337891,10|0,1:2|0:0,0:0:0:0:
255,85,33169,1,8,0:1:0:0:
181,180,33305,6,0,L|239:164,1,59.9999981689454,8|0,0:1|0:0,0:0:0:0:
120,48,33578,2,0,L|213:70,1,59.9999981689454,10|0,0:0|0:0,0:0:0:0:
129,124,33782,1,2,0:0:0:0:
122,130,33851,6,0,L|51:113,1,59.9999981689454,14|0,1:1|0:0,0:0:0:0:
169,276,34123,1,2,0:0:0:0:
181,253,34260,1,8,0:1:0:0:
37,289,34396,1,10,0:1:0:0:
294,384,34669,6,0,P|284:306|280:234,1,119.999996337891,10|8,1:2|0:3,0:0:0:0:
358,185,35123,5,8,0:1:0:0:
312,154,35214,1,8,0:1:0:0:
257,150,35305,1,8,1:1:0:0:
207,175,35396,1,8,1:1:0:0:
179,224,35487,1,4,0:3:0:0:
179,224,35760,6,0,P|108:247|51:213,1,129.999994049073,6|2,1:1|0:0,0:0:0:0:
105,78,36169,1,0,1:0:0:0:
90,87,36305,2,0,P|92:137|126:176,1,97.4999955368044,2|0,3:0|0:0,0:0:0:0:
121,173,36578,6,0,P|177:140|249:172,1,129.999994049073,10|0,1:0|3:0,0:0:0:0:
293,219,36987,1,8,0:1:0:0:
193,260,37123,5,2,1:0:0:0:
191,248,37191,1,2,0:0:0:0:
189,234,37260,1,6,0:3:0:0:
169,345,37396,2,0,L|256:333,1,64.9999970245363,10|0,1:2|0:0,0:0:0:0:
295,207,37669,6,0,L|385:223,1,64.9999970245363,6|0,1:2|0:0,0:0:0:0:
457,322,37941,1,10,1:2:0:0:
347,342,38078,1,4,0:3:0:0:
236,361,38214,1,2,0:0:0:0:
464,309,38487,5,2,1:0:0:0:
457,322,38623,2,0,P|436:265|455:199,1,129.999994049073,8|2,0:1|0:0,0:0:0:0:
512,81,39032,5,10,0:1:0:0:
456,86,39123,1,8,0:1:0:0:
400,92,39214,1,8,1:1:0:0:
344,99,39305,1,6,0:3:0:0:
344,99,39578,6,0,P|366:156|344:222,1,129.999994049073,6|2,1:1|3:0,0:0:0:0:
203,158,39987,1,2,1:0:0:0:
214,144,40123,2,0,P|259:146|284:168,1,64.9999970245363,10|0,0:1|0:0,0:0:0:0:
372,17,40396,6,0,P|308:18|261:61,1,129.999994049073,10|0,1:2|3:0,0:0:0:0:
214,144,40805,1,8,0:1:0:0:
145,68,40941,5,2,1:0:0:0:
155,65,41010,1,2,0:0:0:0:
166,63,41078,1,2,0:0:0:0:
66,118,41214,2,0,L|57:54,1,64.9999970245363,10|0,0:0|0:0,0:0:0:0:
230,150,41488,6,0,L|214:290,1,129.999994049073,6|2,1:1|1:0,0:0:0:0:
142,229,41896,1,8,1:2:0:0:
305,184,42033,1,10,0:1:0:0:
107,329,42306,5,10,0:1:0:0:
105,320,42351,1,8,0:1:0:0:
105,320,42851,6,0,P|126:286|126:326,1,104.999996795654,10|0,0:3|0:0,0:0:0:0:
47,246,43397,6,0,P|75:222|125:212,1,64.9999970245363,6|0,1:1|0:0,0:0:0:0:
195,236,43669,1,2,0:0:0:0:
142,114,43806,1,2,1:0:0:0:
121,122,43942,2,0,P|155:134|188:173,1,64.9999970245363,2|0,3:0|0:0,0:0:0:0:
285,55,44215,6,0,P|295:103|236:200,1,129.999994049073,10|0,1:2|3:0,0:0:0:0:
195,236,44624,2,0,P|229:248|262:287,1,64.9999970245363,8|2,0:1|1:0,0:0:0:0:
325,235,44897,1,4,0:3:0:0:
289,348,45033,2,0,P|316:324|366:315,1,64.9999970245363,10|0,1:2|0:0,0:0:0:0:
429,208,45306,6,0,P|419:256|478:353,1,129.999994049073,6|2,1:1|0:0,0:0:0:0:
325,235,45715,2,0,L|317:155,1,64.9999970245363,8|2,0:3|3:0,0:0:0:0:
300,161,45987,1,4,0:3:0:0:
415,199,46124,2,0,L|407:120,1,64.9999970245363,10|0,1:1|0:0,0:0:0:0:
284,35,46396,1,8,0:1:0:0:
345,80,46533,5,2,0:0:0:0:
226,94,46669,5,2,0:0:0:0:
281,44,46806,1,0,0:0:0:0:
329,154,46942,5,6,0:3:0:0:
253,161,47078,1,2,0:0:0:0:
154,61,47215,6,0,P|169:94|166:145,1,64.9999970245363,6|0,1:2|0:0,0:0:0:0:
112,190,47487,1,10,0:1:0:0:
42,81,47624,1,2,1:0:0:0:
23,93,47760,2,0,P|58:96|100:125,1,64.9999970245363,10|0,1:2|0:0,0:0:0:0:
250,211,48033,6,0,P|214:214|148:283,1,129.999994049073,10|2,0:1|0:0,0:0:0:0:
121,383,48442,1,8,0:1:0:0:
14,278,48578,2,0,P|46:290|79:329,1,64.9999970245363,10|0,1:2|0:0,0:0:0:0:
259,327,48851,2,0,P|224:330|182:359,1,64.9999970245363,10|0,0:0|0:0,0:0:0:0:
155,148,49124,6,0,P|151:179|154:213,2,64.9999970245363,4|0|2,1:1|0:0|0:0,0:0:0:0:
238,108,49533,1,8,0:1:0:0:
57,146,49669,1,10,0:1:0:0:
325,251,49942,6,0,P|319:202|319:153,1,97.4999955368044,2|0,1:0|0:0,0:0:0:0:
295,76,50214,5,6,0:3:0:0:
313,74,50305,1,2,0:0:0:0:
333,79,50396,1,2,0:0:0:0:
351,92,50487,5,8,0:1:0:0:
322,120,50578,1,8,0:1:0:0:
277,135,50669,1,8,0:1:0:0:
225,121,50760,1,8,1:1:0:0:
183,67,50851,1,10,0:3:0:0:
114,46,50942,1,6,0:3:0:0:
47,84,51033,6,0,P|55:141|70:207,1,119.999996337891,6|2,1:1|3:0,0:0:0:0:
171,236,51442,2,0,P|174:202|182:158,1,59.9999981689454,8|2,0:1|3:0,0:0:0:0:
88,285,51714,1,0,1:0:0:0:
249,340,51851,6,0,P|189:348|131:361,1,119.999996337891,12|2,1:2|3:0,0:0:0:0:
46,353,52260,1,8,0:1:0:0:
9,283,52396,1,2,1:0:0:0:
34,209,52533,1,8,0:1:0:0:
0,293,52669,5,2,3:1:0:0:
116,232,52805,2,0,P|102:305|101:311,1,59.9999981689454,8|2,0:1|3:0,0:0:0:0:
14,151,53078,2,0,P|28:224|29:230,1,59.9999981689454,0|2,1:0|3:0,0:0:0:0:
102,134,53351,1,0,1:0:0:0:
15,31,53487,6,0,P|72:48|131:57,1,119.999996337891,14|2,1:2|3:0,0:0:0:0:
195,117,53896,1,8,0:1:0:0:
258,70,54033,1,2,1:0:0:0:
335,85,54169,1,8,0:1:0:0:
262,217,54305,6,0,P|204:199|145:191,1,119.999996337891,6|2,1:1|3:0,0:0:0:0:
191,338,54714,2,0,P|195:308|202:279,1,59.9999981689454,8|2,0:1|3:0,0:0:0:0:
121,283,54987,1,4,0:3:0:0:
259,215,55123,6,0,P|246:159|240:94,1,119.999996337891,10|0,1:2|3:0,0:0:0:0:
307,58,55533,1,8,0:1:0:0:
366,111,55669,1,2,1:0:0:0:
441,82,55805,1,8,0:1:0:0:
360,123,55942,5,2,3:0:0:0:
444,220,56078,2,0,P|439:187|433:160,1,59.9999981689454,8|2,0:1|3:0,0:0:0:0:
333,271,56351,2,0,P|339:241|343:211,1,59.9999981689454,4|2,0:3|3:0,0:0:0:0:
417,299,56623,1,4,0:3:0:0:
275,361,56760,6,0,P|355:369|398:378,1,119.999996337891,14|2,1:2|0:0,0:0:0:0:
476,345,57169,1,2,0:0:0:0:
480,355,57237,1,2,0:0:0:0:
483,369,57305,5,2,1:0:0:0:
512,232,57442,1,8,1:2:0:0:
346,196,57578,5,6,1:1:0:0:
361,275,57714,1,2,0:0:0:0:
410,134,57851,5,2,0:0:0:0:
334,108,57987,1,10,1:2:0:0:
427,221,58123,5,2,0:0:0:0:
492,173,58259,1,2,1:0:0:0:
324,205,58396,6,0,P|260:217|229:220,1,75.0000028610231,10|2,1:1|0:0,0:0:0:0:
326,33,58669,2,0,P|333:69|339:106,1,75.0000028610231,2|10,0:0|1:2,0:0:0:0:
148,101,58942,5,2,1:0:0:0:
229,126,59078,1,2,0:0:0:0:
164,183,59214,5,14,1:1:0:0:
254,50,59351,2,0,B|207:30|181:63|180:69|179:75|143:106|95:69,1,150.000005722046,8|10,0:1|1:2,0:0:0:0:
36,36,59760,1,2,0:0:0:0:
123,0,59896,1,4,0:3:0:0:
35,121,60033,6,0,P|56:176|44:198,1,75,10|0,3:1|0:0,0:0:0:0:
33,195,60305,1,2,1:0:0:0:
137,333,60442,6,0,L|155:221,1,112.500004291535,14|0,1:2|0:0,0:0:0:0:
147,207,60714,1,6,0:3:0:0:
299,166,60851,6,0,P|263:213|269:238,1,75,6|2,1:1|0:0,0:0:0:0:
394,303,61123,5,2,0:0:0:0:
353,236,61260,1,10,1:2:0:0:
232,320,61396,5,2,0:0:0:0:
311,310,61533,1,4,0:3:0:0:
268,160,61669,6,0,P|260:204|257:235,1,75.0000028610231,10|0,1:1|0:0,0:0:0:0:
136,329,61942,2,0,P|132:291|125:254,1,75.0000028610231,2|10,0:0|1:2,0:0:0:0:
155,106,62214,5,0,1:0:0:0:
175,185,62351,1,10,0:1:0:0:
92,163,62487,5,6,1:0:0:0:
243,107,62623,2,0,B|225:145|250:177|255:178|260:178|298:207|237:293,1,150.000005722046,8|2,0:1|1:0,0:0:0:0:
351,350,63033,1,2,0:0:0:0:
379,267,63169,1,2,1:0:0:0:
234,331,63305,6,0,P|189:321|137:319,1,75.0000028610231,10|2,1:2|0:0,0:0:0:0:
0,190,63578,5,8,0:1:0:0:
76,137,63714,1,8,0:1:0:0:
176,205,63851,1,8,0:1:0:0:
273,108,63987,1,8,0:1:0:0:
364,255,64123,6,0,P|357:304|352:342,2,69.9999978637696,6|0|0,1:1|0:0|0:0,0:0:0:0:
105,375,64942,2,0,P|98:326|93:288,2,69.9999978637696,2|0|0,0:0|0:0|0:0,0:0:0:0:
293,186,65760,2,0,P|286:235|281:273,2,69.9999978637696,2|0|0,0:0|0:0|0:0,0:0:0:0:
23,351,66578,5,2,0:0:0:0:
154,204,66851,5,2,0:0:0:0:
150,219,66942,1,8,0:1:0:0:
146,234,67033,1,8,0:1:0:0:
146,253,67123,1,10,0:1:0:0:
149,273,67214,5,8,1:1:0:0:
214,280,67305,1,8,1:1:0:0:
262,230,67396,6,0,P|240:218|209:210,2,33.3333333333333,4|0|0,1:0|0:0|0:0,0:0:0:0:
338,216,67669,2,0,P|327:189|306:159,2,39.9999987792969,0|0|0,1:0|0:0|0:0,0:0:0:0:
274,307,67942,2,0,P|295:298|318:294,2,46.6666652425131,8|0|0,1:2|0:0|0:0,0:0:0:0:
443,281,68214,5,6,1:0:0:0:
427,273,68305,1,8,0:1:0:0:
411,270,68396,1,8,0:1:0:0:
393,269,68487,5,6,1:3:0:0:
419,225,68578,1,4,0:3:0:0:
416,176,68669,1,4,0:3:0:0:
374,153,68760,1,6,1:3:0:0:
365,120,68851,1,4,0:3:0:0:
368,87,68942,1,4,0:3:0:0:
387,59,69033,5,14,0:1:0:0:
306,42,69169,1,0,0:0:0:0:
437,113,69305,5,10,0:3:0:0:
287,132,69442,1,10,1:1:0:0:
391,49,69578,1,14,0:3:0:0:
129,3,69851,5,14,0:1:0:0:
267,176,70123,2,0,L|270:155,1,20,2|0,0:0|0:0,0:0:0:0:
119,239,70396,5,0,3:2:0:0:
256,61,70669,6,0,P|284:59|310:67,1,55.0000016784668,4|0,1:1|0:0,0:0:0:0:
302,196,70942,2,0,P|287:172|280:146,1,55.0000016784668,2|0,1:0|0:0,0:0:0:0:
402,94,71214,2,0,P|389:118|369:137,1,55.0000016784668,2|0,1:0|0:0,0:0:0:0:
156,228,71487,6,0,P|183:229|209:221,1,55.0000016784668,10|0,3:2|0:0,0:0:0:0:
202,94,71760,2,0,P|187:117|180:143,1,55.0000016784668,2|0,1:0|0:0,0:0:0:0:
302,196,72032,2,0,P|289:171|269:152,1,55.0000016784668,2|0,1:0|0:0,0:0:0:0:
56,62,72305,6,0,P|83:60|109:68,1,55.0000016784668,4|0,1:1|0:0,0:0:0:0:
102,196,72578,2,0,P|87:172|80:146,1,55.0000016784668,2|0,1:0|0:0,0:0:0:0:
203,69,72851,5,2,1:0:0:0:
180,143,72987,1,8,1:1:0:0:
299,89,73123,5,6,1:1:0:0:
307,87,73158,1,2,1:1:0:0:
62,145,73396,1,6,3:3:0:0:
263,229,73669,1,6,0:3:0:0:
60,331,73942,6,0,P|55:280|52:253,1,55.0000016784668,6|0,1:1|0:0,0:0:0:0:
144,224,74214,2,0,P|139:275|136:302,1,55.0000016784668,2|0,1:0|0:0,0:0:0:0:
63,184,74487,2,0,P|58:133|55:106,1,55.0000016784668,2|0,1:0|0:0,0:0:0:0:
269,45,74760,6,0,P|264:96|261:123,1,55.0000016784668,10|0,3:2|0:0,0:0:0:0:
357,150,75032,2,0,P|348:101|346:77,1,55.0000016784668,2|0,1:0|0:0,0:0:0:0:
272,192,75305,2,0,P|267:243|264:270,1,55.0000016784668,2|0,1:0|0:0,0:0:0:0:
450,333,75578,5,4,1:0:0:0:
465,258,75714,1,0,0:0:0:0:
355,191,75851,5,2,1:0:0:0:
382,285,75987,1,8,1:1:0:0:
445,157,76123,1,4,1:2:0:0:
196,95,76396,5,6,3:3:0:0:
196,102,76430,1,6,0:3:0:0:
157,317,76669,1,2,1:0:0:0:
49,157,76942,1,6,0:3:0:0:
0,381,77214,6,0,P|51:367|77:363,1,69.9999978637696,4|8,1:2|0:1,0:0:0:0:
218,294,77487,5,0,1:0:0:0:
83,260,77623,1,8,0:1:0:0:
248,201,77760,5,0,1:0:0:0:
167,216,77896,1,8,0:1:0:0:
242,351,78033,6,0,P|235:316|225:283,1,69.9999978637696,8|0,0:0|0:0,0:0:0:0:
331,191,78305,5,8,0:1:0:0:
330,204,78373,1,8,0:1:0:0:
328,215,78442,1,8,1:1:0:0:
260,95,78578,5,0,1:0:0:0:
339,73,78714,1,8,0:1:0:0:
240,180,78851,5,8,0:2:0:0:
195,30,78987,5,8,0:1:0:0:
171,131,79123,1,0,1:0:0:0:
270,102,79260,1,8,0:1:0:0:
104,62,79396,6,0,P|68:70|22:77,1,69.9999978637696,4|8,1:2|0:1,0:0:0:0:
270,102,79669,6,0,P|274:62|277:37,2,46.6666652425131,4|0|0,1:1|0:0|0:0,0:0:0:0:
158,143,79942,5,0,1:0:0:0:
165,196,80033,1,8,0:1:0:0:
175,252,80123,1,8,0:1:0:0:
186,306,80214,1,4,1:2:0:0:
184,327,80487,5,4,1:0:0:0:
198,316,80578,1,8,0:1:0:0:
216,310,80669,1,8,0:1:0:0:
233,311,80760,5,0,1:0:0:0:
264,353,80851,1,8,0:1:0:0:
318,362,80942,1,8,0:1:0:0:
368,347,81033,5,0,1:0:0:0:
375,328,81123,1,8,0:1:0:0:
376,308,81214,1,8,0:1:0:0:
369,290,81305,5,0,1:2:0:0:
320,267,81396,1,8,0:1:0:0:
299,216,81487,1,8,0:1:0:0:
321,166,81578,5,0,1:0:0:0:
339,168,81669,1,8,0:1:0:0:
355,177,81760,1,8,0:1:0:0:
368,189,81851,5,8,1:1:0:0:
418,167,81942,1,8,0:1:0:0:
427,115,82033,1,8,0:1:0:0:
404,67,82123,5,8,1:0:0:0:
310,44,82260,1,0,0:0:0:0:
339,146,82396,5,8,0:3:0:0:
223,172,82532,1,8,0:1:0:0:
354,151,82669,1,8,0:1:0:0:
237,321,82942,5,12,0:3:0:0:
235,313,82976,1,12,0:3:0:0:
190,50,83214,1,4,0:3:0:0:
33,257,83487,1,4,0:3:0:0:
3,23,83760,6,0,B|68:-4|96:38|96:44|97:50|131:89|188:63,1,204.000001245117,4|0,1:1|0:0,0:0:0:0:
170,233,86033,5,2,0:0:0:0:
158,257,86123,1,2,0:0:0:0:
146,282,86214,6,0,B|137:243|137:201|137:201|147:184|147:184|149:144|141:104,1,180,2|0,3:0|0:0,0:0:0:0:
287,255,89078,5,2,3:2:0:0:
291,249,89146,1,2,3:2:0:0:
298,243,89214,6,0,P|349:249|367:255,1,59.9999981689454,2|0,3:2|0:0,0:0:0:0:
319,322,89651,1,0,0:0:0:0:
337,169,89870,5,2,0:0:0:0:
337,169,90308,1,0,0:0:0:0:
259,152,90527,1,0,0:0:0:0:
212,214,90692,5,2,0:0:0:0:
216,222,90746,2,0,P|245:228|275:230,1,59.9999981689454,2|0,0:0|0:0,0:0:0:0:
259,152,91183,1,0,0:0:0:0:
237,301,91402,5,2,0:0:0:0:
237,301,91840,1,0,0:0:0:0:
159,317,92059,1,0,0:0:0:0:
174,181,92279,6,0,P|185:227|187:250,1,59.9999981689454,2|0,0:0|0:0,0:0:0:0:
253,197,92716,1,0,0:0:0:0:
109,226,92935,5,2,0:0:0:0:
109,226,93373,1,0,0:0:0:0:
95,150,93592,1,0,0:0:0:0:
162,104,93757,5,2,0:0:0:0:
168,110,93812,2,0,P|172:139|180:168,1,59.9999981689454,2|0,0:0|0:0,0:0:0:0:
95,150,94249,1,0,0:0:0:0:
248,124,94468,5,2,0:0:0:0:
258,119,97279,5,2,0:0:0:0:
259,123,97315,1,2,0:0:0:0:
249,211,97534,1,2,0:0:0:0:
270,222,97753,1,0,0:0:0:0:
255,300,97972,1,2,0:0:0:0:
423,322,99943,6,0,P|386:313|370:312,2,50,2|0|0,0:0|0:0|0:0,0:0:0:0:
461,185,100609,2,0,P|434:212|425:225,2,50,2|0|0,0:0|0:0|0:0,0:0:0:0:
363,96,101276,2,0,P|373:132|380:146,2,50,2|0|0,0:0|0:0|0:0,0:0:0:0:
228,147,101943,6,0,P|265:156|281:157,1,50,2|0,0:0|0:0,0:0:0:0:
234,226,102276,1,2,0:0:0:0:
213,232,102387,1,2,0:0:0:0:
130,66,102609,6,0,P|121:103|118:133,2,59.9999981689454,2|0|0,0:0|0:0|0:0,0:0:0:0:
44,242,103276,2,0,P|80:231|108:218,2,59.9999981689454,2|0|0,0:0|0:0|0:0,0:0:0:0:
234,224,103943,2,0,P|206:197|181:180,2,59.9999981689454,2|0|0,0:0|0:0|0:0,0:0:0:0:
58,316,104609,5,2,0:0:0:0:
164,268,104831,1,2,0:0:0:0:
176,307,104943,1,0,0:0:0:0:
169,346,105054,1,2,0:0:0:0:
304,228,105276,6,0,P|272:215|219:211,1,80,2|0,0:0|0:0,0:0:0:0:
248,314,105720,1,0,0:0:0:0:
345,153,105943,6,0,P|377:140|430:136,1,80,2|0,0:0|0:0,0:0:0:0:
403,233,106387,1,0,0:0:0:0:
306,74,106609,6,0,P|274:61|221:57,1,80,2|0,0:0|0:0,0:0:0:0:
250,154,107053,1,0,0:0:0:0:
403,44,107276,5,2,0:0:0:0:
334,168,107498,1,0,0:0:0:0:
381,140,107609,1,2,0:0:0:0:
433,151,107720,1,2,0:0:0:0:
376,339,107942,5,2,0:0:0:0:
293,302,108165,1,2,0:0:0:0:
212,264,108387,1,0,0:0:0:0:
51,378,108609,5,2,0:0:0:0:
131,320,108832,1,2,0:0:0:0:
212,264,109054,1,0,0:0:0:0:
193,52,109276,5,2,0:0:0:0:
203,158,109499,1,2,0:0:0:0:
212,264,109721,1,2,0:0:0:0:
283,97,109942,5,2,0:0:0:0:
75,194,110165,1,2,0:0:0:0:
79,127,110276,1,2,0:0:0:0:
85,60,110387,1,2,0:0:0:0:
220,280,110609,6,0,B|147:273|147:273|105:298|105:298|1:287,1,200,4|0,1:2|0:0,0:0:0:0:
8,73,111276,5,2,1:2:0:0:
85,60,111498,1,2,0:0:0:0:
163,46,111720,1,0,0:0:0:0:
232,268,111942,5,2,1:2:0:0:
333,287,112164,1,2,0:0:0:0:
435,299,112386,1,0,0:0:0:0:
295,118,112609,6,0,L|302:210,1,64.9999970245363,4|0,1:2|0:0,0:0:0:0:
212,357,112831,2,0,L|216:292,1,64.9999970245363,6|0,1:2|0:0,0:0:0:0:
382,136,113054,2,0,L|389:228,1,64.9999970245363,4|0,1:2|0:0,0:0:0:0:
131,308,113276,6,0,B|126:270|141:230|141:230|167:214|167:214|188:171|171:96,1,200,4|0,1:2|0:0,0:0:0:0:
422,24,113942,5,2,1:2:0:0:
434,104,114165,1,2,0:0:0:0:
444,184,114387,1,0,0:0:0:0:
215,260,114609,5,2,1:2:0:0:
207,363,114831,1,2,0:0:0:0:
223,149,115054,5,8,0:0:0:0:
230,154,115091,1,8,0:0:0:0:
21,260,115276,5,0,1:2:0:0:
91,257,115387,1,0,1:0:0:0:
138,206,115498,1,2,1:0:0:0:
140,137,115609,1,0,1:0:0:0:
92,84,115720,1,0,1:0:0:0:
184,297,115942,6,0,L|373:279,1,174.999994659424,4|0,1:1|0:0,0:0:0:0:
436,259,116276,2,0,P|428:293|426:317,1,50,0|0,3:0|0:0,0:0:0:0:
511,141,116609,6,0,L|322:123,1,174.999994659424,4|0,1:1|0:0,0:0:0:0:
260,103,116943,2,0,P|268:137|269:161,1,50,0|0,3:0|0:0,0:0:0:0:
201,16,117276,6,0,L|289:4,1,69.9999978637696,12|0,0:2|0:0,0:0:0:0:
190,181,117498,1,2,1:0:0:0:
125,110,117609,2,0,L|263:93,1,139.999995727539,12|0,0:1|0:0,0:0:0:0:
181,249,117942,6,0,P|181:209|192:175,1,69.9999978637696,4|0,1:2|0:0,0:0:0:0:
225,329,118165,1,0,1:0:0:0:
112,285,118276,2,0,P|180:278|234:319,1,139.999995727539,12|0,0:1|0:0,0:0:0:0:
369,382,118609,6,0,B|350:316|350:316|391:232,1,139.999995727539,4|2,1:2|0:0,0:0:0:0:
481,327,118942,1,8,0:1:0:0:
271,198,119276,6,0,B|301:136|301:136|275:46,1,139.999995727539,4|2,1:2|0:0,0:0:0:0:
158,122,119609,1,8,0:1:0:0:
436,106,119942,6,0,L|446:49,2,46.6666652425131,4|0|0,1:1|0:0|0:0,0:0:0:0:
377,208,120165,2,0,L|367:151,2,46.6666652425131,10|8|8,0:1|0:1|0:1,0:0:0:0:
466,277,120387,1,10,1:1:0:0:
470,254,120461,1,8,1:1:0:0:
475,228,120535,1,8,1:1:0:0:
479,203,120609,5,8,0:0:0:0:
256,234,120831,1,8,0:3:0:0:
36,267,121054,1,4,0:3:0:0:
173,43,121276,6,0,P|171:124|163:189,1,119.999996337891,4|2,1:2|0:0,0:0:0:0:
103,211,121609,1,8,0:1:0:0:
111,249,121720,1,2,0:0:0:0:
328,270,121942,5,8,0:2:0:0:
281,217,122053,1,0,1:0:0:0:
210,238,122164,1,2,1:0:0:0:
298,91,122387,1,8,0:1:0:0:
471,196,122609,6,0,P|414:187|337:166,1,119.999996337891,0|2,1:2|1:0,0:0:0:0:
298,91,122942,2,0,P|321:86|365:75,1,59.9999981689454,8|0,0:1|0:0,0:0:0:0:
266,177,123165,1,8,0:1:0:0:
179,73,123276,6,0,P|186:138|174:197,1,119.999996337891,0|2,3:2|1:0,0:0:0:0:
116,246,123609,1,0,0:0:0:0:
95,174,123720,1,8,0:1:0:0:
96,384,123942,6,0,P|154:362|214:357,1,119.999996337891,4|2,1:2|0:0,0:0:0:0:
268,304,124276,1,8,0:1:0:0:
298,316,124387,1,2,0:0:0:0:
329,101,124609,5,0,1:2:0:0:
364,168,124720,1,8,1:1:0:0:
318,228,124831,1,2,1:0:0:0:
480,131,125054,1,8,0:1:0:0:
254,29,125276,6,0,P|251:89|243:151,1,119.999996337891,0|0,1:2|1:0,0:0:0:0:
173,207,125609,2,0,P|170:177|164:147,1,59.9999981689454,8|0,0:1|0:0,0:0:0:0:
246,258,125831,1,8,0:1:0:0:
168,302,125942,6,0,P|139:291|91:283,1,59.9999981689454,0|0,3:2|0:0,0:0:0:0:
0,155,126165,1,0,1:0:0:0:
32,235,126276,1,8,0:1:0:0:
103,191,126387,1,4,0:3:0:0:
3,384,126609,6,0,P|80:372|138:368,1,119.999996337891,4|0,1:2|0:0,0:0:0:0:
191,328,126942,1,8,0:1:0:0:
204,351,127054,1,2,0:0:0:0:
250,137,127276,5,0,1:2:0:0:
212,204,127387,1,8,0:1:0:0:
256,269,127498,1,0,1:0:0:0:
195,83,127720,1,8,0:1:0:0:
432,177,127942,6,0,P|372:182|313:192,1,119.999996337891,0|0,1:2|1:0,0:0:0:0:
244,275,128276,2,0,P|273:280|302:288,1,59.9999981689454,8|0,0:1|0:0,0:0:0:0:
223,186,128498,1,8,0:1:0:0:
156,309,128609,6,0,P|150:249|136:191,1,119.999996337891,0|0,3:2|1:0,0:0:0:0:
56,122,128942,1,2,0:0:0:0:
56,136,128998,1,2,0:0:0:0:
55,150,129054,1,10,0:1:0:0:
245,59,129275,6,0,P|228:135|225:194,1,119.999996337891,4|2,1:2|0:0,0:0:0:0:
278,238,129609,1,8,0:1:0:0:
304,226,129720,1,2,0:0:0:0:
388,21,129942,5,0,1:0:0:0:
348,89,130054,1,8,0:1:0:0:
397,149,130165,1,0,1:0:0:0:
217,49,130387,1,8,0:1:0:0:
464,53,130609,5,4,0:3:0:0:
380,238,130831,1,4,1:3:0:0:
408,228,130905,1,8,0:1:0:0:
435,218,130979,1,8,0:1:0:0:
463,207,131054,2,0,L|473:136,2,39.9999987792969,8|8|8,0:1|0:1|0:1,0:0:0:0:
502,309,131276,5,8,0:0:0:0:
249,277,131498,1,4,1:3:0:0:
4,243,131720,1,4,0:3:0:0:
117,90,131942,6,0,P|127:139|132:184,1,69.9999978637696,4|0,1:2|0:0,0:0:0:0:
49,318,132165,1,2,0:0:0:0:
18,229,132276,2,0,B|97:201|83:268|163:237,1,139.999995727539,8|0,0:1|0:0,0:0:0:0:
272,186,132609,5,2,1:0:0:0:
263,269,132720,1,8,0:1:0:0:
255,352,132831,1,6,0:3:0:0:
418,246,133054,2,0,P|363:253|333:258,1,69.9999978637696,8|0,0:1|0:0,0:0:0:0:
255,191,133276,5,0,1:0:0:0:
403,331,133498,1,4,0:3:0:0:
409,342,133609,2,0,P|374:347|339:351,1,69.9999978637696,8|2,0:1|0:0,0:0:0:0:
264,287,133831,1,8,0:1:0:0:
356,185,133942,6,0,P|353:221|347:260,1,69.9999978637696,2|0,3:0|0:0,0:0:0:0:
184,345,134165,2,0,P|181:309|175:270,1,69.9999978637696,4|0,0:3|0:0,0:0:0:0:
438,182,134387,2,0,P|435:218|429:257,1,69.9999978637696,8|0,0:1|0:0,0:0:0:0:
181,165,134609,6,0,P|212:179|245:192,1,69.9999978637696,4|0,1:2|0:0,0:0:0:0:
168,77,134831,1,2,0:0:0:0:
93,181,134942,2,0,P|85:106|66:35,1,139.999995727539,8|0,0:1|0:0,0:0:0:0:
256,0,135276,5,0,1:0:0:0:
246,87,135388,1,8,0:1:0:0:
237,171,135499,1,4,0:3:0:0:
401,39,135720,2,0,P|336:45|307:49,1,69.9999978637696,8|0,0:1|0:0,0:0:0:0:
166,52,135942,5,2,1:0:0:0:
383,135,136165,1,4,0:3:0:0:
389,121,136276,2,0,P|324:127|295:131,1,69.9999978637696,8|2,0:1|0:0,0:0:0:0:
266,216,136498,1,8,0:1:0:0:
380,280,136609,6,0,P|379:245|364:214,1,69.9999978637696,2|0,3:0|0:0,0:0:0:0:
187,240,136831,1,4,0:3:0:0:
235,313,136942,1,8,0:1:0:0:
275,200,137054,1,4,0:3:0:0:
38,345,137276,5,4,1:2:0:0:
28,268,137498,1,0,0:0:0:0:
19,191,137720,1,0,0:0:0:0:
144,111,137942,5,2,1:0:0:0:
150,33,138164,1,0,0:0:0:0:
140,188,138386,1,0,0:0:0:0:
263,276,138609,5,2,1:0:0:0:
253,121,138831,1,2,0:0:0:0:
260,199,139053,2,0,P|282:204|315:219,1,40,2|0,0:0|0:0,0:0:0:0:
418,176,139276,6,0,P|399:180|380:187,1,40,2|0,1:0|0:0,0:0:0:0:
407,276,139498,2,0,P|388:271|369:267,1,40,2|0,0:0|0:0,0:0:0:0:
352,104,139720,2,0,P|338:117|325:133,1,40,14|0,0:3|0:0,0:0:0:0:
250,292,139942,5,4,1:2:0:0:
163,304,140165,1,0,0:0:0:0:
73,319,140387,1,0,0:0:0:0:
90,187,140609,5,2,1:0:0:0:
0,172,140832,1,0,0:0:0:0:
177,199,141054,1,0,0:0:0:0:
86,83,141276,5,2,1:0:0:0:
263,56,141498,1,0,0:0:0:0:
170,111,141720,5,8,0:1:0:0:
171,98,141794,1,8,0:1:0:0:
172,84,141868,1,8,0:1:0:0:
173,71,141942,2,0,L|179:-1,2,46.6666652425131,8|8|8,0:1|0:1|0:1,0:0:0:0:
251,154,142165,5,4,1:3:0:0:
257,226,142276,1,4,0:3:0:0:
265,296,142387,1,8,0:3:0:0:
404,125,142609,6,0,L|408:168,1,42.5000008106232,4|0,1:2|0:0,0:0:0:0:
107,121,142942,6,0,L|104:164,1,42.5000008106232,4|0,1:2|0:0,0:0:0:0:
451,4,143276,6,0,L|455:47,1,42.5000008106232,4|0,1:2|0:0,0:0:0:0:
60,4,143609,6,0,L|57:47,1,42.5000008106232,4|0,1:2|0:0,0:0:0:0:
254,367,143942,6,0,B|241:320|254:294|260:293|266:293|292:253|245:189,1,150,4|0,1:1|0:0,0:0:0:0:
242,206,144386,2,0,L|250:137,2,50,2|0|0,0:0|0:0|0:0,0:0:0:0:
393,219,144830,5,2,0:0:0:0:
339,149,145053,1,0,0:0:0:0:
421,113,145275,1,0,0:0:0:0:
256,66,145497,5,2,0:0:0:0:
344,30,145719,1,0,0:0:0:0:
247,147,145942,1,2,1:0:0:0:
215,138,146053,1,0,0:0:0:0:
187,128,146164,2,0,L|179:52,1,50
7,26,146386,5,2,0:0:0:0:
65,94,146608,1,0,0:0:0:0:
0,154,146830,1,0,0:0:0:0:
113,312,147053,6,0,P|167:296|277:277,1,150,0|0,3:0|0:0,0:0:0:0:
296,348,147475,1,0,1:0:0:0:
319,356,147581,1,0,0:0:0:0:
344,365,147686,2,0,L|422:355,1,50,8|0,0:1|0:0,0:0:0:0:
362,170,147898,6,0,B|357:210|357:210|361:225|361:225|353:279,1,100,10|0,1:1|0:0,0:0:0:0:
484,202,148320,1,0,0:0:0:0:
477,175,148426,1,0,0:0:0:0:
470,146,148531,5,2,0:0:0:0:
364,176,148743,1,0,0:0:0:0:
309,86,148954,2,0,L|317:24,2,50,2|0|8,0:0|0:0|0:1,0:0:0:0:
196,235,149306,6,0,B|187:177|187:177|192:157|192:157|186:103,1,133.333333333333,10|0,1:1|0:0,0:0:0:0:
22,155,149799,1,4,1:3:0:0:
31,153,149869,1,4,1:3:0:0:
41,152,149940,1,12,0:3:0:0:
52,150,150010,6,0,P|38:271|28:315,1,150,6|0,1:1|0:0,0:0:0:0:
130,273,150422,2,0,B|120:207,1,50,8|0,0:1|0:0,0:0:0:0:
0,367,150628,6,0,B|72:404|82:312|184:380,1,150,6|0,1:0|0:0,0:0:0:0:
213,384,151040,1,0,0:0:0:0:
257,284,151247,6,0,L|205:291,5,33.3333333333333,0|8|8|8|8|8,0:0|0:1|0:1|0:1|0:1|0:1,0:0:0:0:
326,329,151659,5,8,1:1:0:0:
331,306,151728,1,10,1:1:0:0:
337,286,151796,1,8,1:1:0:0:
342,264,151865,1,8,1:3:0:0:
207,197,152071,5,2,1:2:0:0:
257,190,152163,1,0,1:0:0:0:
307,184,152255,1,0,1:0:0:0:
359,179,152346,1,4,1:3:0:0:
410,90,152484,5,8,0:1:0:0:
391,86,152552,1,4,0:3:0:0:
371,83,152621,1,4,0:3:0:0:
351,80,152690,2,0,L|342:18,2,33.3333333333333,4|4|0,0:3|0:3|0:0,0:0:0:0:
359,179,152896,6,0,P|296:166|176:150,1,150,4|0,1:2|0:0,0:0:0:0:
157,205,153290,1,0,0:0:0:0:
294,313,153488,6,0,L|329:305,13,33.3333333333333,6|0|0|8|8|8|10|8|8|10|8|8|8|8,1:0|0:0|0:0|0:1|0:1|0:1|0:1|0:1|0:1|0:1|0:1|0:1|0:1|0:1,0:0:0:0:
380,377,154474,5,8,0:1:0:0:
222,357,154650,1,8,1:1:0:0:
71,331,154825,1,8,1:2:0:0:
249,221,155067,6,0,B|259:240|259:240|232:252|232:252|210:280,1,75,0|0,1:0|0:0,0:0:0:0:
326,306,155461,5,8,0:1:0:0:
340,239,155560,1,8,0:1:0:0:
354,171,155658,6,0,L|484:152,1,100,4|0,1:2|1:0,0:0:0:0:
282,50,155939,2,0,L|412:69,1,100,4|4,0:3|0:3,0:0:0:0:
230,166,156220,2,0,L|360:147,1,100,8|0,0:0|1:0,0:0:0:0:
185,30,156595,6,0,L|173:125,1,50,8|4,0:1|0:3,0:0:0:0:
59,177,156783,1,8,0:1:0:0:
54,195,156876,1,8,0:0:0:0:
118,227,156970,6,0,L|97:102,1,100,4|0,1:1|1:0,0:0:0:0:
216,309,157282,1,8,0:1:0:0:
222,314,157345,1,8,0:1:0:0:
256,246,157439,2,0,L|191:236,1,50,8|0,0:1|1:1,0:0:0:0:
88,320,157626,1,8,0:1:0:0:
107,317,157720,1,0,1:0:0:0:
124,312,157813,1,4,0:3:0:0:
144,307,157907,6,0,P|136:330|134:356,1,50,8|0,0:1|1:0,0:0:0:0:
209,373,158095,2,0,P|217:350|219:324,1,50,12|0,0:3|0:0,0:0:0:0:
191,144,158282,6,0,L|204:265,1,100,4|0,1:2|1:0,0:0:0:0:
310,103,158564,2,0,L|299:202,1,100,4|4,0:3|0:3,0:0:0:0:
202,31,158845,2,0,L|215:152,1,100,8|0,0:0|1:0,0:0:0:0:
359,22,159220,6,0,L|291:9,1,50,8|4,0:1|0:3,0:0:0:0:
396,139,159408,1,0,1:0:0:0:
447,88,159501,2,0,L|361:102,1,50,8|4,0:1|1:1,0:0:0:0:
294,214,159688,5,8,0:1:0:0:
315,265,159782,1,4,0:3:0:0:
367,259,159876,1,8,0:1:0:0:
381,206,159970,1,4,0:3:0:0:
335,176,160063,2,0,B|288:183|288:183|280:178|280:178|212:188,1,100,8|8,0:1|0:1,0:0:0:0:
179,268,160345,6,0,L|249:278,1,50,12|4,0:3|0:3,0:0:0:0:
155,150,160533,1,8,0:0:0:0:
154,161,160595,1,4,0:3:0:0:
152,171,160658,1,4,0:3:0:0:
150,184,160720,1,12,0:3:0:0:
306,99,160907,6,0,L|294:-2,1,100,4|0,1:2|1:0,0:0:0:0:
419,139,161189,2,0,L|431:38,1,100,4|4,0:3|0:3,0:0:0:0:
301,192,161470,2,0,L|289:91,1,100,8|0,0:0|1:0,0:0:0:0:
437,236,161845,6,0,L|374:223,1,50,8|4,0:1|0:3,0:0:0:0:
245,335,162033,1,0,1:0:0:0:
268,343,162126,1,8,0:1:0:0:
320,295,162220,6,0,L|222:315,1,100,4|0,1:1|1:0,0:0:0:0:
150,141,162532,1,8,0:1:0:0:
152,134,162595,1,8,0:1:0:0:
216,171,162689,2,0,L|206:258,1,50,8|0,0:1|1:0,0:0:0:0:
104,297,162876,1,8,0:1:0:0:
100,280,162970,1,0,1:0:0:0:
95,263,163063,1,4,0:3:0:0:
93,247,163157,6,0,P|61:255|24:247,1,50,8|4,0:1|0:3,0:0:0:0:
30,178,163345,2,0,P|62:170|99:178,1,50,12|0,0:3|0:0,0:0:0:0:
169,34,163533,6,0,P|146:78|147:128,1,100,4|0,1:2|0:0,0:0:0:0:
163,211,163814,5,2,0:0:0:0:
173,203,163908,1,2,0:0:0:0:
188,195,164001,1,8,0:1:0:0:
207,190,164095,1,10,0:1:0:0:
230,191,164189,1,2,0:0:0:0:
253,201,164283,1,10,0:1:0:0:
274,219,164376,1,8,0:1:0:0:
294,245,164470,1,10,0:1:0:0:
325,261,164564,1,10,0:1:0:0:
359,263,164658,1,2,0:0:0:0:
389,253,164751,1,8,0:1:0:0:
417,227,164845,2,0,L|424:311,2,50,10|2|2,0:1|0:0|0:0,0:0:0:0:
486,154,165126,5,8,0:1:0:0:
453,118,165220,1,10,0:1:0:0:
402,109,165313,1,10,0:1:0:0:
352,133,165407,1,10,0:1:0:0:
315,189,165501,1,8,0:1:0:0:
252,214,165595,1,10,0:1:0:0:
184,205,165688,1,8,0:1:0:0:
144,143,165782,1,10,0:1:0:0:
156,122,166158,6,0,B|149:189|149:189|153:209|153:209|142:306,1,172.500003290176,4|8,1:2|0:0,0:0:0:0:
234,332,166533,2,0,L|223:259,1,57.5000010967255,6|0,0:3|0:0,0:0:0:0:
42,360,166720,6,0,P|99:361|152:382,1,115.000002193451,10|0,0:0|0:0,0:0:0:0:
234,332,167001,1,8,0:1:0:0:
228,344,167095,6,0,P|256:338|282:326,1,57.5000010967255,6|8,0:3|0:1,0:0:0:0:
351,368,167283,1,8,0:1:0:0:
276,182,167470,5,12,0:1:0:0:
440,271,167657,1,10,0:1:0:0:
393,273,167751,1,8,0:1:0:0:
368,243,167845,2,0,P|374:214|380:163,1,57.5000010967255,6|0,0:3|0:0,0:0:0:0:
475,51,168032,6,0,P|482:120|497:185,1,115.000002193451,10|8,0:0|0:1,0:0:0:0:
333,108,168313,1,8,0:1:0:0:
346,95,168407,1,0,1:1:0:0:
395,91,168501,1,8,0:1:0:0:
439,113,168595,1,10,0:1:0:0:
246,242,168783,6,0,B|151:207|168:315|46:247,1,172.500003290176,4|8,1:1|0:0,0:0:0:0:
101,118,169158,2,0,L|110:174,1,57.5000010967255,6|0,0:3|0:0,0:0:0:0:
7,312,169345,6,0,P|-8:253|18:197,1,115.000002193451,10|0,0:0|0:0,0:0:0:0:
101,118,169626,1,8,0:1:0:0:
110,126,169720,6,0,L|48:120,1,57.5000010967255,6|8,0:3|0:1,0:0:0:0:
0,65,169908,1,8,0:1:0:0:
152,242,170095,5,12,0:1:0:0:
211,55,170282,1,2,1:0:0:0:
186,99,170376,1,8,0:1:0:0:
209,146,170470,2,0,P|243:137|280:136,1,57.5000010967255,6|0,0:3|0:0,0:0:0:0:
384,273,170657,6,0,L|229:260,1,115.000002193451,10|0,0:0|0:0,0:0:0:0:
254,274,170938,1,12,1:3:0:0:
281,347,171032,5,14,0:2:0:0:
450,125,171408,6,0,B|415:161|426:205|426:205|474:236|458:319,1,172.500003290176,4|8,1:1|0:0,0:0:0:0:
377,330,171783,2,0,P|384:298|385:254,1,57.5000010967255,6|0,0:3|0:0,0:0:0:0:
227,205,171970,6,0,L|368:184,1,115.000002193451,10|0,0:0|0:0,0:0:0:0:
297,298,172251,1,8,0:1:0:0:
307,287,172345,6,0,L|234:278,1,57.5000010967255,4|8,0:3|0:1,0:0:0:0:
177,271,172533,1,10,0:1:0:0:
288,81,172720,5,14,0:1:0:0:
133,158,172907,1,10,0:1:0:0:
109,112,173001,1,8,0:1:0:0:
126,63,173095,2,0,P|156:75|182:80,1,57.5000010967255,6|0,0:3|0:0,0:0:0:0:
23,267,173282,6,0,P|81:248|160:245,1,115.000002193451,10|8,0:0|0:1,0:0:0:0:
74,360,173563,1,8,0:1:0:0:
86,367,173657,1,6,0:3:0:0:
102,318,173751,1,8,0:1:0:0:
81,271,173845,1,8,0:1:0:0:
265,111,174033,6,0,B|255:184|255:184|262:204|262:204|251:287,1,172.500003290176,4|10,1:1|0:0,0:0:0:0:
351,247,174408,2,0,L|344:165,1,57.5000010967255,6|0,0:3|0:0,0:0:0:0:
210,350,174595,6,0,P|292:354|330:314,1,115.000002193451,10|0,0:0|0:0,0:0:0:0:
421,355,174876,1,8,0:1:0:0:
411,364,174970,6,0,L|418:290,1,57.5000010967255,0|8,1:1|0:1,0:0:0:0:
425,230,175158,1,8,0:1:0:0:
208,350,175345,5,14,0:1:0:0:
184,154,175532,1,0,1:2:0:0:
207,201,175626,1,8,0:1:0:0:
180,248,175720,2,0,P|150:240|92:242,1,57.5000010967255,2|0,0:3|0:0,0:0:0:0:
35,51,175907,5,10,0:0:0:0:
116,33,176095,1,2,0:0:0:0:
6,162,176282,5,6,0:3:0:0:
74,153,176376,1,2,0:0:0:0:
143,163,176470,1,10,0:1:0:0:
208,189,176563,1,2,0:0:0:0:
258,241,176658,6,0,L|244:382,1,115.000002193451,4|0,1:1|1:0,0:0:0:0:
338,384,176939,1,4,0:3:0:0:
351,364,177033,2,0,L|341:294,1,57.5000010967255,2|0,0:0|0:0,0:0:0:0:
452,179,177220,6,0,P|403:205|342:201,1,115.000002193451,10|0,0:2|0:0,0:0:0:0:
285,82,177501,1,8,0:1:0:0:
299,78,177595,1,2,1:2:0:0:
298,129,177689,1,0,0:0:0:0:
264,168,177783,1,10,0:1:0:0:
103,27,177970,6,0,L|96:101,1,57.5000010967255,14|0,0:1|0:0,0:0:0:0:
87,161,178157,1,2,0:0:0:0:
203,102,178345,1,10,0:3:0:0:
80,242,178533,5,10,0:1:0:0:
267,152,178720,1,6,0:3:0:0:
80,242,178907,1,8,0:1:0:0:
73,237,178938,1,8,0:1:0:0:
73,237,179283,5,10,0:0:0:0:
77,273,179376,1,8,0:1:0:0:
81,305,179470,1,8,0:1:0:0:
87,337,179564,6,0,L|146:343,1,57.5000010967255,0|0,3:2|0:0,0:0:0:0:
271,352,179751,2,0,L|246:297,1,57.5000010967255,0|2,3:2|0:0,0:0:0:0:
190,186,179939,2,0,L|155:233,1,57.5000010967255,0|0,3:2|0:0,0:0:0:0:
298,208,180126,1,4,0:3:0:0:
281,214,180220,1,14,0:3:0:0:
165,93,180408,5,8,0:1:0:0:
232,82,180501,1,8,1:1:0:0:
305,68,180595,6,0,L|297:131,1,57.5000010967255,4|0,1:1|0:0,0:0:0:0:
393,264,180782,1,8,0:1:0:0:
417,249,180876,1,8,0:1:0:0:
438,234,180970,6,0,L|428:175,1,57.5000010967255,2|0,1:0|0:0,0:0:0:0:
255,205,181157,2,0,P|283:205|311:212,1,57.5000010967255,10|0,0:2|0:0,0:0:0:0:
445,86,181345,2,0,P|417:92|388:92,1,57.5000010967255,0|0,3:1|0:0,0:0:0:0:
292,63,181532,6,0,L|290:81,1,12.5000004768372,2|2,0:0|0:0,0:0:0:0:
407,340,181908,6,0,L|420:216,1,115.000002193451,4|0,1:1|1:0,0:0:0:0:
356,170,182189,1,4,0:3:0:0:
303,195,182283,1,10,0:0:0:0:
251,176,182376,2,0,L|260:86,1,57.5000010967255,8|0,0:1|1:1,0:0:0:0:
435,43,182564,5,8,0:1:0:0:
382,18,182658,1,8,0:1:0:0:
330,37,182751,2,0,L|339:127,2,57.5000010967255,4|12|4,0:3|0:3|0:3,0:0:0:0:
255,2,183033,1,4,0:3:0:0:
158,194,183220,6,0,L|167:104,1,57.5000010967255,12|0,0:1|0:0,0:0:0:0:
172,56,183407,1,2,0:0:0:0:
40,120,183595,1,2,1:0:0:0:
256,118,183782,5,10,0:1:0:0:
52,223,183970,1,2,1:0:0:0:
256,118,184157,1,8,0:1:0:0:
249,112,184188,1,8,0:1:0:0:
249,112,184532,5,8,1:1:0:0:
280,117,184626,1,8,0:1:0:0:
310,120,184720,1,8,0:1:0:0:
339,124,184814,6,0,L|354:225,1,57.5000010967255,0|2,3:0|0:0,0:0:0:0:
509,161,185001,2,0,L|414:123,1,57.5000010967255,0|2,3:0|0:0,0:0:0:0:
382,283,185189,2,0,L|461:219,1,57.5000010967255,0|0,3:0|0:0,0:0:0:0:
264,185,185376,1,4,0:3:0:0:
267,205,185470,1,6,0:3:0:0:
162,349,185658,5,8,0:1:0:0:
171,274,185752,1,8,1:1:0:0:
181,200,185845,6,0,L|31:228,1,115.000002193451,4|8,1:1|0:1,0:0:0:0:
0,150,186126,1,8,0:1:0:0:
21,128,186220,2,0,L|95:141,1,57.5000010967255,2|0,1:0|0:0,0:0:0:0:
192,1,186407,6,0,P|164:69|188:132,1,115.000002193451,8|0,0:0|1:0,0:0:0:0:
356,286,186782,1,10,0:1:0:0:
352,218,186876,1,10,0:1:0:0:
306,169,186970,1,10,1:1:0:0:
239,164,187063,1,10,1:1:0:0:
181,200,187157,5,14,1:1:0:0:
187,241,187251,1,8,0:1:0:0:
194,279,187345,1,8,0:1:0:0:
201,322,187439,1,4,0:3:0:0:
208,361,187533,1,2,0:0:0:0:
276,244,187720,5,0,1:0:0:0:
73,309,187908,2,0,L|89:179,1,115.000002193451,10|2,0:0|0:0,0:0:0:0:
174,152,188189,1,8,0:1:0:0:
181,200,188283,1,4,0:3:0:0:
0,103,188470,5,4,1:1:0:0:
41,93,188563,1,0,0:0:0:0:
82,84,188657,2,0,L|155:67,1,57.5000010967255,8|6,0:1|0:3,0:0:0:0:
229,48,188845,1,2,1:0:0:0:
102,0,189032,5,8,0:0:0:0:
176,201,189220,1,12,0:1:0:0:
240,115,189407,1,2,0:0:0:0:
196,109,189501,1,8,0:1:0:0:
154,103,189595,1,4,0:3:0:0:
281,279,189782,5,4,1:1:0:0:
287,236,189876,1,8,0:1:0:0:
294,194,189970,1,2,1:0:0:0:
302,149,190064,1,4,0:3:0:0:
310,104,190158,1,2,0:0:0:0:
203,190,190345,5,0,1:0:0:0:
404,272,190533,2,0,L|388:158,1,115.000002193451,10|2,0:0|0:0,0:0:0:0:
310,104,190814,1,8,0:1:0:0:
303,149,190908,1,6,0:3:0:0:
142,292,191095,5,4,1:1:0:0:
138,249,191188,1,8,0:1:0:0:
133,208,191282,2,0,L|124:134,1,57.5000010967255,10|6,0:1|0:3,0:0:0:0:
105,67,191470,1,2,0:0:0:0:
220,144,191657,5,2,1:0:0:0:
6,111,191845,1,8,0:0:0:0:
138,249,192032,1,8,0:1:0:0:
191,240,192126,1,8,0:1:0:0:
243,230,192220,1,6,0:3:0:0:
296,220,192313,1,8,0:1:0:0:
348,209,192407,5,6,1:1:0:0:
341,255,192501,1,8,0:1:0:0:
333,299,192595,2,0,L|322:355,2,57.5000010967255,8|6|2,0:1|0:3|0:0,0:0:0:0:
440,220,192970,5,2,1:0:0:0:
245,306,193158,1,10,0:0:0:0:
417,384,193345,1,2,0:0:0:0:
409,338,193439,1,8,0:1:0:0:
401,294,193533,1,6,0:3:0:0:
178,220,193720,5,4,1:1:0:0:
223,215,193813,1,8,0:1:0:0:
267,210,193907,1,10,0:1:0:0:
308,206,194001,1,6,0:3:0:0:
351,201,194095,1,2,0:0:0:0:
288,299,194282,5,2,1:0:0:0:
188,114,194470,2,0,L|302:127,1,115.000002193451,10|2,0:0|0:0,0:0:0:0:
353,36,194751,1,8,0:1:0:0:
306,42,194845,1,6,0:3:0:0:
409,230,195033,5,4,1:1:0:0:
413,185,195126,1,8,0:1:0:0:
419,142,195220,2,0,L|428:59,1,57.5000010967255,10|4,0:1|0:3,0:0:0:0:
436,9,195408,1,2,0:0:0:0:
512,140,195595,5,2,1:0:0:0:
306,42,195783,2,0,L|325:179,1,115.000002193451,10|2,0:0|0:0,0:0:0:0:
236,226,196064,1,8,0:1:0:0:
240,181,196158,1,6,0:3:0:0:
428,288,196345,5,4,1:1:0:0:
382,294,196438,1,0,0:0:0:0:
336,301,196532,1,8,0:1:0:0:
291,306,196626,1,4,0:3:0:0:
245,313,196720,1,14,0:3:0:0:
257,338,196813,1,4,0:3:0:0:
268,359,196907,5,2,1:0:0:0:
321,155,197095,1,8,0:0:0:0:
165,231,197282,1,10,0:1:0:0:
114,222,197376,1,8,0:1:0:0:
64,214,197470,2,0,L|7:206,1,57.5000010967255,6|8,0:3|0:1,0:0:0:0:
242,0,197658,5,4,1:1:0:0:
183,38,197751,2,0,L|191:139,1,62.5,8|6,0:1|0:3,0:0:0:0:
342,91,197939,2,0,L|275:80,1,62.5,8|0,0:1|1:0,0:0:0:0:
111,145,198126,1,8,0:1:0:0:
145,187,198220,1,10,1:2:0:0:
199,193,198314,1,8,0:1:0:0:
260,153,198408,6,0,P|270:194|240:262,1,62.5,4|8,1:1|0:1,0:0:0:0:
171,324,198595,1,10,0:1:0:0:
159,302,198689,2,0,P|189:272|263:264,1,62.5,6|10,0:3|0:1,0:0:0:0:
338,293,198876,1,8,0:1:0:0:
351,313,198970,6,0,P|297:355|228:347,1,125,4|6,1:1|0:3,0:0:0:0:
159,302,199251,1,8,0:1:0:0:
135,258,199345,1,2,1:0:0:0:
96,233,199438,1,2,1:0:0:0:
55,229,199532,1,10,1:2:0:0:
17,242,199626,1,4,0:3:0:0:
61,302,199720,5,12,0:3:0:0:
69,297,199813,2,0,L|81:210,1,62.5,4|0,0:3|1:0,0:0:0:0:
16,163,200001,1,12,0:3:0:0:
8,158,200094,2,0,L|-4:71,1,62.5,4|2,1:1|0:0,0:0:0:0:
217,119,200283,5,4,1:1:0:0:
147,95,200376,2,0,P|143:125|151:156,1,62.5,8|0,0:1|0:0,0:0:0:0:
338,97,200564,2,0,B|284:105|284:105|276:112|276:112|216:119,1,125,4|4,1:1|0:3,0:0:0:0:
229,204,200845,1,2,1:0:0:0:
256,208,200939,1,8,0:1:0:0:
285,213,201033,5,6,1:1:0:0:
255,252,201126,1,8,0:1:0:0:
258,305,201220,1,6,0:3:0:0:
293,347,201314,1,2,0:0:0:0:
360,351,201408,1,2,1:0:0:0:
412,302,201501,1,2,0:0:0:0:
389,229,201595,6,0,L|309:243,1,62.5,4|2,1:1|0:0,0:0:0:0:
460,72,201782,1,8,0:1:0:0:
481,120,201876,1,4,0:3:0:0:
440,154,201970,1,10,0:1:0:0:
381,106,202063,2,0,L|393:23,2,62.5,8|2|2,0:1|1:0|0:0,0:0:0:0:
327,239,202345,6,0,L|314:177,1,62.5,10|2,1:2|0:0,0:0:0:0:
229,50,202532,1,8,1:1:0:0:
222,106,202626,1,8,0:1:0:0:
215,162,202720,1,14,0:3:0:0:
210,218,202813,1,8,0:1:0:0:
201,272,202908,6,0,L|122:286,1,62.5,4|2,1:1|0:0,0:0:0:0:
96,117,203095,1,10,0:1:0:0:
47,103,203189,1,6,0:3:0:0:
8,135,203283,1,2,0:0:0:0:
7,187,203376,1,4,0:3:0:0:
48,219,203470,2,0,L|109:208,1,62.5,10|2,1:2|0:0,0:0:0:0:
40,384,203658,6,0,L|50:322,1,62.5,4|2,1:1|0:0,0:0:0:0:
253,272,203846,1,10,1:1:0:0:
262,315,203940,1,6,0:3:0:0:
238,348,204034,1,2,0:0:0:0:
197,359,204127,1,4,0:3:0:0:
179,284,204220,6,0,L|198:160,1,125,14|2,1:1|1:0,0:0:0:0:
274,125,204501,1,6,0:3:0:0:
281,153,204595,1,8,0:1:0:0:
303,178,204688,1,4,0:3:0:0:
343,196,204782,1,2,1:0:0:0:
394,180,204876,1,6,0:3:0:0:
395,98,204970,6,0,B|342:108|342:108|338:113|338:113|273:125,1,125,10|2,1:2|1:0,0:0:0:0:
132,76,205251,1,8,0:1:0:0:
207,50,205345,2,0,L|195:135,1,62.5,6|2,0:3|0:0,0:0:0:0:
82,267,205533,5,4,1:1:0:0:
129,257,205626,1,8,0:1:0:0:
178,247,205720,1,8,1:1:0:0:
226,238,205814,1,4,0:3:0:0:
275,230,205908,5,0,1:0:0:0:
242,297,206001,1,4,0:3:0:0:
266,370,206095,1,14,0:3:0:0:
342,383,206189,1,6,0:3:0:0:
412,329,206283,6,0,L|394:220,1,69.9999978637696,2|6,3:1|0:3,0:0:0:0:
307,81,206470,2,0,L|295:150,1,69.9999978637696,2|14,3:1|0:3,0:0:0:0:
491,314,206658,2,0,L|471:207,1,69.9999978637696,2|0,3:1|0:0,0:0:0:0:
219,263,206845,6,0,L|314:247,1,69.9999978637696,4|0,1:1|0:0,0:0:0:0:
388,115,207032,1,2,3:3:0:0:
307,81,207126,2,0,L|472:100,1,139.999995727539,6|0,1:1|0:0,0:0:0:0:
512,173,207407,5,10,1:1:0:0:
464,178,207501,1,8,0:1:0:0:
417,182,207595,1,4,1:1:0:0:
362,319,207782,5,2,1:0:0:0:
325,325,207876,1,6,0:3:0:0:
287,331,207970,1,10,1:1:0:0:
250,337,208063,1,8,0:1:0:0:
211,344,208157,5,4,1:2:0:0:
68,260,208345,1,2,1:0:0:0:
287,193,208533,1,10,0:0:0:0:
51,171,208720,6,0,P|104:176|138:211,1,80,2|0,1:0|0:0,0:0:0:0:
168,287,209001,2,0,P|123:248|133:178,1,119.999996337891,8|0,0:1|0:0,0:0:0:0:
223,95,209283,2,0,P|192:173|121:190,1,160,10|2,0:0|1:0,0:0:0:0:
74,95,209564,5,8,0:1:0:0:
141,109,209658,1,4,1:1:0:0:
32,233,209845,1,2,0:0:0:0:
0,70,210033,1,8,0:0:0:0:
184,168,210220,1,2,1:0:0:0:
189,164,210314,2,0,L|169:312,1,119.999996337891,8|0,0:1|0:0,0:0:0:0:
248,353,210595,5,6,0:3:0:0:
251,322,210689,1,2,0:0:0:0:
255,291,210783,1,8,0:0:0:0:
259,258,210876,1,2,0:0:0:0:
263,223,210970,1,8,0:1:0:0:
334,204,211064,1,8,0:1:0:0:
372,271,211158,5,4,1:2:0:0:
410,68,211345,1,2,1:0:0:0:
507,192,211533,1,8,0:0:0:0:
372,271,211720,6,0,B|289:230|301:300|201:246,1,160,6|0,0:3|0:0,0:0:0:0:
146,346,212001,2,0,B|198:311|153:294|219:252,1,119.999996337891,10|0,0:1|0:0,0:0:0:0:
187,182,212283,2,0,B|190:224|215:202|216:254,1,80,10|2,0:0|0:0,0:0:0:0:
332,183,212564,5,8,0:1:0:0:
262,163,212658,1,4,1:1:0:0:
306,375,212845,1,2,0:0:0:0:
389,247,213033,1,10,1:1:0:0:
265,163,213220,1,2,1:1:0:0:
269,168,213314,2,0,L|288:24,1,119.999996337891,8|0,0:1|0:0,0:0:0:0:
209,0,213595,5,6,0:3:0:0:
171,145,213783,1,8,0:2:0:0:
47,62,213970,1,8,0:1:0:0:
56,134,214064,1,8,0:1:0:0:
65,206,214158,5,4,1:1:0:0:
254,94,214345,1,2,1:0:0:0:
27,46,214533,1,10,0:0:0:0:
184,236,214720,6,0,P|193:198|175:158,1,80,2|0,1:2|0:0,0:0:0:0:
100,86,215001,2,0,P|123:140|178:161,1,119.999996337891,8|0,0:1|0:0,0:0:0:0:
307,110,215283,2,0,P|214:112|175:168,1,160,10|2,0:0|0:0,0:0:0:0:
273,245,215564,5,8,0:1:0:0:
262,173,215658,1,4,1:1:0:0:
393,293,215845,1,2,0:0:0:0:
218,360,216033,1,8,0:0:0:0:
359,198,216220,1,2,1:2:0:0:
362,205,216314,2,0,L|498:220,1,119.999996337891,8|0,0:1|0:0,0:0:0:0:
431,102,216595,5,6,0:3:0:0:
400,105,216689,1,2,0:0:0:0:
369,109,216783,1,8,0:0:0:0:
336,113,216876,1,2,0:0:0:0:
301,117,216970,1,10,0:1:0:0:
263,182,217064,1,8,0:1:0:0:
299,252,217158,5,4,1:1:0:0:
243,53,217345,1,2,1:0:0:0:
160,179,217533,1,8,0:0:0:0:
299,252,217720,6,0,B|310:209|357:210|357:210|476:227,1,160,2|0,1:1|0:0,0:0:0:0:
512,294,218001,2,0,B|471:304|454:267|454:267|414:168,1,119.999996337891,8|0,0:1|0:0,0:0:0:0:
456,153,218283,2,0,B|475:171|459:192|459:192|418:245,1,80,12|2,0:2|1:0,0:0:0:0:
378,135,218564,5,8,0:1:0:0:
428,82,218658,1,4,1:1:0:0:
265,29,218846,5,2,1:0:0:0:
267,39,218908,1,8,0:1:0:0:
270,51,218971,1,8,0:1:0:0:
273,62,219033,2,0,L|356:69,1,59.9999981689454,8|4,0:0|0:3,0:0:0:0:
223,215,219220,5,10,0:3:0:0:
218,190,219314,1,8,0:1:0:0:
212,165,219408,1,4,0:3:0:0:
209,138,219501,1,4,0:3:0:0:
204,115,219595,5,8,0:1:0:0:
181,126,219689,1,4,0:3:0:0:
142,120,219783,5,2,1:0:0:0:
123,153,219876,1,8,0:1:0:0:
73,153,219970,5,8,0:1:0:0:
70,226,220064,1,8,0:1:0:0:
66,299,220158,5,4,1:2:0:0:
167,206,220345,1,2,0:0:0:0:
242,384,220533,1,10,0:0:0:0:
359,163,220720,1,2,1:0:0:0:
355,175,220814,2,0,L|293:181,1,59.9999981689454,8|2,0:1|0:0,0:0:0:0:
440,369,221001,5,8,0:1:0:0:
400,338,221095,1,0,1:0:0:0:
390,284,221189,1,2,0:0:0:0:
417,241,221283,1,10,0:0:0:0:
446,203,221376,1,8,0:1:0:0:
447,154,221470,1,2,1:0:0:0:
429,121,221564,1,8,0:1:0:0:
402,103,221658,5,4,1:1:0:0:
512,164,221845,1,2,0:0:0:0:
277,233,222033,1,10,0:0:0:0:
512,312,222220,1,0,1:0:0:0:
502,321,222314,2,0,L|490:221,1,59.9999981689454,8|2,0:1|0:0,0:0:0:0:
340,178,222501,5,10,0:1:0:0:
350,170,222595,1,2,1:0:0:0:
347,201,222689,1,4,0:3:0:0:
347,233,222783,1,10,0:0:0:0:
345,269,222876,1,2,0:0:0:0:
343,305,222970,1,8,0:0:0:0:
404,355,223064,1,8,0:1:0:0:
456,300,223158,5,4,1:2:0:0:
273,195,223345,1,10,0:0:0:0:
260,189,223439,2,0,L|275:333,1,119.999996337891,6|8,0:3|0:1,0:0:0:0:
221,381,223720,5,6,0:3:0:0:
171,323,223814,1,8,0:1:0:0:
96,349,223908,2,0,L|115:187,1,119.999996337891,8|6,0:1|0:3,0:0:0:0:
47,124,224189,5,8,0:0:0:0:
73,150,224283,1,2,1:0:0:0:
111,151,224376,1,8,0:1:0:0:
138,121,224470,1,8,0:1:0:0:
128,81,224564,1,10,0:1:0:0:
58,63,224658,5,4,1:1:0:0:
33,134,224751,1,8,0:1:0:0:
64,195,224845,1,2,0:0:0:0:
46,249,224939,1,2,0:0:0:0:
68,296,225033,1,10,0:0:0:0:
212,184,225220,5,6,0:3:0:0:
232,167,225314,1,10,0:0:0:0:
164,133,225408,2,0,L|172:192,1,59.9999981689454,12|0,0:3|0:0,0:0:0:0:
246,327,225595,5,4,0:3:0:0:
239,302,225689,1,8,0:1:0:0:
273,269,225783,5,2,1:2:0:0:
282,225,225876,1,8,0:1:0:0:
334,235,225970,5,8,0:0:0:0:
404,221,226064,1,8,0:1:0:0:
475,204,226158,5,4,1:1:0:0:
302,139,226345,1,10,0:1:0:0:
512,71,226533,1,10,0:0:0:0:
232,4,226720,5,2,1:1:0:0:
226,0,226814,2,0,L|216:62,1,40,8|2,0:1|0:0,0:0:0:0:
183,189,227001,5,8,0:1:0:0:
198,183,227095,2,0,L|148:143,1,59.9999981689454,6|0,0:3|0:0,0:0:0:0:
41,35,227283,5,10,0:0:0:0:
36,59,227376,2,0,L|110:30,1,80,8|2,0:1|0:0,0:0:0:0:
61,174,227564,5,8,0:1:0:0:
67,134,227658,1,4,1:1:0:0:
48,321,227845,1,2,0:0:0:0:
195,184,228033,1,10,0:0:0:0:
314,319,228220,1,2,1:0:0:0:
302,325,228314,2,0,L|315:233,1,59.9999981689454,8|2,0:1|0:0,0:0:0:0:
261,141,228501,5,8,0:1:0:0:
250,130,228595,1,2,1:0:0:0:
287,127,228689,1,6,0:3:0:0:
326,123,228783,1,10,0:0:0:0:
364,120,228876,1,2,0:0:0:0:
404,116,228970,1,10,0:0:0:0:
444,176,229064,1,8,0:1:0:0:
402,240,229158,5,6,1:1:0:0:
283,55,229345,2,0,L|343:48,1,59.9999981689454,8|8,0:0|0:1,0:0:0:0:
237,210,229533,2,0,L|298:203,1,59.9999981689454,10|10,0:0|0:1,0:0:0:0:
179,17,229720,5,6,0:3:0:0:
185,71,229814,1,8,0:1:0:0:
189,129,229908,2,0,L|108:113,2,59.9999981689454,8|2|6,0:1|1:0|0:3,0:0:0:0:
231,230,230189,5,10,3:2:0:0:
166,203,230283,1,2,1:0:0:0:
159,227,230376,1,2,0:0:0:0:
162,252,230470,1,10,0:1:0:0:
176,275,230564,1,10,1:1:0:0:
242,311,230658,5,6,1:1:0:0:
254,309,230751,1,8,0:1:0:0:
266,308,230845,1,8,0:1:0:0:
280,306,230939,1,8,0:1:0:0:
307,272,231033,5,4,1:2:0:0:
325,275,231126,1,8,0:1:0:0:
344,276,231220,1,8,0:1:0:0:
365,279,231314,1,8,0:1:0:0:
401,315,231408,5,4,1:1:0:0:
392,274,231501,1,8,0:1:0:0:
387,234,231595,1,8,0:1:0:0:
383,192,231689,1,8,0:1:0:0:
318,161,231783,5,4,1:2:0:0:
324,110,231876,1,8,0:1:0:0:
329,60,231970,1,8,0:1:0:0:
334,9,232064,1,8,0:1:0:0:
397,45,232158,5,4,1:1:0:0:
258,71,232345,1,4,0:3:0:0:
136,93,232533,1,8,0:3:0:0:
139,83,232626,1,0,1:0:0:0:
143,72,232720,1,0,1:0:0:0:
261,51,232908,1,4,1:3:0:0:
214,192,233095,1,8,0:3:0:0:
78,148,233283,1,4,1:3:0:0:
83,185,233376,1,4,0:3:0:0:
87,223,233470,1,4,0:3:0:0:
92,265,233564,1,4,0:3:0:0:
97,303,233658,5,8,1:3:0:0:
245,323,233845,1,4,0:3:0:0:
389,340,234033,1,12,1:3:0:0:
395,359,234126,1,8,1:3:0:0:
346,232,234314,1,4,0:3:0:0:
352,213,234407,1,12,1:3:0:0:
477,252,234595,1,0,1:0:0:0:
459,258,234689,1,4,0:3:0:0:
440,266,234783,1,12,0:3:0:0:
380,134,234970,1,4,0:3:0:0:
386,136,235033,1,4,0:3:0:0:
393,137,235095,1,4,0:3:0:0:
400,139,235158,5,12,1:1:0:0:
277,122,235345,1,4,0:3:0:0:
196,255,235533,1,4,1:3:0:0:
48,229,235720,1,4,0:3:0:0:
215,280,235908,5,8,1:2:0:0:
301,128,236095,1,8,1:2:0:0:
84,22,236283,1,8,1:2:0:0:
128,194,236470,1,8,0:0:0:0:
253,63,236658,5,12,1:3:0:0:
269,52,236751,1,12,0:3:0:0:
290,49,236845,1,4,0:3:0:0:
316,48,236939,1,8,0:1:0:0:
344,59,237033,1,8,0:2:0:0:
376,93,237126,1,8,0:1:0:0:
414,123,237220,1,8,1:0:0:0:
471,119,237314,1,8,0:1:0:0:
512,63,237408,2,0,L|505:13,1,50,8|0,1:2|0:0,0:0:0:0:
394,193,237595,5,8,0:1:0:0:
397,202,237658,1,8,0:1:0:0:
399,211,237720,1,8,0:1:0:0:
401,220,237783,2,0,L|392:277,1,50,4|8,1:3|0:3,0:0:0:0:
242,141,237970,5,2,0:0:0:0:
274,137,238064,1,6,0:3:0:0:
301,128,238158,6,0,B|290:201|290:201|297:214|297:214|282:319,1,150,4|8,1:2|0:1,0:0:0:0:
278,352,238533,1,10,0:0:0:0:
109,272,238720,5,6,0:3:0:0:
115,278,238814,2,0,L|213:258,1,100,8|8,0:1|0:1,0:0:0:0:
290,276,239095,1,4,0:3:0:0:
202,117,239283,1,8,0:0:0:0:
318,82,239470,5,6,0:3:0:0:
305,188,239658,1,2,1:0:0:0:
305,188,239845,1,6,0:3:0:0:
188,26,240033,6,0,P|194:75|207:145,1,100,8|8,0:2|0:1,0:0:0:0:
81,128,240314,1,8,0:1:0:0:
72,116,240408,1,8,0:3:0:0:
112,89,240501,1,8,0:1:0:0:
162,92,240595,1,8,0:0:0:0:
2,238,240783,6,0,B|44:215|77:243|76:250|98:274|147:257,1,150,4|8,1:2|0:1,0:0:0:0:
186,193,241158,1,8,0:0:0:0:
234,347,241345,5,6,0:3:0:0:
227,351,241439,2,0,L|240:231,1,100,8|8,0:1|0:1,0:0:0:0:
186,193,241720,1,6,0:3:0:0:
378,144,241908,1,10,0:0:0:0:
248,23,242095,5,8,0:3:0:0:
365,49,242283,1,2,1:0:0:0:
288,147,242470,1,4,0:3:0:0:
474,76,242658,5,10,0:0:0:0:
474,76,242845,1,4,0:3:0:0:
261,38,243033,6,0,L|297:45,1,25,14|8,0:1|0:1,0:0:0:0:
285,42,243408,6,0,B|259:65|218:64|218:64|170:24|110:49,1,150,4|8,1:2|0:1,0:0:0:0:
158,117,243783,1,8,0:0:0:0:
320,202,243970,5,6,0:3:0:0:
325,207,244064,2,0,L|332:106,1,100,8|8,0:1|0:1,0:0:0:0:
285,42,244345,1,6,0:3:0:0:
487,0,244533,1,8,0:0:0:0:
453,118,244720,5,6,0:3:0:0:
371,23,244908,1,2,1:0:0:0:
371,23,245095,1,6,0:3:0:0:
325,207,245283,6,0,P|377:204|425:196,1,100,10|8,0:0|0:1,0:0:0:0:
416,321,245564,1,8,0:1:0:0:
404,330,245658,1,2,1:0:0:0:
377,290,245751,1,8,0:1:0:0:
380,240,245845,1,10,0:0:0:0:
201,361,246033,6,0,B|196:295|196:295|188:288|188:288|180:169,1,150,4|8,1:2|0:1,0:0:0:0:
239,160,246408,1,10,0:0:0:0:
72,151,246595,5,6,0:3:0:0:
72,151,246689,2,0,P|134:147|185:118,1,100,8|8,0:1|0:1,0:0:0:0:
197,45,246970,5,8,0:0:0:0:
270,51,247064,1,8,0:1:0:0:
344,61,247157,1,6,1:3:0:0:
332,80,247251,1,4,0:3:0:0:
321,96,247345,6,0,L|331:154,1,50,14|0,1:3|0:0,0:0:0:0:
321,170,247532,1,2,1:0:0:0:
469,153,247720,6,0,L|459:211,1,50,14|0,1:3|0:0,0:0:0:0:
433,328,247907,1,10,0:0:0:0:
292,254,248095,5,10,0:1:0:0:
301,251,248157,1,8,0:1:0:0:
310,249,248220,1,8,0:1:0:0:
319,246,248282,2,0,L|374:256,1,50,6|10,0:3|0:1,0:0:0:0:
235,366,248470,2,0,L|313:357,1,50,10|2,1:1|0:0,0:0:0:0:
229,131,248658,6,0,B|255:195|221:210|213:207|187:255|243:316,1,165.000005035401,4|4,1:2|0:3,0:0:0:0:
158,335,249033,1,8,0:0:0:0:
323,245,249220,5,6,0:3:0:0:
328,249,249314,2,0,L|347:100,1,110.000003356934,8|8,0:1|0:1,0:0:0:0:
374,40,249595,5,8,0:0:0:0:
297,48,249689,1,8,0:1:0:0:
221,57,249783,1,4,1:3:0:0:
227,74,249876,1,4,0:3:0:0:
235,96,249970,6,0,L|141:81,1,55.0000016784668,6|0,1:1|0:0,0:0:0:0:
163,99,250157,1,2,0:0:0:0:
93,213,250345,6,0,L|187:198,1,55.0000016784668,6|0,1:1|0:0,0:0:0:0:
165,216,250532,1,2,0:0:0:0:
239,337,250720,6,0,L|145:322,1,55.0000016784668,14|0,1:3|0:0,0:0:0:0:
97,325,250907,2,0,L|201:343,1,75.0000028610231,8|0,0:0|0:0,0:0:0:0:
375,200,251283,6,0,B|334:219|282:214|282:214|264:199|264:199|203:193|129:231,1,220.000006713867,4|2,1:2|0:0,0:0:0:0:
36,81,251845,1,4,0:3:0:0:
50,68,251939,1,4,0:3:0:0:
73,57,252033,1,8,0:1:0:0:
103,55,252126,1,8,0:1:0:0:
139,68,252220,1,8,1:1:0:0:
170,101,252314,1,8,1:1:0:0:
216,112,252408,1,8,1:2:0:0:
275,76,252501,1,8,1:1:0:0:
260,0,252595,6,0,L|159:13,1,69.9999978637696,4|0,1:1|0:0,0:0:0:0:
108,193,252970,6,0,L|209:206,1,69.9999978637696,4|0,1:2|0:0,0:0:0:0:
275,76,253157,2,0,L|174:89,1,69.9999978637696,6|0,0:3|0:0,0:0:0:0:
97,274,253345,2,0,B|132:278|132:278|135:282|135:282|200:290,1,69.9999978637696,4|0,1:1|0:0,0:0:0:0:
264,232,253532,6,0,L|275:331,1,100,8|0,0:1|0:0,0:0:0:0:
285,335,253782,1,8,1:0:0:0:
294,339,253845,1,8,1:0:0:0:
303,343,253908,1,8,1:2:0:0:
400,212,254095,5,12,0:3:0:0:
333,221,254188,1,4,0:3:0:0:
264,232,254282,6,0,L|272:111,1,69.9999978637696,4|0,1:1|0:0,0:0:0:0:
348,36,254657,6,0,L|355:134,1,69.9999978637696,4|0,1:2|0:0,0:0:0:0:
183,234,254844,2,0,L|191:113,1,69.9999978637696,6|0,0:3|0:0,0:0:0:0:
429,26,255032,2,0,B|431:62|431:62|434:68|434:68|438:145,1,69.9999978637696,4|0,1:1|0:0,0:0:0:0:
265,222,255594,6,0,B|300:150|340:150|435:185|379:412|208:368|90:244|201:177|231:156|264:129|264:129|327:89|312:12|249:-21|249:-21|207:128|266:156|266:156|301:240|334:397|250:390|210:393|186:359,1,1170.74996427155,4|2,1:2|0:0,0:0:0:0:
