osu file format v14

[General]
AudioFilename: audio.mp3
AudioLeadIn: 0
PreviewTime: 20489
Countdown: 0
SampleSet: None
StackLeniency: 0.7
Mode: 3
LetterboxInBreaks: 0
SpecialStyle: 0
WidescreenStoryboard: 0

[Editor]
Bookmarks: 20489,82579,111235,149444,158996
DistanceSpacing: 0.7
BeatDivisor: 4
GridSize: 4
TimelineZoom: 2.599999

[Metadata]
Title:Sekai no Owari ni Aimashou
TitleUnicode:世界の終わりに逢いましょう
Artist:cosMo@BousouP
ArtistUnicode:cosMo@暴走P
Creator:Awang411
Version:10k HELL
Source:
Tags:
BeatmapID:1419261
BeatmapSetID:671211

[Difficulty]
HPDrainRate:5
CircleSize:10
OverallDifficulty:5
ApproachRate:5
SliderMultiplier:1.4
SliderTickRate:1

[Events]
//Background and Video events
0,0,"Sekai no Owari ni Aimashou.jpg",0,0
//Break Periods
//Storyboard Layer 0 (Background)
//Storyboard Layer 1 (Fail)
//Storyboard Layer 2 (Pass)
//Storyboard Layer 3 (Foreground)
//Storyboard Sound Samples

[TimingPoints]
1385,298.507462686567,4,2,0,5,1,0

[HitObjects]
384,192,20489,5,0,0:0:0:0:
76,192,20489,1,0,0:0:0:0:
230,192,20489,1,0,0:0:0:0:
332,192,20638,1,0,0:0:0:0:
384,192,20787,1,0,0:0:0:0:
332,192,20937,1,0,0:0:0:0:
384,192,21086,1,0,0:0:0:0:
230,192,21086,1,0,0:0:0:0:
332,192,21235,1,0,0:0:0:0:
486,192,21384,1,0,0:0:0:0:
435,192,21534,1,0,0:0:0:0:
281,192,21683,1,0,0:0:0:0:
230,192,21683,1,0,0:0:0:0:
486,192,21832,1,0,0:0:0:0:
435,192,21982,1,0,0:0:0:0:
384,192,22131,1,0,0:0:0:0:
435,192,22280,1,0,0:0:0:0:
230,192,22280,1,0,0:0:0:0:
486,192,22429,1,0,0:0:0:0:
435,192,22579,1,0,0:0:0:0:
384,192,22728,1,0,0:0:0:0:
332,192,22877,1,0,0:0:0:0:
230,192,22877,1,0,0:0:0:0:
281,192,23026,1,0,0:0:0:0:
332,192,23176,1,0,0:0:0:0:
230,192,23474,1,0,0:0:0:0:
486,192,23773,1,0,0:0:0:0:
384,192,23922,1,0,0:0:0:0:
230,192,24071,1,0,0:0:0:0:
486,192,24220,1,0,0:0:0:0:
384,192,24370,1,0,0:0:0:0:
435,192,24519,1,0,0:0:0:0:
332,192,24668,1,0,0:0:0:0:
230,192,24668,1,0,0:0:0:0:
384,192,24967,1,0,0:0:0:0:
281,192,25116,1,0,0:0:0:0:
384,192,25265,1,0,0:0:0:0:
230,192,25265,1,0,0:0:0:0:
332,192,25414,1,0,0:0:0:0:
435,192,25564,1,0,0:0:0:0:
384,192,25713,1,0,0:0:0:0:
230,192,25862,1,0,0:0:0:0:
281,192,26011,1,0,0:0:0:0:
486,192,26161,1,0,0:0:0:0:
281,192,26459,1,0,0:0:0:0:
230,192,26459,1,0,0:0:0:0:
486,192,26608,1,0,0:0:0:0:
435,192,26758,1,0,0:0:0:0:
384,192,26907,1,0,0:0:0:0:
332,192,27056,1,0,0:0:0:0:
230,192,27056,1,0,0:0:0:0:
435,192,27205,1,0,0:0:0:0:
384,192,27355,1,0,0:0:0:0:
332,192,27504,1,0,0:0:0:0:
281,192,27653,1,0,0:0:0:0:
435,192,27653,1,0,0:0:0:0:
230,192,27653,1,0,0:0:0:0:
435,192,27952,1,0,0:0:0:0:
281,192,27952,1,0,0:0:0:0:
332,192,28101,1,0,0:0:0:0:
486,192,28101,1,0,0:0:0:0:
230,192,28250,1,0,0:0:0:0:
486,192,28399,1,0,0:0:0:0:
332,192,28399,1,0,0:0:0:0:
281,192,28549,1,0,0:0:0:0:
435,192,28549,1,0,0:0:0:0:
281,192,28847,1,0,0:0:0:0:
230,192,28847,1,0,0:0:0:0:
486,192,28996,1,0,0:0:0:0:
76,192,28996,1,0,0:0:0:0:
128,192,29071,1,0,0:0:0:0:
435,192,29146,1,0,0:0:0:0:
179,192,29146,1,0,0:0:0:0:
128,192,29220,1,0,0:0:0:0:
384,192,29295,1,0,0:0:0:0:
76,192,29295,1,0,0:0:0:0:
230,192,29370,1,0,0:0:0:0:
332,192,29444,1,0,0:0:0:0:
76,192,29444,1,0,0:0:0:0:
128,192,29494,1,0,0:0:0:0:
179,192,29544,1,0,0:0:0:0:
435,192,29593,1,0,0:0:0:0:
76,192,29593,1,0,0:0:0:0:
128,192,29643,1,0,0:0:0:0:
179,192,29693,1,0,0:0:0:0:
384,192,29743,1,0,0:0:0:0:
76,192,29743,1,0,0:0:0:0:
332,192,29892,1,0,0:0:0:0:
25,192,29892,1,0,0:0:0:0:
281,192,30041,1,0,0:0:0:0:
486,192,30041,1,0,0:0:0:0:
179,192,30041,1,0,0:0:0:0:
230,192,30041,1,0,0:0:0:0:
76,192,30041,1,0,0:0:0:0:
332,192,30190,1,0,0:0:0:0:
435,192,30340,1,0,0:0:0:0:
128,192,30340,1,0,0:0:0:0:
25,192,30340,1,0,0:0:0:0:
332,192,30489,1,0,0:0:0:0:
179,192,30489,1,0,0:0:0:0:
435,192,30638,1,0,0:0:0:0:
230,192,30638,1,0,0:0:0:0:
128,192,30638,1,0,0:0:0:0:
25,192,30638,1,0,0:0:0:0:
332,192,30787,1,0,0:0:0:0:
76,192,30787,1,0,0:0:0:0:
179,192,30787,1,0,0:0:0:0:
486,192,30937,1,0,0:0:0:0:
128,192,30937,1,0,0:0:0:0:
230,192,30937,1,0,0:0:0:0:
435,192,31086,1,0,0:0:0:0:
281,192,31235,1,0,0:0:0:0:
76,192,31235,1,0,0:0:0:0:
179,192,31235,1,0,0:0:0:0:
486,192,31384,1,0,0:0:0:0:
128,192,31384,1,0,0:0:0:0:
25,192,31384,1,0,0:0:0:0:
435,192,31534,1,0,0:0:0:0:
76,192,31534,1,0,0:0:0:0:
384,192,31683,1,0,0:0:0:0:
25,192,31683,1,0,0:0:0:0:
435,192,31832,1,0,0:0:0:0:
76,192,31832,1,0,0:0:0:0:
179,192,31832,1,0,0:0:0:0:
486,192,31982,1,0,0:0:0:0:
230,192,31982,1,0,0:0:0:0:
128,192,31982,1,0,0:0:0:0:
435,192,32131,1,0,0:0:0:0:
76,192,32131,1,0,0:0:0:0:
179,192,32131,1,0,0:0:0:0:
384,192,32280,1,0,0:0:0:0:
128,192,32280,1,0,0:0:0:0:
25,192,32280,1,0,0:0:0:0:
332,192,32429,1,0,0:0:0:0:
435,192,32429,1,0,0:0:0:0:
230,192,32429,1,0,0:0:0:0:
76,192,32429,1,0,0:0:0:0:
281,192,32579,1,0,0:0:0:0:
384,192,32579,1,0,0:0:0:0:
25,192,32579,1,0,0:0:0:0:
179,192,32579,1,0,0:0:0:0:
332,192,32728,1,0,0:0:0:0:
435,192,32728,1,0,0:0:0:0:
128,192,32877,1,0,0:0:0:0:
25,192,33026,1,0,0:0:0:0:
230,192,33026,1,0,0:0:0:0:
76,192,33176,1,0,0:0:0:0:
179,192,33176,1,0,0:0:0:0:
486,192,33325,1,0,0:0:0:0:
281,192,33325,1,0,0:0:0:0:
128,192,33325,1,0,0:0:0:0:
435,192,33474,1,0,0:0:0:0:
332,192,33474,1,0,0:0:0:0:
76,192,33474,1,0,0:0:0:0:
179,192,33474,1,0,0:0:0:0:
230,192,33623,1,0,0:0:0:0:
25,192,33623,1,0,0:0:0:0:
486,192,33773,1,0,0:0:0:0:
435,192,33773,1,0,0:0:0:0:
384,192,33922,1,0,0:0:0:0:
332,192,33922,1,0,0:0:0:0:
435,192,34071,1,0,0:0:0:0:
486,192,34071,1,0,0:0:0:0:
230,192,34071,1,0,0:0:0:0:
76,192,34071,1,0,0:0:0:0:
332,192,34220,1,0,0:0:0:0:
281,192,34220,1,0,0:0:0:0:
25,192,34220,1,0,0:0:0:0:
179,192,34220,1,0,0:0:0:0:
128,192,34370,1,0,0:0:0:0:
486,192,34519,1,0,0:0:0:0:
332,192,34519,1,0,0:0:0:0:
76,192,34519,1,0,0:0:0:0:
179,192,34519,1,0,0:0:0:0:
281,192,34668,1,0,0:0:0:0:
435,192,34668,1,0,0:0:0:0:
384,192,34817,1,0,0:0:0:0:
230,192,34817,1,0,0:0:0:0:
25,192,34817,1,0,0:0:0:0:
332,192,34967,1,0,0:0:0:0:
76,192,34967,1,0,0:0:0:0:
179,192,34967,1,0,0:0:0:0:
435,192,35116,1,0,0:0:0:0:
384,192,35265,1,0,0:0:0:0:
230,192,35414,1,0,0:0:0:0:
128,192,35414,1,0,0:0:0:0:
281,192,35564,1,0,0:0:0:0:
76,192,35564,1,0,0:0:0:0:
179,192,35564,1,0,0:0:0:0:
486,192,35713,1,0,0:0:0:0:
25,192,35713,1,0,0:0:0:0:
128,192,35862,1,0,0:0:0:0:
76,192,35862,1,0,0:0:0:0:
281,192,36011,1,0,0:0:0:0:
179,192,36011,1,0,0:0:0:0:
230,192,36011,1,0,0:0:0:0:
486,192,36161,1,0,0:0:0:0:
435,192,36310,1,0,0:0:0:0:
384,192,36459,1,0,0:0:0:0:
25,192,36459,1,0,0:0:0:0:
128,192,36459,1,0,0:0:0:0:
332,192,36608,1,0,0:0:0:0:
76,192,36608,1,0,0:0:0:0:
179,192,36608,1,0,0:0:0:0:
435,192,36758,1,0,0:0:0:0:
384,192,36907,1,0,0:0:0:0:
179,192,36907,1,0,0:0:0:0:
76,192,36907,1,0,0:0:0:0:
332,192,37056,1,0,0:0:0:0:
25,192,37056,1,0,0:0:0:0:
128,192,37056,1,0,0:0:0:0:
281,192,37205,1,0,0:0:0:0:
435,192,37205,1,0,0:0:0:0:
230,192,37205,1,0,0:0:0:0:
76,192,37205,1,0,0:0:0:0:
435,192,37504,1,0,0:0:0:0:
281,192,37504,1,0,0:0:0:0:
230,192,37504,1,0,0:0:0:0:
76,192,37504,1,0,0:0:0:0:
332,192,37653,1,0,0:0:0:0:
486,192,37653,1,0,0:0:0:0:
25,192,37653,1,0,0:0:0:0:
179,192,37653,1,0,0:0:0:0:
486,192,37952,1,0,0:0:0:0:
332,192,37952,1,0,0:0:0:0:
25,192,37952,1,0,0:0:0:0:
179,192,37952,1,0,0:0:0:0:
281,192,38101,1,0,0:0:0:0:
435,192,38101,1,0,0:0:0:0:
230,192,38101,1,0,0:0:0:0:
76,192,38101,1,0,0:0:0:0:
281,192,38399,1,0,0:0:0:0:
486,192,38399,1,0,0:0:0:0:
384,192,38399,1,0,0:0:0:0:
76,192,38399,1,0,0:0:0:0:
179,192,38399,1,0,0:0:0:0:
128,192,38698,1,0,0:0:0:0:
230,192,38698,1,0,0:0:0:0:
332,192,38698,1,0,0:0:0:0:
25,192,38698,1,0,0:0:0:0:
179,192,38773,1,0,0:0:0:0:
281,192,38773,1,0,0:0:0:0:
384,192,38773,1,0,0:0:0:0:
76,192,38773,1,0,0:0:0:0:
435,192,38847,1,0,0:0:0:0:
332,192,38847,1,0,0:0:0:0:
230,192,38847,1,0,0:0:0:0:
128,192,38847,1,0,0:0:0:0:
281,192,38922,1,0,0:0:0:0:
384,192,38922,1,0,0:0:0:0:
486,192,38922,1,0,0:0:0:0:
179,192,38922,1,0,0:0:0:0:
25,192,38996,1,0,0:0:0:0:
332,192,38996,1,0,0:0:0:0:
230,192,38996,1,0,0:0:0:0:
435,192,38996,1,0,0:0:0:0:
76,192,39071,1,0,0:0:0:0:
384,192,39071,1,0,0:0:0:0:
281,192,39071,1,0,0:0:0:0:
486,192,39071,1,0,0:0:0:0:
435,192,39146,1,0,0:0:0:0:
128,192,39146,1,0,0:0:0:0:
332,192,39146,1,0,0:0:0:0:
25,192,39146,1,0,0:0:0:0:
179,192,39220,1,0,0:0:0:0:
486,192,39220,1,0,0:0:0:0:
384,192,39220,1,0,0:0:0:0:
76,192,39220,1,0,0:0:0:0:
25,192,39295,1,0,0:0:0:0:
128,192,39295,1,0,0:0:0:0:
230,192,39295,1,0,0:0:0:0:
435,192,39295,1,0,0:0:0:0:
76,192,39370,1,0,0:0:0:0:
179,192,39370,1,0,0:0:0:0:
281,192,39370,1,0,0:0:0:0:
486,192,39370,1,0,0:0:0:0:
128,192,39444,1,0,0:0:0:0:
230,192,39444,1,0,0:0:0:0:
332,192,39444,1,0,0:0:0:0:
25,192,39444,1,0,0:0:0:0:
179,192,39519,1,0,0:0:0:0:
281,192,39519,1,0,0:0:0:0:
384,192,39519,1,0,0:0:0:0:
76,192,39519,1,0,0:0:0:0:
128,192,39593,1,0,0:0:0:0:
230,192,39593,1,0,0:0:0:0:
332,192,39593,1,0,0:0:0:0:
435,192,39593,1,0,0:0:0:0:
25,192,39593,1,0,0:0:0:0:
76,192,39668,1,0,0:0:0:0:
128,192,39743,1,0,0:0:0:0:
384,192,39743,1,0,0:0:0:0:
179,192,39817,1,0,0:0:0:0:
230,192,39892,1,0,0:0:0:0:
281,192,39892,1,0,0:0:0:0:
486,192,39892,1,0,0:0:0:0:
179,192,39967,1,0,0:0:0:0:
128,192,40041,1,0,0:0:0:0:
332,192,40041,1,0,0:0:0:0:
486,192,40041,1,0,0:0:0:0:
76,192,40116,1,0,0:0:0:0:
281,192,40116,1,0,0:0:0:0:
435,192,40116,1,0,0:0:0:0:
25,192,40190,1,0,0:0:0:0:
384,192,40190,1,0,0:0:0:0:
76,192,40265,1,0,0:0:0:0:
332,192,40265,1,0,0:0:0:0:
486,192,40265,1,0,0:0:0:0:
128,192,40340,1,0,0:0:0:0:
281,192,40340,1,0,0:0:0:0:
435,192,40340,1,0,0:0:0:0:
179,192,40414,1,0,0:0:0:0:
230,192,40489,1,0,0:0:0:0:
332,192,40489,1,0,0:0:0:0:
486,192,40489,1,0,0:0:0:0:
179,192,40564,1,0,0:0:0:0:
128,192,40638,1,0,0:0:0:0:
384,192,40638,1,0,0:0:0:0:
76,192,40713,1,0,0:0:0:0:
230,192,40787,1,0,0:0:0:0:
281,192,40787,1,0,0:0:0:0:
435,192,40787,1,0,0:0:0:0:
179,192,40862,1,0,0:0:0:0:
128,192,40937,1,0,0:0:0:0:
332,192,40937,1,0,0:0:0:0:
76,192,41011,1,0,0:0:0:0:
179,192,41086,1,0,0:0:0:0:
486,192,41086,1,0,0:0:0:0:
384,192,41086,1,0,0:0:0:0:
128,192,41161,1,0,0:0:0:0:
76,192,41235,1,0,0:0:0:0:
281,192,41235,1,0,0:0:0:0:
435,192,41235,1,0,0:0:0:0:
25,192,41310,1,0,0:0:0:0:
332,192,41310,1,0,0:0:0:0:
486,192,41310,1,0,0:0:0:0:
230,192,41384,1,0,0:0:0:0:
384,192,41384,1,0,0:0:0:0:
179,192,41459,1,0,0:0:0:0:
435,192,41459,1,0,0:0:0:0:
281,192,41459,1,0,0:0:0:0:
76,192,41534,1,0,0:0:0:0:
332,192,41534,1,0,0:0:0:0:
486,192,41534,1,0,0:0:0:0:
25,192,41608,1,0,0:0:0:0:
230,192,41683,1,0,0:0:0:0:
435,192,41683,1,0,0:0:0:0:
281,192,41683,1,0,0:0:0:0:
128,192,41758,1,0,0:0:0:0:
76,192,41832,1,0,0:0:0:0:
486,192,41832,1,0,0:0:0:0:
25,192,41907,1,0,0:0:0:0:
230,192,41982,1,0,0:0:0:0:
384,192,41982,1,0,0:0:0:0:
332,192,41982,1,0,0:0:0:0:
179,192,42056,1,0,0:0:0:0:
128,192,42131,1,0,0:0:0:0:
281,192,42131,1,0,0:0:0:0:
76,192,42205,1,0,0:0:0:0:
25,192,42280,1,0,0:0:0:0:
486,192,42280,1,0,0:0:0:0:
435,192,42280,1,0,0:0:0:0:
76,192,42355,1,0,0:0:0:0:
128,192,42429,1,0,0:0:0:0:
384,192,42429,1,0,0:0:0:0:
332,192,42429,1,0,0:0:0:0:
179,192,42504,1,0,0:0:0:0:
435,192,42504,1,0,0:0:0:0:
281,192,42504,1,0,0:0:0:0:
230,192,42579,1,0,0:0:0:0:
486,192,42579,1,0,0:0:0:0:
179,192,42653,1,0,0:0:0:0:
281,192,42653,1,0,0:0:0:0:
435,192,42653,1,0,0:0:0:0:
128,192,42728,1,0,0:0:0:0:
332,192,42728,1,0,0:0:0:0:
384,192,42728,1,0,0:0:0:0:
76,192,42802,1,0,0:0:0:0:
25,192,42877,1,0,0:0:0:0:
281,192,42877,1,0,0:0:0:0:
486,192,42877,1,0,0:0:0:0:
76,192,42952,1,0,0:0:0:0:
128,192,43026,1,0,0:0:0:0:
384,192,43026,1,0,0:0:0:0:
179,192,43101,1,0,0:0:0:0:
230,192,43176,1,0,0:0:0:0:
332,192,43176,1,0,0:0:0:0:
435,192,43176,1,0,0:0:0:0:
179,192,43250,1,0,0:0:0:0:
128,192,43325,1,0,0:0:0:0:
384,192,43325,1,0,0:0:0:0:
76,192,43399,1,0,0:0:0:0:
281,192,43399,1,0,0:0:0:0:
486,192,43399,1,0,0:0:0:0:
25,192,43474,1,0,0:0:0:0:
384,192,43474,1,0,0:0:0:0:
76,192,43549,1,0,0:0:0:0:
128,192,43623,1,0,0:0:0:0:
332,192,43623,1,0,0:0:0:0:
435,192,43623,1,0,0:0:0:0:
179,192,43698,1,0,0:0:0:0:
76,192,43773,1,0,0:0:0:0:
384,192,43773,1,0,0:0:0:0:
128,192,43847,1,0,0:0:0:0:
281,192,43847,1,0,0:0:0:0:
486,192,43847,1,0,0:0:0:0:
179,192,43922,1,0,0:0:0:0:
384,192,43922,1,0,0:0:0:0:
128,192,43996,1,0,0:0:0:0:
76,192,44071,1,0,0:0:0:0:
332,192,44071,1,0,0:0:0:0:
435,192,44071,1,0,0:0:0:0:
128,192,44146,1,0,0:0:0:0:
179,192,44220,1,0,0:0:0:0:
332,192,44220,1,0,0:0:0:0:
230,192,44295,1,0,0:0:0:0:
384,192,44295,1,0,0:0:0:0:
281,192,44370,1,0,0:0:0:0:
486,192,44370,1,0,0:0:0:0:
435,192,44370,1,0,0:0:0:0:
25,192,44370,1,0,0:0:0:0:
76,192,44370,1,0,0:0:0:0:
332,192,44444,1,0,0:0:0:0:
384,192,44519,1,0,0:0:0:0:
128,192,44519,1,0,0:0:0:0:
435,192,44593,1,0,0:0:0:0:
486,192,44668,1,0,0:0:0:0:
230,192,44668,1,0,0:0:0:0:
25,192,44668,1,0,0:0:0:0:
435,192,44743,1,0,0:0:0:0:
384,192,44817,1,0,0:0:0:0:
76,192,44817,1,0,0:0:0:0:
179,192,44817,1,0,0:0:0:0:
332,192,44892,1,0,0:0:0:0:
230,192,44892,1,0,0:0:0:0:
128,192,44892,1,0,0:0:0:0:
281,192,44967,1,0,0:0:0:0:
25,192,44967,1,0,0:0:0:0:
332,192,45041,1,0,0:0:0:0:
179,192,45041,1,0,0:0:0:0:
76,192,45041,1,0,0:0:0:0:
384,192,45116,1,0,0:0:0:0:
230,192,45116,1,0,0:0:0:0:
128,192,45116,1,0,0:0:0:0:
435,192,45190,1,0,0:0:0:0:
486,192,45265,1,0,0:0:0:0:
179,192,45265,1,0,0:0:0:0:
25,192,45265,1,0,0:0:0:0:
435,192,45340,1,0,0:0:0:0:
384,192,45414,1,0,0:0:0:0:
128,192,45414,1,0,0:0:0:0:
332,192,45489,1,0,0:0:0:0:
486,192,45564,1,0,0:0:0:0:
76,192,45564,1,0,0:0:0:0:
230,192,45564,1,0,0:0:0:0:
435,192,45638,1,0,0:0:0:0:
384,192,45713,1,0,0:0:0:0:
179,192,45713,1,0,0:0:0:0:
332,192,45787,1,0,0:0:0:0:
486,192,45862,1,0,0:0:0:0:
25,192,45862,1,0,0:0:0:0:
76,192,45862,1,0,0:0:0:0:
435,192,45937,1,0,0:0:0:0:
384,192,46011,1,0,0:0:0:0:
179,192,46011,1,0,0:0:0:0:
230,192,46011,1,0,0:0:0:0:
281,192,46086,1,0,0:0:0:0:
25,192,46086,1,0,0:0:0:0:
76,192,46086,1,0,0:0:0:0:
486,192,46161,1,0,0:0:0:0:
128,192,46161,1,0,0:0:0:0:
435,192,46235,1,0,0:0:0:0:
179,192,46235,1,0,0:0:0:0:
230,192,46235,1,0,0:0:0:0:
332,192,46310,1,0,0:0:0:0:
25,192,46310,1,0,0:0:0:0:
76,192,46310,1,0,0:0:0:0:
281,192,46384,1,0,0:0:0:0:
486,192,46459,1,0,0:0:0:0:
128,192,46459,1,0,0:0:0:0:
230,192,46459,1,0,0:0:0:0:
384,192,46534,1,0,0:0:0:0:
332,192,46608,1,0,0:0:0:0:
179,192,46608,1,0,0:0:0:0:
281,192,46683,1,0,0:0:0:0:
486,192,46758,1,0,0:0:0:0:
25,192,46758,1,0,0:0:0:0:
230,192,46758,1,0,0:0:0:0:
435,192,46832,1,0,0:0:0:0:
384,192,46907,1,0,0:0:0:0:
76,192,46907,1,0,0:0:0:0:
332,192,46982,1,0,0:0:0:0:
281,192,47056,1,0,0:0:0:0:
128,192,47056,1,0,0:0:0:0:
230,192,47056,1,0,0:0:0:0:
332,192,47131,1,0,0:0:0:0:
384,192,47205,1,0,0:0:0:0:
179,192,47205,1,0,0:0:0:0:
76,192,47205,1,0,0:0:0:0:
435,192,47280,1,0,0:0:0:0:
25,192,47280,1,0,0:0:0:0:
230,192,47280,1,0,0:0:0:0:
486,192,47355,1,0,0:0:0:0:
128,192,47355,1,0,0:0:0:0:
435,192,47429,1,0,0:0:0:0:
25,192,47429,1,0,0:0:0:0:
230,192,47429,1,0,0:0:0:0:
384,192,47504,1,0,0:0:0:0:
76,192,47504,1,0,0:0:0:0:
179,192,47504,1,0,0:0:0:0:
332,192,47579,1,0,0:0:0:0:
281,192,47653,1,0,0:0:0:0:
25,192,47653,1,0,0:0:0:0:
230,192,47653,1,0,0:0:0:0:
332,192,47728,1,0,0:0:0:0:
384,192,47802,1,0,0:0:0:0:
128,192,47802,1,0,0:0:0:0:
435,192,47877,1,0,0:0:0:0:
486,192,47952,1,0,0:0:0:0:
230,192,47952,1,0,0:0:0:0:
76,192,47952,1,0,0:0:0:0:
435,192,48026,1,0,0:0:0:0:
384,192,48101,1,0,0:0:0:0:
128,192,48101,1,0,0:0:0:0:
332,192,48176,1,0,0:0:0:0:
25,192,48176,1,0,0:0:0:0:
179,192,48176,1,0,0:0:0:0:
486,192,48250,1,0,0:0:0:0:
128,192,48250,1,0,0:0:0:0:
435,192,48325,1,0,0:0:0:0:
384,192,48399,1,0,0:0:0:0:
76,192,48399,1,0,0:0:0:0:
230,192,48399,1,0,0:0:0:0:
281,192,48474,1,0,0:0:0:0:
332,192,48549,1,0,0:0:0:0:
128,192,48549,1,0,0:0:0:0:
384,192,48623,1,0,0:0:0:0:
179,192,48623,1,0,0:0:0:0:
25,192,48623,1,0,0:0:0:0:
435,192,48698,1,0,0:0:0:0:
128,192,48698,1,0,0:0:0:0:
384,192,48773,1,0,0:0:0:0:
281,192,48847,1,0,0:0:0:0:
230,192,48847,1,0,0:0:0:0:
76,192,48847,1,0,0:0:0:0:
179,192,48847,1,0,0:0:0:0:
332,192,48922,1,0,0:0:0:0:
384,192,48996,1,0,0:0:0:0:
128,192,48996,1,0,0:0:0:0:
435,192,49071,1,0,0:0:0:0:
179,192,49071,1,0,0:0:0:0:
486,192,49146,1,0,0:0:0:0:
281,192,49146,1,0,0:0:0:0:
384,192,49146,1,0,0:0:0:0:
76,192,49146,1,0,0:0:0:0:
128,192,49220,1,0,0:0:0:0:
332,192,49295,1,0,0:0:0:0:
179,192,49295,1,0,0:0:0:0:
128,192,49370,1,0,0:0:0:0:
486,192,49444,1,0,0:0:0:0:
384,192,49444,1,0,0:0:0:0:
76,192,49444,1,0,0:0:0:0:
281,192,49593,1,0,0:0:0:0:
332,192,49593,1,0,0:0:0:0:
179,192,49593,1,0,0:0:0:0:
435,192,49668,1,0,0:0:0:0:
486,192,49668,1,0,0:0:0:0:
384,192,49743,1,0,0:0:0:0:
76,192,49743,1,0,0:0:0:0:
281,192,49817,1,0,0:0:0:0:
332,192,49817,1,0,0:0:0:0:
128,192,49817,1,0,0:0:0:0:
435,192,49892,1,0,0:0:0:0:
486,192,49892,1,0,0:0:0:0:
179,192,49892,1,0,0:0:0:0:
128,192,49967,1,0,0:0:0:0:
281,192,50041,1,0,0:0:0:0:
384,192,50041,1,0,0:0:0:0:
76,192,50041,1,0,0:0:0:0:
486,192,50190,1,0,0:0:0:0:
179,192,50190,1,0,0:0:0:0:
179,192,50340,1,0,0:0:0:0:
332,192,50340,1,0,0:0:0:0:
435,192,50340,1,0,0:0:0:0:
230,192,50414,1,0,0:0:0:0:
128,192,50489,1,0,0:0:0:0:
384,192,50489,1,0,0:0:0:0:
179,192,50564,1,0,0:0:0:0:
76,192,50638,1,0,0:0:0:0:
281,192,50638,1,0,0:0:0:0:
486,192,50638,1,0,0:0:0:0:
128,192,50713,1,0,0:0:0:0:
25,192,50787,1,0,0:0:0:0:
332,192,50787,1,0,0:0:0:0:
435,192,50787,1,0,0:0:0:0:
76,192,50862,1,0,0:0:0:0:
281,192,50862,1,0,0:0:0:0:
486,192,50862,1,0,0:0:0:0:
25,192,50937,1,0,0:0:0:0:
384,192,50937,1,0,0:0:0:0:
128,192,51011,1,0,0:0:0:0:
332,192,51011,1,0,0:0:0:0:
435,192,51011,1,0,0:0:0:0:
76,192,51086,1,0,0:0:0:0:
486,192,51086,1,0,0:0:0:0:
281,192,51086,1,0,0:0:0:0:
179,192,51161,1,0,0:0:0:0:
128,192,51235,1,0,0:0:0:0:
384,192,51235,1,0,0:0:0:0:
486,192,51235,1,0,0:0:0:0:
230,192,51310,1,0,0:0:0:0:
179,192,51384,1,0,0:0:0:0:
332,192,51384,1,0,0:0:0:0:
230,192,51459,1,0,0:0:0:0:
76,192,51534,1,0,0:0:0:0:
281,192,51534,1,0,0:0:0:0:
435,192,51534,1,0,0:0:0:0:
128,192,51608,1,0,0:0:0:0:
179,192,51683,1,0,0:0:0:0:
384,192,51683,1,0,0:0:0:0:
128,192,51758,1,0,0:0:0:0:
76,192,51832,1,0,0:0:0:0:
332,192,51832,1,0,0:0:0:0:
486,192,51832,1,0,0:0:0:0:
179,192,51982,1,0,0:0:0:0:
281,192,51982,1,0,0:0:0:0:
435,192,51982,1,0,0:0:0:0:
332,192,52056,1,0,0:0:0:0:
486,192,52056,1,0,0:0:0:0:
76,192,52131,1,0,0:0:0:0:
384,192,52131,1,0,0:0:0:0:
128,192,52205,1,0,0:0:0:0:
435,192,52205,1,0,0:0:0:0:
281,192,52205,1,0,0:0:0:0:
179,192,52280,1,0,0:0:0:0:
332,192,52280,1,0,0:0:0:0:
486,192,52280,1,0,0:0:0:0:
128,192,52355,1,0,0:0:0:0:
76,192,52429,1,0,0:0:0:0:
281,192,52429,1,0,0:0:0:0:
435,192,52429,1,0,0:0:0:0:
179,192,52579,1,0,0:0:0:0:
384,192,52579,1,0,0:0:0:0:
76,192,52728,1,0,0:0:0:0:
486,192,52728,1,0,0:0:0:0:
332,192,52728,1,0,0:0:0:0:
25,192,52802,1,0,0:0:0:0:
435,192,52802,1,0,0:0:0:0:
128,192,52877,1,0,0:0:0:0:
384,192,52877,1,0,0:0:0:0:
76,192,52952,1,0,0:0:0:0:
281,192,52952,1,0,0:0:0:0:
435,192,52952,1,0,0:0:0:0:
179,192,53026,1,0,0:0:0:0:
332,192,53026,1,0,0:0:0:0:
486,192,53026,1,0,0:0:0:0:
128,192,53101,1,0,0:0:0:0:
384,192,53101,1,0,0:0:0:0:
230,192,53176,1,0,0:0:0:0:
435,192,53176,1,0,0:0:0:0:
281,192,53176,1,0,0:0:0:0:
179,192,53250,1,0,0:0:0:0:
332,192,53250,1,0,0:0:0:0:
230,192,53325,1,0,0:0:0:0:
384,192,53325,1,0,0:0:0:0:
128,192,53399,1,0,0:0:0:0:
486,192,53399,1,0,0:0:0:0:
332,192,53399,1,0,0:0:0:0:
179,192,53474,1,0,0:0:0:0:
281,192,53474,1,0,0:0:0:0:
435,192,53474,1,0,0:0:0:0:
76,192,53549,1,0,0:0:0:0:
384,192,53549,1,0,0:0:0:0:
128,192,53623,1,0,0:0:0:0:
332,192,53623,1,0,0:0:0:0:
486,192,53623,1,0,0:0:0:0:
25,192,53698,1,0,0:0:0:0:
384,192,53698,1,0,0:0:0:0:
76,192,53773,1,0,0:0:0:0:
435,192,53773,1,0,0:0:0:0:
25,192,53847,1,0,0:0:0:0:
486,192,53847,1,0,0:0:0:0:
435,192,53922,1,0,0:0:0:0:
281,192,53922,1,0,0:0:0:0:
76,192,53922,1,0,0:0:0:0:
179,192,53922,1,0,0:0:0:0:
230,192,53922,1,0,0:0:0:0:
384,192,53996,1,0,0:0:0:0:
332,192,54071,1,0,0:0:0:0:
128,192,54071,1,0,0:0:0:0:
384,192,54146,1,0,0:0:0:0:
435,192,54220,1,0,0:0:0:0:
25,192,54220,1,0,0:0:0:0:
230,192,54220,1,0,0:0:0:0:
332,192,54370,1,0,0:0:0:0:
76,192,54370,1,0,0:0:0:0:
179,192,54370,1,0,0:0:0:0:
230,192,54444,1,0,0:0:0:0:
25,192,54444,1,0,0:0:0:0:
435,192,54519,1,0,0:0:0:0:
128,192,54519,1,0,0:0:0:0:
384,192,54593,1,0,0:0:0:0:
230,192,54593,1,0,0:0:0:0:
25,192,54593,1,0,0:0:0:0:
332,192,54668,1,0,0:0:0:0:
76,192,54668,1,0,0:0:0:0:
179,192,54668,1,0,0:0:0:0:
384,192,54743,1,0,0:0:0:0:
435,192,54817,1,0,0:0:0:0:
230,192,54817,1,0,0:0:0:0:
128,192,54817,1,0,0:0:0:0:
332,192,54967,1,0,0:0:0:0:
76,192,54967,1,0,0:0:0:0:
435,192,55116,1,0,0:0:0:0:
230,192,55116,1,0,0:0:0:0:
25,192,55116,1,0,0:0:0:0:
486,192,55190,1,0,0:0:0:0:
384,192,55265,1,0,0:0:0:0:
179,192,55265,1,0,0:0:0:0:
435,192,55340,1,0,0:0:0:0:
332,192,55414,1,0,0:0:0:0:
76,192,55414,1,0,0:0:0:0:
230,192,55414,1,0,0:0:0:0:
384,192,55489,1,0,0:0:0:0:
281,192,55564,1,0,0:0:0:0:
25,192,55564,1,0,0:0:0:0:
179,192,55564,1,0,0:0:0:0:
332,192,55638,1,0,0:0:0:0:
230,192,55638,1,0,0:0:0:0:
76,192,55638,1,0,0:0:0:0:
281,192,55713,1,0,0:0:0:0:
128,192,55713,1,0,0:0:0:0:
384,192,55787,1,0,0:0:0:0:
179,192,55787,1,0,0:0:0:0:
25,192,55787,1,0,0:0:0:0:
332,192,55862,1,0,0:0:0:0:
76,192,55862,1,0,0:0:0:0:
230,192,55862,1,0,0:0:0:0:
435,192,55937,1,0,0:0:0:0:
384,192,56011,1,0,0:0:0:0:
179,192,56011,1,0,0:0:0:0:
25,192,56011,1,0,0:0:0:0:
486,192,56086,1,0,0:0:0:0:
435,192,56161,1,0,0:0:0:0:
128,192,56161,1,0,0:0:0:0:
486,192,56235,1,0,0:0:0:0:
384,192,56310,1,0,0:0:0:0:
25,192,56310,1,0,0:0:0:0:
76,192,56310,1,0,0:0:0:0:
281,192,56384,1,0,0:0:0:0:
435,192,56459,1,0,0:0:0:0:
128,192,56459,1,0,0:0:0:0:
332,192,56534,1,0,0:0:0:0:
486,192,56608,1,0,0:0:0:0:
179,192,56608,1,0,0:0:0:0:
230,192,56608,1,0,0:0:0:0:
384,192,56683,1,0,0:0:0:0:
435,192,56758,1,0,0:0:0:0:
25,192,56758,1,0,0:0:0:0:
76,192,56758,1,0,0:0:0:0:
332,192,56832,1,0,0:0:0:0:
179,192,56832,1,0,0:0:0:0:
230,192,56832,1,0,0:0:0:0:
384,192,56907,1,0,0:0:0:0:
128,192,56907,1,0,0:0:0:0:
281,192,56982,1,0,0:0:0:0:
25,192,56982,1,0,0:0:0:0:
76,192,56982,1,0,0:0:0:0:
435,192,57056,1,0,0:0:0:0:
179,192,57056,1,0,0:0:0:0:
230,192,57056,1,0,0:0:0:0:
332,192,57131,1,0,0:0:0:0:
486,192,57205,1,0,0:0:0:0:
25,192,57205,1,0,0:0:0:0:
128,192,57205,1,0,0:0:0:0:
76,192,57355,1,0,0:0:0:0:
230,192,57504,1,0,0:0:0:0:
25,192,57504,1,0,0:0:0:0:
486,192,57504,1,0,0:0:0:0:
179,192,57579,1,0,0:0:0:0:
435,192,57579,1,0,0:0:0:0:
128,192,57653,1,0,0:0:0:0:
384,192,57653,1,0,0:0:0:0:
25,192,57728,1,0,0:0:0:0:
230,192,57728,1,0,0:0:0:0:
332,192,57728,1,0,0:0:0:0:
76,192,57802,1,0,0:0:0:0:
179,192,57802,1,0,0:0:0:0:
435,192,57802,1,0,0:0:0:0:
128,192,57877,1,0,0:0:0:0:
384,192,57877,1,0,0:0:0:0:
25,192,57952,1,0,0:0:0:0:
230,192,57952,1,0,0:0:0:0:
332,192,57952,1,0,0:0:0:0:
76,192,58026,1,0,0:0:0:0:
281,192,58026,1,0,0:0:0:0:
128,192,58101,1,0,0:0:0:0:
486,192,58101,1,0,0:0:0:0:
230,192,58176,1,0,0:0:0:0:
25,192,58176,1,0,0:0:0:0:
435,192,58176,1,0,0:0:0:0:
76,192,58250,1,0,0:0:0:0:
179,192,58250,1,0,0:0:0:0:
384,192,58250,1,0,0:0:0:0:
128,192,58325,1,0,0:0:0:0:
332,192,58325,1,0,0:0:0:0:
230,192,58399,1,0,0:0:0:0:
25,192,58399,1,0,0:0:0:0:
281,192,58399,1,0,0:0:0:0:
179,192,58474,1,0,0:0:0:0:
128,192,58549,1,0,0:0:0:0:
76,192,58623,1,0,0:0:0:0:
25,192,58698,1,0,0:0:0:0:
179,192,58698,1,0,0:0:0:0:
230,192,58698,1,0,0:0:0:0:
281,192,58698,1,0,0:0:0:0:
486,192,58698,1,0,0:0:0:0:
76,192,58773,1,0,0:0:0:0:
332,192,58773,1,0,0:0:0:0:
128,192,58847,1,0,0:0:0:0:
384,192,58847,1,0,0:0:0:0:
179,192,58922,1,0,0:0:0:0:
435,192,58922,1,0,0:0:0:0:
230,192,58996,1,0,0:0:0:0:
486,192,58996,1,0,0:0:0:0:
25,192,58996,1,0,0:0:0:0:
281,192,58996,1,0,0:0:0:0:
179,192,59071,1,0,0:0:0:0:
435,192,59071,1,0,0:0:0:0:
128,192,59146,1,0,0:0:0:0:
384,192,59146,1,0,0:0:0:0:
76,192,59220,1,0,0:0:0:0:
332,192,59220,1,0,0:0:0:0:
25,192,59295,1,0,0:0:0:0:
281,192,59295,1,0,0:0:0:0:
76,192,59370,1,0,0:0:0:0:
332,192,59370,1,0,0:0:0:0:
128,192,59444,1,0,0:0:0:0:
384,192,59444,1,0,0:0:0:0:
179,192,59519,1,0,0:0:0:0:
435,192,59519,1,0,0:0:0:0:
230,192,59593,1,0,0:0:0:0:
486,192,59593,1,0,0:0:0:0:
281,192,59593,1,0,0:0:0:0:
25,192,59593,1,0,0:0:0:0:
179,192,59668,1,0,0:0:0:0:
435,192,59668,1,0,0:0:0:0:
128,192,59743,1,0,0:0:0:0:
384,192,59743,1,0,0:0:0:0:
76,192,59817,1,0,0:0:0:0:
332,192,59817,1,0,0:0:0:0:
486,192,59892,1,0,0:0:0:0:
25,192,59892,1,0,0:0:0:0:
76,192,59967,1,0,0:0:0:0:
435,192,59967,1,0,0:0:0:0:
128,192,60041,1,0,0:0:0:0:
384,192,60041,1,0,0:0:0:0:
179,192,60116,1,0,0:0:0:0:
332,192,60116,1,0,0:0:0:0:
25,192,60190,1,0,0:0:0:0:
486,192,60190,1,0,0:0:0:0:
230,192,60190,1,0,0:0:0:0:
281,192,60190,1,0,0:0:0:0:
76,192,60265,1,0,0:0:0:0:
435,192,60265,1,0,0:0:0:0:
128,192,60340,1,0,0:0:0:0:
384,192,60340,1,0,0:0:0:0:
230,192,60414,1,0,0:0:0:0:
281,192,60414,1,0,0:0:0:0:
25,192,60489,1,0,0:0:0:0:
486,192,60489,1,0,0:0:0:0:
76,192,60564,1,0,0:0:0:0:
435,192,60564,1,0,0:0:0:0:
179,192,60638,1,0,0:0:0:0:
332,192,60638,1,0,0:0:0:0:
230,192,60713,1,0,0:0:0:0:
281,192,60713,1,0,0:0:0:0:
76,192,60787,1,0,0:0:0:0:
435,192,60787,1,0,0:0:0:0:
486,192,60787,1,0,0:0:0:0:
25,192,60787,1,0,0:0:0:0:
128,192,60862,1,0,0:0:0:0:
384,192,60862,1,0,0:0:0:0:
179,192,60937,1,0,0:0:0:0:
332,192,60937,1,0,0:0:0:0:
230,192,61011,1,0,0:0:0:0:
281,192,61011,1,0,0:0:0:0:
25,192,61086,1,0,0:0:0:0:
486,192,61086,1,0,0:0:0:0:
76,192,61161,1,0,0:0:0:0:
435,192,61161,1,0,0:0:0:0:
128,192,61235,1,0,0:0:0:0:
384,192,61235,1,0,0:0:0:0:
179,192,61310,1,0,0:0:0:0:
332,192,61310,1,0,0:0:0:0:
230,192,61384,1,0,0:0:0:0:
281,192,61384,1,0,0:0:0:0:
486,192,61384,1,0,0:0:0:0:
25,192,61384,1,0,0:0:0:0:
179,192,61459,1,0,0:0:0:0:
332,192,61459,1,0,0:0:0:0:
128,192,61534,1,0,0:0:0:0:
384,192,61534,1,0,0:0:0:0:
76,192,61608,1,0,0:0:0:0:
435,192,61608,1,0,0:0:0:0:
25,192,61683,1,0,0:0:0:0:
486,192,61683,1,0,0:0:0:0:
76,192,61758,1,0,0:0:0:0:
435,192,61758,1,0,0:0:0:0:
128,192,61832,1,0,0:0:0:0:
384,192,61832,1,0,0:0:0:0:
179,192,61907,1,0,0:0:0:0:
332,192,61907,1,0,0:0:0:0:
230,192,61982,1,0,0:0:0:0:
281,192,61982,1,0,0:0:0:0:
25,192,61982,1,0,0:0:0:0:
486,192,61982,1,0,0:0:0:0:
179,192,62056,1,0,0:0:0:0:
332,192,62056,1,0,0:0:0:0:
128,192,62131,1,0,0:0:0:0:
384,192,62131,1,0,0:0:0:0:
76,192,62205,1,0,0:0:0:0:
435,192,62205,1,0,0:0:0:0:
486,192,62280,1,0,0:0:0:0:
230,192,62280,1,0,0:0:0:0:
25,192,62280,1,0,0:0:0:0:
179,192,62355,1,0,0:0:0:0:
435,192,62355,1,0,0:0:0:0:
384,192,62429,1,0,0:0:0:0:
128,192,62429,1,0,0:0:0:0:
332,192,62504,1,0,0:0:0:0:
76,192,62504,1,0,0:0:0:0:
25,192,62504,1,0,0:0:0:0:
281,192,62504,1,0,0:0:0:0:
435,192,62579,1,0,0:0:0:0:
179,192,62579,1,0,0:0:0:0:
384,192,62653,1,0,0:0:0:0:
128,192,62653,1,0,0:0:0:0:
332,192,62728,1,0,0:0:0:0:
76,192,62728,1,0,0:0:0:0:
486,192,62728,1,0,0:0:0:0:
230,192,62728,1,0,0:0:0:0:
384,192,62802,1,0,0:0:0:0:
128,192,62802,1,0,0:0:0:0:
281,192,62877,1,0,0:0:0:0:
25,192,62877,1,0,0:0:0:0:
332,192,62952,1,0,0:0:0:0:
76,192,62952,1,0,0:0:0:0:
230,192,62952,1,0,0:0:0:0:
486,192,62952,1,0,0:0:0:0:
384,192,63026,1,0,0:0:0:0:
128,192,63026,1,0,0:0:0:0:
332,192,63101,1,0,0:0:0:0:
76,192,63101,1,0,0:0:0:0:
281,192,63176,1,0,0:0:0:0:
25,192,63176,1,0,0:0:0:0:
230,192,63176,1,0,0:0:0:0:
486,192,63176,1,0,0:0:0:0:
332,192,63250,1,0,0:0:0:0:
76,192,63250,1,0,0:0:0:0:
384,192,63325,1,0,0:0:0:0:
128,192,63325,1,0,0:0:0:0:
435,192,63399,1,0,0:0:0:0:
179,192,63399,1,0,0:0:0:0:
486,192,63474,1,0,0:0:0:0:
230,192,63474,1,0,0:0:0:0:
128,192,63474,1,0,0:0:0:0:
76,192,63474,1,0,0:0:0:0:
332,192,63474,1,0,0:0:0:0:
25,192,63549,1,0,0:0:0:0:
281,192,63549,1,0,0:0:0:0:
128,192,63623,1,0,0:0:0:0:
384,192,63623,1,0,0:0:0:0:
76,192,63698,1,0,0:0:0:0:
332,192,63698,1,0,0:0:0:0:
179,192,63773,1,0,0:0:0:0:
435,192,63773,1,0,0:0:0:0:
25,192,63773,1,0,0:0:0:0:
281,192,63773,1,0,0:0:0:0:
128,192,63847,1,0,0:0:0:0:
384,192,63847,1,0,0:0:0:0:
230,192,63922,1,0,0:0:0:0:
486,192,63922,1,0,0:0:0:0:
179,192,63996,1,0,0:0:0:0:
435,192,63996,1,0,0:0:0:0:
230,192,64071,1,0,0:0:0:0:
486,192,64071,1,0,0:0:0:0:
128,192,64146,1,0,0:0:0:0:
384,192,64146,1,0,0:0:0:0:
179,192,64220,1,0,0:0:0:0:
435,192,64220,1,0,0:0:0:0:
76,192,64295,1,0,0:0:0:0:
332,192,64295,1,0,0:0:0:0:
128,192,64370,1,0,0:0:0:0:
384,192,64370,1,0,0:0:0:0:
230,192,64370,1,0,0:0:0:0:
486,192,64370,1,0,0:0:0:0:
25,192,64444,1,0,0:0:0:0:
281,192,64444,1,0,0:0:0:0:
76,192,64519,1,0,0:0:0:0:
332,192,64519,1,0,0:0:0:0:
25,192,64593,1,0,0:0:0:0:
281,192,64593,1,0,0:0:0:0:
179,192,64668,1,0,0:0:0:0:
332,192,64668,1,0,0:0:0:0:
128,192,64743,1,0,0:0:0:0:
384,192,64743,1,0,0:0:0:0:
76,192,64817,1,0,0:0:0:0:
435,192,64817,1,0,0:0:0:0:
25,192,64892,1,0,0:0:0:0:
486,192,64892,1,0,0:0:0:0:
230,192,64967,1,0,0:0:0:0:
281,192,64967,1,0,0:0:0:0:
179,192,64967,1,0,0:0:0:0:
332,192,64967,1,0,0:0:0:0:
128,192,65041,1,0,0:0:0:0:
384,192,65041,1,0,0:0:0:0:
76,192,65116,1,0,0:0:0:0:
435,192,65116,1,0,0:0:0:0:
25,192,65190,1,0,0:0:0:0:
486,192,65190,1,0,0:0:0:0:
230,192,65265,1,0,0:0:0:0:
281,192,65265,1,0,0:0:0:0:
179,192,65340,1,0,0:0:0:0:
332,192,65340,1,0,0:0:0:0:
76,192,65414,1,0,0:0:0:0:
435,192,65414,1,0,0:0:0:0:
25,192,65489,1,0,0:0:0:0:
486,192,65489,1,0,0:0:0:0:
230,192,65564,1,0,0:0:0:0:
281,192,65564,1,0,0:0:0:0:
76,192,65564,1,0,0:0:0:0:
435,192,65564,1,0,0:0:0:0:
179,192,65638,1,0,0:0:0:0:
332,192,65638,1,0,0:0:0:0:
128,192,65713,1,0,0:0:0:0:
384,192,65713,1,0,0:0:0:0:
25,192,65787,1,0,0:0:0:0:
486,192,65787,1,0,0:0:0:0:
179,192,65862,1,0,0:0:0:0:
332,192,65862,1,0,0:0:0:0:
230,192,65937,1,0,0:0:0:0:
281,192,65937,1,0,0:0:0:0:
128,192,66011,1,0,0:0:0:0:
384,192,66011,1,0,0:0:0:0:
179,192,66086,1,0,0:0:0:0:
332,192,66086,1,0,0:0:0:0:
76,192,66161,1,0,0:0:0:0:
435,192,66161,1,0,0:0:0:0:
230,192,66161,1,0,0:0:0:0:
281,192,66161,1,0,0:0:0:0:
128,192,66235,1,0,0:0:0:0:
384,192,66235,1,0,0:0:0:0:
25,192,66310,1,0,0:0:0:0:
486,192,66310,1,0,0:0:0:0:
76,192,66384,1,0,0:0:0:0:
435,192,66384,1,0,0:0:0:0:
25,192,66459,1,0,0:0:0:0:
486,192,66459,1,0,0:0:0:0:
128,192,66534,1,0,0:0:0:0:
384,192,66534,1,0,0:0:0:0:
76,192,66608,1,0,0:0:0:0:
435,192,66608,1,0,0:0:0:0:
179,192,66683,1,0,0:0:0:0:
332,192,66683,1,0,0:0:0:0:
128,192,66758,1,0,0:0:0:0:
384,192,66758,1,0,0:0:0:0:
25,192,66758,1,0,0:0:0:0:
486,192,66758,1,0,0:0:0:0:
76,192,66758,1,0,0:0:0:0:
435,192,66758,1,0,0:0:0:0:
230,192,66832,1,0,0:0:0:0:
281,192,66832,1,0,0:0:0:0:
179,192,66907,1,0,0:0:0:0:
332,192,66907,1,0,0:0:0:0:
230,192,66982,1,0,0:0:0:0:
281,192,66982,1,0,0:0:0:0:
76,192,67056,1,0,0:0:0:0:
332,192,67056,1,0,0:0:0:0:
25,192,67056,1,0,0:0:0:0:
486,192,67056,1,0,0:0:0:0:
128,192,67131,1,0,0:0:0:0:
384,192,67131,1,0,0:0:0:0:
179,192,67205,1,0,0:0:0:0:
435,192,67205,1,0,0:0:0:0:
230,192,67280,1,0,0:0:0:0:
486,192,67280,1,0,0:0:0:0:
25,192,67280,1,0,0:0:0:0:
281,192,67280,1,0,0:0:0:0:
179,192,67355,1,0,0:0:0:0:
435,192,67355,1,0,0:0:0:0:
128,192,67429,1,0,0:0:0:0:
384,192,67429,1,0,0:0:0:0:
76,192,67504,1,0,0:0:0:0:
332,192,67504,1,0,0:0:0:0:
486,192,67504,1,0,0:0:0:0:
230,192,67504,1,0,0:0:0:0:
128,192,67579,1,0,0:0:0:0:
384,192,67579,1,0,0:0:0:0:
25,192,67653,1,0,0:0:0:0:
281,192,67653,1,0,0:0:0:0:
76,192,67728,1,0,0:0:0:0:
332,192,67728,1,0,0:0:0:0:
230,192,67728,1,0,0:0:0:0:
486,192,67728,1,0,0:0:0:0:
128,192,67802,1,0,0:0:0:0:
384,192,67802,1,0,0:0:0:0:
332,192,67877,1,0,0:0:0:0:
76,192,67877,1,0,0:0:0:0:
25,192,67952,1,0,0:0:0:0:
281,192,67952,1,0,0:0:0:0:
230,192,67952,1,0,0:0:0:0:
486,192,67952,1,0,0:0:0:0:
76,192,68026,1,0,0:0:0:0:
332,192,68026,1,0,0:0:0:0:
128,192,68101,1,0,0:0:0:0:
384,192,68101,1,0,0:0:0:0:
179,192,68176,1,0,0:0:0:0:
435,192,68176,1,0,0:0:0:0:
230,192,68250,1,0,0:0:0:0:
25,192,68250,1,0,0:0:0:0:
281,192,68250,1,0,0:0:0:0:
486,192,68250,1,0,0:0:0:0:
384,192,68250,1,0,0:0:0:0:
76,192,68325,1,0,0:0:0:0:
332,192,68325,1,0,0:0:0:0:
128,192,68399,1,0,0:0:0:0:
384,192,68399,1,0,0:0:0:0:
179,192,68474,1,0,0:0:0:0:
435,192,68474,1,0,0:0:0:0:
230,192,68549,1,0,0:0:0:0:
76,192,68549,1,0,0:0:0:0:
486,192,68549,1,0,0:0:0:0:
128,192,68623,1,0,0:0:0:0:
435,192,68623,1,0,0:0:0:0:
25,192,68698,1,0,0:0:0:0:
179,192,68698,1,0,0:0:0:0:
384,192,68698,1,0,0:0:0:0:
76,192,68773,1,0,0:0:0:0:
230,192,68773,1,0,0:0:0:0:
332,192,68773,1,0,0:0:0:0:
128,192,68847,1,0,0:0:0:0:
281,192,68847,1,0,0:0:0:0:
179,192,68922,1,0,0:0:0:0:
25,192,68922,1,0,0:0:0:0:
332,192,68922,1,0,0:0:0:0:
76,192,68996,1,0,0:0:0:0:
230,192,68996,1,0,0:0:0:0:
384,192,68996,1,0,0:0:0:0:
128,192,69071,1,0,0:0:0:0:
435,192,69071,1,0,0:0:0:0:
230,192,69146,1,0,0:0:0:0:
25,192,69146,1,0,0:0:0:0:
486,192,69146,1,0,0:0:0:0:
179,192,69220,1,0,0:0:0:0:
435,192,69220,1,0,0:0:0:0:
128,192,69295,1,0,0:0:0:0:
384,192,69295,1,0,0:0:0:0:
76,192,69370,1,0,0:0:0:0:
332,192,69370,1,0,0:0:0:0:
230,192,69444,1,0,0:0:0:0:
25,192,69444,1,0,0:0:0:0:
435,192,69444,1,0,0:0:0:0:
179,192,69519,1,0,0:0:0:0:
486,192,69519,1,0,0:0:0:0:
128,192,69593,1,0,0:0:0:0:
384,192,69593,1,0,0:0:0:0:
76,192,69668,1,0,0:0:0:0:
435,192,69668,1,0,0:0:0:0:
25,192,69743,1,0,0:0:0:0:
179,192,69743,1,0,0:0:0:0:
332,192,69743,1,0,0:0:0:0:
128,192,69817,1,0,0:0:0:0:
384,192,69817,1,0,0:0:0:0:
76,192,69892,1,0,0:0:0:0:
230,192,69892,1,0,0:0:0:0:
281,192,69892,1,0,0:0:0:0:
25,192,69967,1,0,0:0:0:0:
179,192,69967,1,0,0:0:0:0:
332,192,69967,1,0,0:0:0:0:
128,192,70041,1,0,0:0:0:0:
281,192,70041,1,0,0:0:0:0:
76,192,70116,1,0,0:0:0:0:
230,192,70116,1,0,0:0:0:0:
384,192,70116,1,0,0:0:0:0:
25,192,70190,1,0,0:0:0:0:
179,192,70190,1,0,0:0:0:0:
332,192,70190,1,0,0:0:0:0:
128,192,70265,1,0,0:0:0:0:
435,192,70265,1,0,0:0:0:0:
25,192,70340,1,0,0:0:0:0:
230,192,70340,1,0,0:0:0:0:
384,192,70340,1,0,0:0:0:0:
76,192,70414,1,0,0:0:0:0:
486,192,70414,1,0,0:0:0:0:
128,192,70489,1,0,0:0:0:0:
435,192,70489,1,0,0:0:0:0:
179,192,70564,1,0,0:0:0:0:
486,192,70564,1,0,0:0:0:0:
230,192,70638,1,0,0:0:0:0:
25,192,70638,1,0,0:0:0:0:
281,192,70638,1,0,0:0:0:0:
76,192,70713,1,0,0:0:0:0:
332,192,70713,1,0,0:0:0:0:
128,192,70787,1,0,0:0:0:0:
384,192,70787,1,0,0:0:0:0:
179,192,70862,1,0,0:0:0:0:
435,192,70862,1,0,0:0:0:0:
230,192,70937,1,0,0:0:0:0:
76,192,70937,1,0,0:0:0:0:
486,192,70937,1,0,0:0:0:0:
128,192,71011,1,0,0:0:0:0:
435,192,71011,1,0,0:0:0:0:
179,192,71086,1,0,0:0:0:0:
25,192,71086,1,0,0:0:0:0:
384,192,71086,1,0,0:0:0:0:
230,192,71161,1,0,0:0:0:0:
76,192,71161,1,0,0:0:0:0:
332,192,71161,1,0,0:0:0:0:
128,192,71235,1,0,0:0:0:0:
281,192,71235,1,0,0:0:0:0:
25,192,71310,1,0,0:0:0:0:
179,192,71310,1,0,0:0:0:0:
332,192,71310,1,0,0:0:0:0:
76,192,71384,1,0,0:0:0:0:
230,192,71384,1,0,0:0:0:0:
384,192,71384,1,0,0:0:0:0:
128,192,71459,1,0,0:0:0:0:
435,192,71459,1,0,0:0:0:0:
230,192,71534,1,0,0:0:0:0:
25,192,71534,1,0,0:0:0:0:
486,192,71534,1,0,0:0:0:0:
179,192,71608,1,0,0:0:0:0:
435,192,71608,1,0,0:0:0:0:
128,192,71683,1,0,0:0:0:0:
384,192,71683,1,0,0:0:0:0:
76,192,71758,1,0,0:0:0:0:
332,192,71758,1,0,0:0:0:0:
25,192,71832,1,0,0:0:0:0:
230,192,71832,1,0,0:0:0:0:
435,192,71832,1,0,0:0:0:0:
179,192,71907,1,0,0:0:0:0:
486,192,71907,1,0,0:0:0:0:
128,192,71982,1,0,0:0:0:0:
384,192,71982,1,0,0:0:0:0:
76,192,72056,1,0,0:0:0:0:
25,192,72056,1,0,0:0:0:0:
435,192,72056,1,0,0:0:0:0:
179,192,72131,1,0,0:0:0:0:
230,192,72131,1,0,0:0:0:0:
332,192,72131,1,0,0:0:0:0:
128,192,72205,1,0,0:0:0:0:
384,192,72205,1,0,0:0:0:0:
25,192,72280,1,0,0:0:0:0:
76,192,72280,1,0,0:0:0:0:
281,192,72280,1,0,0:0:0:0:
128,192,72355,1,0,0:0:0:0:
332,192,72355,1,0,0:0:0:0:
179,192,72429,1,0,0:0:0:0:
281,192,72429,1,0,0:0:0:0:
230,192,72504,1,0,0:0:0:0:
25,192,72504,1,0,0:0:0:0:
384,192,72504,1,0,0:0:0:0:
76,192,72579,1,0,0:0:0:0:
179,192,72579,1,0,0:0:0:0:
332,192,72579,1,0,0:0:0:0:
128,192,72653,1,0,0:0:0:0:
435,192,72653,1,0,0:0:0:0:
25,192,72728,1,0,0:0:0:0:
230,192,72728,1,0,0:0:0:0:
384,192,72728,1,0,0:0:0:0:
76,192,72802,1,0,0:0:0:0:
486,192,72802,1,0,0:0:0:0:
128,192,72877,1,0,0:0:0:0:
435,192,72877,1,0,0:0:0:0:
179,192,72952,1,0,0:0:0:0:
384,192,72952,1,0,0:0:0:0:
281,192,73026,1,0,0:0:0:0:
230,192,73026,1,0,0:0:0:0:
25,192,73026,1,0,0:0:0:0:
486,192,73026,1,0,0:0:0:0:
179,192,73101,1,0,0:0:0:0:
435,192,73101,1,0,0:0:0:0:
384,192,73176,1,0,0:0:0:0:
128,192,73176,1,0,0:0:0:0:
332,192,73250,1,0,0:0:0:0:
76,192,73250,1,0,0:0:0:0:
435,192,73325,1,0,0:0:0:0:
281,192,73325,1,0,0:0:0:0:
25,192,73325,1,0,0:0:0:0:
76,192,73399,1,0,0:0:0:0:
384,192,73399,1,0,0:0:0:0:
332,192,73474,1,0,0:0:0:0:
486,192,73474,1,0,0:0:0:0:
128,192,73474,1,0,0:0:0:0:
179,192,73549,1,0,0:0:0:0:
435,192,73549,1,0,0:0:0:0:
281,192,73549,1,0,0:0:0:0:
230,192,73623,1,0,0:0:0:0:
384,192,73623,1,0,0:0:0:0:
486,192,73698,1,0,0:0:0:0:
179,192,73698,1,0,0:0:0:0:
332,192,73698,1,0,0:0:0:0:
128,192,73773,1,0,0:0:0:0:
281,192,73773,1,0,0:0:0:0:
435,192,73773,1,0,0:0:0:0:
76,192,73847,1,0,0:0:0:0:
384,192,73847,1,0,0:0:0:0:
486,192,73922,1,0,0:0:0:0:
281,192,73922,1,0,0:0:0:0:
25,192,73922,1,0,0:0:0:0:
76,192,73996,1,0,0:0:0:0:
332,192,73996,1,0,0:0:0:0:
384,192,74071,1,0,0:0:0:0:
128,192,74071,1,0,0:0:0:0:
179,192,74146,1,0,0:0:0:0:
435,192,74146,1,0,0:0:0:0:
486,192,74220,1,0,0:0:0:0:
281,192,74220,1,0,0:0:0:0:
76,192,74220,1,0,0:0:0:0:
25,192,74295,1,0,0:0:0:0:
332,192,74295,1,0,0:0:0:0:
128,192,74370,1,0,0:0:0:0:
384,192,74370,1,0,0:0:0:0:
76,192,74444,1,0,0:0:0:0:
435,192,74444,1,0,0:0:0:0:
332,192,74519,1,0,0:0:0:0:
486,192,74519,1,0,0:0:0:0:
179,192,74519,1,0,0:0:0:0:
384,192,74593,1,0,0:0:0:0:
128,192,74593,1,0,0:0:0:0:
435,192,74668,1,0,0:0:0:0:
230,192,74668,1,0,0:0:0:0:
281,192,74668,1,0,0:0:0:0:
332,192,74743,1,0,0:0:0:0:
179,192,74743,1,0,0:0:0:0:
486,192,74743,1,0,0:0:0:0:
230,192,74817,1,0,0:0:0:0:
384,192,74817,1,0,0:0:0:0:
435,192,74892,1,0,0:0:0:0:
128,192,74892,1,0,0:0:0:0:
281,192,74892,1,0,0:0:0:0:
179,192,74967,1,0,0:0:0:0:
486,192,74967,1,0,0:0:0:0:
332,192,74967,1,0,0:0:0:0:
384,192,75041,1,0,0:0:0:0:
76,192,75041,1,0,0:0:0:0:
486,192,75116,1,0,0:0:0:0:
128,192,75116,1,0,0:0:0:0:
281,192,75116,1,0,0:0:0:0:
435,192,75190,1,0,0:0:0:0:
25,192,75190,1,0,0:0:0:0:
76,192,75265,1,0,0:0:0:0:
384,192,75265,1,0,0:0:0:0:
332,192,75340,1,0,0:0:0:0:
128,192,75340,1,0,0:0:0:0:
281,192,75414,1,0,0:0:0:0:
486,192,75414,1,0,0:0:0:0:
230,192,75414,1,0,0:0:0:0:
25,192,75414,1,0,0:0:0:0:
179,192,75489,1,0,0:0:0:0:
435,192,75489,1,0,0:0:0:0:
128,192,75564,1,0,0:0:0:0:
384,192,75564,1,0,0:0:0:0:
76,192,75638,1,0,0:0:0:0:
332,192,75638,1,0,0:0:0:0:
435,192,75713,1,0,0:0:0:0:
25,192,75713,1,0,0:0:0:0:
281,192,75713,1,0,0:0:0:0:
76,192,75787,1,0,0:0:0:0:
384,192,75787,1,0,0:0:0:0:
128,192,75862,1,0,0:0:0:0:
332,192,75862,1,0,0:0:0:0:
486,192,75862,1,0,0:0:0:0:
435,192,75937,1,0,0:0:0:0:
281,192,75937,1,0,0:0:0:0:
179,192,75937,1,0,0:0:0:0:
384,192,76011,1,0,0:0:0:0:
230,192,76011,1,0,0:0:0:0:
25,192,76011,1,0,0:0:0:0:
486,192,76086,1,0,0:0:0:0:
179,192,76086,1,0,0:0:0:0:
332,192,76086,1,0,0:0:0:0:
435,192,76161,1,0,0:0:0:0:
128,192,76161,1,0,0:0:0:0:
281,192,76161,1,0,0:0:0:0:
384,192,76235,1,0,0:0:0:0:
76,192,76235,1,0,0:0:0:0:
25,192,76310,1,0,0:0:0:0:
486,192,76310,1,0,0:0:0:0:
281,192,76310,1,0,0:0:0:0:
332,192,76384,1,0,0:0:0:0:
76,192,76384,1,0,0:0:0:0:
128,192,76459,1,0,0:0:0:0:
384,192,76459,1,0,0:0:0:0:
435,192,76534,1,0,0:0:0:0:
179,192,76534,1,0,0:0:0:0:
76,192,76608,5,0,0:0:0:0:
486,192,76608,1,0,0:0:0:0:
281,192,76608,1,0,0:0:0:0:
230,192,76608,1,0,0:0:0:0:
332,192,76683,1,0,0:0:0:0:
25,192,76683,1,0,0:0:0:0:
384,192,76758,1,0,0:0:0:0:
128,192,76758,1,0,0:0:0:0:
435,192,76832,1,0,0:0:0:0:
76,192,76832,1,0,0:0:0:0:
486,192,76832,1,0,0:0:0:0:
332,192,76907,1,0,0:0:0:0:
179,192,76907,1,0,0:0:0:0:
281,192,76907,1,0,0:0:0:0:
25,192,76907,1,0,0:0:0:0:
128,192,76982,1,0,0:0:0:0:
384,192,76982,1,0,0:0:0:0:
435,192,77056,1,0,0:0:0:0:
486,192,77056,1,0,0:0:0:0:
230,192,77056,1,0,0:0:0:0:
179,192,77131,1,0,0:0:0:0:
384,192,77131,1,0,0:0:0:0:
332,192,77205,1,0,0:0:0:0:
230,192,77205,1,0,0:0:0:0:
25,192,77205,1,0,0:0:0:0:
281,192,77280,1,0,0:0:0:0:
128,192,77280,1,0,0:0:0:0:
486,192,77280,1,0,0:0:0:0:
179,192,77355,1,0,0:0:0:0:
332,192,77355,1,0,0:0:0:0:
435,192,77355,1,0,0:0:0:0:
384,192,77429,1,0,0:0:0:0:
76,192,77429,1,0,0:0:0:0:
281,192,77504,1,0,0:0:0:0:
128,192,77504,1,0,0:0:0:0:
486,192,77504,1,0,0:0:0:0:
230,192,77504,1,0,0:0:0:0:
25,192,77579,1,0,0:0:0:0:
435,192,77579,1,0,0:0:0:0:
76,192,77653,1,0,0:0:0:0:
384,192,77653,1,0,0:0:0:0:
25,192,77728,1,0,0:0:0:0:
332,192,77728,1,0,0:0:0:0:
384,192,77802,5,0,0:0:0:0:
230,192,77802,1,0,0:0:0:0:
128,192,77802,1,0,0:0:0:0:
332,192,77952,1,0,0:0:0:0:
128,192,77952,1,0,0:0:0:0:
384,192,78101,1,0,0:0:0:0:
230,192,78101,1,0,0:0:0:0:
332,192,78250,1,0,0:0:0:0:
384,192,78399,1,0,0:0:0:0:
76,192,78399,1,0,0:0:0:0:
332,192,78549,1,0,0:0:0:0:
76,192,78549,1,0,0:0:0:0:
435,192,78698,1,0,0:0:0:0:
179,192,78698,1,0,0:0:0:0:
384,192,78847,1,0,0:0:0:0:
281,192,78996,1,0,0:0:0:0:
25,192,78996,1,0,0:0:0:0:
486,192,79146,1,0,0:0:0:0:
128,192,79146,1,0,0:0:0:0:
435,192,79295,1,0,0:0:0:0:
384,192,79444,1,0,0:0:0:0:
435,192,79593,1,0,0:0:0:0:
230,192,79593,1,0,0:0:0:0:
486,192,79743,1,0,0:0:0:0:
230,192,79743,1,0,0:0:0:0:
435,192,79892,1,0,0:0:0:0:
179,192,79892,1,0,0:0:0:0:
384,192,80041,1,0,0:0:0:0:
128,192,80041,1,0,0:0:0:0:
332,192,80190,1,0,0:0:0:0:
76,192,80190,1,0,0:0:0:0:
281,192,80340,1,0,0:0:0:0:
76,192,80340,1,0,0:0:0:0:
332,192,80489,1,0,0:0:0:0:
25,192,80787,1,0,0:0:0:0:
25,192,80937,1,0,0:0:0:0:
332,192,81086,1,0,0:0:0:0:
486,192,81086,1,0,0:0:0:0:
435,192,81235,1,0,0:0:0:0:
281,192,81235,1,0,0:0:0:0:
128,192,81235,1,0,0:0:0:0:
128,192,81384,1,0,0:0:0:0:
486,192,81534,1,0,0:0:0:0:
435,192,81534,1,0,0:0:0:0:
281,192,81683,1,0,0:0:0:0:
332,192,81683,1,0,0:0:0:0:
230,192,81832,1,0,0:0:0:0:
384,192,81832,1,0,0:0:0:0:
435,192,81832,1,0,0:0:0:0:
230,192,81982,1,0,0:0:0:0:
332,192,81982,1,0,0:0:0:0:
281,192,81982,1,0,0:0:0:0:
25,192,82131,1,0,0:0:0:0:
384,192,82131,1,0,0:0:0:0:
230,192,82280,1,0,0:0:0:0:
128,192,82280,1,0,0:0:0:0:
435,192,82280,1,0,0:0:0:0:
486,192,82280,1,0,0:0:0:0:
76,192,82280,1,0,0:0:0:0:
281,192,82429,1,0,0:0:0:0:
332,192,82429,1,0,0:0:0:0:
25,192,82579,1,0,0:0:0:0:
179,192,82579,1,0,0:0:0:0:
230,192,82579,1,0,0:0:0:0:
384,192,82579,1,0,0:0:0:0:
435,192,82579,1,0,0:0:0:0:
486,192,82579,1,0,0:0:0:0:
332,192,82877,128,0,83325:0:0:0:0:
128,192,82877,1,0,0:0:0:0:
384,192,83026,128,0,83474:0:0:0:0:
179,192,83026,1,0,0:0:0:0:
435,192,83176,128,0,83623:0:0:0:0:
230,192,83176,1,0,0:0:0:0:
76,192,83176,1,0,0:0:0:0:
486,192,83325,128,0,83773:0:0:0:0:
179,192,83325,1,0,0:0:0:0:
25,192,83474,128,0,83549:0:0:0:0:
332,192,83474,1,0,0:0:0:0:
76,192,83499,128,0,83574:0:0:0:0:
128,192,83524,128,0,83598:0:0:0:0:
179,192,83549,128,0,83623:0:0:0:0:
25,192,83623,128,0,83698:0:0:0:0:
384,192,83623,1,0,0:0:0:0:
76,192,83648,128,0,83723:0:0:0:0:
128,192,83673,128,0,83748:0:0:0:0:
179,192,83698,128,0,83773:0:0:0:0:
25,192,83773,128,0,83847:0:0:0:0:
435,192,83773,1,0,0:0:0:0:
281,192,83773,1,0,0:0:0:0:
76,192,83797,128,0,83872:0:0:0:0:
179,192,83822,128,0,83897:0:0:0:0:
230,192,83847,128,0,83922:0:0:0:0:
25,192,83922,128,0,83996:0:0:0:0:
486,192,83922,1,0,0:0:0:0:
76,192,83947,128,0,84021:0:0:0:0:
179,192,83972,128,0,84046:0:0:0:0:
230,192,83996,128,0,84071:0:0:0:0:
25,192,84071,128,0,84146:0:0:0:0:
332,192,84071,1,0,0:0:0:0:
76,192,84096,128,0,84171:0:0:0:0:
179,192,84121,128,0,84195:0:0:0:0:
230,192,84146,128,0,84220:0:0:0:0:
25,192,84220,128,0,84295:0:0:0:0:
384,192,84220,1,0,0:0:0:0:
76,192,84245,128,0,84320:0:0:0:0:
179,192,84270,128,0,84345:0:0:0:0:
230,192,84295,128,0,84370:0:0:0:0:
435,192,84370,128,0,84593:0:0:0:0:
486,192,84370,1,0,0:0:0:0:
128,192,84370,1,0,0:0:0:0:
384,192,84394,128,0,84618:0:0:0:0:
332,192,84419,128,0,84643:0:0:0:0:
281,192,84444,128,0,84668:0:0:0:0:
76,192,84519,1,0,0:0:0:0:
25,192,84668,1,0,0:0:0:0:
486,192,84668,128,0,84892:0:0:0:0:
435,192,84693,128,0,84917:0:0:0:0:
384,192,84718,128,0,84942:0:0:0:0:
332,192,84743,128,0,84967:0:0:0:0:
76,192,84817,1,0,0:0:0:0:
128,192,84967,1,0,0:0:0:0:
230,192,84967,1,0,0:0:0:0:
281,192,84967,1,0,0:0:0:0:
25,192,84967,1,0,0:0:0:0:
179,192,84967,1,0,0:0:0:0:
384,192,85116,1,0,0:0:0:0:
435,192,85265,1,0,0:0:0:0:
486,192,85414,1,0,0:0:0:0:
230,192,85564,128,0,85937:0:0:0:0:
281,192,85564,1,0,0:0:0:0:
384,192,85564,1,0,0:0:0:0:
179,192,85588,128,0,85962:0:0:0:0:
76,192,85613,128,0,85986:0:0:0:0:
25,192,85638,128,0,86011:0:0:0:0:
332,192,85713,1,0,0:0:0:0:
384,192,85862,1,0,0:0:0:0:
435,192,86011,1,0,0:0:0:0:
230,192,86161,128,0,86235:0:0:0:0:
486,192,86161,1,0,0:0:0:0:
281,192,86161,1,0,0:0:0:0:
179,192,86185,128,0,86260:0:0:0:0:
128,192,86210,128,0,86285:0:0:0:0:
76,192,86235,128,0,86310:0:0:0:0:
230,192,86310,128,0,86384:0:0:0:0:
435,192,86310,1,0,0:0:0:0:
384,192,86310,1,0,0:0:0:0:
179,192,86335,128,0,86409:0:0:0:0:
128,192,86360,128,0,86434:0:0:0:0:
76,192,86384,128,0,86459:0:0:0:0:
230,192,86459,128,0,86534:0:0:0:0:
332,192,86459,1,0,0:0:0:0:
179,192,86484,128,0,86559:0:0:0:0:
128,192,86509,128,0,86584:0:0:0:0:
76,192,86534,128,0,86608:0:0:0:0:
230,192,86608,128,0,86683:0:0:0:0:
384,192,86608,1,0,0:0:0:0:
179,192,86633,128,0,86708:0:0:0:0:
128,192,86658,128,0,86733:0:0:0:0:
76,192,86683,128,0,86758:0:0:0:0:
332,192,86758,128,0,87056:0:0:0:0:
435,192,86758,128,0,86907:0:0:0:0:
281,192,86758,1,0,0:0:0:0:
25,192,86758,1,0,0:0:0:0:
486,192,86907,128,0,87056:0:0:0:0:
230,192,86907,1,0,0:0:0:0:
435,192,87056,128,0,87355:0:0:0:0:
384,192,87056,128,0,87205:0:0:0:0:
25,192,87056,1,0,0:0:0:0:
281,192,87205,128,0,87355:0:0:0:0:
76,192,87205,1,0,0:0:0:0:
179,192,87205,1,0,0:0:0:0:
128,192,87355,1,0,0:0:0:0:
179,192,87355,1,0,0:0:0:0:
230,192,87355,1,0,0:0:0:0:
332,192,87355,1,0,0:0:0:0:
486,192,87355,1,0,0:0:0:0:
384,192,87653,1,0,0:0:0:0:
435,192,87802,1,0,0:0:0:0:
230,192,87952,128,0,88026:0:0:0:0:
281,192,87952,1,0,0:0:0:0:
486,192,87952,1,0,0:0:0:0:
179,192,87977,128,0,88051:0:0:0:0:
76,192,88001,128,0,88076:0:0:0:0:
25,192,88026,128,0,88101:0:0:0:0:
230,192,88101,128,0,88176:0:0:0:0:
332,192,88101,1,0,0:0:0:0:
179,192,88126,128,0,88200:0:0:0:0:
76,192,88151,128,0,88225:0:0:0:0:
25,192,88176,128,0,88250:0:0:0:0:
230,192,88250,128,0,88325:0:0:0:0:
384,192,88250,1,0,0:0:0:0:
179,192,88275,128,0,88350:0:0:0:0:
76,192,88300,128,0,88375:0:0:0:0:
25,192,88325,128,0,88399:0:0:0:0:
230,192,88399,128,0,88474:0:0:0:0:
435,192,88399,1,0,0:0:0:0:
179,192,88424,128,0,88499:0:0:0:0:
76,192,88449,128,0,88524:0:0:0:0:
25,192,88474,128,0,88549:0:0:0:0:
179,192,88549,128,0,89146:0:0:0:0:
281,192,88549,1,0,0:0:0:0:
332,192,88549,1,0,0:0:0:0:
128,192,88574,128,0,89171:0:0:0:0:
76,192,88598,128,0,89195:0:0:0:0:
25,192,88623,128,0,89220:0:0:0:0:
435,192,88679,1,0,0:0:0:0:
486,192,88698,1,0,0:0:0:0:
435,192,88847,1,0,0:0:0:0:
332,192,88959,1,0,0:0:0:0:
384,192,88996,1,0,0:0:0:0:
435,192,89146,1,0,0:0:0:0:
281,192,89146,1,0,0:0:0:0:
230,192,89146,1,0,0:0:0:0:
384,192,89295,1,0,0:0:0:0:
179,192,89295,1,0,0:0:0:0:
332,192,89444,1,0,0:0:0:0:
281,192,89593,1,0,0:0:0:0:
332,192,89743,1,0,0:0:0:0:
486,192,89743,1,0,0:0:0:0:
384,192,89743,1,0,0:0:0:0:
179,192,89743,1,0,0:0:0:0:
128,192,89743,1,0,0:0:0:0:
25,192,89743,1,0,0:0:0:0:
435,192,90041,1,0,0:0:0:0:
384,192,90190,1,0,0:0:0:0:
76,192,90340,128,0,90414:0:0:0:0:
281,192,90340,1,0,0:0:0:0:
332,192,90340,1,0,0:0:0:0:
128,192,90365,128,0,90439:0:0:0:0:
179,192,90389,128,0,90464:0:0:0:0:
230,192,90414,128,0,90489:0:0:0:0:
76,192,90489,128,0,90564:0:0:0:0:
384,192,90489,1,0,0:0:0:0:
128,192,90514,128,0,90588:0:0:0:0:
179,192,90539,128,0,90613:0:0:0:0:
230,192,90564,128,0,90638:0:0:0:0:
76,192,90638,128,0,90713:0:0:0:0:
435,192,90638,1,0,0:0:0:0:
128,192,90663,128,0,90738:0:0:0:0:
179,192,90688,128,0,90763:0:0:0:0:
230,192,90713,128,0,90787:0:0:0:0:
76,192,90787,128,0,90862:0:0:0:0:
486,192,90787,1,0,0:0:0:0:
128,192,90812,128,0,90887:0:0:0:0:
179,192,90837,128,0,90912:0:0:0:0:
230,192,90862,128,0,90937:0:0:0:0:
25,192,90937,128,0,91235:0:0:0:0:
281,192,90937,1,0,0:0:0:0:
435,192,90937,1,0,0:0:0:0:
76,192,90962,128,0,91260:0:0:0:0:
179,192,90986,128,0,91285:0:0:0:0:
230,192,91011,128,0,91310:0:0:0:0:
332,192,91235,1,0,0:0:0:0:
128,192,91235,1,0,0:0:0:0:
384,192,91366,1,0,0:0:0:0:
435,192,91384,1,0,0:0:0:0:
25,192,91384,1,0,0:0:0:0:
76,192,91534,1,0,0:0:0:0:
230,192,91534,1,0,0:0:0:0:
179,192,91534,1,0,0:0:0:0:
435,192,91683,1,0,0:0:0:0:
25,192,91683,1,0,0:0:0:0:
128,192,91683,1,0,0:0:0:0:
384,192,91832,1,0,0:0:0:0:
230,192,91832,1,0,0:0:0:0:
76,192,91832,1,0,0:0:0:0:
25,192,91832,1,0,0:0:0:0:
332,192,91982,1,0,0:0:0:0:
76,192,91982,1,0,0:0:0:0:
179,192,91982,1,0,0:0:0:0:
230,192,92131,1,0,0:0:0:0:
179,192,92205,1,0,0:0:0:0:
128,192,92280,1,0,0:0:0:0:
76,192,92355,1,0,0:0:0:0:
281,192,92429,1,0,0:0:0:0:
486,192,92429,1,0,0:0:0:0:
435,192,92429,1,0,0:0:0:0:
179,192,92429,128,0,92877:0:0:0:0:
25,192,92429,1,0,0:0:0:0:
230,192,92429,1,0,0:0:0:0:
128,192,92579,128,0,93026:0:0:0:0:
76,192,92728,128,0,93176:0:0:0:0:
25,192,92877,128,0,93325:0:0:0:0:
486,192,93026,128,0,93101:0:0:0:0:
179,192,93026,1,0,0:0:0:0:
435,192,93051,128,0,93126:0:0:0:0:
384,192,93076,128,0,93151:0:0:0:0:
332,192,93101,128,0,93176:0:0:0:0:
486,192,93176,128,0,93250:0:0:0:0:
128,192,93176,1,0,0:0:0:0:
435,192,93200,128,0,93275:0:0:0:0:
384,192,93225,128,0,93300:0:0:0:0:
332,192,93250,128,0,93325:0:0:0:0:
486,192,93325,128,0,93399:0:0:0:0:
230,192,93325,1,0,0:0:0:0:
76,192,93325,1,0,0:0:0:0:
435,192,93350,128,0,93424:0:0:0:0:
332,192,93375,128,0,93449:0:0:0:0:
281,192,93399,128,0,93474:0:0:0:0:
486,192,93474,128,0,93549:0:0:0:0:
25,192,93474,1,0,0:0:0:0:
435,192,93499,128,0,93574:0:0:0:0:
332,192,93524,128,0,93598:0:0:0:0:
281,192,93549,128,0,93623:0:0:0:0:
486,192,93623,128,0,93698:0:0:0:0:
179,192,93623,1,0,0:0:0:0:
435,192,93648,128,0,93723:0:0:0:0:
332,192,93673,128,0,93748:0:0:0:0:
281,192,93698,128,0,93773:0:0:0:0:
486,192,93773,128,0,93847:0:0:0:0:
128,192,93773,1,0,0:0:0:0:
435,192,93797,128,0,93872:0:0:0:0:
332,192,93822,128,0,93897:0:0:0:0:
281,192,93847,128,0,93922:0:0:0:0:
25,192,93922,1,0,0:0:0:0:
76,192,93922,128,0,94146:0:0:0:0:
128,192,93947,128,0,94171:0:0:0:0:
179,192,93972,128,0,94195:0:0:0:0:
230,192,93996,128,0,94220:0:0:0:0:
486,192,94071,1,0,0:0:0:0:
25,192,94220,128,0,94444:0:0:0:0:
435,192,94220,1,0,0:0:0:0:
76,192,94245,128,0,94469:0:0:0:0:
128,192,94270,128,0,94494:0:0:0:0:
179,192,94295,128,0,94519:0:0:0:0:
384,192,94370,1,0,0:0:0:0:
230,192,94519,1,0,0:0:0:0:
281,192,94519,1,0,0:0:0:0:
332,192,94519,1,0,0:0:0:0:
435,192,94519,1,0,0:0:0:0:
486,192,94519,1,0,0:0:0:0:
128,192,94668,1,0,0:0:0:0:
76,192,94817,1,0,0:0:0:0:
25,192,94967,1,0,0:0:0:0:
281,192,95116,128,0,95489:0:0:0:0:
128,192,95116,1,0,0:0:0:0:
230,192,95116,1,0,0:0:0:0:
332,192,95141,128,0,95514:0:0:0:0:
435,192,95166,128,0,95539:0:0:0:0:
486,192,95190,128,0,95564:0:0:0:0:
179,192,95265,1,0,0:0:0:0:
128,192,95414,1,0,0:0:0:0:
76,192,95564,1,0,0:0:0:0:
281,192,95713,128,0,95787:0:0:0:0:
230,192,95713,1,0,0:0:0:0:
25,192,95713,1,0,0:0:0:0:
332,192,95738,128,0,95812:0:0:0:0:
384,192,95763,128,0,95837:0:0:0:0:
435,192,95787,128,0,95862:0:0:0:0:
281,192,95862,128,0,95937:0:0:0:0:
76,192,95862,1,0,0:0:0:0:
128,192,95862,1,0,0:0:0:0:
332,192,95887,128,0,95962:0:0:0:0:
384,192,95912,128,0,95986:0:0:0:0:
435,192,95937,128,0,96011:0:0:0:0:
281,192,96011,128,0,96086:0:0:0:0:
179,192,96011,1,0,0:0:0:0:
332,192,96036,128,0,96111:0:0:0:0:
384,192,96061,128,0,96136:0:0:0:0:
435,192,96086,128,0,96161:0:0:0:0:
281,192,96161,128,0,96235:0:0:0:0:
128,192,96161,1,0,0:0:0:0:
332,192,96185,128,0,96260:0:0:0:0:
384,192,96210,128,0,96285:0:0:0:0:
435,192,96235,128,0,96310:0:0:0:0:
76,192,96310,128,0,96459:0:0:0:0:
179,192,96310,128,0,96608:0:0:0:0:
230,192,96310,1,0,0:0:0:0:
486,192,96310,1,0,0:0:0:0:
25,192,96459,128,0,96608:0:0:0:0:
281,192,96459,1,0,0:0:0:0:
128,192,96608,128,0,96758:0:0:0:0:
76,192,96608,128,0,96907:0:0:0:0:
332,192,96608,1,0,0:0:0:0:
230,192,96758,128,0,96907:0:0:0:0:
384,192,96758,1,0,0:0:0:0:
435,192,96758,1,0,0:0:0:0:
25,192,96907,1,0,0:0:0:0:
179,192,96907,1,0,0:0:0:0:
281,192,96907,1,0,0:0:0:0:
435,192,96907,1,0,0:0:0:0:
486,192,96907,1,0,0:0:0:0:
128,192,97205,1,0,0:0:0:0:
76,192,97355,1,0,0:0:0:0:
281,192,97504,128,0,97579:0:0:0:0:
25,192,97504,1,0,0:0:0:0:
230,192,97504,1,0,0:0:0:0:
332,192,97529,128,0,97603:0:0:0:0:
435,192,97554,128,0,97628:0:0:0:0:
486,192,97579,128,0,97653:0:0:0:0:
281,192,97653,128,0,97728:0:0:0:0:
179,192,97653,1,0,0:0:0:0:
332,192,97678,128,0,97753:0:0:0:0:
435,192,97703,128,0,97778:0:0:0:0:
486,192,97728,128,0,97802:0:0:0:0:
281,192,97802,128,0,97877:0:0:0:0:
128,192,97802,1,0,0:0:0:0:
332,192,97827,128,0,97902:0:0:0:0:
435,192,97852,128,0,97927:0:0:0:0:
486,192,97877,128,0,97952:0:0:0:0:
281,192,97952,128,0,98026:0:0:0:0:
76,192,97952,1,0,0:0:0:0:
332,192,97977,128,0,98051:0:0:0:0:
435,192,98001,128,0,98076:0:0:0:0:
486,192,98026,128,0,98101:0:0:0:0:
332,192,98101,128,0,98698:0:0:0:0:
179,192,98101,1,0,0:0:0:0:
230,192,98101,1,0,0:0:0:0:
384,192,98126,128,0,98723:0:0:0:0:
435,192,98151,128,0,98748:0:0:0:0:
486,192,98176,128,0,98773:0:0:0:0:
76,192,98232,1,0,0:0:0:0:
25,192,98250,1,0,0:0:0:0:
76,192,98399,1,0,0:0:0:0:
179,192,98511,1,0,0:0:0:0:
128,192,98549,1,0,0:0:0:0:
230,192,98698,1,0,0:0:0:0:
76,192,98698,1,0,0:0:0:0:
281,192,98698,1,0,0:0:0:0:
128,192,98847,1,0,0:0:0:0:
332,192,98847,1,0,0:0:0:0:
179,192,98996,1,0,0:0:0:0:
230,192,99146,1,0,0:0:0:0:
128,192,99295,1,0,0:0:0:0:
25,192,99295,1,0,0:0:0:0:
179,192,99295,1,0,0:0:0:0:
281,192,99295,1,0,0:0:0:0:
332,192,99295,1,0,0:0:0:0:
384,192,99295,1,0,0:0:0:0:
76,192,99593,1,0,0:0:0:0:
128,192,99743,1,0,0:0:0:0:
435,192,99892,128,0,99967:0:0:0:0:
179,192,99892,1,0,0:0:0:0:
230,192,99892,1,0,0:0:0:0:
384,192,99917,128,0,99991:0:0:0:0:
332,192,99942,128,0,100016:0:0:0:0:
281,192,99967,128,0,100041:0:0:0:0:
435,192,100041,128,0,100116:0:0:0:0:
128,192,100041,1,0,0:0:0:0:
384,192,100066,128,0,100141:0:0:0:0:
332,192,100091,128,0,100166:0:0:0:0:
281,192,100116,128,0,100190:0:0:0:0:
435,192,100190,128,0,100265:0:0:0:0:
76,192,100190,1,0,0:0:0:0:
384,192,100215,128,0,100290:0:0:0:0:
332,192,100240,128,0,100315:0:0:0:0:
281,192,100265,128,0,100340:0:0:0:0:
435,192,100340,128,0,100414:0:0:0:0:
25,192,100340,1,0,0:0:0:0:
384,192,100365,128,0,100439:0:0:0:0:
332,192,100389,128,0,100464:0:0:0:0:
281,192,100414,128,0,100489:0:0:0:0:
486,192,100489,128,0,100787:0:0:0:0:
76,192,100489,1,0,0:0:0:0:
230,192,100489,1,0,0:0:0:0:
435,192,100514,128,0,100812:0:0:0:0:
332,192,100539,128,0,100837:0:0:0:0:
281,192,100564,128,0,100862:0:0:0:0:
179,192,100787,1,0,0:0:0:0:
384,192,100787,1,0,0:0:0:0:
128,192,100918,1,0,0:0:0:0:
76,192,100937,1,0,0:0:0:0:
486,192,100937,1,0,0:0:0:0:
281,192,101086,1,0,0:0:0:0:
332,192,101086,1,0,0:0:0:0:
435,192,101086,1,0,0:0:0:0:
76,192,101235,1,0,0:0:0:0:
384,192,101235,1,0,0:0:0:0:
435,192,101235,1,0,0:0:0:0:
128,192,101384,1,0,0:0:0:0:
486,192,101384,1,0,0:0:0:0:
384,192,101384,1,0,0:0:0:0:
332,192,101384,1,0,0:0:0:0:
179,192,101534,1,0,0:0:0:0:
281,192,101534,1,0,0:0:0:0:
332,192,101534,1,0,0:0:0:0:
25,192,101683,1,0,0:0:0:0:
76,192,101683,1,0,0:0:0:0:
179,192,101683,1,0,0:0:0:0:
281,192,101683,1,0,0:0:0:0:
332,192,101683,1,0,0:0:0:0:
435,192,101683,1,0,0:0:0:0:
281,192,101982,1,0,0:0:0:0:
384,192,101982,1,0,0:0:0:0:
76,192,101982,1,0,0:0:0:0:
179,192,101982,1,0,0:0:0:0:
332,192,102131,128,0,102280:0:0:0:0:
435,192,102131,128,0,102280:0:0:0:0:
25,192,102131,1,0,0:0:0:0:
230,192,102131,1,0,0:0:0:0:
281,192,102280,1,0,0:0:0:0:
384,192,102280,1,0,0:0:0:0:
76,192,102280,1,0,0:0:0:0:
128,192,102280,1,0,0:0:0:0:
179,192,102280,1,0,0:0:0:0:
332,192,102429,128,0,102579:0:0:0:0:
435,192,102429,128,0,102579:0:0:0:0:
25,192,102429,1,0,0:0:0:0:
230,192,102429,1,0,0:0:0:0:
281,192,102579,1,0,0:0:0:0:
384,192,102579,1,0,0:0:0:0:
76,192,102579,1,0,0:0:0:0:
179,192,102579,1,0,0:0:0:0:
332,192,102728,128,0,102877:0:0:0:0:
435,192,102728,128,0,102877:0:0:0:0:
25,192,102728,1,0,0:0:0:0:
230,192,102728,1,0,0:0:0:0:
281,192,102877,1,0,0:0:0:0:
384,192,102877,1,0,0:0:0:0:
76,192,102877,1,0,0:0:0:0:
179,192,102877,1,0,0:0:0:0:
128,192,102877,1,0,0:0:0:0:
332,192,103026,128,0,103176:0:0:0:0:
435,192,103026,128,0,103176:0:0:0:0:
25,192,103026,1,0,0:0:0:0:
230,192,103026,1,0,0:0:0:0:
281,192,103176,1,0,0:0:0:0:
384,192,103176,1,0,0:0:0:0:
76,192,103176,1,0,0:0:0:0:
179,192,103176,1,0,0:0:0:0:
332,192,103325,128,0,103474:0:0:0:0:
435,192,103325,128,0,103474:0:0:0:0:
25,192,103325,1,0,0:0:0:0:
230,192,103325,1,0,0:0:0:0:
25,192,103474,128,0,103524:0:0:0:0:
179,192,103474,128,0,103524:0:0:0:0:
281,192,103474,1,0,0:0:0:0:
384,192,103474,1,0,0:0:0:0:
179,192,103574,128,0,103623:0:0:0:0:
25,192,103574,128,0,103623:0:0:0:0:
332,192,103623,1,0,0:0:0:0:
435,192,103623,1,0,0:0:0:0:
25,192,103673,128,0,103723:0:0:0:0:
179,192,103673,128,0,103723:0:0:0:0:
76,192,103773,128,0,103822:0:0:0:0:
230,192,103773,128,0,103822:0:0:0:0:
486,192,103773,1,0,0:0:0:0:
384,192,103773,1,0,0:0:0:0:
281,192,103773,1,0,0:0:0:0:
230,192,103872,128,0,103922:0:0:0:0:
76,192,103872,128,0,103922:0:0:0:0:
332,192,103922,1,0,0:0:0:0:
435,192,103922,1,0,0:0:0:0:
76,192,103972,128,0,104021:0:0:0:0:
230,192,103972,128,0,104021:0:0:0:0:
281,192,104071,1,0,0:0:0:0:
384,192,104071,1,0,0:0:0:0:
486,192,104071,1,0,0:0:0:0:
179,192,104071,1,0,0:0:0:0:
128,192,104071,1,0,0:0:0:0:
25,192,104071,1,0,0:0:0:0:
76,192,104370,1,0,0:0:0:0:
179,192,104370,1,0,0:0:0:0:
281,192,104370,1,0,0:0:0:0:
486,192,104370,1,0,0:0:0:0:
384,192,104370,1,0,0:0:0:0:
128,192,104519,128,0,104668:0:0:0:0:
230,192,104519,128,0,104668:0:0:0:0:
332,192,104519,1,0,0:0:0:0:
435,192,104519,1,0,0:0:0:0:
76,192,104668,1,0,0:0:0:0:
179,192,104668,1,0,0:0:0:0:
384,192,104668,1,0,0:0:0:0:
281,192,104668,1,0,0:0:0:0:
230,192,104817,128,0,104967:0:0:0:0:
25,192,104817,128,0,104967:0:0:0:0:
332,192,104817,1,0,0:0:0:0:
435,192,104817,1,0,0:0:0:0:
76,192,104967,1,0,0:0:0:0:
179,192,104967,1,0,0:0:0:0:
486,192,104967,1,0,0:0:0:0:
384,192,104967,1,0,0:0:0:0:
281,192,104967,1,0,0:0:0:0:
128,192,105116,128,0,105265:0:0:0:0:
230,192,105116,128,0,105265:0:0:0:0:
332,192,105116,1,0,0:0:0:0:
435,192,105116,1,0,0:0:0:0:
76,192,105265,128,0,105414:0:0:0:0:
179,192,105265,1,0,0:0:0:0:
486,192,105265,1,0,0:0:0:0:
384,192,105265,1,0,0:0:0:0:
25,192,105414,128,0,105564:0:0:0:0:
230,192,105414,128,0,105564:0:0:0:0:
332,192,105414,1,0,0:0:0:0:
435,192,105414,1,0,0:0:0:0:
76,192,105564,1,0,0:0:0:0:
179,192,105564,1,0,0:0:0:0:
281,192,105564,1,0,0:0:0:0:
384,192,105564,1,0,0:0:0:0:
486,192,105564,1,0,0:0:0:0:
281,192,105713,128,0,105787:0:0:0:0:
384,192,105713,128,0,105787:0:0:0:0:
25,192,105713,1,0,0:0:0:0:
230,192,105713,1,0,0:0:0:0:
332,192,105862,128,0,105937:0:0:0:0:
435,192,105862,128,0,105937:0:0:0:0:
76,192,105862,1,0,0:0:0:0:
128,192,105862,1,0,0:0:0:0:
179,192,105862,1,0,0:0:0:0:
332,192,106011,128,0,106086:0:0:0:0:
435,192,106011,128,0,106086:0:0:0:0:
25,192,106011,1,0,0:0:0:0:
230,192,106011,1,0,0:0:0:0:
332,192,106161,128,0,106235:0:0:0:0:
435,192,106161,128,0,106235:0:0:0:0:
76,192,106161,1,0,0:0:0:0:
179,192,106161,1,0,0:0:0:0:
332,192,106310,128,0,106384:0:0:0:0:
435,192,106310,128,0,106384:0:0:0:0:
25,192,106310,1,0,0:0:0:0:
230,192,106310,1,0,0:0:0:0:
76,192,106459,1,0,0:0:0:0:
128,192,106459,1,0,0:0:0:0:
179,192,106459,1,0,0:0:0:0:
281,192,106459,1,0,0:0:0:0:
384,192,106459,1,0,0:0:0:0:
486,192,106459,1,0,0:0:0:0:
486,192,106608,1,0,0:0:0:0:
384,192,106608,1,0,0:0:0:0:
281,192,106608,1,0,0:0:0:0:
25,192,106608,1,0,0:0:0:0:
230,192,106608,1,0,0:0:0:0:
281,192,106758,1,0,0:0:0:0:
384,192,106758,1,0,0:0:0:0:
486,192,106758,1,0,0:0:0:0:
76,192,106758,1,0,0:0:0:0:
179,192,106758,1,0,0:0:0:0:
25,192,106907,128,0,107056:0:0:0:0:
128,192,106907,128,0,107056:0:0:0:0:
230,192,106907,128,0,107056:0:0:0:0:
486,192,106907,1,0,0:0:0:0:
384,192,106907,1,0,0:0:0:0:
281,192,106907,1,0,0:0:0:0:
281,192,107056,1,0,0:0:0:0:
384,192,107056,1,0,0:0:0:0:
486,192,107056,1,0,0:0:0:0:
25,192,107205,128,0,107355:0:0:0:0:
128,192,107205,128,0,107355:0:0:0:0:
230,192,107205,128,0,107355:0:0:0:0:
281,192,107205,1,0,0:0:0:0:
384,192,107205,1,0,0:0:0:0:
486,192,107205,1,0,0:0:0:0:
486,192,107355,1,0,0:0:0:0:
384,192,107355,1,0,0:0:0:0:
281,192,107355,1,0,0:0:0:0:
76,192,107504,128,0,107653:0:0:0:0:
179,192,107504,128,0,107653:0:0:0:0:
281,192,107504,1,0,0:0:0:0:
384,192,107504,1,0,0:0:0:0:
486,192,107504,1,0,0:0:0:0:
486,192,107653,1,0,0:0:0:0:
384,192,107653,1,0,0:0:0:0:
281,192,107653,1,0,0:0:0:0:
230,192,107653,1,0,0:0:0:0:
128,192,107653,1,0,0:0:0:0:
25,192,107653,1,0,0:0:0:0:
486,192,107802,1,0,0:0:0:0:
384,192,107802,1,0,0:0:0:0:
25,192,107802,1,0,0:0:0:0:
128,192,107802,1,0,0:0:0:0:
230,192,107802,1,0,0:0:0:0:
332,192,107952,1,0,0:0:0:0:
435,192,107952,1,0,0:0:0:0:
230,192,107952,1,0,0:0:0:0:
128,192,107952,1,0,0:0:0:0:
25,192,107952,1,0,0:0:0:0:
281,192,108064,1,0,0:0:0:0:
332,192,108082,1,0,0:0:0:0:
384,192,108101,1,0,0:0:0:0:
25,192,108101,1,0,0:0:0:0:
128,192,108101,1,0,0:0:0:0:
230,192,108101,1,0,0:0:0:0:
230,192,108250,1,0,0:0:0:0:
128,192,108250,1,0,0:0:0:0:
25,192,108250,1,0,0:0:0:0:
486,192,108250,1,0,0:0:0:0:
332,192,108250,1,0,0:0:0:0:
25,192,108399,1,0,0:0:0:0:
128,192,108399,1,0,0:0:0:0:
230,192,108399,1,0,0:0:0:0:
281,192,108399,1,0,0:0:0:0:
435,192,108399,1,0,0:0:0:0:
230,192,108549,1,0,0:0:0:0:
128,192,108549,1,0,0:0:0:0:
25,192,108549,1,0,0:0:0:0:
332,192,108549,1,0,0:0:0:0:
384,192,108549,1,0,0:0:0:0:
25,192,108698,1,0,0:0:0:0:
128,192,108698,1,0,0:0:0:0:
230,192,108698,1,0,0:0:0:0:
486,192,108698,1,0,0:0:0:0:
435,192,108698,1,0,0:0:0:0:
76,192,108773,1,0,0:0:0:0:
179,192,108773,1,0,0:0:0:0:
281,192,108847,1,0,0:0:0:0:
332,192,108847,1,0,0:0:0:0:
384,192,108847,1,0,0:0:0:0:
435,192,108847,1,0,0:0:0:0:
486,192,108847,1,0,0:0:0:0:
128,192,108922,1,0,0:0:0:0:
179,192,108922,1,0,0:0:0:0:
76,192,108922,1,0,0:0:0:0:
230,192,108996,1,0,0:0:0:0:
332,192,108996,1,0,0:0:0:0:
281,192,108996,1,0,0:0:0:0:
384,192,108996,1,0,0:0:0:0:
25,192,109071,1,0,0:0:0:0:
76,192,109071,1,0,0:0:0:0:
128,192,109071,1,0,0:0:0:0:
179,192,109146,1,0,0:0:0:0:
281,192,109146,1,0,0:0:0:0:
230,192,109146,1,0,0:0:0:0:
332,192,109146,1,0,0:0:0:0:
25,192,109220,1,0,0:0:0:0:
76,192,109220,1,0,0:0:0:0:
128,192,109220,1,0,0:0:0:0:
384,192,109295,128,0,109444:0:0:0:0:
486,192,109295,128,0,109444:0:0:0:0:
435,192,109295,128,0,109444:0:0:0:0:
332,192,109295,1,0,0:0:0:0:
230,192,109370,1,0,0:0:0:0:
179,192,109370,1,0,0:0:0:0:
281,192,109370,1,0,0:0:0:0:
25,192,109444,1,0,0:0:0:0:
76,192,109444,1,0,0:0:0:0:
128,192,109444,1,0,0:0:0:0:
332,192,109444,1,0,0:0:0:0:
179,192,109519,1,0,0:0:0:0:
230,192,109519,1,0,0:0:0:0:
281,192,109519,1,0,0:0:0:0:
384,192,109593,128,0,109743:0:0:0:0:
435,192,109593,128,0,109743:0:0:0:0:
486,192,109593,128,0,109743:0:0:0:0:
25,192,109593,1,0,0:0:0:0:
76,192,109668,1,0,0:0:0:0:
128,192,109668,1,0,0:0:0:0:
179,192,109668,1,0,0:0:0:0:
332,192,109743,1,0,0:0:0:0:
281,192,109743,1,0,0:0:0:0:
230,192,109743,1,0,0:0:0:0:
25,192,109743,1,0,0:0:0:0:
76,192,109817,1,0,0:0:0:0:
128,192,109817,1,0,0:0:0:0:
179,192,109817,1,0,0:0:0:0:
384,192,109892,128,0,110041:0:0:0:0:
435,192,109892,128,0,110041:0:0:0:0:
486,192,109892,128,0,110041:0:0:0:0:
25,192,109892,1,0,0:0:0:0:
332,192,109967,1,0,0:0:0:0:
281,192,109967,1,0,0:0:0:0:
230,192,109967,1,0,0:0:0:0:
179,192,110041,1,0,0:0:0:0:
128,192,110041,1,0,0:0:0:0:
76,192,110041,1,0,0:0:0:0:
25,192,110041,1,0,0:0:0:0:
332,192,110041,1,0,0:0:0:0:
281,192,110079,1,0,0:0:0:0:
230,192,110116,1,0,0:0:0:0:
179,192,110153,1,0,0:0:0:0:
128,192,110190,1,0,0:0:0:0:
76,192,110228,1,0,0:0:0:0:
25,192,110265,1,0,0:0:0:0:
281,192,110302,1,0,0:0:0:0:
384,192,110340,1,0,0:0:0:0:
332,192,110377,1,0,0:0:0:0:
281,192,110414,1,0,0:0:0:0:
230,192,110452,1,0,0:0:0:0:
179,192,110489,1,0,0:0:0:0:
128,192,110526,1,0,0:0:0:0:
76,192,110564,1,0,0:0:0:0:
25,192,110601,1,0,0:0:0:0:
435,192,110638,1,0,0:0:0:0:
384,192,110676,1,0,0:0:0:0:
332,192,110713,1,0,0:0:0:0:
281,192,110750,1,0,0:0:0:0:
230,192,110787,1,0,0:0:0:0:
179,192,110825,1,0,0:0:0:0:
128,192,110862,1,0,0:0:0:0:
76,192,110899,1,0,0:0:0:0:
486,192,110937,1,0,0:0:0:0:
25,192,110937,1,0,0:0:0:0:
281,192,110937,1,0,0:0:0:0:
332,192,110937,1,0,0:0:0:0:
384,192,110937,1,0,0:0:0:0:
435,192,110937,1,0,0:0:0:0:
281,192,111235,1,0,0:0:0:0:
435,192,111235,1,0,0:0:0:0:
486,192,111235,1,0,0:0:0:0:
230,192,111235,1,0,0:0:0:0:
25,192,111235,1,0,0:0:0:0:
128,192,111235,1,0,0:0:0:0:
384,192,111310,1,0,0:0:0:0:
332,192,111384,1,0,0:0:0:0:
76,192,111384,1,0,0:0:0:0:
179,192,111384,1,0,0:0:0:0:
435,192,111459,1,0,0:0:0:0:
384,192,111534,1,0,0:0:0:0:
230,192,111534,1,0,0:0:0:0:
25,192,111534,1,0,0:0:0:0:
128,192,111534,1,0,0:0:0:0:
332,192,111608,1,0,0:0:0:0:
281,192,111683,1,0,0:0:0:0:
179,192,111683,1,0,0:0:0:0:
230,192,111683,1,0,0:0:0:0:
435,192,111758,1,0,0:0:0:0:
25,192,111758,1,0,0:0:0:0:
76,192,111758,1,0,0:0:0:0:
384,192,111832,1,0,0:0:0:0:
128,192,111832,1,0,0:0:0:0:
332,192,111907,1,0,0:0:0:0:
179,192,111907,1,0,0:0:0:0:
230,192,111907,1,0,0:0:0:0:
384,192,111982,1,0,0:0:0:0:
25,192,111982,1,0,0:0:0:0:
76,192,111982,1,0,0:0:0:0:
435,192,112056,1,0,0:0:0:0:
128,192,112056,1,0,0:0:0:0:
486,192,112131,1,0,0:0:0:0:
230,192,112131,1,0,0:0:0:0:
25,192,112131,1,0,0:0:0:0:
179,192,112131,1,0,0:0:0:0:
435,192,112205,1,0,0:0:0:0:
384,192,112280,1,0,0:0:0:0:
76,192,112280,1,0,0:0:0:0:
128,192,112280,1,0,0:0:0:0:
435,192,112355,1,0,0:0:0:0:
179,192,112355,1,0,0:0:0:0:
384,192,112429,1,0,0:0:0:0:
25,192,112429,1,0,0:0:0:0:
230,192,112429,1,0,0:0:0:0:
76,192,112429,1,0,0:0:0:0:
281,192,112504,1,0,0:0:0:0:
332,192,112579,1,0,0:0:0:0:
76,192,112579,1,0,0:0:0:0:
179,192,112579,1,0,0:0:0:0:
435,192,112653,1,0,0:0:0:0:
281,192,112728,1,0,0:0:0:0:
230,192,112728,1,0,0:0:0:0:
179,192,112728,1,0,0:0:0:0:
25,192,112728,1,0,0:0:0:0:
332,192,112802,1,0,0:0:0:0:
486,192,112877,1,0,0:0:0:0:
25,192,112877,1,0,0:0:0:0:
76,192,112877,1,0,0:0:0:0:
281,192,112952,1,0,0:0:0:0:
230,192,112952,1,0,0:0:0:0:
179,192,112952,1,0,0:0:0:0:
332,192,113026,1,0,0:0:0:0:
128,192,113026,1,0,0:0:0:0:
435,192,113101,1,0,0:0:0:0:
25,192,113101,1,0,0:0:0:0:
76,192,113101,1,0,0:0:0:0:
281,192,113176,1,0,0:0:0:0:
179,192,113176,1,0,0:0:0:0:
230,192,113176,1,0,0:0:0:0:
332,192,113250,1,0,0:0:0:0:
128,192,113250,1,0,0:0:0:0:
384,192,113325,1,0,0:0:0:0:
25,192,113325,1,0,0:0:0:0:
76,192,113325,1,0,0:0:0:0:
230,192,113325,1,0,0:0:0:0:
281,192,113399,1,0,0:0:0:0:
332,192,113474,1,0,0:0:0:0:
179,192,113474,1,0,0:0:0:0:
128,192,113474,1,0,0:0:0:0:
435,192,113549,1,0,0:0:0:0:
76,192,113549,1,0,0:0:0:0:
486,192,113623,1,0,0:0:0:0:
25,192,113623,1,0,0:0:0:0:
128,192,113623,1,0,0:0:0:0:
230,192,113623,1,0,0:0:0:0:
435,192,113698,1,0,0:0:0:0:
384,192,113773,1,0,0:0:0:0:
76,192,113773,1,0,0:0:0:0:
179,192,113773,1,0,0:0:0:0:
332,192,113847,1,0,0:0:0:0:
486,192,113922,1,0,0:0:0:0:
230,192,113922,1,0,0:0:0:0:
128,192,113922,1,0,0:0:0:0:
25,192,113922,1,0,0:0:0:0:
435,192,113996,1,0,0:0:0:0:
384,192,114071,1,0,0:0:0:0:
25,192,114071,1,0,0:0:0:0:
76,192,114071,1,0,0:0:0:0:
281,192,114146,1,0,0:0:0:0:
128,192,114146,1,0,0:0:0:0:
179,192,114146,1,0,0:0:0:0:
486,192,114220,1,0,0:0:0:0:
230,192,114220,1,0,0:0:0:0:
435,192,114295,1,0,0:0:0:0:
25,192,114295,1,0,0:0:0:0:
76,192,114295,1,0,0:0:0:0:
332,192,114370,1,0,0:0:0:0:
128,192,114370,1,0,0:0:0:0:
179,192,114370,1,0,0:0:0:0:
281,192,114444,1,0,0:0:0:0:
230,192,114444,1,0,0:0:0:0:
332,192,114519,1,0,0:0:0:0:
76,192,114519,1,0,0:0:0:0:
25,192,114519,1,0,0:0:0:0:
128,192,114519,1,0,0:0:0:0:
384,192,114593,1,0,0:0:0:0:
435,192,114668,1,0,0:0:0:0:
230,192,114668,1,0,0:0:0:0:
179,192,114668,1,0,0:0:0:0:
486,192,114743,1,0,0:0:0:0:
128,192,114743,1,0,0:0:0:0:
435,192,114817,1,0,0:0:0:0:
25,192,114817,1,0,0:0:0:0:
76,192,114817,1,0,0:0:0:0:
230,192,114817,1,0,0:0:0:0:
332,192,114892,1,0,0:0:0:0:
128,192,114892,1,0,0:0:0:0:
384,192,114967,1,0,0:0:0:0:
179,192,114967,1,0,0:0:0:0:
230,192,114967,1,0,0:0:0:0:
281,192,115041,1,0,0:0:0:0:
128,192,115041,1,0,0:0:0:0:
76,192,115041,1,0,0:0:0:0:
384,192,115116,1,0,0:0:0:0:
179,192,115116,1,0,0:0:0:0:
230,192,115116,1,0,0:0:0:0:
332,192,115190,1,0,0:0:0:0:
76,192,115190,1,0,0:0:0:0:
435,192,115265,1,0,0:0:0:0:
230,192,115265,1,0,0:0:0:0:
179,192,115265,1,0,0:0:0:0:
25,192,115265,1,0,0:0:0:0:
384,192,115340,1,0,0:0:0:0:
128,192,115340,1,0,0:0:0:0:
486,192,115414,1,0,0:0:0:0:
25,192,115414,1,0,0:0:0:0:
76,192,115414,1,0,0:0:0:0:
435,192,115489,1,0,0:0:0:0:
128,192,115489,1,0,0:0:0:0:
179,192,115489,1,0,0:0:0:0:
486,192,115564,1,0,0:0:0:0:
25,192,115564,1,0,0:0:0:0:
76,192,115564,1,0,0:0:0:0:
384,192,115638,1,0,0:0:0:0:
128,192,115638,1,0,0:0:0:0:
281,192,115713,1,0,0:0:0:0:
179,192,115713,1,0,0:0:0:0:
230,192,115713,1,0,0:0:0:0:
76,192,115713,1,0,0:0:0:0:
332,192,115787,1,0,0:0:0:0:
128,192,115787,1,0,0:0:0:0:
384,192,115862,1,0,0:0:0:0:
25,192,115862,1,0,0:0:0:0:
179,192,115862,1,0,0:0:0:0:
435,192,115937,1,0,0:0:0:0:
76,192,115937,1,0,0:0:0:0:
486,192,116011,1,0,0:0:0:0:
128,192,116011,1,0,0:0:0:0:
230,192,116011,1,0,0:0:0:0:
25,192,116011,1,0,0:0:0:0:
281,192,116011,1,0,0:0:0:0:
332,192,116011,1,0,0:0:0:0:
179,192,116086,1,0,0:0:0:0:
128,192,116161,1,0,0:0:0:0:
384,192,116161,1,0,0:0:0:0:
435,192,116161,1,0,0:0:0:0:
179,192,116235,1,0,0:0:0:0:
230,192,116310,1,0,0:0:0:0:
281,192,116310,1,0,0:0:0:0:
332,192,116310,1,0,0:0:0:0:
435,192,116310,1,0,0:0:0:0:
128,192,116384,1,0,0:0:0:0:
76,192,116459,1,0,0:0:0:0:
486,192,116459,1,0,0:0:0:0:
384,192,116459,1,0,0:0:0:0:
128,192,116534,1,0,0:0:0:0:
332,192,116534,1,0,0:0:0:0:
435,192,116534,1,0,0:0:0:0:
179,192,116608,1,0,0:0:0:0:
281,192,116608,1,0,0:0:0:0:
76,192,116683,1,0,0:0:0:0:
332,192,116683,1,0,0:0:0:0:
435,192,116683,1,0,0:0:0:0:
25,192,116758,1,0,0:0:0:0:
384,192,116758,1,0,0:0:0:0:
486,192,116758,1,0,0:0:0:0:
76,192,116832,1,0,0:0:0:0:
435,192,116832,1,0,0:0:0:0:
230,192,116907,1,0,0:0:0:0:
281,192,116907,1,0,0:0:0:0:
332,192,116907,1,0,0:0:0:0:
384,192,116907,1,0,0:0:0:0:
179,192,116982,1,0,0:0:0:0:
76,192,117056,1,0,0:0:0:0:
486,192,117056,1,0,0:0:0:0:
435,192,117056,1,0,0:0:0:0:
179,192,117131,1,0,0:0:0:0:
384,192,117131,1,0,0:0:0:0:
25,192,117205,1,0,0:0:0:0:
281,192,117205,1,0,0:0:0:0:
332,192,117205,1,0,0:0:0:0:
486,192,117205,1,0,0:0:0:0:
76,192,117280,1,0,0:0:0:0:
128,192,117355,1,0,0:0:0:0:
384,192,117355,1,0,0:0:0:0:
332,192,117355,1,0,0:0:0:0:
179,192,117429,1,0,0:0:0:0:
230,192,117504,1,0,0:0:0:0:
281,192,117504,1,0,0:0:0:0:
384,192,117504,1,0,0:0:0:0:
435,192,117504,1,0,0:0:0:0:
179,192,117579,1,0,0:0:0:0:
128,192,117653,1,0,0:0:0:0:
332,192,117653,1,0,0:0:0:0:
486,192,117653,1,0,0:0:0:0:
76,192,117728,1,0,0:0:0:0:
281,192,117728,1,0,0:0:0:0:
435,192,117728,1,0,0:0:0:0:
179,192,117802,1,0,0:0:0:0:
384,192,117802,1,0,0:0:0:0:
230,192,117877,1,0,0:0:0:0:
332,192,117877,1,0,0:0:0:0:
486,192,117877,1,0,0:0:0:0:
128,192,117952,1,0,0:0:0:0:
281,192,117952,1,0,0:0:0:0:
435,192,117952,1,0,0:0:0:0:
179,192,118026,1,0,0:0:0:0:
384,192,118026,1,0,0:0:0:0:
76,192,118101,1,0,0:0:0:0:
332,192,118101,1,0,0:0:0:0:
486,192,118101,1,0,0:0:0:0:
435,192,118101,1,0,0:0:0:0:
128,192,118176,1,0,0:0:0:0:
25,192,118250,1,0,0:0:0:0:
281,192,118250,1,0,0:0:0:0:
384,192,118250,1,0,0:0:0:0:
76,192,118325,1,0,0:0:0:0:
332,192,118325,1,0,0:0:0:0:
25,192,118399,1,0,0:0:0:0:
384,192,118399,1,0,0:0:0:0:
486,192,118399,1,0,0:0:0:0:
435,192,118399,1,0,0:0:0:0:
76,192,118449,1,0,0:0:0:0:
128,192,118499,1,0,0:0:0:0:
281,192,118549,1,0,0:0:0:0:
332,192,118549,1,0,0:0:0:0:
25,192,118549,1,0,0:0:0:0:
76,192,118598,1,0,0:0:0:0:
179,192,118648,1,0,0:0:0:0:
486,192,118698,1,0,0:0:0:0:
281,192,118698,1,0,0:0:0:0:
384,192,118698,1,0,0:0:0:0:
25,192,118698,1,0,0:0:0:0:
128,192,118748,1,0,0:0:0:0:
179,192,118797,1,0,0:0:0:0:
76,192,118847,1,0,0:0:0:0:
332,192,118847,1,0,0:0:0:0:
435,192,118847,1,0,0:0:0:0:
128,192,118897,1,0,0:0:0:0:
281,192,118922,1,0,0:0:0:0:
486,192,118922,1,0,0:0:0:0:
179,192,118947,1,0,0:0:0:0:
384,192,118996,1,0,0:0:0:0:
76,192,118996,1,0,0:0:0:0:
128,192,119046,1,0,0:0:0:0:
281,192,119071,1,0,0:0:0:0:
486,192,119071,1,0,0:0:0:0:
230,192,119096,1,0,0:0:0:0:
332,192,119146,1,0,0:0:0:0:
435,192,119146,1,0,0:0:0:0:
76,192,119146,1,0,0:0:0:0:
179,192,119220,1,0,0:0:0:0:
384,192,119220,1,0,0:0:0:0:
230,192,119295,1,0,0:0:0:0:
281,192,119295,1,0,0:0:0:0:
332,192,119295,1,0,0:0:0:0:
486,192,119295,1,0,0:0:0:0:
76,192,119444,1,0,0:0:0:0:
179,192,119444,1,0,0:0:0:0:
384,192,119444,1,0,0:0:0:0:
435,192,119444,1,0,0:0:0:0:
25,192,119593,1,0,0:0:0:0:
76,192,119593,1,0,0:0:0:0:
230,192,119593,1,0,0:0:0:0:
281,192,119593,1,0,0:0:0:0:
486,192,119593,1,0,0:0:0:0:
435,192,119593,1,0,0:0:0:0:
384,192,119668,1,0,0:0:0:0:
25,192,119743,1,0,0:0:0:0:
76,192,119743,1,0,0:0:0:0:
230,192,119743,1,0,0:0:0:0:
281,192,119743,1,0,0:0:0:0:
486,192,119743,1,0,0:0:0:0:
435,192,119743,1,0,0:0:0:0:
384,192,119817,1,0,0:0:0:0:
332,192,119817,1,0,0:0:0:0:
435,192,119892,1,0,0:0:0:0:
486,192,119892,1,0,0:0:0:0:
332,192,119967,1,0,0:0:0:0:
25,192,120041,1,0,0:0:0:0:
128,192,120041,1,0,0:0:0:0:
230,192,120041,1,0,0:0:0:0:
281,192,120041,1,0,0:0:0:0:
384,192,120041,1,0,0:0:0:0:
486,192,120041,1,0,0:0:0:0:
179,192,120116,1,0,0:0:0:0:
230,192,120190,1,0,0:0:0:0:
128,192,120190,1,0,0:0:0:0:
25,192,120190,1,0,0:0:0:0:
281,192,120190,1,0,0:0:0:0:
384,192,120190,1,0,0:0:0:0:
486,192,120190,1,0,0:0:0:0:
332,192,120265,1,0,0:0:0:0:
435,192,120265,1,0,0:0:0:0:
76,192,120265,1,0,0:0:0:0:
281,192,120340,1,0,0:0:0:0:
486,192,120340,1,0,0:0:0:0:
128,192,120340,1,0,0:0:0:0:
25,192,120414,1,0,0:0:0:0:
76,192,120489,1,0,0:0:0:0:
179,192,120489,1,0,0:0:0:0:
230,192,120489,1,0,0:0:0:0:
281,192,120489,1,0,0:0:0:0:
332,192,120489,1,0,0:0:0:0:
435,192,120489,1,0,0:0:0:0:
281,192,120638,1,0,0:0:0:0:
332,192,120638,1,0,0:0:0:0:
435,192,120638,1,0,0:0:0:0:
230,192,120638,1,0,0:0:0:0:
179,192,120638,1,0,0:0:0:0:
76,192,120638,1,0,0:0:0:0:
486,192,120787,1,0,0:0:0:0:
25,192,120787,1,0,0:0:0:0:
128,192,120787,1,0,0:0:0:0:
230,192,120787,1,0,0:0:0:0:
281,192,120787,1,0,0:0:0:0:
384,192,120787,128,0,120937:0:0:0:0:
435,192,120937,128,0,121086:0:0:0:0:
25,192,120937,1,0,0:0:0:0:
76,192,120937,1,0,0:0:0:0:
281,192,121086,128,0,121161:0:0:0:0:
230,192,121086,1,0,0:0:0:0:
179,192,121086,1,0,0:0:0:0:
76,192,121086,1,0,0:0:0:0:
332,192,121161,128,0,121235:0:0:0:0:
384,192,121235,128,0,121310:0:0:0:0:
128,192,121235,1,0,0:0:0:0:
25,192,121235,1,0,0:0:0:0:
435,192,121310,128,0,121384:0:0:0:0:
76,192,121310,1,0,0:0:0:0:
179,192,121310,1,0,0:0:0:0:
486,192,121384,128,0,121683:0:0:0:0:
230,192,121384,1,0,0:0:0:0:
76,192,121459,1,0,0:0:0:0:
179,192,121459,1,0,0:0:0:0:
435,192,121534,128,0,121683:0:0:0:0:
25,192,121534,1,0,0:0:0:0:
128,192,121534,1,0,0:0:0:0:
76,192,121608,1,0,0:0:0:0:
281,192,121683,128,0,121982:0:0:0:0:
179,192,121683,1,0,0:0:0:0:
230,192,121683,1,0,0:0:0:0:
25,192,121683,1,0,0:0:0:0:
332,192,121832,128,0,121982:0:0:0:0:
25,192,121832,1,0,0:0:0:0:
128,192,121832,1,0,0:0:0:0:
230,192,121907,1,0,0:0:0:0:
384,192,121982,128,0,122131:0:0:0:0:
76,192,121982,1,0,0:0:0:0:
179,192,121982,1,0,0:0:0:0:
128,192,121982,1,0,0:0:0:0:
435,192,122056,128,0,122205:0:0:0:0:
486,192,122131,128,0,122280:0:0:0:0:
332,192,122131,128,0,122280:0:0:0:0:
128,192,122131,1,0,0:0:0:0:
179,192,122131,1,0,0:0:0:0:
384,192,122205,128,0,122355:0:0:0:0:
435,192,122280,128,0,122429:0:0:0:0:
281,192,122280,128,0,122429:0:0:0:0:
230,192,122280,1,0,0:0:0:0:
128,192,122280,1,0,0:0:0:0:
76,192,122280,1,0,0:0:0:0:
332,192,122355,128,0,122504:0:0:0:0:
384,192,122429,128,0,122579:0:0:0:0:
25,192,122429,1,0,0:0:0:0:
179,192,122429,1,0,0:0:0:0:
435,192,122504,128,0,122653:0:0:0:0:
76,192,122504,1,0,0:0:0:0:
230,192,122504,1,0,0:0:0:0:
332,192,122579,128,0,122728:0:0:0:0:
128,192,122579,1,0,0:0:0:0:
384,192,122653,128,0,122802:0:0:0:0:
25,192,122653,1,0,0:0:0:0:
179,192,122653,1,0,0:0:0:0:
435,192,122728,128,0,122877:0:0:0:0:
230,192,122728,1,0,0:0:0:0:
76,192,122728,1,0,0:0:0:0:
486,192,122802,128,0,122952:0:0:0:0:
128,192,122802,1,0,0:0:0:0:
281,192,122877,128,0,123026:0:0:0:0:
25,192,122877,1,0,0:0:0:0:
76,192,122877,1,0,0:0:0:0:
179,192,122877,1,0,0:0:0:0:
332,192,122952,128,0,123101:0:0:0:0:
384,192,123026,128,0,123176:0:0:0:0:
230,192,123026,1,0,0:0:0:0:
128,192,123026,1,0,0:0:0:0:
435,192,123101,128,0,123250:0:0:0:0:
179,192,123101,1,0,0:0:0:0:
281,192,123176,128,0,123399:0:0:0:0:
486,192,123176,128,0,123250:0:0:0:0:
25,192,123176,1,0,0:0:0:0:
128,192,123176,1,0,0:0:0:0:
76,192,123176,1,0,0:0:0:0:
384,192,123250,128,0,123325:0:0:0:0:
332,192,123325,128,0,123399:0:0:0:0:
25,192,123325,1,0,0:0:0:0:
230,192,123325,1,0,0:0:0:0:
486,192,123399,128,0,123623:0:0:0:0:
384,192,123474,128,0,123549:0:0:0:0:
128,192,123474,1,0,0:0:0:0:
179,192,123474,1,0,0:0:0:0:
230,192,123474,1,0,0:0:0:0:
435,192,123549,128,0,123623:0:0:0:0:
281,192,123623,128,0,123847:0:0:0:0:
25,192,123623,1,0,0:0:0:0:
76,192,123623,1,0,0:0:0:0:
384,192,123698,128,0,123773:0:0:0:0:
179,192,123698,1,0,0:0:0:0:
230,192,123698,1,0,0:0:0:0:
332,192,123773,128,0,123847:0:0:0:0:
128,192,123773,1,0,0:0:0:0:
486,192,123847,128,0,124071:0:0:0:0:
179,192,123847,1,0,0:0:0:0:
230,192,123847,1,0,0:0:0:0:
384,192,123922,128,0,123996:0:0:0:0:
25,192,123922,1,0,0:0:0:0:
76,192,123922,1,0,0:0:0:0:
435,192,123996,128,0,124071:0:0:0:0:
128,192,123996,1,0,0:0:0:0:
281,192,124071,128,0,124295:0:0:0:0:
179,192,124071,1,0,0:0:0:0:
230,192,124071,1,0,0:0:0:0:
25,192,124071,1,0,0:0:0:0:
384,192,124146,128,0,124220:0:0:0:0:
332,192,124220,128,0,124295:0:0:0:0:
76,192,124220,1,0,0:0:0:0:
128,192,124220,1,0,0:0:0:0:
486,192,124295,128,0,124519:0:0:0:0:
179,192,124295,1,0,0:0:0:0:
384,192,124370,128,0,124444:0:0:0:0:
230,192,124370,1,0,0:0:0:0:
25,192,124370,1,0,0:0:0:0:
76,192,124370,1,0,0:0:0:0:
435,192,124444,128,0,124519:0:0:0:0:
128,192,124444,1,0,0:0:0:0:
281,192,124519,128,0,124743:0:0:0:0:
179,192,124519,1,0,0:0:0:0:
230,192,124519,1,0,0:0:0:0:
384,192,124593,128,0,124668:0:0:0:0:
25,192,124593,1,0,0:0:0:0:
76,192,124593,1,0,0:0:0:0:
332,192,124668,128,0,124743:0:0:0:0:
179,192,124668,1,0,0:0:0:0:
230,192,124668,1,0,0:0:0:0:
486,192,124743,128,0,124892:0:0:0:0:
128,192,124743,1,0,0:0:0:0:
384,192,124817,128,0,124892:0:0:0:0:
25,192,124817,1,0,0:0:0:0:
230,192,124817,1,0,0:0:0:0:
179,192,124817,1,0,0:0:0:0:
435,192,124892,128,0,124967:0:0:0:0:
128,192,124892,1,0,0:0:0:0:
486,192,124967,128,0,125116:0:0:0:0:
25,192,124967,1,0,0:0:0:0:
76,192,124967,1,0,0:0:0:0:
435,192,125041,128,0,125190:0:0:0:0:
179,192,125041,1,0,0:0:0:0:
230,192,125041,1,0,0:0:0:0:
384,192,125116,128,0,125265:0:0:0:0:
76,192,125116,1,0,0:0:0:0:
25,192,125116,1,0,0:0:0:0:
332,192,125190,128,0,125340:0:0:0:0:
128,192,125190,1,0,0:0:0:0:
435,192,125265,128,0,125414:0:0:0:0:
25,192,125265,1,0,0:0:0:0:
179,192,125265,1,0,0:0:0:0:
230,192,125265,1,0,0:0:0:0:
384,192,125340,128,0,125489:0:0:0:0:
76,192,125340,1,0,0:0:0:0:
332,192,125414,128,0,125564:0:0:0:0:
128,192,125414,1,0,0:0:0:0:
25,192,125414,1,0,0:0:0:0:
281,192,125489,128,0,125564:0:0:0:0:
179,192,125489,1,0,0:0:0:0:
25,192,125564,128,0,125787:0:0:0:0:
230,192,125564,1,0,0:0:0:0:
435,192,125564,1,0,0:0:0:0:
486,192,125564,1,0,0:0:0:0:
128,192,125564,1,0,0:0:0:0:
384,192,125564,1,0,0:0:0:0:
76,192,125638,128,0,125862:0:0:0:0:
128,192,125713,128,0,125937:0:0:0:0:
435,192,125713,1,0,0:0:0:0:
332,192,125713,1,0,0:0:0:0:
179,192,125787,128,0,126011:0:0:0:0:
25,192,125862,128,0,126086:0:0:0:0:
281,192,125862,1,0,0:0:0:0:
332,192,125862,1,0,0:0:0:0:
486,192,125862,1,0,0:0:0:0:
76,192,125937,128,0,126161:0:0:0:0:
128,192,126011,128,0,126086:0:0:0:0:
435,192,126011,1,0,0:0:0:0:
486,192,126011,1,0,0:0:0:0:
179,192,126086,128,0,126161:0:0:0:0:
332,192,126086,1,0,0:0:0:0:
384,192,126086,1,0,0:0:0:0:
128,192,126161,128,0,126235:0:0:0:0:
281,192,126161,1,0,0:0:0:0:
179,192,126235,128,0,126310:0:0:0:0:
332,192,126235,1,0,0:0:0:0:
384,192,126235,1,0,0:0:0:0:
128,192,126310,128,0,126384:0:0:0:0:
435,192,126310,1,0,0:0:0:0:
486,192,126310,1,0,0:0:0:0:
179,192,126384,128,0,126459:0:0:0:0:
281,192,126384,1,0,0:0:0:0:
128,192,126459,128,0,126534:0:0:0:0:
332,192,126459,1,0,0:0:0:0:
384,192,126459,1,0,0:0:0:0:
435,192,126459,1,0,0:0:0:0:
179,192,126534,128,0,126608:0:0:0:0:
128,192,126608,128,0,126683:0:0:0:0:
486,192,126608,1,0,0:0:0:0:
435,192,126608,1,0,0:0:0:0:
179,192,126683,128,0,126758:0:0:0:0:
384,192,126683,1,0,0:0:0:0:
230,192,126758,128,0,126982:0:0:0:0:
281,192,126758,1,0,0:0:0:0:
332,192,126758,1,0,0:0:0:0:
435,192,126758,1,0,0:0:0:0:
179,192,126832,128,0,127056:0:0:0:0:
128,192,126907,128,0,127131:0:0:0:0:
384,192,126907,1,0,0:0:0:0:
435,192,126907,1,0,0:0:0:0:
76,192,126982,128,0,127429:0:0:0:0:
230,192,127056,128,0,127802:0:0:0:0:
486,192,127056,1,0,0:0:0:0:
384,192,127056,1,0,0:0:0:0:
281,192,127056,1,0,0:0:0:0:
179,192,127131,128,0,127280:0:0:0:0:
128,192,127205,128,0,127355:0:0:0:0:
281,192,127205,1,0,0:0:0:0:
332,192,127205,1,0,0:0:0:0:
25,192,127280,128,0,127504:0:0:0:0:
435,192,127280,1,0,0:0:0:0:
486,192,127280,1,0,0:0:0:0:
179,192,127355,128,0,127728:0:0:0:0:
384,192,127355,1,0,0:0:0:0:
128,192,127429,128,0,127653:0:0:0:0:
281,192,127429,1,0,0:0:0:0:
332,192,127429,1,0,0:0:0:0:
76,192,127504,128,0,127579:0:0:0:0:
435,192,127504,1,0,0:0:0:0:
486,192,127504,1,0,0:0:0:0:
25,192,127579,1,0,0:0:0:0:
384,192,127579,1,0,0:0:0:0:
76,192,127653,1,0,0:0:0:0:
281,192,127653,1,0,0:0:0:0:
332,192,127653,1,0,0:0:0:0:
486,192,127653,1,0,0:0:0:0:
128,192,127728,1,0,0:0:0:0:
179,192,127802,1,0,0:0:0:0:
435,192,127802,1,0,0:0:0:0:
486,192,127802,1,0,0:0:0:0:
230,192,127877,1,0,0:0:0:0:
384,192,127877,1,0,0:0:0:0:
76,192,127952,128,0,128026:0:0:0:0:
281,192,127952,1,0,0:0:0:0:
332,192,127952,1,0,0:0:0:0:
486,192,127952,1,0,0:0:0:0:
179,192,128026,128,0,128101:0:0:0:0:
76,192,128101,128,0,128176:0:0:0:0:
435,192,128101,1,0,0:0:0:0:
332,192,128101,1,0,0:0:0:0:
179,192,128176,128,0,128250:0:0:0:0:
76,192,128250,128,0,128325:0:0:0:0:
435,192,128250,1,0,0:0:0:0:
486,192,128250,1,0,0:0:0:0:
281,192,128250,1,0,0:0:0:0:
179,192,128325,128,0,128399:0:0:0:0:
128,192,128399,128,0,128474:0:0:0:0:
281,192,128399,1,0,0:0:0:0:
384,192,128399,1,0,0:0:0:0:
230,192,128474,128,0,128549:0:0:0:0:
332,192,128474,1,0,0:0:0:0:
435,192,128474,1,0,0:0:0:0:
128,192,128549,128,0,128623:0:0:0:0:
384,192,128549,1,0,0:0:0:0:
230,192,128623,128,0,128698:0:0:0:0:
486,192,128623,1,0,0:0:0:0:
332,192,128623,1,0,0:0:0:0:
128,192,128698,128,0,128773:0:0:0:0:
281,192,128698,1,0,0:0:0:0:
435,192,128698,1,0,0:0:0:0:
230,192,128773,128,0,128847:0:0:0:0:
384,192,128773,1,0,0:0:0:0:
25,192,128847,128,0,128922:0:0:0:0:
332,192,128847,1,0,0:0:0:0:
486,192,128847,1,0,0:0:0:0:
435,192,128847,1,0,0:0:0:0:
179,192,128922,128,0,128996:0:0:0:0:
25,192,128996,128,0,129071:0:0:0:0:
281,192,128996,1,0,0:0:0:0:
384,192,128996,1,0,0:0:0:0:
179,192,129071,128,0,129146:0:0:0:0:
332,192,129071,1,0,0:0:0:0:
384,192,129146,1,0,0:0:0:0:
435,192,129146,1,0,0:0:0:0:
486,192,129146,1,0,0:0:0:0:
76,192,129146,128,0,129444:0:0:0:0:
332,192,129220,1,0,0:0:0:0:
128,192,129295,128,0,129593:0:0:0:0:
281,192,129295,1,0,0:0:0:0:
486,192,129295,1,0,0:0:0:0:
435,192,129370,1,0,0:0:0:0:
332,192,129370,1,0,0:0:0:0:
179,192,129444,128,0,129743:0:0:0:0:
25,192,129444,128,0,129743:0:0:0:0:
281,192,129444,1,0,0:0:0:0:
486,192,129444,1,0,0:0:0:0:
384,192,129519,1,0,0:0:0:0:
76,192,129593,128,0,129892:0:0:0:0:
332,192,129593,1,0,0:0:0:0:
435,192,129593,1,0,0:0:0:0:
384,192,129668,1,0,0:0:0:0:
128,192,129743,128,0,130041:0:0:0:0:
486,192,129743,1,0,0:0:0:0:
281,192,129743,1,0,0:0:0:0:
332,192,129817,1,0,0:0:0:0:
435,192,129817,1,0,0:0:0:0:
230,192,129892,128,0,130190:0:0:0:0:
486,192,129892,1,0,0:0:0:0:
281,192,129892,1,0,0:0:0:0:
384,192,129967,1,0,0:0:0:0:
179,192,130041,128,0,130340:0:0:0:0:
435,192,130041,1,0,0:0:0:0:
486,192,130041,1,0,0:0:0:0:
332,192,130041,1,0,0:0:0:0:
384,192,130116,1,0,0:0:0:0:
281,192,130190,1,0,0:0:0:0:
332,192,130190,1,0,0:0:0:0:
384,192,130265,1,0,0:0:0:0:
486,192,130340,1,0,0:0:0:0:
435,192,130340,1,0,0:0:0:0:
281,192,130340,1,0,0:0:0:0:
230,192,130340,1,0,0:0:0:0:
128,192,130340,1,0,0:0:0:0:
25,192,130340,1,0,0:0:0:0:
332,192,130489,1,0,0:0:0:0:
25,192,130489,1,0,0:0:0:0:
179,192,130489,1,0,0:0:0:0:
384,192,130564,1,0,0:0:0:0:
435,192,130638,1,0,0:0:0:0:
76,192,130638,1,0,0:0:0:0:
179,192,130638,1,0,0:0:0:0:
230,192,130638,1,0,0:0:0:0:
230,192,130787,1,0,0:0:0:0:
128,192,130787,1,0,0:0:0:0:
76,192,130862,1,0,0:0:0:0:
179,192,130862,1,0,0:0:0:0:
281,192,130937,1,0,0:0:0:0:
384,192,130937,1,0,0:0:0:0:
25,192,130937,1,0,0:0:0:0:
128,192,131011,1,0,0:0:0:0:
230,192,131011,1,0,0:0:0:0:
332,192,131086,1,0,0:0:0:0:
435,192,131086,1,0,0:0:0:0:
76,192,131086,1,0,0:0:0:0:
179,192,131086,1,0,0:0:0:0:
25,192,131161,1,0,0:0:0:0:
128,192,131235,1,0,0:0:0:0:
179,192,131235,1,0,0:0:0:0:
230,192,131235,1,0,0:0:0:0:
384,192,131366,1,0,0:0:0:0:
486,192,131384,1,0,0:0:0:0:
25,192,131384,1,0,0:0:0:0:
76,192,131384,1,0,0:0:0:0:
128,192,131459,1,0,0:0:0:0:
230,192,131534,1,0,0:0:0:0:
179,192,131534,1,0,0:0:0:0:
25,192,131534,1,0,0:0:0:0:
435,192,131683,1,0,0:0:0:0:
486,192,131683,1,0,0:0:0:0:
76,192,131683,1,0,0:0:0:0:
128,192,131683,1,0,0:0:0:0:
332,192,131832,1,0,0:0:0:0:
384,192,131832,1,0,0:0:0:0:
230,192,131832,1,0,0:0:0:0:
179,192,131832,1,0,0:0:0:0:
76,192,131832,1,0,0:0:0:0:
25,192,131982,1,0,0:0:0:0:
128,192,131982,1,0,0:0:0:0:
179,192,132056,1,0,0:0:0:0:
76,192,132056,1,0,0:0:0:0:
384,192,132131,1,0,0:0:0:0:
486,192,132131,1,0,0:0:0:0:
128,192,132131,1,0,0:0:0:0:
179,192,132205,1,0,0:0:0:0:
76,192,132205,1,0,0:0:0:0:
332,192,132280,1,0,0:0:0:0:
435,192,132280,1,0,0:0:0:0:
25,192,132280,1,0,0:0:0:0:
128,192,132280,1,0,0:0:0:0:
230,192,132355,1,0,0:0:0:0:
281,192,132429,1,0,0:0:0:0:
384,192,132429,1,0,0:0:0:0:
76,192,132429,1,0,0:0:0:0:
179,192,132429,1,0,0:0:0:0:
25,192,132429,1,0,0:0:0:0:
332,192,132579,1,0,0:0:0:0:
435,192,132579,1,0,0:0:0:0:
128,192,132579,1,0,0:0:0:0:
230,192,132579,1,0,0:0:0:0:
76,192,132653,1,0,0:0:0:0:
281,192,132728,1,0,0:0:0:0:
332,192,132728,1,0,0:0:0:0:
230,192,132728,1,0,0:0:0:0:
128,192,132728,1,0,0:0:0:0:
25,192,132728,1,0,0:0:0:0:
435,192,132877,1,0,0:0:0:0:
486,192,132877,1,0,0:0:0:0:
76,192,132877,1,0,0:0:0:0:
179,192,132877,1,0,0:0:0:0:
25,192,133026,1,0,0:0:0:0:
76,192,133026,1,0,0:0:0:0:
230,192,133026,1,0,0:0:0:0:
281,192,133176,1,0,0:0:0:0:
486,192,133176,1,0,0:0:0:0:
230,192,133176,1,0,0:0:0:0:
179,192,133176,1,0,0:0:0:0:
25,192,133250,1,0,0:0:0:0:
76,192,133250,1,0,0:0:0:0:
332,192,133325,1,0,0:0:0:0:
435,192,133325,1,0,0:0:0:0:
128,192,133325,1,0,0:0:0:0:
179,192,133399,1,0,0:0:0:0:
230,192,133399,1,0,0:0:0:0:
25,192,133474,1,0,0:0:0:0:
76,192,133474,1,0,0:0:0:0:
281,192,133586,1,0,0:0:0:0:
384,192,133605,1,0,0:0:0:0:
486,192,133623,1,0,0:0:0:0:
128,192,133623,1,0,0:0:0:0:
179,192,133623,1,0,0:0:0:0:
230,192,133623,1,0,0:0:0:0:
25,192,133773,1,0,0:0:0:0:
76,192,133773,1,0,0:0:0:0:
128,192,133847,1,0,0:0:0:0:
332,192,133922,1,0,0:0:0:0:
435,192,133922,1,0,0:0:0:0:
230,192,133922,1,0,0:0:0:0:
179,192,133922,1,0,0:0:0:0:
25,192,133922,1,0,0:0:0:0:
486,192,134071,1,0,0:0:0:0:
384,192,134071,1,0,0:0:0:0:
76,192,134071,1,0,0:0:0:0:
128,192,134071,1,0,0:0:0:0:
332,192,134220,1,0,0:0:0:0:
435,192,134220,1,0,0:0:0:0:
230,192,134220,1,0,0:0:0:0:
179,192,134220,1,0,0:0:0:0:
128,192,134220,1,0,0:0:0:0:
281,192,134370,1,0,0:0:0:0:
384,192,134370,1,0,0:0:0:0:
25,192,134370,1,0,0:0:0:0:
179,192,134370,1,0,0:0:0:0:
230,192,134444,1,0,0:0:0:0:
76,192,134444,1,0,0:0:0:0:
435,192,134519,1,0,0:0:0:0:
332,192,134519,1,0,0:0:0:0:
128,192,134519,1,0,0:0:0:0:
486,192,134593,1,0,0:0:0:0:
179,192,134593,1,0,0:0:0:0:
25,192,134593,1,0,0:0:0:0:
384,192,134668,1,0,0:0:0:0:
76,192,134668,1,0,0:0:0:0:
230,192,134668,1,0,0:0:0:0:
435,192,134743,1,0,0:0:0:0:
128,192,134743,1,0,0:0:0:0:
332,192,134817,1,0,0:0:0:0:
25,192,134817,1,0,0:0:0:0:
179,192,134817,1,0,0:0:0:0:
230,192,134817,1,0,0:0:0:0:
384,192,134892,1,0,0:0:0:0:
281,192,134967,1,0,0:0:0:0:
76,192,134967,1,0,0:0:0:0:
179,192,134967,1,0,0:0:0:0:
332,192,135041,1,0,0:0:0:0:
230,192,135041,1,0,0:0:0:0:
25,192,135116,1,0,0:0:0:0:
128,192,135116,1,0,0:0:0:0:
384,192,135116,1,0,0:0:0:0:
435,192,135116,1,0,0:0:0:0:
486,192,135116,1,0,0:0:0:0:
76,192,135116,1,0,0:0:0:0:
25,192,135265,1,0,0:0:0:0:
128,192,135265,1,0,0:0:0:0:
281,192,135265,1,0,0:0:0:0:
435,192,135265,1,0,0:0:0:0:
76,192,135265,1,0,0:0:0:0:
281,192,135414,1,0,0:0:0:0:
332,192,135414,1,0,0:0:0:0:
384,192,135414,1,0,0:0:0:0:
76,192,135564,1,0,0:0:0:0:
179,192,135564,1,0,0:0:0:0:
486,192,135564,1,0,0:0:0:0:
435,192,135564,1,0,0:0:0:0:
128,192,135564,1,0,0:0:0:0:
281,192,135638,1,0,0:0:0:0:
332,192,135638,1,0,0:0:0:0:
76,192,135713,1,0,0:0:0:0:
179,192,135713,1,0,0:0:0:0:
384,192,135713,1,0,0:0:0:0:
128,192,135713,1,0,0:0:0:0:
435,192,135787,1,0,0:0:0:0:
486,192,135787,1,0,0:0:0:0:
281,192,135862,1,0,0:0:0:0:
332,192,135862,1,0,0:0:0:0:
384,192,135937,1,0,0:0:0:0:
128,192,136011,1,0,0:0:0:0:
230,192,136011,1,0,0:0:0:0:
179,192,136011,1,0,0:0:0:0:
435,192,136011,1,0,0:0:0:0:
486,192,136011,1,0,0:0:0:0:
281,192,136011,1,0,0:0:0:0:
230,192,136161,1,0,0:0:0:0:
128,192,136161,1,0,0:0:0:0:
179,192,136161,1,0,0:0:0:0:
332,192,136161,1,0,0:0:0:0:
384,192,136161,1,0,0:0:0:0:
435,192,136235,1,0,0:0:0:0:
486,192,136310,1,0,0:0:0:0:
281,192,136310,1,0,0:0:0:0:
332,192,136310,1,0,0:0:0:0:
25,192,136459,1,0,0:0:0:0:
179,192,136459,1,0,0:0:0:0:
384,192,136459,1,0,0:0:0:0:
281,192,136459,1,0,0:0:0:0:
179,192,136608,1,0,0:0:0:0:
25,192,136608,1,0,0:0:0:0:
486,192,136608,1,0,0:0:0:0:
435,192,136608,1,0,0:0:0:0:
384,192,136608,1,0,0:0:0:0:
76,192,136739,1,0,0:0:0:0:
230,192,136758,1,0,0:0:0:0:
332,192,136758,1,0,0:0:0:0:
435,192,136758,1,0,0:0:0:0:
281,192,136832,1,0,0:0:0:0:
486,192,136832,1,0,0:0:0:0:
128,192,136907,1,0,0:0:0:0:
179,192,136907,1,0,0:0:0:0:
384,192,136907,1,0,0:0:0:0:
332,192,136982,1,0,0:0:0:0:
435,192,136982,1,0,0:0:0:0:
76,192,137056,1,0,0:0:0:0:
230,192,137056,1,0,0:0:0:0:
486,192,137056,1,0,0:0:0:0:
281,192,137056,1,0,0:0:0:0:
384,192,137131,1,0,0:0:0:0:
25,192,137205,1,0,0:0:0:0:
128,192,137205,1,0,0:0:0:0:
281,192,137205,1,0,0:0:0:0:
435,192,137205,1,0,0:0:0:0:
486,192,137205,1,0,0:0:0:0:
76,192,137355,1,0,0:0:0:0:
179,192,137355,1,0,0:0:0:0:
332,192,137355,1,0,0:0:0:0:
384,192,137355,1,0,0:0:0:0:
435,192,137429,1,0,0:0:0:0:
25,192,137504,1,0,0:0:0:0:
76,192,137504,1,0,0:0:0:0:
486,192,137504,1,0,0:0:0:0:
281,192,137504,1,0,0:0:0:0:
332,192,137504,1,0,0:0:0:0:
128,192,137579,1,0,0:0:0:0:
230,192,137653,1,0,0:0:0:0:
384,192,137653,1,0,0:0:0:0:
435,192,137653,1,0,0:0:0:0:
76,192,137728,1,0,0:0:0:0:
179,192,137802,1,0,0:0:0:0:
281,192,137802,1,0,0:0:0:0:
435,192,137802,1,0,0:0:0:0:
486,192,137802,1,0,0:0:0:0:
76,192,137952,1,0,0:0:0:0:
179,192,137952,1,0,0:0:0:0:
332,192,137952,1,0,0:0:0:0:
384,192,137952,1,0,0:0:0:0:
281,192,138026,1,0,0:0:0:0:
435,192,138026,1,0,0:0:0:0:
179,192,138101,1,0,0:0:0:0:
76,192,138101,1,0,0:0:0:0:
486,192,138101,1,0,0:0:0:0:
281,192,138176,1,0,0:0:0:0:
435,192,138176,1,0,0:0:0:0:
76,192,138250,1,0,0:0:0:0:
179,192,138250,1,0,0:0:0:0:
332,192,138250,1,0,0:0:0:0:
384,192,138250,1,0,0:0:0:0:
25,192,138399,1,0,0:0:0:0:
230,192,138399,1,0,0:0:0:0:
486,192,138399,1,0,0:0:0:0:
435,192,138399,1,0,0:0:0:0:
281,192,138399,1,0,0:0:0:0:
179,192,138549,1,0,0:0:0:0:
76,192,138549,1,0,0:0:0:0:
332,192,138549,1,0,0:0:0:0:
384,192,138549,1,0,0:0:0:0:
435,192,138623,1,0,0:0:0:0:
25,192,138698,1,0,0:0:0:0:
128,192,138698,1,0,0:0:0:0:
230,192,138698,1,0,0:0:0:0:
486,192,138698,1,0,0:0:0:0:
384,192,138698,1,0,0:0:0:0:
281,192,138698,1,0,0:0:0:0:
179,192,138773,1,0,0:0:0:0:
230,192,138847,1,0,0:0:0:0:
128,192,138847,1,0,0:0:0:0:
25,192,138847,1,0,0:0:0:0:
281,192,138847,1,0,0:0:0:0:
384,192,138847,1,0,0:0:0:0:
486,192,138847,1,0,0:0:0:0:
76,192,138922,1,0,0:0:0:0:
179,192,138922,1,0,0:0:0:0:
128,192,138996,1,0,0:0:0:0:
25,192,139071,1,0,0:0:0:0:
179,192,139146,1,0,0:0:0:0:
230,192,139146,1,0,0:0:0:0:
76,192,139146,1,0,0:0:0:0:
332,192,139146,1,0,0:0:0:0:
435,192,139146,1,0,0:0:0:0:
486,192,139146,1,0,0:0:0:0:
128,192,139220,1,0,0:0:0:0:
384,192,139220,1,0,0:0:0:0:
76,192,139295,1,0,0:0:0:0:
179,192,139295,1,0,0:0:0:0:
230,192,139295,1,0,0:0:0:0:
332,192,139295,1,0,0:0:0:0:
435,192,139295,1,0,0:0:0:0:
486,192,139295,1,0,0:0:0:0:
25,192,139370,1,0,0:0:0:0:
128,192,139370,1,0,0:0:0:0:
281,192,139370,1,0,0:0:0:0:
230,192,139444,1,0,0:0:0:0:
384,192,139444,1,0,0:0:0:0:
128,192,139519,1,0,0:0:0:0:
486,192,139519,1,0,0:0:0:0:
25,192,139593,1,0,0:0:0:0:
76,192,139593,1,0,0:0:0:0:
179,192,139593,1,0,0:0:0:0:
281,192,139593,1,0,0:0:0:0:
332,192,139593,1,0,0:0:0:0:
435,192,139593,1,0,0:0:0:0:
25,192,139743,1,0,0:0:0:0:
76,192,139743,1,0,0:0:0:0:
179,192,139743,1,0,0:0:0:0:
281,192,139743,1,0,0:0:0:0:
332,192,139743,1,0,0:0:0:0:
435,192,139743,1,0,0:0:0:0:
486,192,139892,128,0,140116:0:0:0:0:
332,192,139892,1,0,0:0:0:0:
281,192,139892,1,0,0:0:0:0:
230,192,139892,1,0,0:0:0:0:
179,192,139892,1,0,0:0:0:0:
25,192,139892,1,0,0:0:0:0:
435,192,139967,128,0,140190:0:0:0:0:
384,192,140041,128,0,140265:0:0:0:0:
76,192,140041,1,0,0:0:0:0:
230,192,140041,1,0,0:0:0:0:
332,192,140116,128,0,140340:0:0:0:0:
486,192,140190,1,0,0:0:0:0:
25,192,140190,1,0,0:0:0:0:
76,192,140190,1,0,0:0:0:0:
179,192,140190,1,0,0:0:0:0:
435,192,140265,1,0,0:0:0:0:
384,192,140340,1,0,0:0:0:0:
230,192,140340,1,0,0:0:0:0:
128,192,140340,1,0,0:0:0:0:
332,192,140414,1,0,0:0:0:0:
76,192,140414,1,0,0:0:0:0:
179,192,140414,1,0,0:0:0:0:
281,192,140489,128,0,140713:0:0:0:0:
25,192,140489,1,0,0:0:0:0:
332,192,140564,128,0,140787:0:0:0:0:
76,192,140564,1,0,0:0:0:0:
179,192,140564,1,0,0:0:0:0:
384,192,140638,128,0,140862:0:0:0:0:
128,192,140638,1,0,0:0:0:0:
230,192,140638,1,0,0:0:0:0:
435,192,140713,128,0,140937:0:0:0:0:
25,192,140713,1,0,0:0:0:0:
281,192,140787,1,0,0:0:0:0:
76,192,140787,1,0,0:0:0:0:
128,192,140787,1,0,0:0:0:0:
179,192,140787,1,0,0:0:0:0:
332,192,140862,1,0,0:0:0:0:
384,192,140937,1,0,0:0:0:0:
230,192,140937,1,0,0:0:0:0:
179,192,140937,1,0,0:0:0:0:
435,192,141011,1,0,0:0:0:0:
76,192,141011,1,0,0:0:0:0:
486,192,141086,128,0,141235:0:0:0:0:
25,192,141086,1,0,0:0:0:0:
128,192,141086,1,0,0:0:0:0:
230,192,141086,1,0,0:0:0:0:
384,192,141161,128,0,141310:0:0:0:0:
281,192,141235,128,0,141608:0:0:0:0:
179,192,141235,1,0,0:0:0:0:
76,192,141235,1,0,0:0:0:0:
435,192,141310,128,0,141459:0:0:0:0:
332,192,141384,128,0,141683:0:0:0:0:
25,192,141384,1,0,0:0:0:0:
76,192,141384,1,0,0:0:0:0:
230,192,141384,1,0,0:0:0:0:
384,192,141459,128,0,141758:0:0:0:0:
435,192,141534,128,0,141832:0:0:0:0:
128,192,141534,1,0,0:0:0:0:
179,192,141534,1,0,0:0:0:0:
486,192,141608,128,0,141907:0:0:0:0:
25,192,141608,1,0,0:0:0:0:
76,192,141608,1,0,0:0:0:0:
281,192,141683,1,0,0:0:0:0:
230,192,141683,1,0,0:0:0:0:
332,192,141758,1,0,0:0:0:0:
128,192,141758,1,0,0:0:0:0:
179,192,141758,1,0,0:0:0:0:
384,192,141832,1,0,0:0:0:0:
25,192,141832,1,0,0:0:0:0:
76,192,141832,1,0,0:0:0:0:
435,192,141907,1,0,0:0:0:0:
230,192,141907,1,0,0:0:0:0:
486,192,141982,1,0,0:0:0:0:
76,192,141982,1,0,0:0:0:0:
128,192,141982,1,0,0:0:0:0:
179,192,141982,1,0,0:0:0:0:
384,192,142056,1,0,0:0:0:0:
435,192,142131,1,0,0:0:0:0:
76,192,142131,1,0,0:0:0:0:
179,192,142131,1,0,0:0:0:0:
332,192,142205,1,0,0:0:0:0:
230,192,142205,1,0,0:0:0:0:
25,192,142280,128,0,142504:0:0:0:0:
384,192,142280,1,0,0:0:0:0:
128,192,142280,1,0,0:0:0:0:
179,192,142280,1,0,0:0:0:0:
281,192,142280,1,0,0:0:0:0:
486,192,142280,1,0,0:0:0:0:
76,192,142355,128,0,142579:0:0:0:0:
128,192,142429,128,0,142653:0:0:0:0:
281,192,142429,1,0,0:0:0:0:
332,192,142429,1,0,0:0:0:0:
179,192,142504,128,0,142728:0:0:0:0:
25,192,142579,1,0,0:0:0:0:
486,192,142579,1,0,0:0:0:0:
435,192,142579,1,0,0:0:0:0:
332,192,142579,1,0,0:0:0:0:
76,192,142653,1,0,0:0:0:0:
128,192,142728,1,0,0:0:0:0:
281,192,142728,1,0,0:0:0:0:
486,192,142728,1,0,0:0:0:0:
179,192,142802,1,0,0:0:0:0:
332,192,142802,1,0,0:0:0:0:
435,192,142802,1,0,0:0:0:0:
230,192,142877,128,0,143101:0:0:0:0:
384,192,142877,1,0,0:0:0:0:
179,192,142952,128,0,143176:0:0:0:0:
332,192,142952,1,0,0:0:0:0:
435,192,142952,1,0,0:0:0:0:
128,192,143026,128,0,143250:0:0:0:0:
486,192,143026,1,0,0:0:0:0:
281,192,143026,1,0,0:0:0:0:
76,192,143101,128,0,143325:0:0:0:0:
384,192,143101,1,0,0:0:0:0:
230,192,143176,1,0,0:0:0:0:
332,192,143176,1,0,0:0:0:0:
435,192,143176,1,0,0:0:0:0:
486,192,143176,1,0,0:0:0:0:
179,192,143250,1,0,0:0:0:0:
128,192,143325,1,0,0:0:0:0:
281,192,143325,1,0,0:0:0:0:
384,192,143325,1,0,0:0:0:0:
76,192,143399,1,0,0:0:0:0:
332,192,143399,1,0,0:0:0:0:
179,192,143474,128,0,143623:0:0:0:0:
384,192,143474,1,0,0:0:0:0:
486,192,143474,1,0,0:0:0:0:
435,192,143474,1,0,0:0:0:0:
230,192,143549,128,0,143996:0:0:0:0:
128,192,143623,128,0,143773:0:0:0:0:
281,192,143623,1,0,0:0:0:0:
486,192,143623,1,0,0:0:0:0:
179,192,143698,128,0,144071:0:0:0:0:
76,192,143773,128,0,143922:0:0:0:0:
281,192,143773,1,0,0:0:0:0:
332,192,143773,1,0,0:0:0:0:
384,192,143773,1,0,0:0:0:0:
128,192,143847,128,0,144146:0:0:0:0:
25,192,143922,128,0,144295:0:0:0:0:
486,192,143922,1,0,0:0:0:0:
435,192,143922,1,0,0:0:0:0:
76,192,143996,128,0,144220:0:0:0:0:
281,192,143996,1,0,0:0:0:0:
332,192,143996,1,0,0:0:0:0:
230,192,144071,1,0,0:0:0:0:
384,192,144071,1,0,0:0:0:0:
179,192,144146,1,0,0:0:0:0:
435,192,144146,1,0,0:0:0:0:
486,192,144146,1,0,0:0:0:0:
128,192,144220,1,0,0:0:0:0:
332,192,144220,1,0,0:0:0:0:
281,192,144220,1,0,0:0:0:0:
76,192,144295,1,0,0:0:0:0:
384,192,144295,1,0,0:0:0:0:
25,192,144370,1,0,0:0:0:0:
435,192,144370,1,0,0:0:0:0:
486,192,144370,1,0,0:0:0:0:
281,192,144370,1,0,0:0:0:0:
128,192,144444,1,0,0:0:0:0:
76,192,144519,1,0,0:0:0:0:
332,192,144519,1,0,0:0:0:0:
384,192,144519,1,0,0:0:0:0:
179,192,144593,1,0,0:0:0:0:
435,192,144593,1,0,0:0:0:0:
25,192,144668,1,0,0:0:0:0:
128,192,144668,1,0,0:0:0:0:
230,192,144668,1,0,0:0:0:0:
384,192,144668,1,0,0:0:0:0:
486,192,144668,128,0,144892:0:0:0:0:
281,192,144668,1,0,0:0:0:0:
435,192,144743,128,0,144967:0:0:0:0:
76,192,144743,1,0,0:0:0:0:
384,192,144817,128,0,145041:0:0:0:0:
128,192,144817,1,0,0:0:0:0:
332,192,144892,128,0,145116:0:0:0:0:
179,192,144892,1,0,0:0:0:0:
486,192,144967,128,0,145190:0:0:0:0:
25,192,144967,1,0,0:0:0:0:
230,192,144967,1,0,0:0:0:0:
435,192,145041,128,0,145265:0:0:0:0:
76,192,145041,1,0,0:0:0:0:
384,192,145116,128,0,145340:0:0:0:0:
128,192,145116,1,0,0:0:0:0:
332,192,145190,128,0,145414:0:0:0:0:
179,192,145190,1,0,0:0:0:0:
486,192,145265,128,0,145489:0:0:0:0:
25,192,145265,1,0,0:0:0:0:
128,192,145265,1,0,0:0:0:0:
230,192,145265,1,0,0:0:0:0:
435,192,145340,128,0,145564:0:0:0:0:
76,192,145340,1,0,0:0:0:0:
384,192,145414,128,0,145638:0:0:0:0:
128,192,145414,1,0,0:0:0:0:
332,192,145489,128,0,145713:0:0:0:0:
179,192,145489,1,0,0:0:0:0:
486,192,145564,128,0,145787:0:0:0:0:
25,192,145564,1,0,0:0:0:0:
230,192,145564,1,0,0:0:0:0:
435,192,145638,128,0,145787:0:0:0:0:
76,192,145638,1,0,0:0:0:0:
384,192,145713,128,0,145787:0:0:0:0:
128,192,145713,1,0,0:0:0:0:
179,192,145787,1,0,0:0:0:0:
332,192,145787,1,0,0:0:0:0:
230,192,145862,128,0,146086:0:0:0:0:
281,192,145862,1,0,0:0:0:0:
435,192,145862,1,0,0:0:0:0:
486,192,145862,1,0,0:0:0:0:
76,192,145862,1,0,0:0:0:0:
25,192,145862,1,0,0:0:0:0:
179,192,145937,128,0,146161:0:0:0:0:
332,192,145937,1,0,0:0:0:0:
128,192,146011,128,0,146235:0:0:0:0:
384,192,146011,1,0,0:0:0:0:
76,192,146086,128,0,146310:0:0:0:0:
435,192,146086,1,0,0:0:0:0:
230,192,146161,128,0,146384:0:0:0:0:
281,192,146161,1,0,0:0:0:0:
486,192,146161,1,0,0:0:0:0:
179,192,146235,128,0,146459:0:0:0:0:
332,192,146235,1,0,0:0:0:0:
128,192,146310,128,0,146534:0:0:0:0:
384,192,146310,1,0,0:0:0:0:
76,192,146384,128,0,146608:0:0:0:0:
435,192,146384,1,0,0:0:0:0:
230,192,146459,128,0,146683:0:0:0:0:
281,192,146459,1,0,0:0:0:0:
384,192,146459,1,0,0:0:0:0:
486,192,146459,1,0,0:0:0:0:
179,192,146534,128,0,146758:0:0:0:0:
332,192,146534,1,0,0:0:0:0:
128,192,146608,128,0,146832:0:0:0:0:
384,192,146608,1,0,0:0:0:0:
76,192,146683,128,0,146907:0:0:0:0:
435,192,146683,1,0,0:0:0:0:
230,192,146758,128,0,146982:0:0:0:0:
281,192,146758,1,0,0:0:0:0:
486,192,146758,1,0,0:0:0:0:
179,192,146832,128,0,146982:0:0:0:0:
332,192,146832,1,0,0:0:0:0:
128,192,146907,128,0,146982:0:0:0:0:
384,192,146907,1,0,0:0:0:0:
76,192,146982,1,0,0:0:0:0:
435,192,146982,1,0,0:0:0:0:
486,192,147056,128,0,147131:0:0:0:0:
332,192,147056,1,0,0:0:0:0:
281,192,147056,1,0,0:0:0:0:
230,192,147056,1,0,0:0:0:0:
25,192,147056,128,0,147131:0:0:0:0:
128,192,147056,1,0,0:0:0:0:
435,192,147131,128,0,147205:0:0:0:0:
76,192,147131,128,0,147205:0:0:0:0:
384,192,147205,128,0,147280:0:0:0:0:
281,192,147205,1,0,0:0:0:0:
128,192,147205,128,0,147280:0:0:0:0:
230,192,147205,1,0,0:0:0:0:
332,192,147280,128,0,147355:0:0:0:0:
179,192,147280,128,0,147355:0:0:0:0:
281,192,147355,128,0,147429:0:0:0:0:
435,192,147355,1,0,0:0:0:0:
230,192,147355,128,0,147429:0:0:0:0:
76,192,147355,1,0,0:0:0:0:
332,192,147429,128,0,147504:0:0:0:0:
179,192,147429,128,0,147504:0:0:0:0:
384,192,147504,128,0,147579:0:0:0:0:
486,192,147504,1,0,0:0:0:0:
128,192,147504,128,0,147579:0:0:0:0:
25,192,147504,1,0,0:0:0:0:
435,192,147579,128,0,147653:0:0:0:0:
76,192,147579,128,0,147653:0:0:0:0:
486,192,147653,128,0,147728:0:0:0:0:
332,192,147653,1,0,0:0:0:0:
25,192,147653,128,0,147728:0:0:0:0:
179,192,147653,1,0,0:0:0:0:
435,192,147728,128,0,147802:0:0:0:0:
76,192,147728,128,0,147802:0:0:0:0:
384,192,147802,128,0,147877:0:0:0:0:
281,192,147802,1,0,0:0:0:0:
128,192,147802,128,0,147877:0:0:0:0:
230,192,147802,1,0,0:0:0:0:
332,192,147877,128,0,147952:0:0:0:0:
179,192,147877,128,0,147952:0:0:0:0:
281,192,147952,128,0,148026:0:0:0:0:
435,192,147952,1,0,0:0:0:0:
230,192,147952,128,0,148026:0:0:0:0:
76,192,147952,1,0,0:0:0:0:
332,192,148026,128,0,148101:0:0:0:0:
179,192,148026,128,0,148101:0:0:0:0:
384,192,148101,128,0,148176:0:0:0:0:
486,192,148101,1,0,0:0:0:0:
128,192,148101,128,0,148176:0:0:0:0:
25,192,148101,1,0,0:0:0:0:
435,192,148176,128,0,148250:0:0:0:0:
76,192,148176,128,0,148250:0:0:0:0:
128,192,148250,1,0,0:0:0:0:
179,192,148250,1,0,0:0:0:0:
230,192,148250,1,0,0:0:0:0:
281,192,148250,1,0,0:0:0:0:
332,192,148250,1,0,0:0:0:0:
384,192,148250,1,0,0:0:0:0:
128,192,148399,128,0,148623:0:0:0:0:
179,192,148399,128,0,148623:0:0:0:0:
230,192,148399,128,0,148623:0:0:0:0:
281,192,148399,128,0,148623:0:0:0:0:
332,192,148399,128,0,148623:0:0:0:0:
384,192,148399,128,0,148623:0:0:0:0:
76,192,148698,1,0,0:0:0:0:
128,192,148698,1,0,0:0:0:0:
179,192,148698,1,0,0:0:0:0:
332,192,148698,1,0,0:0:0:0:
384,192,148698,1,0,0:0:0:0:
435,192,148698,1,0,0:0:0:0:
435,192,148847,128,0,149071:0:0:0:0:
384,192,148847,128,0,149071:0:0:0:0:
332,192,148847,128,0,149071:0:0:0:0:
179,192,148847,128,0,149071:0:0:0:0:
128,192,148847,128,0,149071:0:0:0:0:
76,192,148847,128,0,149071:0:0:0:0:
25,192,149146,1,0,0:0:0:0:
76,192,149146,1,0,0:0:0:0:
128,192,149146,1,0,0:0:0:0:
384,192,149146,1,0,0:0:0:0:
435,192,149146,1,0,0:0:0:0:
486,192,149146,1,0,0:0:0:0:
25,192,149295,128,0,149370:0:0:0:0:
76,192,149295,128,0,149370:0:0:0:0:
128,192,149295,128,0,149370:0:0:0:0:
384,192,149295,128,0,149370:0:0:0:0:
435,192,149295,128,0,149370:0:0:0:0:
486,192,149295,128,0,149370:0:0:0:0:
281,192,149444,1,0,0:0:0:0:
435,192,149444,1,0,0:0:0:0:
486,192,149444,1,0,0:0:0:0:
230,192,149444,1,0,0:0:0:0:
179,192,149444,1,0,0:0:0:0:
128,192,149444,1,0,0:0:0:0:
332,192,149519,1,0,0:0:0:0:
384,192,149593,1,0,0:0:0:0:
128,192,149593,1,0,0:0:0:0:
179,192,149593,1,0,0:0:0:0:
230,192,149593,1,0,0:0:0:0:
435,192,149668,1,0,0:0:0:0:
486,192,149743,1,0,0:0:0:0:
25,192,149743,1,0,0:0:0:0:
76,192,149780,1,0,0:0:0:0:
384,192,149817,1,0,0:0:0:0:
128,192,149817,1,0,0:0:0:0:
179,192,149855,1,0,0:0:0:0:
435,192,149892,1,0,0:0:0:0:
230,192,149892,1,0,0:0:0:0:
332,192,149967,1,0,0:0:0:0:
76,192,149967,1,0,0:0:0:0:
281,192,150041,1,0,0:0:0:0:
179,192,150041,1,0,0:0:0:0:
332,192,150116,1,0,0:0:0:0:
76,192,150116,1,0,0:0:0:0:
384,192,150190,1,0,0:0:0:0:
230,192,150190,1,0,0:0:0:0:
179,192,150228,1,0,0:0:0:0:
435,192,150265,1,0,0:0:0:0:
128,192,150265,1,0,0:0:0:0:
76,192,150302,1,0,0:0:0:0:
486,192,150340,1,0,0:0:0:0:
25,192,150340,1,0,0:0:0:0:
384,192,150414,1,0,0:0:0:0:
179,192,150414,1,0,0:0:0:0:
435,192,150489,1,0,0:0:0:0:
76,192,150489,1,0,0:0:0:0:
332,192,150564,1,0,0:0:0:0:
179,192,150564,1,0,0:0:0:0:
230,192,150638,1,0,0:0:0:0:
25,192,150638,1,0,0:0:0:0:
281,192,150638,1,0,0:0:0:0:
384,192,150638,1,0,0:0:0:0:
486,192,150638,1,0,0:0:0:0:
179,192,150713,1,0,0:0:0:0:
128,192,150787,1,0,0:0:0:0:
281,192,150787,1,0,0:0:0:0:
486,192,150787,1,0,0:0:0:0:
76,192,150862,1,0,0:0:0:0:
179,192,150937,1,0,0:0:0:0:
384,192,150937,1,0,0:0:0:0:
230,192,151011,1,0,0:0:0:0:
486,192,151011,1,0,0:0:0:0:
76,192,151086,1,0,0:0:0:0:
332,192,151086,1,0,0:0:0:0:
128,192,151161,1,0,0:0:0:0:
435,192,151161,1,0,0:0:0:0:
179,192,151235,1,0,0:0:0:0:
281,192,151235,1,0,0:0:0:0:
128,192,151310,1,0,0:0:0:0:
76,192,151384,1,0,0:0:0:0:
332,192,151384,128,0,151683:0:0:0:0:
384,192,151384,128,0,151683:0:0:0:0:
486,192,151384,128,0,151683:0:0:0:0:
25,192,151459,1,0,0:0:0:0:
128,192,151534,1,0,0:0:0:0:
179,192,151608,1,0,0:0:0:0:
25,192,151683,1,0,0:0:0:0:
76,192,151758,1,0,0:0:0:0:
128,192,151832,1,0,0:0:0:0:
179,192,151832,1,0,0:0:0:0:
230,192,151832,1,0,0:0:0:0:
281,192,151832,1,0,0:0:0:0:
384,192,151907,1,0,0:0:0:0:
230,192,151982,1,0,0:0:0:0:
179,192,151982,1,0,0:0:0:0:
128,192,151982,1,0,0:0:0:0:
332,192,151982,1,0,0:0:0:0:
435,192,152056,1,0,0:0:0:0:
76,192,152131,1,0,0:0:0:0:
486,192,152131,1,0,0:0:0:0:
128,192,152168,1,0,0:0:0:0:
179,192,152205,1,0,0:0:0:0:
435,192,152205,1,0,0:0:0:0:
230,192,152243,1,0,0:0:0:0:
76,192,152280,1,0,0:0:0:0:
25,192,152280,1,0,0:0:0:0:
384,192,152280,1,0,0:0:0:0:
128,192,152317,1,0,0:0:0:0:
179,192,152355,1,0,0:0:0:0:
332,192,152355,1,0,0:0:0:0:
230,192,152392,1,0,0:0:0:0:
76,192,152429,1,0,0:0:0:0:
281,192,152429,1,0,0:0:0:0:
179,192,152504,1,0,0:0:0:0:
384,192,152504,1,0,0:0:0:0:
76,192,152579,1,0,0:0:0:0:
332,192,152579,1,0,0:0:0:0:
435,192,152653,1,0,0:0:0:0:
230,192,152728,128,0,152802:0:0:0:0:
128,192,152728,128,0,152877:0:0:0:0:
25,192,152728,128,0,152952:0:0:0:0:
486,192,152728,1,0,0:0:0:0:
435,192,152802,1,0,0:0:0:0:
384,192,152877,1,0,0:0:0:0:
332,192,152952,1,0,0:0:0:0:
128,192,153026,1,0,0:0:0:0:
230,192,153026,1,0,0:0:0:0:
281,192,153026,1,0,0:0:0:0:
384,192,153026,1,0,0:0:0:0:
486,192,153026,1,0,0:0:0:0:
25,192,153101,1,0,0:0:0:0:
179,192,153176,1,0,0:0:0:0:
486,192,153176,1,0,0:0:0:0:
384,192,153176,1,0,0:0:0:0:
281,192,153176,1,0,0:0:0:0:
76,192,153250,1,0,0:0:0:0:
230,192,153325,1,0,0:0:0:0:
332,192,153325,1,0,0:0:0:0:
179,192,153399,1,0,0:0:0:0:
435,192,153399,1,0,0:0:0:0:
128,192,153474,1,0,0:0:0:0:
332,192,153474,1,0,0:0:0:0:
281,192,153474,1,0,0:0:0:0:
76,192,153549,1,0,0:0:0:0:
128,192,153623,1,0,0:0:0:0:
384,192,153623,1,0,0:0:0:0:
486,192,153623,1,0,0:0:0:0:
281,192,153623,1,0,0:0:0:0:
25,192,153698,1,0,0:0:0:0:
179,192,153773,1,0,0:0:0:0:
332,192,153773,1,0,0:0:0:0:
435,192,153773,1,0,0:0:0:0:
76,192,153847,1,0,0:0:0:0:
25,192,153922,1,0,0:0:0:0:
486,192,153922,1,0,0:0:0:0:
435,192,153922,1,0,0:0:0:0:
76,192,153996,1,0,0:0:0:0:
332,192,153996,1,0,0:0:0:0:
281,192,153996,1,0,0:0:0:0:
128,192,154071,1,0,0:0:0:0:
435,192,154071,1,0,0:0:0:0:
486,192,154071,1,0,0:0:0:0:
179,192,154146,1,0,0:0:0:0:
281,192,154146,1,0,0:0:0:0:
332,192,154146,1,0,0:0:0:0:
435,192,154220,1,0,0:0:0:0:
486,192,154220,1,0,0:0:0:0:
230,192,154220,1,0,0:0:0:0:
76,192,154220,1,0,0:0:0:0:
25,192,154220,1,0,0:0:0:0:
384,192,154295,1,0,0:0:0:0:
332,192,154370,1,0,0:0:0:0:
25,192,154370,1,0,0:0:0:0:
76,192,154370,1,0,0:0:0:0:
230,192,154370,1,0,0:0:0:0:
281,192,154444,1,0,0:0:0:0:
486,192,154519,1,0,0:0:0:0:
128,192,154519,1,0,0:0:0:0:
435,192,154593,1,0,0:0:0:0:
384,192,154668,1,0,0:0:0:0:
230,192,154668,1,0,0:0:0:0:
179,192,154705,1,0,0:0:0:0:
332,192,154743,1,0,0:0:0:0:
128,192,154743,1,0,0:0:0:0:
76,192,154780,1,0,0:0:0:0:
435,192,154817,1,0,0:0:0:0:
25,192,154817,1,0,0:0:0:0:
230,192,154817,1,0,0:0:0:0:
384,192,154892,1,0,0:0:0:0:
179,192,154892,1,0,0:0:0:0:
332,192,154967,1,0,0:0:0:0:
128,192,154967,1,0,0:0:0:0:
281,192,155041,1,0,0:0:0:0:
76,192,155041,1,0,0:0:0:0:
486,192,155116,1,0,0:0:0:0:
25,192,155116,1,0,0:0:0:0:
230,192,155116,1,0,0:0:0:0:
435,192,155190,1,0,0:0:0:0:
384,192,155265,1,0,0:0:0:0:
76,192,155265,1,0,0:0:0:0:
25,192,155265,1,0,0:0:0:0:
128,192,155302,1,0,0:0:0:0:
332,192,155340,1,0,0:0:0:0:
179,192,155340,1,0,0:0:0:0:
230,192,155377,1,0,0:0:0:0:
25,192,155414,1,0,0:0:0:0:
281,192,155414,1,0,0:0:0:0:
435,192,155414,1,0,0:0:0:0:
486,192,155414,1,0,0:0:0:0:
76,192,155414,1,0,0:0:0:0:
179,192,155489,1,0,0:0:0:0:
128,192,155564,1,0,0:0:0:0:
281,192,155564,1,0,0:0:0:0:
435,192,155564,1,0,0:0:0:0:
486,192,155564,1,0,0:0:0:0:
76,192,155638,1,0,0:0:0:0:
179,192,155713,1,0,0:0:0:0:
332,192,155713,1,0,0:0:0:0:
384,192,155713,1,0,0:0:0:0:
128,192,155787,1,0,0:0:0:0:
435,192,155787,1,0,0:0:0:0:
76,192,155862,1,0,0:0:0:0:
486,192,155862,1,0,0:0:0:0:
281,192,155862,1,0,0:0:0:0:
25,192,155937,1,0,0:0:0:0:
230,192,156011,1,0,0:0:0:0:
332,192,156011,1,0,0:0:0:0:
435,192,156011,1,0,0:0:0:0:
179,192,156086,1,0,0:0:0:0:
128,192,156161,1,0,0:0:0:0:
332,192,156161,1,0,0:0:0:0:
435,192,156161,1,0,0:0:0:0:
76,192,156235,1,0,0:0:0:0:
179,192,156310,1,0,0:0:0:0:
384,192,156310,1,0,0:0:0:0:
128,192,156384,1,0,0:0:0:0:
76,192,156459,1,0,0:0:0:0:
435,192,156459,1,0,0:0:0:0:
25,192,156534,1,0,0:0:0:0:
281,192,156608,1,0,0:0:0:0:
486,192,156608,1,0,0:0:0:0:
230,192,156608,1,0,0:0:0:0:
76,192,156608,1,0,0:0:0:0:
128,192,156608,1,0,0:0:0:0:
384,192,156683,1,0,0:0:0:0:
332,192,156758,1,0,0:0:0:0:
76,192,156758,1,0,0:0:0:0:
128,192,156758,1,0,0:0:0:0:
230,192,156758,1,0,0:0:0:0:
435,192,156832,1,0,0:0:0:0:
486,192,156907,1,0,0:0:0:0:
25,192,156907,1,0,0:0:0:0:
384,192,156982,1,0,0:0:0:0:
435,192,157056,1,0,0:0:0:0:
230,192,157056,1,0,0:0:0:0:
179,192,157093,1,0,0:0:0:0:
332,192,157131,1,0,0:0:0:0:
128,192,157131,1,0,0:0:0:0:
76,192,157168,1,0,0:0:0:0:
281,192,157205,1,0,0:0:0:0:
230,192,157205,1,0,0:0:0:0:
25,192,157205,1,0,0:0:0:0:
384,192,157280,1,0,0:0:0:0:
332,192,157355,1,0,0:0:0:0:
25,192,157355,1,0,0:0:0:0:
76,192,157392,1,0,0:0:0:0:
435,192,157429,1,0,0:0:0:0:
128,192,157429,1,0,0:0:0:0:
179,192,157467,1,0,0:0:0:0:
486,192,157504,1,0,0:0:0:0:
230,192,157504,1,0,0:0:0:0:
25,192,157504,1,0,0:0:0:0:
384,192,157579,1,0,0:0:0:0:
76,192,157579,1,0,0:0:0:0:
435,192,157653,1,0,0:0:0:0:
179,192,157653,1,0,0:0:0:0:
332,192,157728,1,0,0:0:0:0:
76,192,157728,1,0,0:0:0:0:
230,192,157802,1,0,0:0:0:0:
25,192,157802,1,0,0:0:0:0:
281,192,157802,1,0,0:0:0:0:
384,192,157802,1,0,0:0:0:0:
486,192,157802,1,0,0:0:0:0:
128,192,157877,1,0,0:0:0:0:
179,192,157952,1,0,0:0:0:0:
486,192,157952,1,0,0:0:0:0:
384,192,157952,1,0,0:0:0:0:
281,192,157952,1,0,0:0:0:0:
76,192,158026,1,0,0:0:0:0:
128,192,158101,1,0,0:0:0:0:
332,192,158101,1,0,0:0:0:0:
435,192,158101,1,0,0:0:0:0:
25,192,158176,1,0,0:0:0:0:
179,192,158250,1,0,0:0:0:0:
281,192,158250,1,0,0:0:0:0:
384,192,158250,1,0,0:0:0:0:
486,192,158250,1,0,0:0:0:0:
76,192,158325,1,0,0:0:0:0:
230,192,158399,1,0,0:0:0:0:
128,192,158474,1,0,0:0:0:0:
179,192,158549,1,0,0:0:0:0:
281,192,158549,1,0,0:0:0:0:
332,192,158549,1,0,0:0:0:0:
76,192,158623,1,0,0:0:0:0:
128,192,158698,1,0,0:0:0:0:
486,192,158698,1,0,0:0:0:0:
435,192,158698,1,0,0:0:0:0:
25,192,158773,1,0,0:0:0:0:
281,192,158773,1,0,0:0:0:0:
332,192,158773,1,0,0:0:0:0:
179,192,158847,1,0,0:0:0:0:
435,192,158847,1,0,0:0:0:0:
486,192,158847,1,0,0:0:0:0:
76,192,158922,1,0,0:0:0:0:
281,192,158922,1,0,0:0:0:0:
332,192,158922,1,0,0:0:0:0:
435,192,158996,1,0,0:0:0:0:
486,192,158996,1,0,0:0:0:0:
230,192,158996,1,0,0:0:0:0:
179,192,158996,1,0,0:0:0:0:
128,192,158996,1,0,0:0:0:0:
332,192,159071,1,0,0:0:0:0:
384,192,159146,1,0,0:0:0:0:
128,192,159146,1,0,0:0:0:0:
179,192,159146,1,0,0:0:0:0:
230,192,159146,1,0,0:0:0:0:
281,192,159146,1,0,0:0:0:0:
435,192,159220,1,0,0:0:0:0:
486,192,159295,1,0,0:0:0:0:
25,192,159295,1,0,0:0:0:0:
332,192,159295,1,0,0:0:0:0:
76,192,159332,1,0,0:0:0:0:
384,192,159370,1,0,0:0:0:0:
128,192,159370,1,0,0:0:0:0:
179,192,159407,1,0,0:0:0:0:
435,192,159444,1,0,0:0:0:0:
230,192,159444,1,0,0:0:0:0:
486,192,159444,1,0,0:0:0:0:
332,192,159519,1,0,0:0:0:0:
76,192,159519,1,0,0:0:0:0:
281,192,159593,1,0,0:0:0:0:
179,192,159593,1,0,0:0:0:0:
384,192,159593,1,0,0:0:0:0:
332,192,159668,1,0,0:0:0:0:
76,192,159668,1,0,0:0:0:0:
384,192,159743,1,0,0:0:0:0:
230,192,159743,1,0,0:0:0:0:
486,192,159743,1,0,0:0:0:0:
179,192,159780,1,0,0:0:0:0:
435,192,159817,1,0,0:0:0:0:
128,192,159817,1,0,0:0:0:0:
76,192,159855,1,0,0:0:0:0:
486,192,159892,1,0,0:0:0:0:
25,192,159892,1,0,0:0:0:0:
281,192,159892,1,0,0:0:0:0:
384,192,159967,1,0,0:0:0:0:
179,192,159967,1,0,0:0:0:0:
435,192,160041,1,0,0:0:0:0:
76,192,160041,1,0,0:0:0:0:
281,192,160041,1,0,0:0:0:0:
332,192,160116,1,0,0:0:0:0:
179,192,160116,1,0,0:0:0:0:
230,192,160190,1,0,0:0:0:0:
25,192,160190,1,0,0:0:0:0:
281,192,160190,1,0,0:0:0:0:
384,192,160190,1,0,0:0:0:0:
486,192,160190,1,0,0:0:0:0:
179,192,160265,1,0,0:0:0:0:
128,192,160340,1,0,0:0:0:0:
281,192,160340,1,0,0:0:0:0:
486,192,160340,1,0,0:0:0:0:
25,192,160340,1,0,0:0:0:0:
76,192,160414,1,0,0:0:0:0:
179,192,160489,1,0,0:0:0:0:
384,192,160489,1,0,0:0:0:0:
128,192,160489,1,0,0:0:0:0:
230,192,160564,1,0,0:0:0:0:
486,192,160564,1,0,0:0:0:0:
76,192,160638,1,0,0:0:0:0:
332,192,160638,1,0,0:0:0:0:
25,192,160638,1,0,0:0:0:0:
128,192,160713,1,0,0:0:0:0:
435,192,160713,1,0,0:0:0:0:
179,192,160787,1,0,0:0:0:0:
281,192,160787,1,0,0:0:0:0:
25,192,160787,1,0,0:0:0:0:
128,192,160862,1,0,0:0:0:0:
76,192,160937,1,0,0:0:0:0:
332,192,160937,128,0,161235:0:0:0:0:
384,192,160937,128,0,161235:0:0:0:0:
486,192,160937,128,0,161235:0:0:0:0:
230,192,160937,1,0,0:0:0:0:
25,192,161011,1,0,0:0:0:0:
128,192,161086,1,0,0:0:0:0:
76,192,161086,1,0,0:0:0:0:
179,192,161161,1,0,0:0:0:0:
25,192,161235,1,0,0:0:0:0:
230,192,161235,1,0,0:0:0:0:
76,192,161310,1,0,0:0:0:0:
128,192,161384,1,0,0:0:0:0:
179,192,161384,1,0,0:0:0:0:
230,192,161384,1,0,0:0:0:0:
281,192,161384,1,0,0:0:0:0:
435,192,161384,1,0,0:0:0:0:
384,192,161459,1,0,0:0:0:0:
230,192,161534,1,0,0:0:0:0:
179,192,161534,1,0,0:0:0:0:
128,192,161534,1,0,0:0:0:0:
332,192,161534,1,0,0:0:0:0:
486,192,161534,1,0,0:0:0:0:
435,192,161608,1,0,0:0:0:0:
76,192,161683,1,0,0:0:0:0:
486,192,161683,1,0,0:0:0:0:
281,192,161683,1,0,0:0:0:0:
128,192,161720,1,0,0:0:0:0:
179,192,161758,1,0,0:0:0:0:
435,192,161758,1,0,0:0:0:0:
230,192,161795,1,0,0:0:0:0:
76,192,161832,1,0,0:0:0:0:
25,192,161832,1,0,0:0:0:0:
384,192,161832,1,0,0:0:0:0:
486,192,161832,1,0,0:0:0:0:
128,192,161870,1,0,0:0:0:0:
179,192,161907,1,0,0:0:0:0:
332,192,161907,1,0,0:0:0:0:
230,192,161944,1,0,0:0:0:0:
76,192,161982,1,0,0:0:0:0:
281,192,161982,1,0,0:0:0:0:
435,192,161982,1,0,0:0:0:0:
179,192,162056,1,0,0:0:0:0:
384,192,162056,1,0,0:0:0:0:
76,192,162131,1,0,0:0:0:0:
332,192,162131,1,0,0:0:0:0:
281,192,162131,1,0,0:0:0:0:
435,192,162205,1,0,0:0:0:0:
230,192,162280,128,0,162355:0:0:0:0:
128,192,162280,128,0,162429:0:0:0:0:
25,192,162280,128,0,162504:0:0:0:0:
486,192,162280,1,0,0:0:0:0:
384,192,162280,1,0,0:0:0:0:
435,192,162355,1,0,0:0:0:0:
384,192,162429,1,0,0:0:0:0:
281,192,162429,1,0,0:0:0:0:
332,192,162504,1,0,0:0:0:0:
128,192,162579,1,0,0:0:0:0:
230,192,162579,1,0,0:0:0:0:
281,192,162579,1,0,0:0:0:0:
384,192,162579,1,0,0:0:0:0:
486,192,162579,1,0,0:0:0:0:
25,192,162653,1,0,0:0:0:0:
179,192,162728,1,0,0:0:0:0:
486,192,162728,1,0,0:0:0:0:
384,192,162728,1,0,0:0:0:0:
281,192,162728,1,0,0:0:0:0:
128,192,162728,1,0,0:0:0:0:
76,192,162802,1,0,0:0:0:0:
230,192,162877,1,0,0:0:0:0:
332,192,162877,1,0,0:0:0:0:
25,192,162877,1,0,0:0:0:0:
179,192,162952,1,0,0:0:0:0:
435,192,162952,1,0,0:0:0:0:
128,192,163026,1,0,0:0:0:0:
332,192,163026,1,0,0:0:0:0:
281,192,163026,1,0,0:0:0:0:
25,192,163026,1,0,0:0:0:0:
76,192,163101,1,0,0:0:0:0:
128,192,163176,1,0,0:0:0:0:
384,192,163176,1,0,0:0:0:0:
486,192,163176,1,0,0:0:0:0:
281,192,163176,1,0,0:0:0:0:
230,192,163176,1,0,0:0:0:0:
25,192,163250,1,0,0:0:0:0:
179,192,163325,1,0,0:0:0:0:
332,192,163325,1,0,0:0:0:0:
435,192,163325,1,0,0:0:0:0:
128,192,163325,1,0,0:0:0:0:
76,192,163399,1,0,0:0:0:0:
25,192,163474,1,0,0:0:0:0:
486,192,163474,1,0,0:0:0:0:
435,192,163474,1,0,0:0:0:0:
179,192,163474,1,0,0:0:0:0:
76,192,163549,1,0,0:0:0:0:
332,192,163549,1,0,0:0:0:0:
281,192,163549,1,0,0:0:0:0:
128,192,163623,1,0,0:0:0:0:
435,192,163623,1,0,0:0:0:0:
486,192,163623,1,0,0:0:0:0:
230,192,163623,1,0,0:0:0:0:
179,192,163698,1,0,0:0:0:0:
281,192,163698,1,0,0:0:0:0:
332,192,163698,1,0,0:0:0:0:
435,192,163773,1,0,0:0:0:0:
486,192,163773,1,0,0:0:0:0:
230,192,163773,1,0,0:0:0:0:
76,192,163773,1,0,0:0:0:0:
25,192,163773,1,0,0:0:0:0:
384,192,163847,1,0,0:0:0:0:
332,192,163922,1,0,0:0:0:0:
25,192,163922,1,0,0:0:0:0:
76,192,163922,1,0,0:0:0:0:
230,192,163922,1,0,0:0:0:0:
435,192,163922,1,0,0:0:0:0:
281,192,163996,1,0,0:0:0:0:
486,192,164071,1,0,0:0:0:0:
128,192,164071,1,0,0:0:0:0:
179,192,164071,1,0,0:0:0:0:
384,192,164071,1,0,0:0:0:0:
435,192,164146,1,0,0:0:0:0:
384,192,164220,1,0,0:0:0:0:
230,192,164220,1,0,0:0:0:0:
281,192,164220,1,0,0:0:0:0:
179,192,164258,1,0,0:0:0:0:
332,192,164295,1,0,0:0:0:0:
128,192,164295,1,0,0:0:0:0:
76,192,164332,1,0,0:0:0:0:
435,192,164370,1,0,0:0:0:0:
25,192,164370,1,0,0:0:0:0:
230,192,164370,1,0,0:0:0:0:
486,192,164370,1,0,0:0:0:0:
384,192,164444,1,0,0:0:0:0:
179,192,164444,1,0,0:0:0:0:
332,192,164519,1,0,0:0:0:0:
128,192,164519,1,0,0:0:0:0:
435,192,164519,1,0,0:0:0:0:
281,192,164593,1,0,0:0:0:0:
76,192,164593,1,0,0:0:0:0:
486,192,164668,1,0,0:0:0:0:
25,192,164668,1,0,0:0:0:0:
230,192,164668,1,0,0:0:0:0:
384,192,164668,1,0,0:0:0:0:
435,192,164743,1,0,0:0:0:0:
384,192,164817,1,0,0:0:0:0:
76,192,164817,1,0,0:0:0:0:
25,192,164817,1,0,0:0:0:0:
486,192,164817,1,0,0:0:0:0:
128,192,164855,1,0,0:0:0:0:
332,192,164892,1,0,0:0:0:0:
179,192,164892,1,0,0:0:0:0:
230,192,164929,1,0,0:0:0:0:
25,192,164967,1,0,0:0:0:0:
281,192,164967,1,0,0:0:0:0:
435,192,164967,1,0,0:0:0:0:
486,192,164967,1,0,0:0:0:0:
76,192,164967,1,0,0:0:0:0:
179,192,165041,1,0,0:0:0:0:
128,192,165116,1,0,0:0:0:0:
281,192,165116,1,0,0:0:0:0:
435,192,165116,1,0,0:0:0:0:
486,192,165116,1,0,0:0:0:0:
25,192,165116,1,0,0:0:0:0:
76,192,165190,1,0,0:0:0:0:
179,192,165265,1,0,0:0:0:0:
332,192,165265,1,0,0:0:0:0:
384,192,165265,1,0,0:0:0:0:
230,192,165265,1,0,0:0:0:0:
128,192,165340,1,0,0:0:0:0:
435,192,165340,1,0,0:0:0:0:
76,192,165414,1,0,0:0:0:0:
486,192,165414,1,0,0:0:0:0:
281,192,165414,1,0,0:0:0:0:
179,192,165414,1,0,0:0:0:0:
25,192,165489,1,0,0:0:0:0:
230,192,165564,1,0,0:0:0:0:
332,192,165564,1,0,0:0:0:0:
435,192,165564,1,0,0:0:0:0:
128,192,165564,1,0,0:0:0:0:
179,192,165638,1,0,0:0:0:0:
128,192,165713,1,0,0:0:0:0:
332,192,165713,1,0,0:0:0:0:
435,192,165713,1,0,0:0:0:0:
25,192,165713,1,0,0:0:0:0:
76,192,165787,1,0,0:0:0:0:
179,192,165862,1,0,0:0:0:0:
384,192,165862,1,0,0:0:0:0:
230,192,165862,1,0,0:0:0:0:
128,192,165937,1,0,0:0:0:0:
76,192,166011,1,0,0:0:0:0:
435,192,166011,1,0,0:0:0:0:
179,192,166011,1,0,0:0:0:0:
25,192,166086,1,0,0:0:0:0:
281,192,166161,1,0,0:0:0:0:
486,192,166161,1,0,0:0:0:0:
230,192,166161,1,0,0:0:0:0:
179,192,166198,1,0,0:0:0:0:
384,192,166235,1,0,0:0:0:0:
128,192,166235,1,0,0:0:0:0:
76,192,166273,1,0,0:0:0:0:
332,192,166310,1,0,0:0:0:0:
281,192,166310,1,0,0:0:0:0:
25,192,166310,1,0,0:0:0:0:
230,192,166310,1,0,0:0:0:0:
435,192,166384,1,0,0:0:0:0:
486,192,166459,1,0,0:0:0:0:
128,192,166459,1,0,0:0:0:0:
332,192,166459,1,0,0:0:0:0:
384,192,166534,1,0,0:0:0:0:
435,192,166608,1,0,0:0:0:0:
230,192,166608,1,0,0:0:0:0:
281,192,166608,1,0,0:0:0:0:
179,192,166646,1,0,0:0:0:0:
332,192,166683,1,0,0:0:0:0:
128,192,166683,1,0,0:0:0:0:
76,192,166720,1,0,0:0:0:0:
281,192,166758,1,0,0:0:0:0:
230,192,166758,1,0,0:0:0:0:
25,192,166758,1,0,0:0:0:0:
486,192,166758,1,0,0:0:0:0:
384,192,166832,1,0,0:0:0:0:
332,192,166907,1,0,0:0:0:0:
25,192,166907,1,0,0:0:0:0:
281,192,166907,1,0,0:0:0:0:
76,192,166944,1,0,0:0:0:0:
435,192,166982,1,0,0:0:0:0:
128,192,166982,1,0,0:0:0:0:
179,192,167019,1,0,0:0:0:0:
230,192,167056,1,0,0:0:0:0:
25,192,167056,1,0,0:0:0:0:
486,192,167056,1,0,0:0:0:0:
332,192,167056,1,0,0:0:0:0:
76,192,167131,1,0,0:0:0:0:
384,192,167131,1,0,0:0:0:0:
179,192,167205,1,0,0:0:0:0:
435,192,167205,1,0,0:0:0:0:
281,192,167205,1,0,0:0:0:0:
76,192,167280,1,0,0:0:0:0:
332,192,167280,1,0,0:0:0:0:
25,192,167355,1,0,0:0:0:0:
230,192,167355,1,0,0:0:0:0:
486,192,167355,1,0,0:0:0:0:
384,192,167355,1,0,0:0:0:0:
76,192,167404,1,0,0:0:0:0:
281,192,167454,1,0,0:0:0:0:
76,192,167504,1,0,0:0:0:0:
128,192,167554,1,0,0:0:0:0:
332,192,167603,1,0,0:0:0:0:
128,192,167653,1,0,0:0:0:0:
179,192,167703,1,0,0:0:0:0:
384,192,167753,1,0,0:0:0:0:
179,192,167802,1,0,0:0:0:0:
230,192,167852,1,0,0:0:0:0:
435,192,167902,1,0,0:0:0:0:
332,192,167952,1,0,0:0:0:0:
281,192,168001,1,0,0:0:0:0:
230,192,168051,1,0,0:0:0:0:
384,192,168101,1,0,0:0:0:0:
332,192,168151,1,0,0:0:0:0:
179,192,168200,1,0,0:0:0:0:
435,192,168250,1,0,0:0:0:0:
76,192,168250,1,0,0:0:0:0:
384,192,168300,1,0,0:0:0:0:
128,192,168300,1,0,0:0:0:0:
332,192,168350,1,0,0:0:0:0:
179,192,168350,1,0,0:0:0:0:
486,192,168399,1,0,0:0:0:0:
76,192,168399,1,0,0:0:0:0:
435,192,168449,1,0,0:0:0:0:
128,192,168449,1,0,0:0:0:0:
384,192,168499,1,0,0:0:0:0:
179,192,168499,1,0,0:0:0:0:
230,192,168549,1,0,0:0:0:0:
25,192,168549,1,0,0:0:0:0:
281,192,168549,1,0,0:0:0:0:
486,192,168549,1,0,0:0:0:0:
332,192,168549,1,0,0:0:0:0:
76,192,168623,1,0,0:0:0:0:
384,192,168623,1,0,0:0:0:0:
128,192,168698,1,0,0:0:0:0:
435,192,168698,1,0,0:0:0:0:
179,192,168773,1,0,0:0:0:0:
281,192,168773,1,0,0:0:0:0:
230,192,168847,1,0,0:0:0:0:
76,192,168847,1,0,0:0:0:0:
486,192,168847,1,0,0:0:0:0:
128,192,168922,1,0,0:0:0:0:
435,192,168922,1,0,0:0:0:0:
25,192,168996,1,0,0:0:0:0:
179,192,168996,1,0,0:0:0:0:
384,192,168996,1,0,0:0:0:0:
76,192,169071,1,0,0:0:0:0:
230,192,169071,1,0,0:0:0:0:
332,192,169071,1,0,0:0:0:0:
128,192,169146,1,0,0:0:0:0:
281,192,169146,1,0,0:0:0:0:
179,192,169220,1,0,0:0:0:0:
25,192,169220,1,0,0:0:0:0:
332,192,169220,1,0,0:0:0:0:
76,192,169295,1,0,0:0:0:0:
230,192,169295,1,0,0:0:0:0:
384,192,169295,1,0,0:0:0:0:
128,192,169370,1,0,0:0:0:0:
435,192,169370,1,0,0:0:0:0:
230,192,169444,1,0,0:0:0:0:
25,192,169444,1,0,0:0:0:0:
486,192,169444,1,0,0:0:0:0:
179,192,169519,1,0,0:0:0:0:
435,192,169519,1,0,0:0:0:0:
128,192,169593,1,0,0:0:0:0:
384,192,169593,1,0,0:0:0:0:
76,192,169668,1,0,0:0:0:0:
332,192,169668,1,0,0:0:0:0:
230,192,169743,1,0,0:0:0:0:
25,192,169743,1,0,0:0:0:0:
435,192,169743,1,0,0:0:0:0:
179,192,169817,1,0,0:0:0:0:
486,192,169817,1,0,0:0:0:0:
128,192,169892,1,0,0:0:0:0:
384,192,169892,1,0,0:0:0:0:
76,192,169967,1,0,0:0:0:0:
435,192,169967,1,0,0:0:0:0:
25,192,170041,1,0,0:0:0:0:
179,192,170041,1,0,0:0:0:0:
332,192,170041,1,0,0:0:0:0:
128,192,170116,1,0,0:0:0:0:
384,192,170116,1,0,0:0:0:0:
76,192,170190,1,0,0:0:0:0:
230,192,170190,1,0,0:0:0:0:
281,192,170190,1,0,0:0:0:0:
25,192,170265,1,0,0:0:0:0:
179,192,170265,1,0,0:0:0:0:
332,192,170265,1,0,0:0:0:0:
128,192,170340,1,0,0:0:0:0:
281,192,170340,1,0,0:0:0:0:
76,192,170414,1,0,0:0:0:0:
230,192,170414,1,0,0:0:0:0:
384,192,170414,1,0,0:0:0:0:
25,192,170489,1,0,0:0:0:0:
179,192,170489,1,0,0:0:0:0:
332,192,170489,1,0,0:0:0:0:
128,192,170564,1,0,0:0:0:0:
435,192,170564,1,0,0:0:0:0:
25,192,170638,1,0,0:0:0:0:
230,192,170638,1,0,0:0:0:0:
384,192,170638,1,0,0:0:0:0:
76,192,170713,1,0,0:0:0:0:
486,192,170713,1,0,0:0:0:0:
128,192,170787,1,0,0:0:0:0:
435,192,170787,1,0,0:0:0:0:
179,192,170862,1,0,0:0:0:0:
486,192,170862,1,0,0:0:0:0:
230,192,170937,1,0,0:0:0:0:
25,192,170937,1,0,0:0:0:0:
281,192,170937,1,0,0:0:0:0:
76,192,171011,1,0,0:0:0:0:
332,192,171011,1,0,0:0:0:0:
128,192,171086,1,0,0:0:0:0:
384,192,171086,1,0,0:0:0:0:
179,192,171161,1,0,0:0:0:0:
435,192,171161,1,0,0:0:0:0:
230,192,171235,1,0,0:0:0:0:
76,192,171235,1,0,0:0:0:0:
486,192,171235,1,0,0:0:0:0:
128,192,171310,1,0,0:0:0:0:
435,192,171310,1,0,0:0:0:0:
179,192,171384,1,0,0:0:0:0:
25,192,171384,1,0,0:0:0:0:
384,192,171384,1,0,0:0:0:0:
230,192,171459,1,0,0:0:0:0:
76,192,171459,1,0,0:0:0:0:
332,192,171459,1,0,0:0:0:0:
128,192,171534,1,0,0:0:0:0:
281,192,171534,1,0,0:0:0:0:
25,192,171608,1,0,0:0:0:0:
179,192,171608,1,0,0:0:0:0:
332,192,171608,1,0,0:0:0:0:
76,192,171683,1,0,0:0:0:0:
230,192,171683,1,0,0:0:0:0:
384,192,171683,1,0,0:0:0:0:
128,192,171758,1,0,0:0:0:0:
435,192,171758,1,0,0:0:0:0:
230,192,171832,1,0,0:0:0:0:
25,192,171832,1,0,0:0:0:0:
486,192,171832,1,0,0:0:0:0:
179,192,171907,1,0,0:0:0:0:
435,192,171907,1,0,0:0:0:0:
128,192,171982,1,0,0:0:0:0:
384,192,171982,1,0,0:0:0:0:
76,192,172056,1,0,0:0:0:0:
332,192,172056,1,0,0:0:0:0:
25,192,172131,1,0,0:0:0:0:
230,192,172131,1,0,0:0:0:0:
435,192,172131,1,0,0:0:0:0:
179,192,172205,1,0,0:0:0:0:
486,192,172205,1,0,0:0:0:0:
128,192,172280,1,0,0:0:0:0:
384,192,172280,1,0,0:0:0:0:
76,192,172355,1,0,0:0:0:0:
25,192,172355,1,0,0:0:0:0:
435,192,172355,1,0,0:0:0:0:
179,192,172429,1,0,0:0:0:0:
230,192,172429,1,0,0:0:0:0:
332,192,172429,1,0,0:0:0:0:
128,192,172504,1,0,0:0:0:0:
384,192,172504,1,0,0:0:0:0:
25,192,172579,1,0,0:0:0:0:
76,192,172579,1,0,0:0:0:0:
281,192,172579,1,0,0:0:0:0:
128,192,172653,1,0,0:0:0:0:
332,192,172653,1,0,0:0:0:0:
179,192,172728,1,0,0:0:0:0:
281,192,172728,1,0,0:0:0:0:
230,192,172802,1,0,0:0:0:0:
25,192,172802,1,0,0:0:0:0:
384,192,172802,1,0,0:0:0:0:
76,192,172877,1,0,0:0:0:0:
179,192,172877,1,0,0:0:0:0:
332,192,172877,1,0,0:0:0:0:
128,192,172952,1,0,0:0:0:0:
435,192,172952,1,0,0:0:0:0:
25,192,173026,1,0,0:0:0:0:
230,192,173026,1,0,0:0:0:0:
384,192,173026,1,0,0:0:0:0:
76,192,173101,1,0,0:0:0:0:
486,192,173101,1,0,0:0:0:0:
128,192,173176,1,0,0:0:0:0:
435,192,173176,1,0,0:0:0:0:
179,192,173250,1,0,0:0:0:0:
384,192,173250,1,0,0:0:0:0:
281,192,173325,1,0,0:0:0:0:
230,192,173325,1,0,0:0:0:0:
25,192,173325,1,0,0:0:0:0:
486,192,173325,1,0,0:0:0:0:
179,192,173399,1,0,0:0:0:0:
435,192,173399,1,0,0:0:0:0:
384,192,173474,1,0,0:0:0:0:
128,192,173474,1,0,0:0:0:0:
332,192,173549,1,0,0:0:0:0:
76,192,173549,1,0,0:0:0:0:
435,192,173623,1,0,0:0:0:0:
281,192,173623,1,0,0:0:0:0:
25,192,173623,1,0,0:0:0:0:
76,192,173698,1,0,0:0:0:0:
384,192,173698,1,0,0:0:0:0:
332,192,173773,1,0,0:0:0:0:
486,192,173773,1,0,0:0:0:0:
128,192,173773,1,0,0:0:0:0:
179,192,173847,1,0,0:0:0:0:
435,192,173847,1,0,0:0:0:0:
281,192,173847,1,0,0:0:0:0:
230,192,173922,1,0,0:0:0:0:
384,192,173922,1,0,0:0:0:0:
486,192,173996,1,0,0:0:0:0:
179,192,173996,1,0,0:0:0:0:
332,192,173996,1,0,0:0:0:0:
128,192,174071,1,0,0:0:0:0:
281,192,174071,1,0,0:0:0:0:
435,192,174071,1,0,0:0:0:0:
76,192,174146,1,0,0:0:0:0:
384,192,174146,1,0,0:0:0:0:
486,192,174220,1,0,0:0:0:0:
281,192,174220,1,0,0:0:0:0:
25,192,174220,1,0,0:0:0:0:
76,192,174295,1,0,0:0:0:0:
332,192,174295,1,0,0:0:0:0:
384,192,174370,1,0,0:0:0:0:
128,192,174370,1,0,0:0:0:0:
179,192,174444,1,0,0:0:0:0:
435,192,174444,1,0,0:0:0:0:
486,192,174519,1,0,0:0:0:0:
281,192,174519,1,0,0:0:0:0:
76,192,174519,1,0,0:0:0:0:
25,192,174593,1,0,0:0:0:0:
332,192,174593,1,0,0:0:0:0:
128,192,174668,1,0,0:0:0:0:
384,192,174668,1,0,0:0:0:0:
76,192,174743,1,0,0:0:0:0:
435,192,174743,1,0,0:0:0:0:
332,192,174817,1,0,0:0:0:0:
486,192,174817,1,0,0:0:0:0:
179,192,174817,1,0,0:0:0:0:
384,192,174892,1,0,0:0:0:0:
128,192,174892,1,0,0:0:0:0:
435,192,174967,1,0,0:0:0:0:
230,192,174967,1,0,0:0:0:0:
281,192,174967,1,0,0:0:0:0:
332,192,175041,1,0,0:0:0:0:
179,192,175041,1,0,0:0:0:0:
486,192,175041,1,0,0:0:0:0:
230,192,175116,1,0,0:0:0:0:
384,192,175116,1,0,0:0:0:0:
435,192,175190,1,0,0:0:0:0:
128,192,175190,1,0,0:0:0:0:
281,192,175190,1,0,0:0:0:0:
179,192,175265,1,0,0:0:0:0:
486,192,175265,1,0,0:0:0:0:
332,192,175265,1,0,0:0:0:0:
384,192,175340,1,0,0:0:0:0:
76,192,175340,1,0,0:0:0:0:
486,192,175414,1,0,0:0:0:0:
128,192,175414,1,0,0:0:0:0:
281,192,175414,1,0,0:0:0:0:
435,192,175489,1,0,0:0:0:0:
25,192,175489,1,0,0:0:0:0:
76,192,175564,1,0,0:0:0:0:
384,192,175564,1,0,0:0:0:0:
332,192,175638,1,0,0:0:0:0:
128,192,175638,1,0,0:0:0:0:
281,192,175713,1,0,0:0:0:0:
486,192,175713,1,0,0:0:0:0:
230,192,175713,1,0,0:0:0:0:
25,192,175713,1,0,0:0:0:0:
179,192,175787,1,0,0:0:0:0:
435,192,175787,1,0,0:0:0:0:
128,192,175862,1,0,0:0:0:0:
384,192,175862,1,0,0:0:0:0:
76,192,175937,1,0,0:0:0:0:
332,192,175937,1,0,0:0:0:0:
435,192,176011,1,0,0:0:0:0:
25,192,176011,1,0,0:0:0:0:
281,192,176011,1,0,0:0:0:0:
76,192,176086,1,0,0:0:0:0:
384,192,176086,1,0,0:0:0:0:
128,192,176161,1,0,0:0:0:0:
332,192,176161,1,0,0:0:0:0:
486,192,176161,1,0,0:0:0:0:
435,192,176235,1,0,0:0:0:0:
281,192,176235,1,0,0:0:0:0:
179,192,176235,1,0,0:0:0:0:
384,192,176310,1,0,0:0:0:0:
230,192,176310,1,0,0:0:0:0:
25,192,176310,1,0,0:0:0:0:
486,192,176384,1,0,0:0:0:0:
179,192,176384,1,0,0:0:0:0:
332,192,176384,1,0,0:0:0:0:
435,192,176459,1,0,0:0:0:0:
128,192,176459,1,0,0:0:0:0:
281,192,176459,1,0,0:0:0:0:
384,192,176534,1,0,0:0:0:0:
76,192,176534,1,0,0:0:0:0:
25,192,176608,1,0,0:0:0:0:
486,192,176608,1,0,0:0:0:0:
281,192,176608,1,0,0:0:0:0:
332,192,176683,1,0,0:0:0:0:
76,192,176683,1,0,0:0:0:0:
128,192,176758,1,0,0:0:0:0:
384,192,176758,1,0,0:0:0:0:
435,192,176832,1,0,0:0:0:0:
179,192,176832,1,0,0:0:0:0:
76,192,176907,5,0,0:0:0:0:
281,192,176907,1,0,0:0:0:0:
486,192,176907,1,0,0:0:0:0:
230,192,176907,1,0,0:0:0:0:
332,192,176982,1,0,0:0:0:0:
25,192,176982,1,0,0:0:0:0:
384,192,177056,1,0,0:0:0:0:
128,192,177056,1,0,0:0:0:0:
435,192,177131,1,0,0:0:0:0:
76,192,177131,1,0,0:0:0:0:
486,192,177131,1,0,0:0:0:0:
332,192,177205,1,0,0:0:0:0:
179,192,177205,1,0,0:0:0:0:
281,192,177205,1,0,0:0:0:0:
25,192,177205,1,0,0:0:0:0:
128,192,177280,1,0,0:0:0:0:
384,192,177280,1,0,0:0:0:0:
435,192,177355,1,0,0:0:0:0:
486,192,177355,1,0,0:0:0:0:
230,192,177355,1,0,0:0:0:0:
179,192,177429,1,0,0:0:0:0:
384,192,177429,1,0,0:0:0:0:
332,192,177504,1,0,0:0:0:0:
230,192,177504,1,0,0:0:0:0:
25,192,177504,1,0,0:0:0:0:
281,192,177579,1,0,0:0:0:0:
128,192,177579,1,0,0:0:0:0:
486,192,177579,1,0,0:0:0:0:
179,192,177653,1,0,0:0:0:0:
332,192,177653,1,0,0:0:0:0:
435,192,177653,1,0,0:0:0:0:
384,192,177728,1,0,0:0:0:0:
76,192,177728,1,0,0:0:0:0:
281,192,177802,1,0,0:0:0:0:
128,192,177802,1,0,0:0:0:0:
486,192,177802,1,0,0:0:0:0:
230,192,177802,1,0,0:0:0:0:
25,192,177877,1,0,0:0:0:0:
435,192,177877,1,0,0:0:0:0:
76,192,177952,1,0,0:0:0:0:
384,192,177952,1,0,0:0:0:0:
25,192,178026,1,0,0:0:0:0:
332,192,178026,1,0,0:0:0:0:
486,192,178101,1,0,0:0:0:0:
384,192,178101,1,0,0:0:0:0:
281,192,178101,1,0,0:0:0:0:
230,192,178101,1,0,0:0:0:0:
179,192,178101,1,0,0:0:0:0:
128,192,178101,1,0,0:0:0:0:
332,192,178176,1,0,0:0:0:0:
76,192,178176,1,0,0:0:0:0:
384,192,178250,1,0,0:0:0:0:
128,192,178250,1,0,0:0:0:0:
25,192,178250,1,0,0:0:0:0:
281,192,178250,1,0,0:0:0:0:
435,192,178325,1,0,0:0:0:0:
179,192,178325,1,0,0:0:0:0:
486,192,178399,1,0,0:0:0:0:
76,192,178399,1,0,0:0:0:0:
230,192,178399,1,0,0:0:0:0:
332,192,178399,1,0,0:0:0:0:
281,192,178399,1,0,0:0:0:0:
25,192,178399,1,0,0:0:0:0:
435,192,178474,1,0,0:0:0:0:
128,192,178474,1,0,0:0:0:0:
384,192,178549,1,0,0:0:0:0:
179,192,178549,1,0,0:0:0:0:
25,192,178549,1,0,0:0:0:0:
281,192,178549,1,0,0:0:0:0:
332,192,178623,1,0,0:0:0:0:
230,192,178623,1,0,0:0:0:0:
76,192,178623,1,0,0:0:0:0:
435,192,178623,1,0,0:0:0:0:
281,192,178698,1,0,0:0:0:0:
128,192,178698,1,0,0:0:0:0:
332,192,178773,1,0,0:0:0:0:
25,192,178773,1,0,0:0:0:0:
179,192,178773,1,0,0:0:0:0:
435,192,178773,1,0,0:0:0:0:
384,192,178847,1,0,0:0:0:0:
230,192,178847,1,0,0:0:0:0:
76,192,178847,1,0,0:0:0:0:
486,192,178847,1,0,0:0:0:0:
435,192,178922,1,0,0:0:0:0:
128,192,178922,1,0,0:0:0:0:
486,192,178996,1,0,0:0:0:0:
25,192,178996,1,0,0:0:0:0:
230,192,178996,1,0,0:0:0:0:
332,192,178996,1,0,0:0:0:0:
281,192,178996,1,0,0:0:0:0:
76,192,178996,1,0,0:0:0:0:
435,192,179071,1,0,0:0:0:0:
179,192,179071,1,0,0:0:0:0:
384,192,179146,1,0,0:0:0:0:
128,192,179146,1,0,0:0:0:0:
25,192,179146,1,0,0:0:0:0:
486,192,179146,1,0,0:0:0:0:
332,192,179220,1,0,0:0:0:0:
76,192,179220,1,0,0:0:0:0:
435,192,179295,1,0,0:0:0:0:
25,192,179295,1,0,0:0:0:0:
230,192,179295,1,0,0:0:0:0:
281,192,179295,1,0,0:0:0:0:
128,192,179295,1,0,0:0:0:0:
486,192,179370,1,0,0:0:0:0:
179,192,179370,1,0,0:0:0:0:
384,192,179444,1,0,0:0:0:0:
128,192,179444,1,0,0:0:0:0:
332,192,179444,1,0,0:0:0:0:
230,192,179444,1,0,0:0:0:0:
435,192,179519,1,0,0:0:0:0:
76,192,179519,1,0,0:0:0:0:
332,192,179593,1,0,0:0:0:0:
179,192,179593,1,0,0:0:0:0:
25,192,179593,1,0,0:0:0:0:
230,192,179593,1,0,0:0:0:0:
281,192,179593,1,0,0:0:0:0:
486,192,179593,1,0,0:0:0:0:
384,192,179668,1,0,0:0:0:0:
128,192,179668,1,0,0:0:0:0:
281,192,179743,1,0,0:0:0:0:
230,192,179743,1,0,0:0:0:0:
76,192,179743,1,0,0:0:0:0:
435,192,179743,1,0,0:0:0:0:
332,192,179817,1,0,0:0:0:0:
179,192,179817,1,0,0:0:0:0:
25,192,179817,1,0,0:0:0:0:
486,192,179817,1,0,0:0:0:0:
281,192,179892,1,0,0:0:0:0:
128,192,179892,1,0,0:0:0:0:
384,192,179967,1,0,0:0:0:0:
230,192,179967,1,0,0:0:0:0:
76,192,179967,1,0,0:0:0:0:
435,192,179967,1,0,0:0:0:0:
332,192,180041,1,0,0:0:0:0:
179,192,180041,1,0,0:0:0:0:
25,192,180041,1,0,0:0:0:0:
486,192,180041,1,0,0:0:0:0:
435,192,180116,1,0,0:0:0:0:
128,192,180116,1,0,0:0:0:0:
384,192,180190,1,0,0:0:0:0:
230,192,180190,1,0,0:0:0:0:
25,192,180190,1,0,0:0:0:0:
281,192,180190,1,0,0:0:0:0:
332,192,180190,1,0,0:0:0:0:
179,192,180190,1,0,0:0:0:0:
486,192,180265,1,0,0:0:0:0:
76,192,180265,1,0,0:0:0:0:
435,192,180340,1,0,0:0:0:0:
128,192,180340,1,0,0:0:0:0:
332,192,180340,1,0,0:0:0:0:
486,192,180414,1,0,0:0:0:0:
179,192,180414,1,0,0:0:0:0:
281,192,180489,1,0,0:0:0:0:
25,192,180489,1,0,0:0:0:0:
230,192,180489,1,0,0:0:0:0:
384,192,180489,1,0,0:0:0:0:
128,192,180489,1,0,0:0:0:0:
332,192,180564,1,0,0:0:0:0:
76,192,180564,1,0,0:0:0:0:
384,192,180638,1,0,0:0:0:0:
128,192,180638,1,0,0:0:0:0:
486,192,180638,1,0,0:0:0:0:
435,192,180713,1,0,0:0:0:0:
179,192,180713,1,0,0:0:0:0:
384,192,180787,1,0,0:0:0:0:
76,192,180787,1,0,0:0:0:0:
230,192,180787,1,0,0:0:0:0:
281,192,180787,1,0,0:0:0:0:
332,192,180787,1,0,0:0:0:0:
25,192,180787,1,0,0:0:0:0:
435,192,180862,1,0,0:0:0:0:
128,192,180862,1,0,0:0:0:0:
384,192,180937,1,0,0:0:0:0:
25,192,180937,1,0,0:0:0:0:
179,192,180937,1,0,0:0:0:0:
486,192,180937,1,0,0:0:0:0:
332,192,181011,1,0,0:0:0:0:
76,192,181011,1,0,0:0:0:0:
230,192,181011,1,0,0:0:0:0:
435,192,181011,1,0,0:0:0:0:
281,192,181086,1,0,0:0:0:0:
128,192,181086,1,0,0:0:0:0:
332,192,181161,1,0,0:0:0:0:
179,192,181161,1,0,0:0:0:0:
25,192,181161,1,0,0:0:0:0:
435,192,181161,1,0,0:0:0:0:
384,192,181235,1,0,0:0:0:0:
230,192,181235,1,0,0:0:0:0:
76,192,181235,1,0,0:0:0:0:
486,192,181235,1,0,0:0:0:0:
435,192,181310,1,0,0:0:0:0:
128,192,181310,1,0,0:0:0:0:
486,192,181384,1,0,0:0:0:0:
25,192,181384,1,0,0:0:0:0:
230,192,181384,1,0,0:0:0:0:
281,192,181384,1,0,0:0:0:0:
332,192,181384,1,0,0:0:0:0:
76,192,181384,1,0,0:0:0:0:
435,192,181459,1,0,0:0:0:0:
179,192,181459,1,0,0:0:0:0:
384,192,181534,1,0,0:0:0:0:
128,192,181534,1,0,0:0:0:0:
281,192,181534,1,0,0:0:0:0:
332,192,181608,1,0,0:0:0:0:
76,192,181608,1,0,0:0:0:0:
435,192,181683,1,0,0:0:0:0:
230,192,181683,1,0,0:0:0:0:
25,192,181683,1,0,0:0:0:0:
384,192,181683,1,0,0:0:0:0:
486,192,181758,1,0,0:0:0:0:
179,192,181758,1,0,0:0:0:0:
384,192,181832,1,0,0:0:0:0:
128,192,181832,1,0,0:0:0:0:
281,192,181832,1,0,0:0:0:0:
230,192,181832,1,0,0:0:0:0:
25,192,181907,1,0,0:0:0:0:
76,192,181907,1,0,0:0:0:0:
486,192,181907,1,0,0:0:0:0:
435,192,181907,1,0,0:0:0:0:
281,192,181982,1,0,0:0:0:0:
128,192,181982,1,0,0:0:0:0:
230,192,181982,1,0,0:0:0:0:
384,192,181982,1,0,0:0:0:0:
76,192,182056,1,0,0:0:0:0:
332,192,182056,1,0,0:0:0:0:
281,192,182131,1,0,0:0:0:0:
25,192,182131,1,0,0:0:0:0:
179,192,182131,1,0,0:0:0:0:
435,192,182131,1,0,0:0:0:0:
486,192,182131,1,0,0:0:0:0:
230,192,182131,1,0,0:0:0:0:
332,192,182205,1,0,0:0:0:0:
76,192,182205,1,0,0:0:0:0:
281,192,182280,1,0,0:0:0:0:
179,192,182280,1,0,0:0:0:0:
435,192,182280,1,0,0:0:0:0:
230,192,182280,1,0,0:0:0:0:
25,192,182355,1,0,0:0:0:0:
76,192,182355,1,0,0:0:0:0:
384,192,182355,1,0,0:0:0:0:
486,192,182355,1,0,0:0:0:0:
179,192,182429,1,0,0:0:0:0:
281,192,182429,1,0,0:0:0:0:
435,192,182429,1,0,0:0:0:0:
230,192,182429,1,0,0:0:0:0:
76,192,182504,1,0,0:0:0:0:
332,192,182504,1,0,0:0:0:0:
384,192,182579,1,0,0:0:0:0:
25,192,182579,1,0,0:0:0:0:
435,192,182579,1,0,0:0:0:0:
281,192,182579,1,0,0:0:0:0:
179,192,182579,1,0,0:0:0:0:
128,192,182579,1,0,0:0:0:0:
486,192,182653,1,0,0:0:0:0:
76,192,182653,1,0,0:0:0:0:
435,192,182728,1,0,0:0:0:0:
128,192,182728,1,0,0:0:0:0:
230,192,182728,1,0,0:0:0:0:
332,192,182728,1,0,0:0:0:0:
384,192,182802,1,0,0:0:0:0:
179,192,182802,1,0,0:0:0:0:
25,192,182877,1,0,0:0:0:0:
486,192,182877,1,0,0:0:0:0:
281,192,182877,1,0,0:0:0:0:
230,192,182877,1,0,0:0:0:0:
76,192,182877,1,0,0:0:0:0:
332,192,182877,1,0,0:0:0:0:
435,192,182952,1,0,0:0:0:0:
179,192,182952,1,0,0:0:0:0:
128,192,183026,1,0,0:0:0:0:
384,192,183026,1,0,0:0:0:0:
281,192,183026,1,0,0:0:0:0:
25,192,183026,1,0,0:0:0:0:
76,192,183101,1,0,0:0:0:0:
332,192,183101,1,0,0:0:0:0:
25,192,183176,1,0,0:0:0:0:
281,192,183176,1,0,0:0:0:0:
435,192,183176,1,0,0:0:0:0:
486,192,183176,1,0,0:0:0:0:
230,192,183176,1,0,0:0:0:0:
179,192,183176,1,0,0:0:0:0:
384,192,183250,1,0,0:0:0:0:
76,192,183250,1,0,0:0:0:0:
128,192,183325,1,0,0:0:0:0:
486,192,183325,1,0,0:0:0:0:
332,192,183325,1,0,0:0:0:0:
25,192,183325,1,0,0:0:0:0:
281,192,183399,1,0,0:0:0:0:
435,192,183399,1,0,0:0:0:0:
179,192,183399,1,0,0:0:0:0:
76,192,183399,1,0,0:0:0:0:
384,192,183474,1,0,0:0:0:0:
230,192,183474,1,0,0:0:0:0:
332,192,183549,1,0,0:0:0:0:
179,192,183549,1,0,0:0:0:0:
486,192,183549,1,0,0:0:0:0:
76,192,183549,1,0,0:0:0:0:
435,192,183623,1,0,0:0:0:0:
281,192,183623,1,0,0:0:0:0:
128,192,183623,1,0,0:0:0:0:
25,192,183623,1,0,0:0:0:0:
384,192,183698,1,0,0:0:0:0:
76,192,183698,1,0,0:0:0:0:
25,192,183773,1,0,0:0:0:0:
281,192,183773,1,0,0:0:0:0:
486,192,183773,1,0,0:0:0:0:
230,192,183773,1,0,0:0:0:0:
179,192,183773,1,0,0:0:0:0:
435,192,183773,1,0,0:0:0:0:
332,192,183847,1,0,0:0:0:0:
76,192,183847,1,0,0:0:0:0:
128,192,183922,1,0,0:0:0:0:
384,192,183922,1,0,0:0:0:0:
230,192,183922,1,0,0:0:0:0:
281,192,183922,1,0,0:0:0:0:
435,192,183996,1,0,0:0:0:0:
179,192,183996,1,0,0:0:0:0:
76,192,184071,1,0,0:0:0:0:
281,192,184071,1,0,0:0:0:0:
486,192,184071,1,0,0:0:0:0:
128,192,184071,1,0,0:0:0:0:
230,192,184071,1,0,0:0:0:0:
384,192,184071,1,0,0:0:0:0:
332,192,184146,1,0,0:0:0:0:
25,192,184146,1,0,0:0:0:0:
384,192,184220,1,0,0:0:0:0:
128,192,184220,1,0,0:0:0:0:
230,192,184220,1,0,0:0:0:0:
281,192,184220,1,0,0:0:0:0:
435,192,184295,1,0,0:0:0:0:
76,192,184295,1,0,0:0:0:0:
179,192,184370,1,0,0:0:0:0:
486,192,184370,1,0,0:0:0:0:
332,192,184370,1,0,0:0:0:0:
25,192,184370,1,0,0:0:0:0:
230,192,184370,1,0,0:0:0:0:
281,192,184370,1,0,0:0:0:0:
128,192,184444,1,0,0:0:0:0:
384,192,184444,1,0,0:0:0:0:
281,192,184519,1,0,0:0:0:0:
230,192,184519,1,0,0:0:0:0:
435,192,184519,1,0,0:0:0:0:
76,192,184519,1,0,0:0:0:0:
486,192,184593,1,0,0:0:0:0:
179,192,184593,1,0,0:0:0:0:
332,192,184593,1,0,0:0:0:0:
25,192,184593,1,0,0:0:0:0:
384,192,184668,1,0,0:0:0:0:
230,192,184668,1,0,0:0:0:0:
281,192,184743,1,0,0:0:0:0:
128,192,184743,1,0,0:0:0:0:
435,192,184743,1,0,0:0:0:0:
76,192,184743,1,0,0:0:0:0:
332,192,184817,1,0,0:0:0:0:
486,192,184817,1,0,0:0:0:0:
179,192,184817,1,0,0:0:0:0:
25,192,184817,1,0,0:0:0:0:
76,192,184892,1,0,0:0:0:0:
384,192,184892,1,0,0:0:0:0:
281,192,184967,1,0,0:0:0:0:
128,192,184967,1,0,0:0:0:0:
486,192,184967,1,0,0:0:0:0:
332,192,184967,1,0,0:0:0:0:
230,192,184967,1,0,0:0:0:0:
179,192,184967,1,0,0:0:0:0:
25,192,185041,1,0,0:0:0:0:
435,192,185041,1,0,0:0:0:0:
384,192,185116,1,0,0:0:0:0:
76,192,185116,1,0,0:0:0:0:
179,192,185116,1,0,0:0:0:0:
486,192,185116,1,0,0:0:0:0:
128,192,185190,1,0,0:0:0:0:
332,192,185190,1,0,0:0:0:0:
230,192,185265,1,0,0:0:0:0:
25,192,185265,1,0,0:0:0:0:
281,192,185265,1,0,0:0:0:0:
486,192,185265,1,0,0:0:0:0:
384,192,185265,1,0,0:0:0:0:
76,192,185265,1,0,0:0:0:0:
435,192,185340,1,0,0:0:0:0:
179,192,185340,1,0,0:0:0:0:
384,192,185414,1,0,0:0:0:0:
128,192,185414,1,0,0:0:0:0:
230,192,185414,1,0,0:0:0:0:
486,192,185414,1,0,0:0:0:0:
332,192,185489,1,0,0:0:0:0:
76,192,185489,1,0,0:0:0:0:
281,192,185564,1,0,0:0:0:0:
25,192,185564,1,0,0:0:0:0:
435,192,185564,1,0,0:0:0:0:
179,192,185564,1,0,0:0:0:0:
384,192,185638,1,0,0:0:0:0:
76,192,185638,1,0,0:0:0:0:
486,192,185713,1,0,0:0:0:0:
332,192,185713,1,0,0:0:0:0:
128,192,185713,1,0,0:0:0:0:
230,192,185713,1,0,0:0:0:0:
179,192,185787,1,0,0:0:0:0:
281,192,185787,1,0,0:0:0:0:
435,192,185787,1,0,0:0:0:0:
25,192,185862,1,0,0:0:0:0:
230,192,185862,1,0,0:0:0:0:
76,192,185862,1,0,0:0:0:0:
332,192,185862,1,0,0:0:0:0:
384,192,185862,1,0,0:0:0:0:
486,192,185862,1,0,0:0:0:0:
179,192,185937,1,0,0:0:0:0:
435,192,185937,1,0,0:0:0:0:
281,192,185937,1,0,0:0:0:0:
128,192,186011,1,0,0:0:0:0:
486,192,186011,1,0,0:0:0:0:
332,192,186011,1,0,0:0:0:0:
25,192,186011,1,0,0:0:0:0:
76,192,186086,1,0,0:0:0:0:
384,192,186086,1,0,0:0:0:0:
281,192,186161,1,0,0:0:0:0:
486,192,186161,1,0,0:0:0:0:
25,192,186161,1,0,0:0:0:0:
230,192,186161,1,0,0:0:0:0:
179,192,186161,1,0,0:0:0:0:
435,192,186161,1,0,0:0:0:0:
76,192,186235,1,0,0:0:0:0:
332,192,186235,1,0,0:0:0:0:
384,192,186310,1,0,0:0:0:0:
128,192,186310,1,0,0:0:0:0:
25,192,186310,1,0,0:0:0:0:
486,192,186310,1,0,0:0:0:0:
179,192,186384,1,0,0:0:0:0:
435,192,186384,1,0,0:0:0:0:
76,192,186459,5,0,0:0:0:0:
230,192,186459,1,0,0:0:0:0:
281,192,186459,1,0,0:0:0:0:
486,192,186459,1,0,0:0:0:0:
128,192,186459,1,0,0:0:0:0:
384,192,186459,1,0,0:0:0:0:
25,192,186534,1,0,0:0:0:0:
332,192,186534,1,0,0:0:0:0:
128,192,186608,1,0,0:0:0:0:
384,192,186608,1,0,0:0:0:0:
179,192,186608,1,0,0:0:0:0:
281,192,186608,1,0,0:0:0:0:
486,192,186683,1,0,0:0:0:0:
76,192,186683,1,0,0:0:0:0:
435,192,186683,1,0,0:0:0:0:
281,192,186758,1,0,0:0:0:0:
25,192,186758,1,0,0:0:0:0:
332,192,186758,1,0,0:0:0:0:
179,192,186758,1,0,0:0:0:0:
230,192,186758,1,0,0:0:0:0:
384,192,186758,1,0,0:0:0:0:
128,192,186832,1,0,0:0:0:0:
435,192,186832,1,0,0:0:0:0:
230,192,186907,1,0,0:0:0:0:
486,192,186907,1,0,0:0:0:0:
332,192,186907,1,0,0:0:0:0:
76,192,186907,1,0,0:0:0:0:
179,192,186982,1,0,0:0:0:0:
384,192,186982,1,0,0:0:0:0:
25,192,187056,1,0,0:0:0:0:
230,192,187056,1,0,0:0:0:0:
332,192,187056,1,0,0:0:0:0:
76,192,187056,1,0,0:0:0:0:
435,192,187056,1,0,0:0:0:0:
486,192,187056,1,0,0:0:0:0:
128,192,187131,1,0,0:0:0:0:
281,192,187131,1,0,0:0:0:0:
384,192,187131,1,0,0:0:0:0:
435,192,187205,1,0,0:0:0:0:
332,192,187205,1,0,0:0:0:0:
179,192,187205,1,0,0:0:0:0:
25,192,187205,1,0,0:0:0:0:
230,192,187205,1,0,0:0:0:0:
486,192,187205,1,0,0:0:0:0:
76,192,187280,1,0,0:0:0:0:
384,192,187280,1,0,0:0:0:0:
486,192,187355,1,0,0:0:0:0:
230,192,187355,1,0,0:0:0:0:
281,192,187355,1,0,0:0:0:0:
128,192,187355,1,0,0:0:0:0:
332,192,187355,1,0,0:0:0:0:
179,192,187355,1,0,0:0:0:0:
435,192,187429,1,0,0:0:0:0:
25,192,187429,1,0,0:0:0:0:
384,192,187504,1,0,0:0:0:0:
76,192,187504,1,0,0:0:0:0:
281,192,187504,1,0,0:0:0:0:
179,192,187504,1,0,0:0:0:0:
128,192,187504,1,0,0:0:0:0:
486,192,187504,1,0,0:0:0:0:
332,192,187579,1,0,0:0:0:0:
25,192,187579,1,0,0:0:0:0:
76,192,187653,1,0,0:0:0:0:
230,192,187653,1,0,0:0:0:0:
281,192,187653,1,0,0:0:0:0:
435,192,187653,1,0,0:0:0:0:
332,192,187802,1,0,0:0:0:0:
435,192,187952,1,0,0:0:0:0:
332,192,188101,1,0,0:0:0:0:
435,192,188250,1,0,0:0:0:0:
230,192,188250,1,0,0:0:0:0:
332,192,188399,1,0,0:0:0:0:
486,192,188549,1,0,0:0:0:0:
384,192,188698,1,0,0:0:0:0:
281,192,188847,1,0,0:0:0:0:
179,192,188847,1,0,0:0:0:0:
435,192,188996,1,0,0:0:0:0:
384,192,189146,1,0,0:0:0:0:
332,192,189295,1,0,0:0:0:0:
435,192,189444,1,0,0:0:0:0:
179,192,189444,1,0,0:0:0:0:
486,192,189593,1,0,0:0:0:0:
435,192,189743,1,0,0:0:0:0:
384,192,189892,1,0,0:0:0:0:
332,192,190041,1,0,0:0:0:0:
128,192,190041,1,0,0:0:0:0:
281,192,190190,1,0,0:0:0:0:
332,192,190340,1,0,0:0:0:0:
128,192,190638,1,0,0:0:0:0:
486,192,190937,1,0,0:0:0:0:
332,192,190937,1,0,0:0:0:0:
281,192,191086,1,0,0:0:0:0:
435,192,191086,1,0,0:0:0:0:
76,192,191235,1,0,0:0:0:0:
486,192,191384,1,0,0:0:0:0:
435,192,191384,1,0,0:0:0:0:
384,192,191534,1,0,0:0:0:0:
332,192,191534,1,0,0:0:0:0:
435,192,191683,1,0,0:0:0:0:
281,192,191683,1,0,0:0:0:0:
76,192,191832,1,0,0:0:0:0:
486,192,191832,1,0,0:0:0:0:
332,192,191832,1,0,0:0:0:0:
384,192,191982,1,0,0:0:0:0:
435,192,192131,1,0,0:0:0:0:
281,192,192131,1,0,0:0:0:0:
332,192,192280,1,0,0:0:0:0:
384,192,192280,1,0,0:0:0:0:
281,192,192429,1,0,0:0:0:0:
230,192,192429,1,0,0:0:0:0:
76,192,192579,1,0,0:0:0:0:
230,192,192728,1,0,0:0:0:0:
76,192,192877,1,0,0:0:0:0:
281,192,193026,1,0,0:0:0:0:
128,192,193026,1,0,0:0:0:0:
25,192,193176,1,0,0:0:0:0:
179,192,193325,1,0,0:0:0:0:
332,192,193623,1,0,0:0:0:0:
25,192,193623,1,0,0:0:0:0:
76,192,193623,1,0,0:0:0:0:
230,192,193773,1,0,0:0:0:0:
179,192,193773,1,0,0:0:0:0:
76,192,193922,1,0,0:0:0:0:
128,192,193922,1,0,0:0:0:0:
25,192,194071,1,0,0:0:0:0:
179,192,194071,1,0,0:0:0:0:
332,192,194220,1,0,0:0:0:0:
230,192,194220,1,0,0:0:0:0:
76,192,194220,1,0,0:0:0:0:
128,192,194370,1,0,0:0:0:0:
179,192,194370,1,0,0:0:0:0:
230,192,194519,1,0,0:0:0:0:
25,192,194519,1,0,0:0:0:0:
128,192,194668,1,0,0:0:0:0:
384,192,194817,1,0,0:0:0:0:
76,192,194817,1,0,0:0:0:0:
179,192,194817,1,0,0:0:0:0:
230,192,194817,1,0,0:0:0:0:
76,192,195116,1,0,0:0:0:0:
179,192,195116,1,0,0:0:0:0:
230,192,195116,1,0,0:0:0:0:
25,192,195265,1,0,0:0:0:0:
128,192,195265,1,0,0:0:0:0:
179,192,195265,1,0,0:0:0:0:
384,192,195414,1,0,0:0:0:0:
25,192,195564,1,0,0:0:0:0:
179,192,195564,1,0,0:0:0:0:
76,192,195564,1,0,0:0:0:0:
230,192,195713,1,0,0:0:0:0:
179,192,195713,1,0,0:0:0:0:
128,192,195713,1,0,0:0:0:0:
435,192,196011,1,0,0:0:0:0:
76,192,196011,1,0,0:0:0:0:
128,192,196011,1,0,0:0:0:0:
230,192,196161,1,0,0:0:0:0:
179,192,196161,1,0,0:0:0:0:
332,192,196161,1,0,0:0:0:0:
384,192,196235,1,0,0:0:0:0:
76,192,196310,1,0,0:0:0:0:
128,192,196310,1,0,0:0:0:0:
435,192,196310,1,0,0:0:0:0:
384,192,196384,1,0,0:0:0:0:
25,192,196459,1,0,0:0:0:0:
179,192,196459,1,0,0:0:0:0:
332,192,196459,1,0,0:0:0:0:
384,192,196534,1,0,0:0:0:0:
435,192,196608,1,0,0:0:0:0:
230,192,196608,1,0,0:0:0:0:
76,192,196608,1,0,0:0:0:0:
384,192,196683,1,0,0:0:0:0:
128,192,196758,1,0,0:0:0:0:
179,192,196758,1,0,0:0:0:0:
332,192,196758,1,0,0:0:0:0:
281,192,196832,1,0,0:0:0:0:
25,192,196907,1,0,0:0:0:0:
230,192,196907,1,0,0:0:0:0:
486,192,196907,1,0,0:0:0:0:
76,192,197056,1,0,0:0:0:0:
128,192,197056,1,0,0:0:0:0:
281,192,197056,1,0,0:0:0:0:
281,192,197205,1,0,0:0:0:0:
486,192,197205,1,0,0:0:0:0:
179,192,197205,1,0,0:0:0:0:
230,192,197205,1,0,0:0:0:0:
76,192,197205,1,0,0:0:0:0:
332,192,197355,1,0,0:0:0:0:
435,192,197504,1,0,0:0:0:0:
128,192,197504,1,0,0:0:0:0:
25,192,197504,1,0,0:0:0:0:
332,192,197653,1,0,0:0:0:0:
179,192,197653,1,0,0:0:0:0:
435,192,197802,1,0,0:0:0:0:
230,192,197802,1,0,0:0:0:0:
128,192,197802,1,0,0:0:0:0:
25,192,197802,1,0,0:0:0:0:
332,192,197952,1,0,0:0:0:0:
76,192,197952,1,0,0:0:0:0:
179,192,197952,1,0,0:0:0:0:
486,192,198101,1,0,0:0:0:0:
128,192,198101,1,0,0:0:0:0:
230,192,198101,1,0,0:0:0:0:
435,192,198250,1,0,0:0:0:0:
281,192,198399,1,0,0:0:0:0:
76,192,198399,1,0,0:0:0:0:
179,192,198399,1,0,0:0:0:0:
486,192,198549,1,0,0:0:0:0:
128,192,198549,1,0,0:0:0:0:
25,192,198549,1,0,0:0:0:0:
435,192,198698,1,0,0:0:0:0:
76,192,198698,1,0,0:0:0:0:
384,192,198847,1,0,0:0:0:0:
25,192,198847,1,0,0:0:0:0:
435,192,198996,1,0,0:0:0:0:
76,192,198996,1,0,0:0:0:0:
179,192,198996,1,0,0:0:0:0:
486,192,199146,1,0,0:0:0:0:
230,192,199146,1,0,0:0:0:0:
128,192,199146,1,0,0:0:0:0:
435,192,199295,1,0,0:0:0:0:
76,192,199295,1,0,0:0:0:0:
179,192,199295,1,0,0:0:0:0:
384,192,199444,1,0,0:0:0:0:
128,192,199444,1,0,0:0:0:0:
25,192,199444,1,0,0:0:0:0:
332,192,199593,1,0,0:0:0:0:
435,192,199593,1,0,0:0:0:0:
230,192,199593,1,0,0:0:0:0:
76,192,199593,1,0,0:0:0:0:
281,192,199743,1,0,0:0:0:0:
384,192,199743,1,0,0:0:0:0:
25,192,199743,1,0,0:0:0:0:
179,192,199743,1,0,0:0:0:0:
332,192,199892,1,0,0:0:0:0:
435,192,199892,1,0,0:0:0:0:
128,192,200041,1,0,0:0:0:0:
25,192,200190,1,0,0:0:0:0:
230,192,200190,1,0,0:0:0:0:
76,192,200340,1,0,0:0:0:0:
179,192,200340,1,0,0:0:0:0:
486,192,200489,1,0,0:0:0:0:
281,192,200489,1,0,0:0:0:0:
128,192,200489,1,0,0:0:0:0:
435,192,200638,1,0,0:0:0:0:
332,192,200638,1,0,0:0:0:0:
76,192,200638,1,0,0:0:0:0:
179,192,200638,1,0,0:0:0:0:
230,192,200787,1,0,0:0:0:0:
25,192,200787,1,0,0:0:0:0:
486,192,200937,1,0,0:0:0:0:
435,192,200937,1,0,0:0:0:0:
384,192,201086,1,0,0:0:0:0:
332,192,201086,1,0,0:0:0:0:
435,192,201235,1,0,0:0:0:0:
486,192,201235,1,0,0:0:0:0:
230,192,201235,1,0,0:0:0:0:
76,192,201235,1,0,0:0:0:0:
332,192,201384,1,0,0:0:0:0:
281,192,201384,1,0,0:0:0:0:
25,192,201384,1,0,0:0:0:0:
179,192,201384,1,0,0:0:0:0:
128,192,201534,1,0,0:0:0:0:
486,192,201683,1,0,0:0:0:0:
332,192,201683,1,0,0:0:0:0:
76,192,201683,1,0,0:0:0:0:
179,192,201683,1,0,0:0:0:0:
281,192,201832,1,0,0:0:0:0:
435,192,201832,1,0,0:0:0:0:
384,192,201982,1,0,0:0:0:0:
230,192,201982,1,0,0:0:0:0:
25,192,201982,1,0,0:0:0:0:
332,192,202131,1,0,0:0:0:0:
76,192,202131,1,0,0:0:0:0:
179,192,202131,1,0,0:0:0:0:
435,192,202280,1,0,0:0:0:0:
384,192,202429,1,0,0:0:0:0:
230,192,202579,1,0,0:0:0:0:
128,192,202579,1,0,0:0:0:0:
281,192,202728,1,0,0:0:0:0:
76,192,202728,1,0,0:0:0:0:
179,192,202728,1,0,0:0:0:0:
486,192,202877,1,0,0:0:0:0:
25,192,202877,1,0,0:0:0:0:
128,192,203026,1,0,0:0:0:0:
76,192,203026,1,0,0:0:0:0:
281,192,203176,1,0,0:0:0:0:
179,192,203176,1,0,0:0:0:0:
230,192,203176,1,0,0:0:0:0:
486,192,203325,1,0,0:0:0:0:
435,192,203474,1,0,0:0:0:0:
384,192,203623,1,0,0:0:0:0:
25,192,203623,1,0,0:0:0:0:
128,192,203623,1,0,0:0:0:0:
332,192,203773,1,0,0:0:0:0:
76,192,203773,1,0,0:0:0:0:
179,192,203773,1,0,0:0:0:0:
435,192,203922,1,0,0:0:0:0:
384,192,204071,1,0,0:0:0:0:
179,192,204071,1,0,0:0:0:0:
76,192,204071,1,0,0:0:0:0:
332,192,204220,1,0,0:0:0:0:
25,192,204220,1,0,0:0:0:0:
128,192,204220,1,0,0:0:0:0:
281,192,204370,1,0,0:0:0:0:
435,192,204370,1,0,0:0:0:0:
230,192,204370,1,0,0:0:0:0:
76,192,204370,1,0,0:0:0:0:
435,192,204668,1,0,0:0:0:0:
281,192,204668,1,0,0:0:0:0:
230,192,204668,1,0,0:0:0:0:
76,192,204668,1,0,0:0:0:0:
332,192,204817,1,0,0:0:0:0:
486,192,204817,1,0,0:0:0:0:
25,192,204817,1,0,0:0:0:0:
179,192,204817,1,0,0:0:0:0:
486,192,205116,1,0,0:0:0:0:
332,192,205116,1,0,0:0:0:0:
25,192,205116,1,0,0:0:0:0:
179,192,205116,1,0,0:0:0:0:
281,192,205265,1,0,0:0:0:0:
435,192,205265,1,0,0:0:0:0:
230,192,205265,1,0,0:0:0:0:
76,192,205265,1,0,0:0:0:0:
281,192,205564,1,0,0:0:0:0:
486,192,205564,1,0,0:0:0:0:
384,192,205564,1,0,0:0:0:0:
76,192,205564,1,0,0:0:0:0:
179,192,205564,1,0,0:0:0:0:
25,192,205862,128,0,206086:0:0:0:0:
128,192,205937,128,0,206161:0:0:0:0:
281,192,206011,128,0,206235:0:0:0:0:
384,192,206086,128,0,206310:0:0:0:0:
76,192,206161,128,0,206384:0:0:0:0:
179,192,206235,128,0,206459:0:0:0:0:
332,192,206310,128,0,206534:0:0:0:0:
435,192,206384,128,0,206608:0:0:0:0:
128,192,206459,128,0,206758:0:0:0:0:
230,192,206534,128,0,206758:0:0:0:0:
384,192,206608,128,0,206758:0:0:0:0:
486,192,206683,128,0,206758:0:0:0:0:
25,192,207355,1,0,0:0:0:0:
128,192,207355,1,0,0:0:0:0:
230,192,207355,1,0,0:0:0:0:
281,192,207355,1,0,0:0:0:0:
384,192,207355,1,0,0:0:0:0:
486,192,207355,1,0,0:0:0:0:
