osu file format v14

[General]
AudioFilename: audio.mp3
AudioLeadIn: 0
PreviewTime: 171640
Countdown: 0
SampleSet: Soft
StackLeniency: 0.7
Mode: 3
LetterboxInBreaks: 0
SpecialStyle: 0
WidescreenStoryboard: 0

[Editor]
Bookmarks: 219548
DistanceSpacing: 1
BeatDivisor: 12
GridSize: 8
TimelineZoom: 2.599999

[Metadata]
Title:Oceanus
TitleUnicode:Ωκεανος
Artist:cosMo@BousouP
ArtistUnicode:cosMo@暴走P
Creator:Level 51
Version:GALE_FORCE
Source:Deemo
Tags:FAMoss Okeanos cosMo AD:PIANOⅢ Diverse System instrumental piano rayark mobile video game
BeatmapID:1142538
BeatmapSetID:539179

[Difficulty]
HPDrainRate:8.8
CircleSize:6
OverallDifficulty:8.5
ApproachRate:5
SliderMultiplier:1.4
SliderTickRate:1

[Events]
//Background and Video events
0,0,"oceanus.jpg",0,0
//Break Periods
//Storyboard Layer 0 (Background)
//Storyboard Layer 1 (Fail)
//Storyboard Layer 2 (Pass)
//Storyboard Layer 3 (Foreground)
//Storyboard Layer 4 (Overlay)
//Storyboard Sound Samples
Sample,32354,0,"D#7S_Eb7S.wav",100
Sample,32354,0,"Rain.wav",100
Sample,39395,0,"G#6S_Ab6S.wav",100
Sample,181665,0,"snare.wav",50

[TimingPoints]
518,306.122448979592,4,2,1,30,1,0
12762,-100,4,2,1,60,0,0
32354,-100,4,2,1,30,0,0
48732,-100,4,2,1,60,0,0
61742,-100,4,2,1,70,0,1
81334,-100,4,2,1,60,0,0
100926,-100,4,2,1,70,0,1
120518,-100,4,2,1,60,0,0
149905,-100,4,2,1,30,0,0
162150,-100,4,2,1,40,0,0
165824,-100,4,2,1,45,0,0
169497,-100,4,2,1,50,0,0
171946,-100,4,2,1,70,0,1
190926,-100,4,2,1,60,0,0
191538,-100,4,2,1,70,0,1
209905,-100,4,2,1,60,0,0

[HitObjects]
298,192,518,5,0,0:0:0:100:B6S.wav
469,192,569,1,0,0:0:0:0:
42,192,2966,1,0,0:0:0:100:C#6S_Db6S.wav
213,192,2966,1,0,0:0:0:0:
298,192,2966,1,0,0:0:0:0:
384,192,2966,1,0,0:0:0:0:
128,192,3273,1,0,0:0:0:100:B5S.wav
298,192,3273,1,0,0:0:0:0:
469,192,3273,1,0,0:0:0:0:
42,192,3579,1,0,0:0:0:100:C#6S_Db6S.wav
298,192,3579,1,0,0:0:0:0:
469,192,3579,1,0,0:0:0:0:
213,192,3885,1,0,0:0:0:100:F#6S_Gb6S.wav
298,192,3885,1,0,0:0:0:0:
469,192,3885,1,0,0:0:0:0:
128,192,4191,1,0,0:0:0:100:C#6S_Db6S.wav
298,192,4191,1,0,0:0:0:0:
469,192,4191,1,0,0:0:0:0:
42,192,4497,1,0,0:0:0:100:B5S.wav
298,192,4497,1,0,0:0:0:0:
469,192,4497,1,0,0:0:0:0:
128,192,4803,1,0,0:0:0:100:C#6S_Db6S.wav
298,192,4803,1,0,0:0:0:0:
469,192,4803,1,0,0:0:0:0:
213,192,5109,1,0,0:0:0:100:F#6S_Gb6S_s.wav
298,192,5109,1,0,0:0:0:0:
469,192,5109,1,0,0:0:0:0:
42,192,5415,1,0,0:0:0:100:C#6S_Db6S.wav
213,192,5415,1,0,0:0:0:0:
298,192,5415,1,0,0:0:0:0:
469,192,5415,1,0,0:0:0:0:
42,192,5722,1,0,0:0:0:100:B5S.wav
213,192,5722,1,0,0:0:0:0:
384,192,5722,1,0,0:0:0:0:
42,192,6028,1,0,0:0:0:100:C#6S_Db6S.wav
213,192,6028,1,0,0:0:0:0:
298,192,6028,1,0,0:0:0:0:
42,192,6334,1,0,0:0:0:100:F#6S_Gb6S.wav
213,192,6334,1,0,0:0:0:0:
469,192,6334,1,0,0:0:0:0:
42,192,6640,1,0,0:0:0:100:C#6S_Db6S.wav
213,192,6640,1,0,0:0:0:0:
384,192,6640,1,0,0:0:0:0:
42,192,6946,1,0,0:0:0:100:B5S.wav
213,192,6946,1,0,0:0:0:0:
298,192,6946,1,0,0:0:0:0:
42,192,7252,1,0,0:0:0:100:C#6S_Db6S.wav
213,192,7252,1,0,0:0:0:0:
384,192,7252,1,0,0:0:0:0:
42,192,7558,1,0,0:0:0:100:F#6S_Gb6S.wav
213,192,7558,1,0,0:0:0:0:
469,192,7558,1,0,0:0:0:0:
42,192,7864,1,0,0:0:0:100:C#6S_Db6S.wav
213,192,7864,1,0,0:0:0:0:
298,192,7864,1,0,0:0:0:0:
469,192,7864,1,0,0:0:0:0:
42,192,8171,1,0,0:0:0:100:B5S.wav
213,192,8171,1,0,0:0:0:0:
298,192,8171,1,0,0:0:0:0:
384,192,8171,1,0,0:0:0:0:
42,192,8477,1,0,0:0:0:100:C#6S_Db6S.wav
213,192,8477,1,0,0:0:0:0:
298,192,8477,1,0,0:0:0:0:
469,192,8477,1,0,0:0:0:0:
42,192,8783,1,0,0:0:0:100:F#6S_Gb6S.wav
213,192,8783,1,0,0:0:0:0:
298,192,8783,1,0,0:0:0:0:
384,192,8783,1,0,0:0:0:0:
42,192,9089,1,0,0:0:0:100:C#6S_Db6S.wav
213,192,9089,1,0,0:0:0:0:
298,192,9089,1,0,0:0:0:0:
469,192,9089,1,0,0:0:0:0:
128,192,9395,1,0,0:0:0:100:B5S.wav
213,192,9395,1,0,0:0:0:0:
298,192,9395,1,0,0:0:0:0:
469,192,9395,1,0,0:0:0:0:
298,192,9548,1,0,0:0:0:0:
42,192,9701,1,0,0:0:0:100:C#6S_Db6S.wav
213,192,9701,1,0,0:0:0:0:
298,192,9701,1,0,0:0:0:0:
469,192,9701,1,0,0:0:0:0:
128,192,10007,1,0,0:0:0:100:F#6S_Gb6S.wav
213,192,10007,1,0,0:0:0:0:
298,192,10007,1,0,0:0:0:0:
469,192,10007,1,0,0:0:0:0:
128,192,10160,1,0,0:0:0:0:
42,192,10313,1,0,0:0:0:50:o-hihat.wav
298,192,10313,128,0,11538:0:0:0:0:
469,192,10313,1,0,0:0:0:0:
213,192,10313,128,0,11538:0:0:0:100:C#6S_Db6S.wav
42,192,10620,1,0,0:0:0:100:B5S.wav
469,192,10620,1,0,0:0:0:0:
42,192,10926,1,0,0:0:0:50:o-hihat.wav
128,192,10926,1,0,0:0:0:100:C#6S_Db6S.wav
469,192,10926,1,0,0:0:0:0:
42,192,11232,1,0,0:0:0:100:F#6S_Gb6S.wav
469,192,11232,1,0,0:0:0:0:
42,192,11538,1,0,0:0:0:50:o-hihat.wav
384,192,11538,1,0,0:0:0:100:C#6S_Db6S.wav
469,192,11538,1,0,0:0:0:0:
42,192,11844,1,0,0:0:0:50:o-hihat.wav
128,192,11844,1,0,0:0:0:100:B5S.wav
384,192,11844,1,0,0:0:0:0:
469,192,11844,1,0,0:0:0:0:
42,192,12150,1,0,0:0:0:50:o-hihat.wav
128,192,12150,1,0,0:0:0:100:C#6S_Db6S.wav
213,192,12150,1,0,0:0:0:0:
384,192,12150,1,0,0:0:0:0:
469,192,12150,1,0,0:0:0:0:
42,192,12456,1,0,0:0:0:50:o-hihat.wav
128,192,12456,1,0,0:0:0:100:F#6S_Gb6S.wav
213,192,12456,1,0,0:0:0:0:
298,192,12456,1,0,0:0:0:0:
384,192,12456,1,0,0:0:0:0:
469,192,12456,1,0,0:0:0:0:
42,192,12762,1,2,0:0:0:0:
298,192,12762,1,4,0:0:0:0:
469,192,12762,1,0,0:0:0:0:
213,192,12839,1,0,0:0:0:50:snare.wav
128,192,12915,1,0,0:0:0:50:snare.wav
384,192,12915,1,0,0:0:0:0:
298,192,12992,1,0,0:0:0:50:snare.wav
213,192,13069,1,2,0:0:0:0:
469,192,13069,1,0,0:0:0:0:
384,192,13145,1,0,0:0:0:0:
128,192,13222,1,0,0:0:0:50:snare.wav
298,192,13222,1,0,0:0:0:0:
469,192,13298,1,0,0:0:0:50:snare.wav
213,192,13375,1,2,0:0:0:0:
384,192,13375,1,0,0:0:0:0:
128,192,13451,1,0,0:0:0:0:
42,192,13528,1,0,0:0:0:50:snare.wav
298,192,13528,1,0,0:0:0:0:
213,192,13604,1,0,0:0:0:0:
128,192,13681,1,2,0:0:0:0:
384,192,13757,1,0,0:0:0:0:
213,192,13834,1,0,0:0:0:0:
469,192,13834,1,0,0:0:0:0:
298,192,13910,1,0,0:0:0:0:
42,192,13987,1,2,0:0:0:0:
384,192,14063,1,0,0:0:0:0:
128,192,14140,1,0,0:0:0:0:
298,192,14140,1,0,0:0:0:0:
469,192,14216,1,0,0:0:0:0:
213,192,14293,1,2,0:0:0:0:
384,192,14293,1,0,0:0:0:0:
128,192,14370,1,0,0:0:0:0:
298,192,14446,1,0,0:0:0:0:
469,192,14446,1,0,0:0:0:0:
42,192,14523,1,0,0:0:0:0:
213,192,14599,1,2,0:0:0:0:
384,192,14599,1,8,0:0:0:0:
469,192,14676,1,0,0:0:0:0:
128,192,14752,1,0,0:0:0:0:
298,192,14752,1,0,0:0:0:0:
384,192,14829,1,0,0:0:0:0:
213,192,14905,1,2,0:0:0:0:
469,192,14905,1,0,0:0:0:0:
298,192,14982,1,0,0:0:0:0:
128,192,15058,1,0,0:0:0:0:
384,192,15058,1,0,0:0:0:0:
213,192,15135,1,0,0:0:0:0:
298,192,15211,1,2,0:0:0:0:
469,192,15211,1,0,0:0:0:0:
42,192,15288,1,0,0:0:0:0:
213,192,15364,1,0,0:0:0:0:
384,192,15364,1,0,0:0:0:0:
128,192,15441,1,0,0:0:0:0:
298,192,15518,1,2,0:0:0:0:
469,192,15518,1,0,0:0:0:0:
213,192,15594,1,0,0:0:0:0:
42,192,15671,128,0,15977:0:0:0:0:
128,192,15671,128,0,15977:0:0:0:0:
384,192,15671,1,0,0:0:0:0:
298,192,15747,1,0,0:0:0:0:
213,192,15824,1,2,0:0:0:0:
384,192,15900,1,0,0:0:0:0:
298,192,15977,1,0,0:0:0:0:
469,192,15977,1,0,0:0:0:0:
213,192,16053,1,0,0:0:0:0:
128,192,16130,1,2,0:0:0:0:
384,192,16130,1,0,0:0:0:0:
298,192,16206,1,0,0:0:0:0:
213,192,16283,1,0,0:0:0:0:
469,192,16283,1,0,0:0:0:0:
384,192,16359,1,0,0:0:0:0:
42,192,16436,1,2,0:0:0:0:
213,192,16436,1,0,0:0:0:0:
298,192,16512,1,0,0:0:0:0:
128,192,16589,1,0,0:0:0:0:
384,192,16589,1,0,0:0:0:0:
469,192,16665,1,0,0:0:0:0:
42,192,16742,1,2,0:0:0:0:
298,192,16742,1,0,0:0:0:0:
384,192,16819,1,0,0:0:0:0:
128,192,16895,1,0,0:0:0:0:
213,192,16895,1,0,0:0:0:0:
469,192,16895,128,0,17048:0:0:0:0:
42,192,17048,1,2,0:0:0:0:
298,192,17048,1,0,0:0:0:0:
213,192,17201,1,0,0:0:0:0:
298,192,17201,1,0,0:0:0:0:
42,192,17354,1,2,0:0:0:0:
213,192,17354,1,0,0:0:0:0:
469,192,17354,1,0,0:0:0:0:
128,192,17507,1,0,0:0:0:0:
384,192,17507,1,0,0:0:0:0:
42,192,17660,1,2,0:0:0:0:
213,192,17660,1,0,0:0:0:0:
384,192,17660,1,0,0:0:0:0:
469,192,17775,1,0,0:0:0:0:
128,192,17775,1,0,0:0:0:0:
42,192,17813,1,0,0:0:0:0:
298,192,17813,1,0,0:0:0:0:
213,192,17890,1,0,0:0:0:0:
128,192,17966,1,2,0:0:0:0:
384,192,17966,1,0,0:0:0:0:
298,192,18043,1,0,0:0:0:0:
213,192,18120,1,0,0:0:0:0:
469,192,18120,1,0,0:0:0:0:
384,192,18196,1,0,0:0:0:0:
128,192,18273,1,2,0:0:0:0:
298,192,18273,1,0,0:0:0:0:
42,192,18349,1,0,0:0:0:0:
213,192,18426,1,0,0:0:0:0:
469,192,18426,1,0,0:0:0:0:
298,192,18502,1,0,0:0:0:0:
128,192,18579,1,2,0:0:0:0:
384,192,18579,1,0,0:0:0:0:
213,192,18655,1,0,0:0:0:0:
42,192,18732,1,0,0:0:0:0:
298,192,18732,1,0,0:0:0:0:
128,192,18808,1,0,0:0:0:0:
213,192,18885,1,2,0:0:0:0:
384,192,18885,1,0,0:0:0:0:
469,192,18961,1,0,0:0:0:0:
42,192,19038,1,0,0:0:0:0:
128,192,19038,1,0,0:0:0:0:
298,192,19038,1,0,0:0:0:0:
384,192,19114,1,0,0:0:0:0:
213,192,19191,1,2,0:0:0:0:
469,192,19191,1,0,0:0:0:0:
298,192,19268,1,0,0:0:0:0:
42,192,19344,1,0,0:0:0:0:
128,192,19344,1,0,0:0:0:0:
384,192,19344,1,0,0:0:0:0:
213,192,19421,1,0,0:0:0:0:
42,192,19497,1,2,0:0:0:0:
298,192,19497,1,8,0:0:0:0:
469,192,19497,1,0,0:0:0:0:
128,192,19574,1,0,0:0:0:0:
213,192,19650,1,0,0:0:0:0:
384,192,19650,1,0,0:0:0:0:
469,192,19650,1,0,0:0:0:0:
128,192,19727,1,0,0:0:0:0:
42,192,19803,1,2,0:0:0:0:
298,192,19803,1,0,0:0:0:0:
384,192,19803,1,0,0:0:0:0:
213,192,19880,1,0,0:0:0:0:
128,192,19956,1,0,0:0:0:0:
384,192,19956,1,0,0:0:0:0:
469,192,19956,1,0,0:0:0:0:
298,192,20033,1,0,0:0:0:0:
42,192,20109,128,2,20339:0:0:0:0:
213,192,20109,128,4,20339:0:0:0:0:
469,192,20109,128,0,20339:0:0:0:0:
42,192,20415,128,2,20492:0:0:0:0:
213,192,20415,128,0,20492:0:0:0:0:
469,192,20415,128,0,20492:0:0:0:0:
42,192,20569,128,8,20798:0:0:0:0:
128,192,20569,1,0,0:0:0:0:
213,192,20569,1,0,0:0:0:0:
298,192,20569,128,0,20798:0:0:0:0:
469,192,20569,128,0,20798:0:0:0:0:
42,192,20875,1,4,0:0:0:0:
128,192,20875,1,0,0:0:0:50:snare.wav
298,192,20875,128,0,20951:0:0:0:0:
469,192,20875,128,0,20951:0:0:0:0:
42,192,21028,1,8,0:0:0:0:
128,192,21028,1,4,0:0:0:0:
213,192,21028,128,0,21257:0:0:0:0:
384,192,21028,128,0,21257:0:0:0:0:
42,192,21334,1,8,0:0:0:0:
213,192,21334,128,4,21410:0:0:0:0:
384,192,21334,128,0,21410:0:0:0:0:
42,192,21487,128,8,21563:0:0:0:0:
213,192,21487,128,4,21716:0:0:0:0:
298,192,21487,128,0,21793:0:0:0:0:
469,192,21487,128,0,21946:0:0:0:0:
42,192,21640,1,6,0:0:0:0:
128,192,21716,1,0,0:0:0:0:
213,192,21793,1,8,0:0:0:0:
298,192,21870,1,8,0:0:0:0:
42,192,21946,1,2,0:0:0:0:
384,192,21946,1,4,0:0:0:0:
128,192,22023,1,0,0:0:0:50:snare.wav
469,192,22023,1,0,0:0:0:0:
213,192,22099,1,0,0:0:0:50:snare.wav
298,192,22099,1,0,0:0:0:0:
42,192,22176,1,8,0:0:0:0:
384,192,22176,1,0,0:0:0:0:
128,192,22252,1,4,0:0:0:0:
469,192,22252,1,2,0:0:0:0:
298,192,22329,1,0,0:0:0:50:snare.wav
384,192,22329,1,0,0:0:0:0:
42,192,22405,1,0,0:0:0:50:snare.wav
213,192,22405,1,0,0:0:0:0:
128,192,22482,1,8,0:0:0:0:
298,192,22482,1,0,0:0:0:0:
213,192,22558,1,4,0:0:0:0:
384,192,22558,1,2,0:0:0:0:
469,192,22558,1,0,0:0:0:0:
213,192,22711,1,0,0:0:0:0:
469,192,22711,1,0,0:0:0:0:
128,192,22788,1,0,0:0:0:0:
384,192,22788,1,0,0:0:0:0:
42,192,22864,1,8,0:0:0:0:
298,192,22864,1,0,0:0:0:0:
213,192,22941,1,0,0:0:0:0:
469,192,22941,1,0,0:0:0:0:
128,192,23018,1,0,0:0:0:0:
384,192,23018,1,0,0:0:0:0:
42,192,23094,1,0,0:0:0:0:
298,192,23094,1,0,0:0:0:0:
213,192,23171,1,2,0:0:0:0:
469,192,23171,1,0,0:0:0:0:
128,192,23247,1,0,0:0:0:0:
42,192,23324,1,0,0:0:0:0:
298,192,23324,1,0,0:0:0:0:
213,192,23400,1,0,0:0:0:0:
128,192,23477,1,8,0:0:0:0:
384,192,23477,1,0,0:0:0:0:
213,192,23553,1,0,0:0:0:0:
469,192,23553,1,0,0:0:0:0:
42,192,23630,1,0,0:0:0:0:
298,192,23630,1,0,0:0:0:0:
213,192,23706,1,0,0:0:0:50:snare.wav
384,192,23706,1,0,0:0:0:0:
42,192,23783,1,2,0:0:0:0:
128,192,23783,1,0,0:0:0:0:
298,192,23783,1,0,0:0:0:0:
469,192,23783,1,0,0:0:0:0:
128,192,23936,1,0,0:0:0:0:
213,192,23936,1,0,0:0:0:0:
298,192,24012,1,0,0:0:0:0:
469,192,24012,1,0,0:0:0:0:
42,192,24089,1,8,0:0:0:0:
128,192,24089,1,0,0:0:0:0:
213,192,24165,1,0,0:0:0:0:
384,192,24165,1,0,0:0:0:0:
298,192,24242,1,0,0:0:0:0:
469,192,24242,1,0,0:0:0:0:
128,192,24319,1,0,0:0:0:0:
213,192,24395,1,2,0:0:0:0:
384,192,24395,1,0,0:0:0:0:
42,192,24472,1,0,0:0:0:0:
128,192,24548,1,0,0:0:0:0:
469,192,24548,1,0,0:0:0:0:
384,192,24625,1,0,0:0:0:0:
213,192,24701,1,2,0:0:0:0:
298,192,24701,1,0,0:0:0:0:
128,192,24778,1,0,0:0:0:0:
42,192,24854,1,8,0:0:0:0:
384,192,24854,1,0,0:0:0:0:
469,192,24854,1,0,0:0:0:0:
298,192,24931,1,0,0:0:0:0:
128,192,25007,1,2,0:0:0:0:
213,192,25007,1,4,0:0:0:0:
469,192,25007,1,0,0:0:0:0:
42,192,25160,1,2,0:0:0:0:
213,192,25160,1,0,0:0:0:0:
384,192,25160,1,0,0:0:0:0:
128,192,25313,1,8,0:0:0:0:
298,192,25313,1,0,0:0:0:0:
384,192,25313,1,0,0:0:0:0:
42,192,25466,1,0,0:0:0:0:
298,192,25466,1,0,0:0:0:0:
469,192,25466,1,0,0:0:0:0:
213,192,25620,1,2,0:0:0:0:
384,192,25620,1,0,0:0:0:0:
128,192,25773,1,2,0:0:0:0:
384,192,25773,1,0,0:0:0:0:
42,192,25926,1,8,0:0:0:0:
298,192,25926,1,0,0:0:0:0:
469,192,25926,1,0,0:0:0:0:
213,192,26079,1,0,0:0:0:0:
384,192,26079,1,0,0:0:0:0:
42,192,26232,1,2,0:0:0:0:
213,192,26232,1,0,0:0:0:0:
469,192,26232,1,0,0:0:0:0:
128,192,26385,1,0,0:0:0:0:
298,192,26385,1,0,0:0:0:0:
469,192,26385,1,0,0:0:0:0:
213,192,26538,1,8,0:0:0:0:
384,192,26538,1,0,0:0:0:0:
469,192,26538,1,0,0:0:0:0:
42,192,26691,1,0,0:0:0:0:
128,192,26691,1,0,0:0:0:0:
298,192,26691,1,0,0:0:0:0:
384,192,26691,1,0,0:0:0:0:
213,192,26844,1,2,0:0:0:0:
469,192,26844,1,0,0:0:0:0:
213,192,26997,1,0,0:0:0:0:
469,192,26997,1,0,0:0:0:0:
42,192,27150,1,8,0:0:0:0:
298,192,27150,1,0,0:0:0:0:
384,192,27150,1,0,0:0:0:0:
128,192,27303,1,0,0:0:0:50:snare.wav
384,192,27303,1,0,0:0:0:0:
42,192,27380,1,0,0:0:0:50:snare.wav
298,192,27380,1,0,0:0:0:0:
213,192,27456,1,2,0:0:0:0:
469,192,27456,1,0,0:0:0:0:
298,192,27533,1,0,0:0:0:0:
128,192,27609,1,0,0:0:0:0:
384,192,27609,1,0,0:0:0:0:
213,192,27686,1,0,0:0:0:0:
42,192,27762,1,8,0:0:0:0:
298,192,27762,1,0,0:0:0:0:
469,192,27762,1,0,0:0:0:0:
128,192,27839,1,0,0:0:0:0:
213,192,27915,1,0,0:0:0:0:
384,192,27915,1,0,0:0:0:0:
128,192,27992,1,0,0:0:0:0:
42,192,28069,1,2,0:0:0:0:
298,192,28069,1,0,0:0:0:0:
213,192,28145,1,0,0:0:0:0:
128,192,28222,1,0,0:0:0:0:
384,192,28222,1,0,0:0:0:0:
298,192,28298,1,0,0:0:0:0:
42,192,28375,1,8,0:0:0:0:
213,192,28375,1,0,0:0:0:0:
469,192,28375,1,0,0:0:0:0:
384,192,28451,1,0,0:0:0:0:
128,192,28528,1,0,0:0:0:0:
298,192,28528,1,0,0:0:0:0:
469,192,28604,1,0,0:0:0:0:
213,192,28681,1,2,0:0:0:0:
384,192,28681,1,0,0:0:0:0:
42,192,28834,1,0,0:0:0:0:
469,192,28834,1,0,0:0:0:0:
128,192,28910,1,0,0:0:0:0:
384,192,28910,1,0,0:0:0:0:
213,192,28987,1,8,0:0:0:0:
298,192,28987,1,0,0:0:0:0:
469,192,28987,1,0,0:0:0:0:
42,192,29063,1,0,0:0:0:0:
128,192,29063,1,0,0:0:0:0:
298,192,29140,1,0,0:0:0:0:
384,192,29140,1,0,0:0:0:0:
128,192,29216,1,0,0:0:0:0:
213,192,29216,1,0,0:0:0:0:
42,192,29293,1,2,0:0:0:0:
384,192,29293,1,0,0:0:0:0:
469,192,29293,1,0,0:0:0:0:
298,192,29370,1,0,0:0:0:0:
128,192,29446,1,0,0:0:0:0:
213,192,29446,1,0,0:0:0:0:
384,192,29523,1,0,0:0:0:0:
213,192,29599,1,8,0:0:0:0:
298,192,29599,1,0,0:0:0:0:
469,192,29676,1,0,0:0:0:0:
298,192,29752,1,8,0:0:0:0:
384,192,29752,1,0,0:0:0:0:
213,192,29829,1,8,0:0:0:0:
42,192,29905,1,2,0:0:0:0:
128,192,29905,1,4,0:0:0:0:
469,192,29905,1,0,0:0:0:0:
298,192,29982,1,0,0:0:0:50:snare.wav
384,192,29982,1,0,0:0:0:0:
213,192,30058,1,0,0:0:0:0:
469,192,30058,1,0,0:0:0:0:
128,192,30058,1,0,0:0:0:50:snare.wav
42,192,30135,1,8,0:0:0:0:
298,192,30135,1,0,0:0:0:0:
384,192,30135,1,0,0:0:0:0:
128,192,30211,1,2,0:0:0:0:
213,192,30211,1,0,0:0:0:0:
469,192,30211,1,0,0:0:0:0:
298,192,30288,1,0,0:0:0:0:
128,192,30364,1,0,0:0:0:0:
42,192,30364,1,8,0:0:0:0:
384,192,30364,1,0,0:0:0:0:
469,192,30364,1,0,0:0:0:0:
213,192,30441,1,0,0:0:0:0:
384,192,30518,1,0,0:0:0:0:
128,192,30518,1,2,0:0:0:0:
213,192,30594,1,0,0:0:0:0:
42,192,30671,1,0,0:0:0:50:snare.wav
469,192,30671,1,0,0:0:0:0:
298,192,30671,1,0,0:0:0:0:
128,192,30747,1,0,0:0:0:0:
213,192,30824,1,8,0:0:0:0:
384,192,30824,1,0,0:0:0:0:
469,192,30824,1,0,0:0:0:0:
128,192,30900,1,0,0:0:0:0:
298,192,30900,1,0,0:0:0:0:
42,192,30977,1,2,0:0:0:0:
384,192,30977,1,4,0:0:0:0:
469,192,31053,1,0,0:0:0:0:
213,192,31053,1,0,0:0:0:0:
42,192,31130,1,2,0:0:0:0:
298,192,31130,1,0,0:0:0:0:
128,192,31130,1,4,0:0:0:0:
384,192,31206,1,0,0:0:0:0:
128,192,31283,1,0,0:0:0:70:tom01.wav
213,192,31283,1,0,0:0:0:0:
469,192,31283,1,0,0:0:0:0:
42,192,31359,1,0,0:0:0:70:tom01.wav
298,192,31359,1,0,0:0:0:0:
384,192,31359,1,0,0:0:0:0:
128,192,31436,1,0,0:0:0:70:tom02.wav
213,192,31436,1,0,0:0:0:0:
128,192,31512,1,0,0:0:0:70:tom02.wav
213,192,31512,1,0,0:0:0:0:
298,192,31589,1,0,0:0:0:70:tom03.wav
384,192,31589,1,0,0:0:0:0:
298,192,31665,1,0,0:0:0:70:tom03.wav
384,192,31665,1,0,0:0:0:0:
128,192,31742,1,8,0:0:0:0:
213,192,31742,1,0,0:0:0:70:tom04.wav
298,192,31819,1,0,0:0:0:70:tom04.wav
384,192,31895,1,0,0:0:0:100:G6S_s.wav
128,192,31895,1,0,0:0:0:0:
298,192,31972,1,0,0:0:0:0:
469,192,32048,1,0,0:0:0:100:A#6S_Bb6S_s.wav
213,192,32048,1,0,0:0:0:0:
298,192,32125,1,0,0:0:0:0:
128,192,32150,1,8,0:0:0:0:
42,192,32150,1,0,0:0:0:0:
469,192,32201,1,0,0:0:0:100:C#7S_Db7S_s.wav
384,192,32201,1,0,0:0:0:0:
128,192,32252,1,8,0:0:0:0:
42,192,32252,1,0,0:0:0:0:
213,192,32278,1,0,0:0:0:0:
298,192,32354,1,0,0:0:0:70:cymbal.wav
42,192,32660,1,0,0:0:0:0:
213,192,32966,1,0,0:0:0:100:C#7S_Db7S.wav
384,192,33120,1,0,0:0:0:0:
128,192,33196,1,0,0:0:0:0:
298,192,33273,1,0,0:0:0:100:D#7S_Eb7S.wav
298,192,33426,1,0,0:0:0:0:
128,192,33502,1,0,0:0:0:0:
384,192,33579,1,0,0:0:0:100:F7S.wav
298,192,33732,1,0,0:0:0:0:
213,192,33885,1,0,0:0:0:0:
42,192,34191,1,0,0:0:0:100:A#6S_Bb6S.wav
298,192,34497,1,0,0:0:0:50:LR_Tom Drop.wav
128,192,34803,1,0,0:0:0:50:LR_Tom Drop.wav
469,192,34803,1,0,0:0:0:100:D#7S_Eb7S.wav
384,192,35109,1,0,0:0:0:0:
298,192,35415,1,0,0:0:0:100:C#7S_Db7S.wav
213,192,35569,1,0,0:0:0:0:
384,192,35645,1,0,0:0:0:0:
42,192,35722,1,0,0:0:0:100:A#6S_Bb6S_s.wav
42,192,35875,1,0,0:0:0:0:
384,192,35951,1,0,0:0:0:0:
213,192,36028,1,0,0:0:0:100:G#6S_Ab6S.wav
298,192,36181,1,0,0:0:0:0:
384,192,36334,1,0,0:0:0:0:
128,192,36640,1,0,0:0:0:100:D#6S_Eb6S.wav
384,192,36946,1,0,0:0:0:50:LR_Tom Drop.wav
42,192,37252,1,0,0:0:0:50:LR_Tom Drop.wav
469,192,37252,1,0,0:0:0:100:A#6S_Bb6S.wav
128,192,37558,1,0,0:0:0:0:
298,192,37864,1,0,0:0:0:100:G#6S_Ab6S.wav
213,192,38018,1,0,0:0:0:0:
128,192,38094,1,0,0:0:0:0:
384,192,38171,1,0,0:0:0:100:A#6S_Bb6S_s.wav
384,192,38324,1,0,0:0:0:0:
128,192,38400,1,0,0:0:0:0:
213,192,38477,1,0,0:0:0:100:C#7S_Db7S.wav
298,192,38630,1,0,0:0:0:0:
42,192,38783,1,0,0:0:0:0:
384,192,38783,1,0,0:0:0:0:
213,192,39089,1,0,0:0:0:100:A#6S_Bb6S.wav
128,192,39395,1,0,0:0:0:50:LR_Tom Drop.wav
128,192,39701,1,0,0:0:0:50:LR_Tom Drop.wav
384,192,39701,1,0,0:0:0:100:G#6S_Ab6S.wav
128,192,40007,1,0,0:0:0:0:
213,192,40313,1,0,0:0:0:100:G6S.wav
128,192,40466,1,0,0:0:0:0:
384,192,40543,1,0,0:0:0:0:
213,192,40620,1,0,0:0:0:100:G#6S_Ab6S.wav
213,192,40773,1,0,0:0:0:0:
384,192,40849,1,0,0:0:0:0:
128,192,40926,1,0,0:0:0:100:A#6S_Bb6S.wav
213,192,41079,1,0,0:0:0:50:LR_Tom Drop.wav
298,192,41232,1,0,0:0:0:0:
42,192,41538,1,0,0:0:0:100:A#6S_Bb6S.wav
213,192,41538,1,0,0:0:0:0:
128,192,41844,1,0,0:0:0:50:LR_Tom Drop.wav
298,192,41844,1,0,0:0:0:100:C#7S_Db7S.wav
42,192,42150,1,0,0:0:0:50:LR_Tom Drop.wav
213,192,42150,1,0,0:0:0:100:D#7S_Eb7S.wav
469,192,42150,1,0,0:0:0:0:
128,192,42456,1,0,0:0:0:0:
384,192,42456,1,0,0:0:0:0:
42,192,42762,1,0,0:0:0:100:C#7S_Db7S.wav
298,192,42762,1,0,0:0:0:0:
469,192,42762,1,0,0:0:0:0:
384,192,42915,1,0,0:0:0:0:
298,192,42992,1,0,0:0:0:0:
42,192,43069,1,0,0:0:0:100:D#7S_Eb7S.wav
469,192,43069,1,0,0:0:0:0:
128,192,43171,1,0,0:0:0:0:
213,192,43273,1,0,0:0:0:0:
42,192,43375,1,0,0:0:0:100:F7S.wav
298,192,43375,1,0,0:0:0:0:
469,192,43375,1,0,0:0:0:0:
128,192,43681,1,0,0:0:0:0:
298,192,43681,1,0,0:0:0:0:
42,192,43987,1,0,0:0:0:100:A#6S_Bb6S.wav
213,192,43987,1,0,0:0:0:0:
469,192,43987,1,0,0:0:0:0:
298,192,44191,1,0,0:0:0:0:
128,192,44293,1,0,0:0:0:50:LR_Tom Drop.wav
384,192,44293,1,0,0:0:0:0:
213,192,44395,1,0,0:0:0:0:
298,192,44497,1,0,0:0:0:0:
42,192,44599,1,0,0:0:0:50:LR_Tom Drop.wav
384,192,44599,1,0,0:0:0:100:D#7S_Eb7S.wav
469,192,44599,1,0,0:0:0:0:
128,192,44905,1,0,0:0:0:0:
298,192,44905,1,0,0:0:0:0:
42,192,45211,1,0,0:0:0:100:C#7S_Db7S.wav
213,192,45211,1,0,0:0:0:0:
384,192,45211,1,0,0:0:0:0:
384,192,45364,1,0,0:0:0:0:
298,192,45441,1,0,0:0:0:0:
42,192,45518,1,0,0:0:0:100:A#6S_Bb6S_s.wav
128,192,45518,1,0,0:0:0:0:
213,192,45620,1,0,0:0:0:0:
298,192,45722,1,0,0:0:0:0:
128,192,45824,1,0,0:0:0:100:G#6S_Ab6S.wav
384,192,45824,1,0,0:0:0:0:
469,192,45824,1,0,0:0:0:0:
128,192,46130,1,0,0:0:0:0:
384,192,46130,1,0,0:0:0:0:
42,192,46436,1,0,0:0:0:100:D#6S_Eb6S.wav
213,192,46436,1,0,0:0:0:0:
469,192,46436,1,0,0:0:0:0:
298,192,46538,1,0,0:0:0:0:
384,192,46640,1,0,0:0:0:0:
128,192,46742,1,0,0:0:0:50:LR_Tom Drop.wav
213,192,46742,1,0,0:0:0:0:
298,192,46844,1,0,0:0:0:0:
384,192,46946,1,0,0:0:0:0:
42,192,47048,1,0,0:0:0:50:LR_Tom Drop.wav
128,192,47048,1,0,0:0:0:100:A#6S_Bb6S.wav
469,192,47048,1,0,0:0:0:0:
128,192,47354,1,0,0:0:0:0:
298,192,47354,1,0,0:0:0:0:
42,192,47660,1,0,0:0:0:100:G#6S_Ab6S.wav
213,192,47660,1,0,0:0:0:0:
469,192,47660,1,0,0:0:0:0:
298,192,47762,1,0,0:0:0:0:
384,192,47864,1,0,0:0:0:0:
42,192,47966,1,0,0:0:0:100:A#6S_Bb6S_s.wav
213,192,47966,1,0,0:0:0:0:
298,192,48069,1,0,0:0:0:0:
128,192,48171,1,0,0:0:0:0:
213,192,48273,1,0,0:0:0:100:C#7S_Db7S.wav
384,192,48273,1,0,0:0:0:0:
469,192,48273,1,0,0:0:0:0:
42,192,48579,1,0,0:0:0:0:
298,192,48579,1,0,0:0:0:0:
128,192,48885,1,0,0:0:0:100:A#6S_Bb6S.wav
298,192,48885,1,0,0:0:0:100:F7S.wav
384,192,48885,1,0,0:0:0:0:
469,192,48936,1,0,0:0:0:0:
213,192,49038,1,0,0:0:0:0:
384,192,49038,1,0,0:0:0:0:
128,192,49114,1,8,0:0:0:0:
298,192,49114,1,0,0:0:0:0:
42,192,49191,1,8,0:0:0:0:
213,192,49191,1,4,0:0:0:0:
384,192,49191,1,0,0:0:0:100:G#6S_Ab6S.wav
469,192,49191,1,0,0:0:0:0:
128,192,49344,1,0,0:0:0:0:
298,192,49344,1,0,0:0:0:0:
213,192,49421,1,0,0:0:0:0:
384,192,49421,1,0,0:0:0:0:
42,192,49497,1,2,0:0:0:0:
298,192,49497,1,4,0:0:0:0:
469,192,49497,1,0,0:0:0:0:
42,192,49650,1,0,0:0:0:0:
213,192,49650,1,0,0:0:0:0:
384,192,49650,1,0,0:0:0:0:
42,192,49803,1,2,0:0:0:0:
128,192,49803,1,0,0:0:0:0:
298,192,49803,1,0,0:0:0:0:
42,192,49956,1,0,0:0:0:0:
213,192,49956,1,0,0:0:0:0:
384,192,49956,1,0,0:0:0:0:
42,192,50109,1,2,0:0:0:0:
213,192,50109,1,0,0:0:0:0:
469,192,50109,1,0,0:0:0:0:
128,192,50262,1,0,0:0:0:0:
298,192,50262,1,0,0:0:0:0:
469,192,50262,1,0,0:0:0:0:
213,192,50415,1,2,0:0:0:0:
384,192,50415,1,0,0:0:0:0:
469,192,50415,1,0,0:0:0:0:
128,192,50569,1,0,0:0:0:0:
298,192,50569,1,0,0:0:0:0:
469,192,50569,1,0,0:0:0:0:
42,192,50722,1,2,0:0:0:0:
213,192,50722,1,0,0:0:0:0:
469,192,50722,1,0,0:0:0:0:
128,192,50798,1,0,0:0:0:0:
384,192,50798,1,0,0:0:0:0:
298,192,50875,1,0,0:0:0:0:
42,192,50951,1,0,0:0:0:0:
213,192,51028,1,2,0:0:0:0:
384,192,51028,1,0,0:0:0:0:
128,192,51181,1,0,0:0:0:0:
298,192,51181,1,0,0:0:0:0:
213,192,51257,1,0,0:0:0:0:
384,192,51257,1,0,0:0:0:0:
42,192,51334,1,2,0:0:0:0:
128,192,51334,1,8,0:0:0:0:
469,192,51334,1,0,0:0:0:0:
128,192,51487,1,0,0:0:0:0:
213,192,51487,1,0,0:0:0:0:
384,192,51487,1,0,0:0:0:0:
42,192,51640,128,2,51946:0:0:0:0:
213,192,51640,128,8,51946:0:0:0:0:
298,192,51640,1,0,0:0:0:0:
469,192,51640,1,0,0:0:0:0:
384,192,51870,1,0,0:0:0:0:
128,192,51946,1,2,0:0:0:0:
469,192,51946,1,4,0:0:0:0:
42,192,52099,1,0,0:0:0:0:
213,192,52099,1,0,0:0:0:0:
384,192,52099,1,0,0:0:0:0:
42,192,52252,1,2,0:0:0:0:
128,192,52252,1,0,0:0:0:0:
298,192,52252,1,0,0:0:0:0:
42,192,52405,1,0,0:0:0:0:
213,192,52405,1,0,0:0:0:0:
384,192,52405,1,0,0:0:0:0:
128,192,52558,1,2,0:0:0:0:
213,192,52558,1,8,0:0:0:0:
469,192,52558,1,0,0:0:0:0:
42,192,52711,1,0,0:0:0:0:
213,192,52711,1,0,0:0:0:0:
384,192,52711,1,0,0:0:0:0:
42,192,52864,1,2,0:0:0:0:
128,192,52864,1,0,0:0:0:0:
298,192,52864,1,0,0:0:0:0:
42,192,53018,1,0,0:0:0:0:
213,192,53018,1,0,0:0:0:0:
384,192,53018,1,0,0:0:0:0:
128,192,53171,1,2,0:0:0:0:
298,192,53171,1,0,0:0:0:0:
384,192,53171,1,0,0:0:0:0:
469,192,53171,1,0,0:0:0:0:
42,192,53324,1,0,0:0:0:0:
213,192,53324,1,0,0:0:0:0:
128,192,53400,1,0,0:0:0:0:
298,192,53400,1,0,0:0:0:0:
213,192,53477,1,2,0:0:0:0:
384,192,53477,1,8,0:0:0:0:
469,192,53477,1,0,0:0:0:0:
42,192,53553,1,0,0:0:0:0:
298,192,53553,1,0,0:0:0:0:
128,192,53630,1,0,0:0:0:0:
384,192,53630,1,0,0:0:0:0:
213,192,53706,1,0,0:0:0:0:
469,192,53706,1,0,0:0:0:0:
42,192,53783,1,2,0:0:0:0:
298,192,53783,1,8,0:0:0:0:
384,192,53783,1,0,0:0:0:0:
128,192,53859,1,0,0:0:0:0:
469,192,53859,1,0,0:0:0:0:
213,192,53936,1,0,0:0:0:0:
298,192,53936,1,0,0:0:0:0:
42,192,54012,1,0,0:0:0:0:
384,192,54012,1,0,0:0:0:0:
128,192,54089,1,2,0:0:0:0:
213,192,54089,1,8,0:0:0:0:
469,192,54089,1,0,0:0:0:0:
298,192,54165,1,0,0:0:0:0:
384,192,54165,1,0,0:0:0:0:
42,192,54242,1,0,0:0:0:0:
128,192,54242,1,0,0:0:0:0:
469,192,54242,1,0,0:0:0:0:
213,192,54319,1,0,0:0:0:0:
384,192,54319,1,0,0:0:0:0:
42,192,54395,1,2,0:0:0:0:
128,192,54395,1,0,0:0:0:0:
298,192,54395,1,0,0:0:0:0:
42,192,54548,1,0,0:0:0:0:
384,192,54548,1,0,0:0:0:0:
469,192,54548,1,0,0:0:0:0:
128,192,54625,1,0,0:0:0:0:
213,192,54701,1,2,0:0:0:0:
298,192,54701,1,0,0:0:0:0:
384,192,54701,1,0,0:0:0:0:
42,192,54854,1,0,0:0:0:0:
298,192,54854,1,0,0:0:0:0:
469,192,54854,1,0,0:0:0:0:
213,192,54931,1,0,0:0:0:0:
128,192,55007,1,2,0:0:0:0:
384,192,55007,1,0,0:0:0:0:
469,192,55007,1,0,0:0:0:0:
213,192,55160,1,0,0:0:0:0:
384,192,55160,1,0,0:0:0:0:
42,192,55313,1,2,0:0:0:0:
298,192,55313,1,0,0:0:0:0:
469,192,55313,1,0,0:0:0:0:
128,192,55466,1,0,0:0:0:0:
384,192,55466,1,0,0:0:0:0:
42,192,55620,1,2,0:0:0:0:
213,192,55620,1,8,0:0:0:0:
298,192,55620,1,0,0:0:0:0:
469,192,55620,1,0,0:0:0:0:
42,192,55773,1,2,0:0:0:0:
128,192,55773,1,0,0:0:0:0:
384,192,55773,1,0,0:0:0:0:
213,192,55849,1,0,0:0:0:0:
42,192,55926,1,2,0:0:0:0:
298,192,55926,1,0,0:0:0:0:
469,192,55926,1,0,0:0:0:0:
128,192,56002,1,0,0:0:0:0:
213,192,56079,1,2,0:0:0:0:
384,192,56079,1,0,0:0:0:0:
469,192,56155,1,0,0:0:0:0:
42,192,56232,1,2,0:0:0:0:
298,192,56232,1,8,0:0:0:0:
384,192,56232,1,0,0:0:0:0:
128,192,56308,1,0,0:0:0:50:snare.wav
213,192,56308,1,0,0:0:0:0:
42,192,56385,1,0,0:0:0:50:snare.wav
298,192,56385,1,0,0:0:0:0:
384,192,56385,1,0,0:0:0:0:
128,192,56461,1,0,0:0:0:50:snare.wav
213,192,56461,1,0,0:0:0:0:
42,192,56538,1,4,0:0:0:0:
469,192,56538,1,2,0:0:0:0:
213,192,56614,1,0,0:0:0:0:
384,192,56614,1,0,0:0:0:0:
42,192,56691,1,8,0:0:0:0:
298,192,56691,1,0,0:0:0:0:
469,192,56691,1,0,0:0:0:0:
128,192,56768,1,0,0:0:0:0:
213,192,56844,1,2,0:0:0:0:
298,192,56844,1,4,0:0:0:0:
384,192,56844,1,0,0:0:0:0:
469,192,56844,1,0,0:0:0:0:
42,192,56997,1,0,0:0:0:70:tom02.wav
128,192,56997,1,0,0:0:0:0:
298,192,56997,1,0,0:0:0:0:
384,192,57074,1,0,0:0:0:70:tom01.wav
42,192,57150,1,2,0:0:0:0:
213,192,57150,1,0,0:0:0:0:
469,192,57150,1,0,0:0:0:0:
298,192,57227,1,0,0:0:0:0:
128,192,57303,1,0,0:0:0:70:tom04.wav
384,192,57303,1,0,0:0:0:0:
213,192,57380,1,0,0:0:0:70:tom03.wav
469,192,57380,1,0,0:0:0:0:
42,192,57456,1,2,0:0:0:0:
128,192,57456,1,0,0:0:0:0:
298,192,57456,1,0,0:0:0:0:
42,192,57609,1,0,0:0:0:70:tom04.wav
213,192,57609,1,0,0:0:0:0:
298,192,57609,1,0,0:0:0:0:
469,192,57609,1,0,0:0:0:0:
42,192,57762,1,8,0:0:0:0:
213,192,57762,1,0,0:0:0:0:
298,192,57762,1,0,0:0:0:0:
469,192,57762,1,0,0:0:0:0:
128,192,57915,1,0,0:0:0:0:
298,192,57915,1,0,0:0:0:0:
384,192,57915,1,0,0:0:0:0:
213,192,57992,1,2,0:0:0:0:
42,192,58069,1,2,0:0:0:0:
128,192,58069,1,4,0:0:0:0:
384,192,58069,1,0,0:0:0:0:
469,192,58069,1,0,0:0:0:0:
42,192,58298,1,0,0:0:0:0:
213,192,58298,1,0,0:0:0:0:
298,192,58298,1,0,0:0:0:0:
469,192,58298,1,0,0:0:0:0:
128,192,58528,1,2,0:0:0:0:
213,192,58528,1,0,0:0:0:0:
298,192,58528,1,0,0:0:0:0:
384,192,58528,1,0,0:0:0:0:
42,192,58681,1,2,0:0:0:0:
213,192,58681,1,0,0:0:0:0:
384,192,58681,1,0,0:0:0:0:
42,192,58834,1,2,0:0:0:0:
298,192,58834,1,0,0:0:0:0:
469,192,58834,1,0,0:0:0:0:
42,192,58987,1,8,0:0:0:0:
128,192,58987,1,0,0:0:0:0:
384,192,58987,1,0,0:0:0:0:
469,192,58987,1,0,0:0:0:0:
128,192,59140,1,0,0:0:0:50:snare.wav
298,192,59140,1,0,0:0:0:0:
213,192,59293,1,2,0:0:0:0:
469,192,59293,1,4,0:0:0:0:
128,192,59370,1,0,0:0:0:0:
384,192,59370,1,0,0:0:0:0:
42,192,59446,1,0,0:0:0:0:
298,192,59446,1,0,0:0:0:0:
213,192,59523,1,0,0:0:0:0:
469,192,59523,1,0,0:0:0:0:
42,192,59599,1,2,0:0:0:0:
128,192,59599,1,0,0:0:0:0:
298,192,59676,1,0,0:0:0:0:
384,192,59676,1,0,0:0:0:0:
128,192,59752,1,4,0:0:0:0:
213,192,59752,1,0,0:0:0:0:
384,192,59829,1,0,0:0:0:0:
469,192,59829,1,0,0:0:0:0:
42,192,59905,1,4,0:0:0:0:
298,192,59905,1,0,0:0:0:50:snare.wav
128,192,59982,1,0,0:0:0:50:snare.wav
469,192,59982,1,0,0:0:0:0:
213,192,60058,1,2,0:0:0:0:
384,192,60058,1,0,0:0:0:0:
42,192,60135,1,0,0:0:0:0:
298,192,60135,1,0,0:0:0:0:
128,192,60211,1,4,0:0:0:0:
384,192,60211,1,2,0:0:0:0:
469,192,60211,1,0,0:0:0:0:
42,192,60288,1,0,0:0:0:50:snare.wav
213,192,60288,1,0,0:0:0:0:
128,192,60364,1,0,0:0:0:50:snare.wav
298,192,60364,1,0,0:0:0:0:
384,192,60364,1,0,0:0:0:0:
213,192,60441,1,0,0:0:0:50:snare.wav
469,192,60441,1,0,0:0:0:0:
42,192,60518,1,0,0:0:0:0:
128,192,60518,1,0,0:0:0:0:
298,192,60518,1,0,0:0:0:0:
384,192,60518,1,0,0:0:0:0:
213,192,60824,1,0,0:0:0:100:A#7S_Bb7S.wav
42,192,60824,1,0,0:0:0:0:
298,192,60849,1,0,0:0:0:100:C#8S_Db8S.wav
469,192,60849,1,0,0:0:0:0:
42,192,61436,1,0,0:0:0:50:snare.wav
128,192,61436,1,0,0:0:0:0:
213,192,61436,1,0,0:0:0:0:
469,192,61436,1,0,0:0:0:0:
298,192,61512,1,0,0:0:0:0:
384,192,61512,1,0,0:0:0:0:
42,192,61589,1,0,0:0:0:50:snare.wav
128,192,61589,1,0,0:0:0:0:
469,192,61589,1,0,0:0:0:0:
213,192,61665,1,0,0:0:0:50:snare.wav
298,192,61665,1,0,0:0:0:0:
384,192,61665,1,0,0:0:0:0:
42,192,61742,1,2,0:0:0:0:
128,192,61742,1,4,0:0:0:0:
469,192,61742,1,0,0:0:0:70:tsch.wav
384,192,61819,1,0,0:0:0:0:
42,192,61895,1,2,0:0:0:0:
298,192,61895,1,0,0:0:0:0:
213,192,61972,1,0,0:0:0:0:
128,192,62048,1,8,0:0:0:0:
384,192,62048,1,0,0:0:0:0:
469,192,62048,1,0,0:0:0:0:
298,192,62125,1,0,0:0:0:0:
42,192,62201,1,0,0:0:0:0:
213,192,62201,1,0,0:0:0:0:
384,192,62278,1,0,0:0:0:0:
128,192,62354,1,2,0:0:0:0:
298,192,62354,1,0,0:0:0:0:
469,192,62431,1,0,0:0:0:0:
213,192,62507,1,2,0:0:0:0:
384,192,62507,1,0,0:0:0:0:
128,192,62584,1,0,0:0:0:0:
42,192,62660,1,8,0:0:0:0:
298,192,62660,1,0,0:0:0:0:
469,192,62660,1,0,0:0:0:0:
213,192,62737,1,0,0:0:0:0:
128,192,62813,1,0,0:0:0:0:
42,192,62890,1,0,0:0:0:50:snare.wav
384,192,62890,1,0,0:0:0:0:
213,192,62966,1,2,0:0:0:0:
298,192,62966,1,0,0:0:0:0:
469,192,62966,1,0,0:0:0:0:
128,192,63043,1,0,0:0:0:0:
42,192,63120,1,2,0:0:0:0:
384,192,63120,1,0,0:0:0:0:
298,192,63196,1,0,0:0:0:0:
128,192,63273,1,8,0:0:0:0:
213,192,63273,1,0,0:0:0:0:
469,192,63273,1,0,0:0:0:0:
384,192,63349,1,0,0:0:0:0:
42,192,63426,1,2,0:0:0:0:
298,192,63426,1,0,0:0:0:0:
128,192,63502,1,0,0:0:0:0:
213,192,63579,1,0,0:0:0:0:
384,192,63579,1,0,0:0:0:0:
469,192,63579,1,0,0:0:0:0:
128,192,63655,1,0,0:0:0:0:
298,192,63732,1,2,0:0:0:0:
469,192,63732,1,0,0:0:0:0:
213,192,63808,1,0,0:0:0:0:
42,192,63885,1,8,0:0:0:0:
128,192,63885,1,0,0:0:0:0:
384,192,63885,1,0,0:0:0:0:
298,192,63961,1,0,0:0:0:0:
42,192,64038,1,0,0:0:0:50:snare.wav
213,192,64038,1,0,0:0:0:0:
469,192,64038,1,0,0:0:0:0:
128,192,64114,1,0,0:0:0:50:snare.wav
298,192,64114,1,0,0:0:0:0:
213,192,64191,1,2,0:0:0:0:
384,192,64191,1,0,0:0:0:0:
469,192,64191,1,0,0:0:0:0:
128,192,64268,1,0,0:0:0:0:
42,192,64344,1,2,0:0:0:0:
298,192,64344,1,0,0:0:0:0:
213,192,64421,1,0,0:0:0:50:snare.wav
298,192,64497,1,0,0:0:0:50:snare.wav
384,192,64497,1,0,0:0:0:0:
128,192,64574,1,0,0:0:0:50:snare.wav
213,192,64574,1,0,0:0:0:0:
298,192,64650,1,8,0:0:0:0:
384,192,64650,1,0,0:0:0:0:
128,192,64727,1,0,0:0:0:50:snare.wav
213,192,64727,1,0,0:0:0:0:
42,192,64803,1,2,0:0:0:0:
384,192,64803,1,0,0:0:0:0:
469,192,64803,1,0,0:0:0:0:
42,192,64956,1,2,0:0:0:0:
128,192,64956,1,0,0:0:0:0:
298,192,64956,1,0,0:0:0:0:
213,192,65033,1,0,0:0:0:50:snare.wav
469,192,65033,1,0,0:0:0:0:
42,192,65109,1,8,0:0:0:0:
128,192,65109,1,0,0:0:0:0:
384,192,65109,1,0,0:0:0:0:
42,192,65262,1,0,0:0:0:50:snare.wav
298,192,65262,1,0,0:0:0:0:
469,192,65262,1,0,0:0:0:0:
128,192,65339,1,0,0:0:0:50:snare.wav
384,192,65339,1,0,0:0:0:0:
213,192,65415,1,2,0:0:0:0:
298,192,65415,1,0,0:0:0:0:
469,192,65415,1,0,0:0:0:0:
213,192,65569,1,2,0:0:0:0:
469,192,65569,1,0,0:0:0:0:
128,192,65645,1,0,0:0:0:0:
384,192,65645,1,0,0:0:0:0:
42,192,65722,1,8,0:0:0:0:
298,192,65722,1,0,0:0:0:0:
213,192,65798,1,0,0:0:0:50:snare.wav
469,192,65798,1,0,0:0:0:0:
128,192,65875,1,0,0:0:0:50:snare.wav
384,192,65875,1,0,0:0:0:0:
42,192,65951,1,0,0:0:0:0:
298,192,65951,1,0,0:0:0:0:
128,192,66028,1,2,0:0:0:0:
213,192,66028,1,0,0:0:0:0:
469,192,66028,1,0,0:0:0:0:
298,192,66066,1,0,0:0:0:0:
384,192,66104,1,0,0:0:0:0:
42,192,66181,1,2,0:0:0:0:
213,192,66181,1,0,0:0:0:0:
469,192,66181,1,0,0:0:0:0:
384,192,66257,1,0,0:0:0:0:
42,192,66334,1,8,0:0:0:0:
128,192,66334,1,0,0:0:0:0:
213,192,66334,1,0,0:0:0:0:
298,192,66410,1,0,0:0:0:50:snare.wav
128,192,66487,1,0,0:0:0:50:snare.wav
384,192,66487,1,0,0:0:0:0:
469,192,66487,1,0,0:0:0:0:
213,192,66563,1,0,0:0:0:50:snare.wav
298,192,66563,1,0,0:0:0:0:
42,192,66640,1,4,0:0:0:0:
384,192,66640,1,2,0:0:0:0:
469,192,66640,1,0,0:0:0:0:
128,192,66716,1,0,0:0:0:0:
213,192,66793,1,2,0:0:0:0:
298,192,66793,1,0,0:0:0:0:
384,192,66870,1,0,0:0:0:0:
128,192,66946,1,8,0:0:0:0:
469,192,66946,1,0,0:0:0:0:
42,192,66946,1,0,0:0:0:0:
213,192,67023,1,0,0:0:0:0:
42,192,67099,1,0,0:0:0:0:
298,192,67099,1,0,0:0:0:0:
128,192,67176,1,0,0:0:0:0:
213,192,67252,1,2,0:0:0:0:
384,192,67252,1,0,0:0:0:0:
469,192,67329,1,0,0:0:0:0:
128,192,67405,1,2,0:0:0:0:
298,192,67405,1,0,0:0:0:0:
384,192,67482,1,0,0:0:0:0:
42,192,67558,1,8,0:0:0:0:
213,192,67558,1,0,0:0:0:0:
469,192,67558,1,0,0:0:0:0:
298,192,67635,1,0,0:0:0:0:
128,192,67711,1,0,0:0:0:0:
384,192,67711,1,0,0:0:0:0:
213,192,67788,1,0,0:0:0:50:snare.wav
469,192,67788,1,0,0:0:0:0:
42,192,67864,1,2,0:0:0:0:
128,192,67864,1,4,0:0:0:0:
298,192,67864,1,0,0:0:0:0:
469,192,67941,1,0,0:0:0:0:
384,192,68018,1,2,0:0:0:0:
42,192,68094,1,0,0:0:0:0:
128,192,68094,1,0,0:0:0:0:
298,192,68094,1,0,0:0:0:0:
213,192,68171,1,8,0:0:0:0:
298,192,68247,1,0,0:0:0:0:
128,192,68324,1,2,0:0:0:0:
384,192,68324,1,0,0:0:0:0:
469,192,68324,1,0,0:0:0:0:
42,192,68477,1,0,0:0:0:0:
128,192,68477,1,0,0:0:0:0:
298,192,68477,1,0,0:0:0:0:
384,192,68477,1,0,0:0:0:0:
213,192,68553,1,0,0:0:0:0:
469,192,68553,1,0,0:0:0:0:
42,192,68630,1,2,0:0:0:0:
298,192,68630,1,0,0:0:0:0:
128,192,68706,1,0,0:0:0:0:
213,192,68783,1,8,0:0:0:0:
384,192,68783,1,0,0:0:0:0:
469,192,68783,1,0,0:0:0:0:
42,192,68859,1,0,0:0:0:0:
298,192,68859,1,0,0:0:0:0:
128,192,68936,1,0,0:0:0:50:snare.wav
384,192,68936,1,0,0:0:0:0:
469,192,68936,1,0,0:0:0:0:
213,192,69012,1,0,0:0:0:50:snare.wav
298,192,69012,1,0,0:0:0:0:
42,192,69089,1,2,0:0:0:0:
384,192,69089,1,4,0:0:0:0:
469,192,69089,1,0,0:0:0:0:
213,192,69165,1,0,0:0:0:50:snare.wav
298,192,69165,1,0,0:0:0:0:
42,192,69242,1,8,0:0:0:0:
128,192,69242,1,0,0:0:0:0:
469,192,69242,1,0,0:0:0:0:
298,192,69319,1,0,0:0:0:50:snare.wav
384,192,69319,1,0,0:0:0:0:
42,192,69395,1,2,0:0:0:0:
128,192,69395,1,4,0:0:0:0:
213,192,69395,1,0,0:0:0:0:
384,192,69472,1,0,0:0:0:50:snare.wav
469,192,69472,1,0,0:0:0:0:
42,192,69548,1,2,0:0:0:0:
128,192,69548,1,0,0:0:0:0:
298,192,69548,1,0,0:0:0:0:
213,192,69625,1,2,0:0:0:0:
384,192,69625,1,0,0:0:0:0:
42,192,69701,1,2,0:0:0:0:
298,192,69701,1,4,0:0:0:0:
469,192,69701,1,0,0:0:0:0:
128,192,69778,1,0,0:0:0:50:snare.wav
384,192,69778,1,0,0:0:0:0:
213,192,69854,1,0,0:0:0:50:snare.wav
298,192,69854,1,0,0:0:0:0:
469,192,69854,1,0,0:0:0:0:
42,192,69931,1,0,0:0:0:50:snare.wav
128,192,69931,1,0,0:0:0:0:
298,192,70007,1,2,0:0:0:0:
384,192,70007,1,4,0:0:0:0:
469,192,70007,1,0,0:0:0:0:
128,192,70084,1,0,0:0:0:50:snare.wav
213,192,70084,1,0,0:0:0:0:
42,192,70160,1,0,0:0:0:50:snare.wav
384,192,70160,1,0,0:0:0:0:
469,192,70160,1,0,0:0:0:0:
298,192,70237,1,8,0:0:0:0:
42,192,70313,1,2,0:0:0:0:
128,192,70313,1,4,0:0:0:0:
213,192,70313,1,0,0:0:0:0:
384,192,70313,1,0,0:0:0:0:
469,192,70313,1,0,0:0:0:0:
42,192,70543,1,8,0:0:0:0:
128,192,70543,1,4,0:0:0:0:
298,192,70543,1,0,0:0:0:0:
384,192,70543,1,0,0:0:0:0:
469,192,70543,1,0,0:0:0:0:
128,192,70773,1,8,0:0:0:0:
213,192,70773,1,4,0:0:0:0:
298,192,70773,1,0,0:0:0:0:
384,192,70773,1,0,0:0:0:0:
469,192,70773,1,0,0:0:0:0:
42,192,70926,1,0,0:0:0:0:
298,192,70926,1,0,0:0:0:0:
384,192,70926,1,0,0:0:0:0:
42,192,71079,1,2,0:0:0:0:
213,192,71079,1,0,0:0:0:0:
298,192,71079,1,0,0:0:0:0:
128,192,71232,1,8,0:0:0:0:
213,192,71232,1,4,0:0:0:0:
384,192,71232,1,0,0:0:0:0:
469,192,71308,1,0,0:0:0:0:
42,192,71385,1,4,0:0:0:0:
298,192,71385,1,0,0:0:0:50:snare.wav
128,192,71461,1,4,0:0:0:0:
384,192,71461,1,0,0:0:0:50:snare.wav
213,192,71538,1,2,0:0:0:0:
298,192,71538,1,4,0:0:0:0:
469,192,71538,1,0,0:0:0:0:
128,192,71614,1,0,0:0:0:0:
42,192,71691,1,2,0:0:0:0:
384,192,71691,1,0,0:0:0:0:
298,192,71768,1,0,0:0:0:0:
128,192,71844,1,8,0:0:0:0:
213,192,71844,1,0,0:0:0:0:
469,192,71844,1,0,0:0:0:0:
384,192,71921,1,0,0:0:0:0:
42,192,71997,1,0,0:0:0:0:
298,192,71997,1,0,0:0:0:0:
128,192,72074,1,0,0:0:0:0:
384,192,72074,1,0,0:0:0:0:
213,192,72150,1,2,0:0:0:0:
469,192,72150,1,0,0:0:0:0:
42,192,72227,1,0,0:0:0:0:
298,192,72227,1,0,0:0:0:0:
128,192,72303,1,2,0:0:0:0:
384,192,72303,1,0,0:0:0:0:
213,192,72380,1,0,0:0:0:0:
469,192,72380,1,0,0:0:0:0:
42,192,72456,1,8,0:0:0:0:
128,192,72456,1,0,0:0:0:0:
298,192,72456,1,0,0:0:0:0:
384,192,72533,1,0,0:0:0:0:
128,192,72609,1,0,0:0:0:0:
213,192,72609,1,0,0:0:0:0:
469,192,72609,1,0,0:0:0:0:
298,192,72686,1,0,0:0:0:50:snare.wav
42,192,72762,1,2,0:0:0:0:
384,192,72762,1,0,0:0:0:0:
469,192,72762,1,0,0:0:0:0:
128,192,72839,1,0,0:0:0:0:
213,192,72915,1,2,0:0:0:0:
298,192,72915,1,0,0:0:0:0:
384,192,72992,1,0,0:0:0:0:
42,192,73069,1,8,0:0:0:0:
128,192,73069,1,0,0:0:0:0:
469,192,73069,1,0,0:0:0:0:
213,192,73145,1,0,0:0:0:0:
298,192,73222,1,2,0:0:0:0:
384,192,73222,1,0,0:0:0:0:
128,192,73298,1,0,0:0:0:0:
213,192,73375,1,0,0:0:0:0:
469,192,73375,1,0,0:0:0:0:
42,192,73451,1,0,0:0:0:0:
128,192,73528,1,2,0:0:0:0:
298,192,73528,1,0,0:0:0:0:
384,192,73604,1,0,0:0:0:0:
42,192,73681,1,8,0:0:0:0:
213,192,73681,1,0,0:0:0:0:
469,192,73681,1,0,0:0:0:0:
298,192,73757,1,0,0:0:0:0:
128,192,73834,1,0,0:0:0:50:snare.wav
384,192,73834,1,0,0:0:0:0:
469,192,73834,1,0,0:0:0:0:
42,192,73910,1,0,0:0:0:50:snare.wav
298,192,73910,1,0,0:0:0:0:
213,192,73987,1,2,0:0:0:0:
384,192,73987,1,0,0:0:0:0:
469,192,73987,1,0,0:0:0:0:
128,192,74063,1,0,0:0:0:0:
42,192,74140,1,2,0:0:0:0:
298,192,74140,1,0,0:0:0:0:
213,192,74216,1,0,0:0:0:0:
128,192,74293,1,0,0:0:0:0:
384,192,74293,1,0,0:0:0:0:
298,192,74370,1,0,0:0:0:0:
42,192,74446,1,8,0:0:0:0:
213,192,74446,1,0,0:0:0:0:
469,192,74446,1,0,0:0:0:0:
42,192,74676,1,2,0:0:0:0:
128,192,74676,1,4,0:0:0:0:
213,192,74676,1,0,0:0:0:0:
384,192,74676,1,0,0:0:0:0:
469,192,74676,1,0,0:0:0:0:
42,192,74905,1,8,0:0:0:0:
128,192,74905,1,4,0:0:0:0:
298,192,74905,1,0,0:0:0:0:
384,192,74905,1,0,0:0:0:0:
469,192,74905,1,0,0:0:0:0:
42,192,75135,1,8,0:0:0:0:
213,192,75135,1,4,0:0:0:0:
298,192,75135,1,0,0:0:0:0:
384,192,75135,1,0,0:0:0:0:
469,192,75135,1,0,0:0:0:0:
384,192,75441,1,0,0:0:0:0:
298,192,75441,1,0,0:0:0:0:
42,192,75518,1,0,0:0:0:50:snare.wav
128,192,75518,1,0,0:0:0:0:
469,192,75518,1,0,0:0:0:0:
213,192,75594,1,0,0:0:0:50:snare.wav
298,192,75594,1,0,0:0:0:0:
384,192,75671,1,8,0:0:0:0:
42,192,75671,1,4,0:0:0:0:
128,192,75747,1,0,0:0:0:0:
213,192,75747,1,0,0:0:0:0:
469,192,75824,1,0,0:0:0:0:
298,192,75824,1,2,0:0:0:0:
384,192,75824,1,0,0:0:0:0:
213,192,75977,1,0,0:0:0:50:snare.wav
298,192,75977,1,0,0:0:0:0:
384,192,75977,1,0,0:0:0:0:
42,192,76053,1,0,0:0:0:50:snare.wav
128,192,76053,1,0,0:0:0:0:
298,192,76130,1,8,0:0:0:0:
384,192,76130,1,0,0:0:0:0:
469,192,76130,1,0,0:0:0:0:
128,192,76206,1,0,0:0:0:50:snare.wav
213,192,76206,1,0,0:0:0:0:
42,192,76283,1,0,0:0:0:70:tom02.wav
298,192,76283,1,0,0:0:0:0:
469,192,76283,1,0,0:0:0:0:
128,192,76359,1,0,0:0:0:70:tom03.wav
384,192,76359,1,0,0:0:0:0:
42,192,76436,1,4,0:0:0:0:
213,192,76436,1,2,0:0:0:0:
298,192,76436,1,0,0:0:0:0:
469,192,76436,1,0,0:0:0:0:
213,192,76589,1,2,0:0:0:0:
384,192,76589,1,0,0:0:0:0:
128,192,76665,1,0,0:0:0:0:
42,192,76742,1,8,0:0:0:0:
298,192,76742,1,0,0:0:0:0:
469,192,76742,1,0,0:0:0:0:
213,192,76819,1,0,0:0:0:0:
128,192,76895,1,2,0:0:0:0:
384,192,76895,1,0,0:0:0:0:
42,192,76972,1,2,0:0:0:0:
298,192,76972,1,0,0:0:0:0:
128,192,77048,1,8,0:0:0:0:
213,192,77048,1,0,0:0:0:0:
469,192,77048,1,0,0:0:0:0:
384,192,77125,1,0,0:0:0:0:
42,192,77201,1,2,0:0:0:0:
298,192,77201,1,0,0:0:0:0:
128,192,77278,1,0,0:0:0:0:
213,192,77354,1,8,0:0:0:0:
384,192,77354,1,0,0:0:0:0:
469,192,77354,1,0,0:0:0:0:
42,192,77431,1,0,0:0:0:0:
128,192,77507,1,2,0:0:0:0:
298,192,77507,1,0,0:0:0:0:
384,192,77584,1,0,0:0:0:0:
42,192,77660,1,4,0:0:0:0:
213,192,77660,1,8,0:0:0:0:
469,192,77660,1,0,0:0:0:0:
298,192,77737,1,0,0:0:0:0:
384,192,77813,1,2,0:0:0:0:
213,192,77890,1,0,0:0:0:0:
469,192,77890,1,0,0:0:0:0:
42,192,77966,1,8,0:0:0:0:
128,192,77966,1,0,0:0:0:0:
298,192,77966,1,0,0:0:0:0:
384,192,78043,1,0,0:0:0:0:
213,192,78120,1,2,0:0:0:0:
469,192,78120,1,0,0:0:0:0:
128,192,78196,1,0,0:0:0:0:
42,192,78273,1,8,0:0:0:0:
298,192,78273,1,0,0:0:0:0:
384,192,78273,1,0,0:0:0:0:
213,192,78349,1,0,0:0:0:0:
128,192,78426,1,2,0:0:0:0:
384,192,78426,1,0,0:0:0:0:
298,192,78502,1,2,0:0:0:0:
42,192,78579,1,8,0:0:0:0:
213,192,78579,1,0,0:0:0:0:
469,192,78579,1,0,0:0:0:0:
384,192,78655,1,0,0:0:0:0:
213,192,78732,1,0,0:0:0:50:snare.wav
298,192,78732,1,0,0:0:0:0:
42,192,78808,1,0,0:0:0:0:
128,192,78808,1,0,0:0:0:0:
298,192,78885,1,2,0:0:0:0:
469,192,78885,1,4,0:0:0:0:
42,192,78961,1,0,0:0:0:50:snare.wav
213,192,78961,1,0,0:0:0:0:
298,192,79038,1,8,0:0:0:0:
469,192,79038,1,0,0:0:0:0:
42,192,79114,1,0,0:0:0:50:snare.wav
213,192,79114,1,0,0:0:0:0:
298,192,79191,1,2,0:0:0:0:
469,192,79191,1,4,0:0:0:0:
42,192,79268,1,0,0:0:0:50:snare.wav
213,192,79268,1,0,0:0:0:0:
298,192,79344,1,2,0:0:0:0:
469,192,79344,1,0,0:0:0:0:
42,192,79421,1,2,0:0:0:0:
213,192,79421,1,0,0:0:0:0:
298,192,79497,1,2,0:0:0:0:
469,192,79497,1,4,0:0:0:0:
128,192,79574,1,0,0:0:0:50:snare.wav
384,192,79650,1,0,0:0:0:50:snare.wav
128,192,79727,1,8,0:0:0:0:
298,192,79803,1,2,0:0:0:0:
384,192,79803,1,4,0:0:0:0:
213,192,79880,1,0,0:0:0:50:snare.wav
128,192,79956,1,0,0:0:0:50:snare.wav
384,192,79956,1,0,0:0:0:0:
298,192,80033,1,8,0:0:0:0:
42,192,80109,1,2,0:0:0:0:
213,192,80109,1,4,0:0:0:0:
469,192,80109,1,0,0:0:0:0:
384,192,80186,1,0,0:0:0:50:snare.wav
42,192,80262,1,0,0:0:0:50:snare.wav
128,192,80262,1,0,0:0:0:0:
298,192,80262,1,0,0:0:0:0:
384,192,80339,1,8,0:0:0:0:
128,192,80415,1,2,0:0:0:0:
213,192,80415,1,0,0:0:0:0:
469,192,80415,1,0,0:0:0:0:
42,192,80492,1,0,0:0:0:50:snare.wav
298,192,80569,1,0,0:0:0:50:snare.wav
384,192,80569,1,0,0:0:0:0:
469,192,80569,1,0,0:0:0:0:
128,192,80645,1,8,0:0:0:0:
213,192,80645,1,0,0:0:0:0:
42,192,80722,1,4,0:0:0:0:
384,192,80722,1,2,0:0:0:0:
469,192,80722,1,0,0:0:0:0:
213,192,80798,1,0,0:0:0:50:snare.wav
298,192,80798,1,0,0:0:0:0:
42,192,80875,1,0,0:0:0:50:snare.wav
128,192,80875,1,0,0:0:0:0:
469,192,80875,1,0,0:0:0:0:
298,192,80951,1,8,0:0:0:0:
384,192,80951,1,0,0:0:0:0:
42,192,81028,1,4,0:0:0:0:
128,192,81028,1,2,0:0:0:0:
213,192,81028,1,0,0:0:0:0:
384,192,81104,1,0,0:0:0:50:snare.wav
469,192,81104,1,0,0:0:0:0:
128,192,81181,1,0,0:0:0:50:snare.wav
213,192,81181,1,0,0:0:0:0:
298,192,81181,1,0,0:0:0:0:
42,192,81257,1,8,0:0:0:0:
213,192,81334,128,4,81946:0:0:0:0:
298,192,81334,1,2,0:0:0:0:
384,192,81334,1,0,0:0:0:70:tsch.wav
469,192,81334,1,0,0:0:0:0:
128,192,81640,128,2,82252:0:0:0:0:
469,192,81640,128,0,82252:0:0:0:0:
42,192,81946,128,2,82558:0:0:0:0:
298,192,81946,128,0,82252:0:0:0:0:
213,192,82252,128,2,82864:0:0:0:0:
384,192,82252,128,0,82864:0:0:0:0:
128,192,82558,128,2,83171:0:0:0:0:
469,192,82558,128,0,82864:0:0:0:0:
42,192,82864,128,2,83477:0:0:0:0:
298,192,82864,128,0,83477:0:0:0:0:
213,192,83171,128,2,83783:0:0:0:0:
469,192,83171,128,0,83477:0:0:0:0:
128,192,83477,128,2,84089:0:0:0:0:
384,192,83477,128,0,84089:0:0:0:0:
42,192,83783,128,2,84395:0:0:0:0:
469,192,83783,128,0,84089:0:0:0:0:
213,192,84089,128,2,84701:0:0:0:0:
298,192,84089,128,0,84701:0:0:0:0:
128,192,84395,128,2,85007:0:0:0:0:
469,192,84395,128,0,84701:0:0:0:0:
42,192,84701,128,2,85313:0:0:0:0:
384,192,84701,128,0,85313:0:0:0:0:
213,192,85007,128,2,85620:0:0:0:0:
298,192,85007,128,0,85313:0:0:0:0:
128,192,85313,128,2,85926:0:0:0:0:
469,192,85313,128,0,85926:0:0:0:0:
42,192,85620,128,2,86232:0:0:0:0:
298,192,85620,128,0,85926:0:0:0:0:
213,192,85926,128,2,86232:0:0:0:0:
384,192,85926,128,0,86232:0:0:0:0:
128,192,86232,128,2,86538:0:0:0:0:
298,192,86232,128,0,86538:0:0:0:0:
469,192,86232,128,0,86844:0:0:0:0:
42,192,86538,128,2,87150:0:0:0:0:
384,192,86538,128,0,87150:0:0:0:0:
213,192,86844,128,2,87150:0:0:0:0:
298,192,86844,128,0,87456:0:0:0:0:
128,192,87150,128,2,87762:0:0:0:0:
469,192,87150,128,0,87762:0:0:0:0:
213,192,87456,128,2,87762:0:0:0:0:
384,192,87456,128,0,88069:0:0:0:0:
42,192,87762,128,2,88375:0:0:0:0:
298,192,87762,128,0,88375:0:0:0:0:
128,192,88069,128,2,88375:0:0:0:0:
469,192,88069,128,0,88681:0:0:0:0:
213,192,88375,128,2,88987:0:0:0:0:
384,192,88375,128,0,88987:0:0:0:0:
42,192,88681,128,2,88987:0:0:0:0:
298,192,88681,128,0,89293:0:0:0:0:
128,192,88987,128,2,89599:0:0:0:0:
469,192,88987,128,0,89599:0:0:0:0:
42,192,89293,128,2,89599:0:0:0:0:
384,192,89293,128,0,89905:0:0:0:0:
213,192,89599,128,2,90211:0:0:0:0:
298,192,89599,128,0,90211:0:0:0:0:
42,192,89905,128,2,90211:0:0:0:0:
469,192,89905,128,0,90518:0:0:0:0:
128,192,90211,128,2,90824:0:0:0:0:
384,192,90211,128,0,90824:0:0:0:0:
42,192,90518,128,2,90824:0:0:0:0:
298,192,90518,128,0,91130:0:0:0:0:
213,192,90824,128,2,91130:0:0:0:0:
42,192,91130,1,4,0:0:0:0:
128,192,91130,1,2,0:0:0:0:
384,192,91130,1,0,0:0:0:0:
469,192,91130,1,0,0:0:0:0:
42,192,91283,1,0,0:0:0:0:
128,192,91436,1,2,0:0:0:0:
213,192,91436,1,0,0:0:0:0:
469,192,91436,1,0,0:0:0:0:
128,192,91589,1,0,0:0:0:0:
42,192,91742,1,2,0:0:0:0:
298,192,91742,1,0,0:0:0:0:
384,192,91742,1,0,0:0:0:0:
128,192,91895,1,0,0:0:0:0:
384,192,91895,1,0,0:0:0:0:
469,192,91895,1,0,0:0:0:0:
42,192,92048,1,2,0:0:0:0:
213,192,92048,1,0,0:0:0:0:
469,192,92048,1,0,0:0:0:0:
128,192,92201,1,0,0:0:0:0:
213,192,92201,1,0,0:0:0:0:
384,192,92201,1,0,0:0:0:0:
42,192,92354,1,2,0:0:0:0:
128,192,92354,1,0,0:0:0:0:
384,192,92354,1,0,0:0:0:0:
469,192,92354,1,0,0:0:0:0:
469,192,92507,1,0,0:0:0:0:
42,192,92660,1,2,0:0:0:0:
298,192,92660,1,0,0:0:0:0:
384,192,92660,1,0,0:0:0:0:
384,192,92813,1,0,0:0:0:0:
128,192,92966,1,2,0:0:0:0:
213,192,92966,1,0,0:0:0:0:
469,192,92966,1,0,0:0:0:0:
42,192,93120,1,0,0:0:0:0:
128,192,93120,1,0,0:0:0:0:
384,192,93120,1,0,0:0:0:0:
42,192,93273,1,2,0:0:0:0:
298,192,93273,1,0,0:0:0:0:
469,192,93273,1,0,0:0:0:0:
128,192,93426,1,0,0:0:0:0:
298,192,93426,1,0,0:0:0:0:
384,192,93426,1,0,0:0:0:0:
42,192,93579,1,2,0:0:0:0:
128,192,93579,1,0,0:0:0:0:
384,192,93579,1,0,0:0:0:0:
469,192,93579,1,0,0:0:0:0:
42,192,93732,1,0,0:0:0:0:
128,192,93885,1,2,0:0:0:0:
213,192,93885,1,0,0:0:0:0:
384,192,93885,1,0,0:0:0:0:
213,192,94038,1,0,0:0:0:0:
128,192,94191,1,2,0:0:0:0:
298,192,94191,1,0,0:0:0:0:
469,192,94191,1,0,0:0:0:0:
42,192,94344,1,0,0:0:0:0:
213,192,94344,1,0,0:0:0:0:
469,192,94344,1,0,0:0:0:0:
42,192,94497,1,2,0:0:0:0:
298,192,94497,1,0,0:0:0:0:
384,192,94497,1,0,0:0:0:0:
128,192,94650,1,0,0:0:0:0:
213,192,94650,1,0,0:0:0:0:
384,192,94650,1,0,0:0:0:0:
42,192,94803,1,2,0:0:0:0:
213,192,94803,1,0,0:0:0:0:
298,192,94803,1,0,0:0:0:0:
469,192,94803,1,0,0:0:0:0:
298,192,94956,1,0,0:0:0:0:
42,192,95109,1,2,0:0:0:0:
128,192,95109,1,0,0:0:0:0:
384,192,95109,1,0,0:0:0:0:
128,192,95262,1,0,0:0:0:0:
384,192,95262,1,0,0:0:0:0:
213,192,95415,1,2,0:0:0:0:
469,192,95415,1,0,0:0:0:0:
213,192,95569,1,0,0:0:0:0:
469,192,95569,1,0,0:0:0:0:
42,192,95722,1,2,0:0:0:0:
128,192,95722,1,8,0:0:0:0:
213,192,95798,1,0,0:0:0:0:
298,192,95798,1,0,0:0:0:0:
42,192,95875,1,8,0:0:0:0:
384,192,95875,1,0,0:0:0:0:
469,192,95875,1,0,0:0:0:0:
128,192,95951,1,8,0:0:0:0:
213,192,95951,1,0,0:0:0:0:
298,192,96028,1,2,0:0:0:0:
384,192,96028,1,8,0:0:0:0:
469,192,96028,1,0,0:0:0:0:
298,192,96181,1,0,0:0:0:0:
42,192,96334,1,2,0:0:0:0:
128,192,96334,1,8,0:0:0:0:
384,192,96334,1,0,0:0:0:0:
42,192,96487,1,0,0:0:0:0:
128,192,96487,1,0,0:0:0:0:
213,192,96640,1,2,0:0:0:0:
298,192,96640,1,0,0:0:0:0:
469,192,96640,1,0,0:0:0:0:
213,192,96793,1,0,0:0:0:0:
298,192,96793,1,0,0:0:0:0:
42,192,96946,1,2,0:0:0:0:
128,192,96946,1,0,0:0:0:0:
384,192,96946,1,0,0:0:0:0:
42,192,97099,1,2,0:0:0:0:
128,192,97099,1,0,0:0:0:0:
384,192,97099,1,0,0:0:0:0:
213,192,97252,1,2,0:0:0:0:
298,192,97252,1,0,0:0:0:0:
469,192,97252,1,0,0:0:0:0:
213,192,97405,1,0,0:0:0:50:snare.wav
469,192,97405,1,0,0:0:0:0:
42,192,97558,1,2,0:0:0:0:
298,192,97558,1,0,0:0:0:0:
384,192,97558,1,0,0:0:0:0:
42,192,97711,1,0,0:0:0:0:
384,192,97711,1,0,0:0:0:0:
128,192,97864,1,2,0:0:0:0:
213,192,97864,1,0,0:0:0:0:
469,192,97864,1,0,0:0:0:0:
42,192,98018,1,0,0:0:0:0:
213,192,98018,1,0,0:0:0:0:
384,192,98018,1,0,0:0:0:0:
128,192,98171,1,2,0:0:0:0:
384,192,98171,1,0,0:0:0:0:
469,192,98171,1,0,0:0:0:0:
128,192,98324,1,8,0:0:0:0:
213,192,98324,1,0,0:0:0:0:
469,192,98324,1,0,0:0:0:0:
42,192,98477,1,2,0:0:0:0:
213,192,98477,1,0,0:0:0:0:
298,192,98477,1,0,0:0:0:0:
384,192,98477,1,0,0:0:0:0:
42,192,98630,1,2,0:0:0:0:
384,192,98630,1,0,0:0:0:0:
128,192,98783,1,2,0:0:0:0:
213,192,98783,1,0,0:0:0:0:
469,192,98783,1,0,0:0:0:0:
128,192,98936,1,2,0:0:0:0:
213,192,98936,1,0,0:0:0:0:
42,192,99089,1,2,0:0:0:0:
298,192,99089,1,0,0:0:0:0:
469,192,99089,1,0,0:0:0:0:
298,192,99242,1,2,0:0:0:0:
469,192,99242,1,0,0:0:0:0:
42,192,99395,1,2,0:0:0:0:
213,192,99395,1,0,0:0:0:0:
384,192,99395,1,0,0:0:0:0:
213,192,99548,1,2,0:0:0:0:
384,192,99548,1,0,0:0:0:0:
42,192,99701,1,8,0:0:0:0:
128,192,99701,1,0,0:0:0:0:
298,192,99701,1,0,0:0:0:0:
384,192,99778,1,0,0:0:0:50:snare.wav
469,192,99778,1,0,0:0:0:0:
42,192,99854,1,0,0:0:0:50:snare.wav
128,192,99854,1,0,0:0:0:0:
213,192,99931,1,0,0:0:0:50:snare.wav
298,192,99931,1,0,0:0:0:0:
42,192,100007,1,2,0:0:0:0:
128,192,100007,1,0,0:0:0:0:
384,192,100084,1,0,0:0:0:50:snare.wav
469,192,100084,1,0,0:0:0:0:
213,192,100160,1,0,0:0:0:50:snare.wav
298,192,100160,1,0,0:0:0:0:
42,192,100237,1,0,0:0:0:50:snare.wav
128,192,100237,1,0,0:0:0:0:
298,192,100313,1,8,0:0:0:0:
384,192,100313,1,0,0:0:0:0:
469,192,100313,1,0,0:0:0:0:
42,192,100390,1,0,0:0:0:50:snare.wav
128,192,100390,1,0,0:0:0:0:
213,192,100466,1,0,0:0:0:50:snare.wav
298,192,100466,1,0,0:0:0:0:
384,192,100543,1,0,0:0:0:50:snare.wav
469,192,100543,1,0,0:0:0:0:
42,192,100620,1,2,0:0:0:0:
128,192,100620,1,0,0:0:0:0:
213,192,100620,1,0,0:0:0:0:
298,192,100696,1,0,0:0:0:50:snare.wav
384,192,100696,1,0,0:0:0:0:
42,192,100773,1,0,0:0:0:50:snare.wav
469,192,100773,1,0,0:0:0:0:
128,192,100849,1,0,0:0:0:50:snare.wav
213,192,100926,1,2,0:0:0:0:
298,192,100926,1,4,0:0:0:0:
384,192,100926,1,0,0:0:0:70:tsch.wav
469,192,100926,1,0,0:0:0:0:
128,192,101002,1,0,0:0:0:0:
42,192,101079,1,2,0:0:0:0:
384,192,101079,1,0,0:0:0:0:
298,192,101155,1,0,0:0:0:0:
128,192,101232,1,8,0:0:0:0:
213,192,101232,1,0,0:0:0:0:
469,192,101232,1,0,0:0:0:0:
384,192,101308,1,0,0:0:0:0:
42,192,101385,1,0,0:0:0:0:
298,192,101385,1,0,0:0:0:0:
128,192,101461,1,0,0:0:0:0:
213,192,101538,1,2,0:0:0:0:
469,192,101538,1,0,0:0:0:0:
384,192,101614,1,0,0:0:0:0:
128,192,101691,1,2,0:0:0:0:
298,192,101691,1,0,0:0:0:0:
42,192,101768,1,0,0:0:0:0:
213,192,101844,1,8,0:0:0:0:
384,192,101844,1,0,0:0:0:0:
469,192,101844,1,0,0:0:0:0:
128,192,101921,1,0,0:0:0:0:
42,192,101997,1,0,0:0:0:0:
298,192,101997,1,0,0:0:0:0:
213,192,102074,1,0,0:0:0:50:snare.wav
469,192,102074,1,0,0:0:0:0:
128,192,102150,1,2,0:0:0:0:
384,192,102150,1,0,0:0:0:0:
42,192,102227,1,0,0:0:0:0:
298,192,102227,1,0,0:0:0:0:
213,192,102303,1,2,0:0:0:0:
469,192,102303,1,0,0:0:0:0:
128,192,102380,1,0,0:0:0:0:
384,192,102380,1,0,0:0:0:0:
42,192,102456,1,8,0:0:0:0:
298,192,102456,1,0,0:0:0:0:
469,192,102456,1,0,0:0:0:0:
128,192,102533,1,0,0:0:0:0:
213,192,102533,1,0,0:0:0:0:
384,192,102609,1,2,0:0:0:0:
469,192,102609,1,0,0:0:0:0:
42,192,102686,1,0,0:0:0:0:
298,192,102686,1,0,0:0:0:0:
128,192,102762,1,0,0:0:0:0:
469,192,102762,1,0,0:0:0:0:
213,192,102839,1,0,0:0:0:0:
384,192,102839,1,0,0:0:0:0:
42,192,102915,1,2,0:0:0:0:
298,192,102915,1,0,0:0:0:0:
128,192,102992,1,0,0:0:0:0:
213,192,102992,1,0,0:0:0:0:
42,192,103069,1,8,0:0:0:0:
384,192,103069,1,0,0:0:0:0:
469,192,103069,1,0,0:0:0:0:
213,192,103145,1,0,0:0:0:0:
298,192,103145,1,0,0:0:0:0:
42,192,103222,1,0,0:0:0:50:snare.wav
128,192,103222,1,0,0:0:0:0:
213,192,103298,1,0,0:0:0:50:snare.wav
384,192,103298,1,0,0:0:0:0:
298,192,103375,1,2,0:0:0:0:
469,192,103375,1,0,0:0:0:0:
42,192,103451,1,0,0:0:0:0:
384,192,103451,1,0,0:0:0:0:
128,192,103528,1,2,0:0:0:0:
213,192,103528,1,0,0:0:0:0:
298,192,103604,1,0,0:0:0:0:
469,192,103604,1,0,0:0:0:0:
42,192,103681,1,8,0:0:0:0:
128,192,103681,1,0,0:0:0:0:
384,192,103681,1,0,0:0:0:0:
42,192,103834,1,0,0:0:0:0:
213,192,103834,1,0,0:0:0:0:
298,192,103834,1,0,0:0:0:0:
469,192,103834,1,0,0:0:0:0:
213,192,104063,1,0,0:0:0:0:
469,192,104063,1,0,0:0:0:0:
128,192,104140,1,2,0:0:0:0:
384,192,104140,1,0,0:0:0:0:
42,192,104216,1,0,0:0:0:0:
298,192,104216,1,0,0:0:0:0:
213,192,104293,1,8,0:0:0:0:
469,192,104293,1,0,0:0:0:0:
128,192,104370,1,0,0:0:0:0:
384,192,104370,1,0,0:0:0:0:
42,192,104446,1,0,0:0:0:0:
298,192,104446,1,0,0:0:0:0:
128,192,104523,1,0,0:0:0:50:snare.wav
469,192,104523,1,0,0:0:0:0:
213,192,104599,1,2,0:0:0:0:
384,192,104599,1,0,0:0:0:0:
128,192,104701,1,0,0:0:0:50:snare.wav
298,192,104701,1,0,0:0:0:0:
469,192,104701,1,0,0:0:0:0:
42,192,104803,1,2,0:0:0:0:
384,192,104803,1,0,0:0:0:0:
213,192,104905,1,8,0:0:0:0:
298,192,104905,1,0,0:0:0:0:
469,192,104905,1,0,0:0:0:0:
128,192,105007,1,2,0:0:0:0:
384,192,105007,1,0,0:0:0:0:
42,192,105109,1,8,0:0:0:0:
213,192,105109,1,0,0:0:0:0:
298,192,105109,1,0,0:0:0:0:
128,192,105211,1,0,0:0:0:0:
469,192,105211,1,0,0:0:0:0:
298,192,105288,1,0,0:0:0:0:
384,192,105288,1,0,0:0:0:0:
42,192,105364,1,2,0:0:0:0:
213,192,105364,1,0,0:0:0:0:
469,192,105441,1,0,0:0:0:0:
128,192,105518,1,8,0:0:0:0:
298,192,105518,1,0,0:0:0:0:
384,192,105518,1,0,0:0:0:0:
42,192,105594,1,0,0:0:0:0:
213,192,105671,1,0,0:0:0:50:snare.wav
469,192,105671,1,0,0:0:0:0:
128,192,105747,1,0,0:0:0:50:snare.wav
384,192,105747,1,0,0:0:0:0:
42,192,105824,1,2,0:0:0:0:
298,192,105824,1,4,0:0:0:0:
469,192,105824,1,0,0:0:0:0:
128,192,105900,1,0,0:0:0:0:
213,192,105977,1,2,0:0:0:0:
469,192,105977,1,0,0:0:0:0:
42,192,106053,1,0,0:0:0:0:
298,192,106053,1,0,0:0:0:0:
128,192,106130,1,8,0:0:0:0:
213,192,106130,1,0,0:0:0:0:
384,192,106130,1,0,0:0:0:0:
469,192,106130,1,0,0:0:0:0:
42,192,106283,1,0,0:0:0:0:
213,192,106283,1,0,0:0:0:0:
469,192,106283,1,0,0:0:0:0:
384,192,106359,1,0,0:0:0:0:
42,192,106436,1,2,0:0:0:0:
298,192,106436,1,0,0:0:0:0:
213,192,106512,1,0,0:0:0:0:
469,192,106512,1,0,0:0:0:0:
128,192,106589,1,2,0:0:0:0:
298,192,106589,1,0,0:0:0:0:
384,192,106589,1,0,0:0:0:0:
42,192,106742,1,8,0:0:0:0:
213,192,106742,1,0,0:0:0:0:
298,192,106742,1,0,0:0:0:0:
469,192,106742,1,0,0:0:0:0:
128,192,106895,1,0,0:0:0:0:
469,192,106895,1,0,0:0:0:0:
42,192,107048,1,2,0:0:0:0:
298,192,107048,1,0,0:0:0:0:
384,192,107048,1,0,0:0:0:0:
213,192,107201,1,2,0:0:0:0:
469,192,107201,1,0,0:0:0:0:
128,192,107278,1,0,0:0:0:0:
298,192,107278,1,0,0:0:0:0:
42,192,107354,1,8,0:0:0:0:
213,192,107354,1,0,0:0:0:0:
384,192,107354,1,0,0:0:0:0:
469,192,107354,1,0,0:0:0:0:
298,192,107469,1,0,0:0:0:0:
128,192,107469,1,0,0:0:0:0:
213,192,107507,1,2,0:0:0:0:
384,192,107507,1,0,0:0:0:0:
469,192,107584,1,0,0:0:0:0:
42,192,107660,1,0,0:0:0:0:
128,192,107660,1,0,0:0:0:0:
213,192,107813,1,2,0:0:0:0:
469,192,107813,1,0,0:0:0:0:
128,192,107890,1,0,0:0:0:0:
384,192,107890,1,0,0:0:0:0:
42,192,107966,1,8,0:0:0:0:
213,192,107966,1,0,0:0:0:0:
298,192,107966,1,0,0:0:0:0:
384,192,108043,1,0,0:0:0:0:
469,192,108043,1,0,0:0:0:0:
128,192,108120,1,0,0:0:0:50:snare.wav
213,192,108120,1,0,0:0:0:0:
298,192,108196,1,0,0:0:0:50:snare.wav
384,192,108196,1,0,0:0:0:0:
42,192,108273,1,2,0:0:0:0:
128,192,108273,1,0,0:0:0:0:
469,192,108273,1,0,0:0:0:0:
213,192,108349,1,0,0:0:0:0:
298,192,108426,1,2,0:0:0:0:
384,192,108426,1,0,0:0:0:0:
469,192,108502,1,0,0:0:0:0:
42,192,108579,1,8,0:0:0:0:
213,192,108579,1,0,0:0:0:0:
298,192,108579,1,0,0:0:0:0:
384,192,108655,1,0,0:0:0:0:
128,192,108732,1,0,0:0:0:0:
469,192,108732,1,0,0:0:0:0:
213,192,108808,1,0,0:0:0:0:
42,192,108885,1,2,0:0:0:0:
298,192,108885,1,0,0:0:0:0:
128,192,108961,1,0,0:0:0:0:
213,192,109038,1,2,0:0:0:0:
469,192,109038,1,0,0:0:0:0:
384,192,109114,1,0,0:0:0:0:
42,192,109191,1,8,0:0:0:0:
128,192,109191,1,0,0:0:0:0:
298,192,109191,1,0,0:0:0:0:
469,192,109268,1,0,0:0:0:0:
213,192,109344,1,0,0:0:0:0:
384,192,109344,1,0,0:0:0:0:
128,192,109421,1,0,0:0:0:50:snare.wav
42,192,109497,1,4,0:0:0:0:
213,192,109497,1,2,0:0:0:0:
469,192,109497,1,0,0:0:0:0:
128,192,109574,1,0,0:0:0:50:snare.wav
384,192,109574,1,0,0:0:0:0:
42,192,109650,1,0,0:0:0:50:snare.wav
298,192,109650,1,0,0:0:0:0:
213,192,109727,1,0,0:0:0:50:snare.wav
469,192,109727,1,0,0:0:0:0:
128,192,109803,1,8,0:0:0:0:
384,192,109803,1,0,0:0:0:0:
42,192,109880,1,0,0:0:0:0:
298,192,109880,1,0,0:0:0:0:
213,192,109956,1,2,0:0:0:0:
384,192,109956,1,0,0:0:0:0:
128,192,110033,1,0,0:0:0:0:
469,192,110033,1,0,0:0:0:0:
42,192,110109,1,0,0:0:0:0:
298,192,110109,1,0,0:0:0:0:
128,192,110186,1,0,0:0:0:0:
384,192,110186,1,0,0:0:0:0:
213,192,110262,1,0,0:0:0:50:snare.wav
469,192,110262,1,0,0:0:0:0:
298,192,110339,1,0,0:0:0:50:snare.wav
384,192,110339,1,0,0:0:0:0:
42,192,110415,1,0,0:0:0:0:
128,192,110415,1,0,0:0:0:0:
213,192,110415,1,0,0:0:0:0:
384,192,110492,1,0,0:0:0:70:tom03.wav
469,192,110492,1,0,0:0:0:0:
42,192,110569,1,2,0:0:0:0:
128,192,110569,1,0,0:0:0:0:
298,192,110569,1,0,0:0:0:0:
213,192,110645,1,2,0:0:0:0:
384,192,110645,1,0,0:0:0:0:
42,192,110722,1,2,0:0:0:0:
128,192,110722,1,4,0:0:0:0:
469,192,110722,1,0,0:0:0:0:
213,192,110798,1,0,0:0:0:0:
298,192,110798,1,0,0:0:0:0:
384,192,110875,1,2,0:0:0:0:
469,192,110875,1,0,0:0:0:0:
42,192,110951,1,0,0:0:0:0:
128,192,110951,1,0,0:0:0:0:
298,192,111028,1,8,0:0:0:0:
384,192,111028,1,0,0:0:0:0:
128,192,111104,1,0,0:0:0:0:
213,192,111104,1,0,0:0:0:0:
42,192,111181,1,0,0:0:0:0:
469,192,111181,1,0,0:0:0:0:
298,192,111257,1,0,0:0:0:0:
384,192,111257,1,0,0:0:0:0:
128,192,111334,1,2,0:0:0:0:
213,192,111334,1,0,0:0:0:0:
298,192,111410,1,0,0:0:0:0:
384,192,111487,1,2,0:0:0:0:
469,192,111487,1,0,0:0:0:0:
42,192,111563,1,0,0:0:0:0:
128,192,111563,1,0,0:0:0:0:
213,192,111640,1,8,0:0:0:0:
298,192,111716,1,0,0:0:0:0:
469,192,111716,1,0,0:0:0:0:
42,192,111793,1,0,0:0:0:0:
213,192,111793,1,0,0:0:0:0:
469,192,111870,1,0,0:0:0:50:snare.wav
298,192,111946,1,2,0:0:0:0:
384,192,111946,1,0,0:0:0:0:
42,192,112023,1,0,0:0:0:0:
128,192,112023,1,0,0:0:0:0:
213,192,112099,1,2,0:0:0:0:
384,192,112176,1,0,0:0:0:0:
469,192,112176,1,0,0:0:0:0:
128,192,112252,1,8,0:0:0:0:
213,192,112252,1,0,0:0:0:0:
298,192,112329,1,0,0:0:0:0:
42,192,112405,1,2,0:0:0:0:
384,192,112405,1,0,0:0:0:0:
128,192,112482,1,0,0:0:0:0:
469,192,112482,1,0,0:0:0:0:
213,192,112558,1,0,0:0:0:0:
298,192,112558,1,0,0:0:0:0:
42,192,112635,1,0,0:0:0:0:
384,192,112635,1,0,0:0:0:0:
213,192,112711,1,2,0:0:0:0:
469,192,112711,1,0,0:0:0:0:
128,192,112788,1,0,0:0:0:0:
384,192,112788,1,0,0:0:0:0:
42,192,112864,1,8,0:0:0:0:
213,192,112864,1,0,0:0:0:0:
298,192,112864,1,0,0:0:0:0:
128,192,112941,1,0,0:0:0:0:
469,192,112941,1,0,0:0:0:0:
298,192,113018,1,0,0:0:0:50:snare.wav
384,192,113018,1,0,0:0:0:0:
42,192,113094,1,0,0:0:0:50:snare.wav
213,192,113094,1,0,0:0:0:0:
128,192,113171,1,2,0:0:0:0:
384,192,113171,1,0,0:0:0:0:
213,192,113247,1,0,0:0:0:0:
469,192,113247,1,0,0:0:0:0:
42,192,113324,1,0,0:0:0:0:
298,192,113324,1,0,0:0:0:0:
128,192,113400,1,0,0:0:0:0:
384,192,113400,1,0,0:0:0:0:
213,192,113477,1,0,0:0:0:0:
469,192,113477,1,0,0:0:0:0:
128,192,113553,1,0,0:0:0:0:
384,192,113553,1,0,0:0:0:0:
42,192,113630,1,8,0:0:0:0:
213,192,113630,1,0,0:0:0:0:
298,192,113630,1,0,0:0:0:0:
469,192,113630,1,0,0:0:0:0:
42,192,113859,1,4,0:0:0:0:
128,192,113859,1,2,0:0:0:0:
213,192,113859,1,0,0:0:0:0:
298,192,113859,1,0,0:0:0:0:
469,192,113859,1,0,0:0:0:0:
42,192,114089,1,4,0:0:0:0:
128,192,114089,1,8,0:0:0:0:
298,192,114089,1,0,0:0:0:0:
384,192,114089,1,0,0:0:0:0:
469,192,114089,1,0,0:0:0:0:
42,192,114319,1,4,0:0:0:0:
128,192,114319,1,8,0:0:0:0:
213,192,114319,1,0,0:0:0:0:
384,192,114319,1,0,0:0:0:0:
469,192,114319,1,0,0:0:0:0:
42,192,114625,1,0,0:0:0:0:
298,192,114625,1,0,0:0:0:0:
213,192,114701,1,0,0:0:0:50:snare.wav
469,192,114701,1,0,0:0:0:0:
128,192,114778,1,0,0:0:0:50:snare.wav
384,192,114778,1,0,0:0:0:0:
42,192,114854,1,8,0:0:0:0:
298,192,114854,1,4,0:0:0:0:
213,192,114931,1,0,0:0:0:0:
469,192,114931,1,0,0:0:0:0:
128,192,115007,1,2,0:0:0:0:
384,192,115007,1,0,0:0:0:0:
213,192,115084,1,0,0:0:0:0:
469,192,115084,1,0,0:0:0:0:
42,192,115160,1,0,0:0:0:50:snare.wav
298,192,115160,1,0,0:0:0:0:
128,192,115237,1,0,0:0:0:50:snare.wav
384,192,115237,1,0,0:0:0:0:
213,192,115313,1,8,0:0:0:0:
298,192,115313,1,0,0:0:0:0:
42,192,115390,1,0,0:0:0:50:snare.wav
469,192,115390,1,0,0:0:0:0:
128,192,115466,1,0,0:0:0:50:snare.wav
384,192,115466,1,0,0:0:0:0:
213,192,115543,1,0,0:0:0:50:snare.wav
298,192,115543,1,0,0:0:0:0:
42,192,115620,1,2,0:0:0:0:
128,192,115620,1,4,0:0:0:0:
384,192,115620,1,0,0:0:0:0:
469,192,115620,1,0,0:0:0:0:
213,192,115696,1,0,0:0:0:0:
42,192,115773,1,2,0:0:0:0:
298,192,115773,1,0,0:0:0:0:
128,192,115849,1,0,0:0:0:0:
42,192,115926,1,8,0:0:0:0:
213,192,115926,1,0,0:0:0:0:
384,192,115926,1,0,0:0:0:0:
469,192,115926,1,0,0:0:0:0:
298,192,116002,1,0,0:0:0:0:
128,192,116079,1,2,0:0:0:0:
384,192,116079,1,0,0:0:0:0:
213,192,116155,1,0,0:0:0:0:
42,192,116232,1,8,0:0:0:0:
298,192,116232,1,0,0:0:0:0:
384,192,116232,1,0,0:0:0:0:
469,192,116232,1,0,0:0:0:0:
128,192,116308,1,0,0:0:0:0:
213,192,116385,1,2,0:0:0:0:
469,192,116385,1,0,0:0:0:0:
384,192,116461,1,0,0:0:0:0:
42,192,116538,1,8,0:0:0:0:
128,192,116538,1,0,0:0:0:0:
213,192,116538,1,0,0:0:0:0:
298,192,116538,1,0,0:0:0:0:
384,192,116614,1,0,0:0:0:0:
213,192,116691,1,2,0:0:0:0:
469,192,116691,1,0,0:0:0:0:
128,192,116768,1,0,0:0:0:0:
42,192,116844,1,8,0:0:0:0:
213,192,116844,1,4,0:0:0:0:
298,192,116844,1,0,0:0:0:0:
469,192,116844,1,0,0:0:0:0:
128,192,116921,1,0,0:0:0:0:
384,192,116921,1,0,0:0:0:0:
42,192,116997,1,2,0:0:0:0:
298,192,116997,1,0,0:0:0:0:
213,192,117074,1,0,0:0:0:0:
469,192,117074,1,0,0:0:0:0:
42,192,117150,1,8,0:0:0:0:
128,192,117150,1,0,0:0:0:0:
298,192,117150,1,0,0:0:0:0:
384,192,117150,1,0,0:0:0:0:
213,192,117227,1,0,0:0:0:0:
469,192,117227,1,0,0:0:0:0:
128,192,117303,1,2,0:0:0:0:
384,192,117303,1,0,0:0:0:0:
42,192,117380,1,0,0:0:0:0:
298,192,117380,1,0,0:0:0:0:
128,192,117456,1,8,0:0:0:0:
213,192,117456,1,0,0:0:0:0:
384,192,117456,1,0,0:0:0:0:
469,192,117456,1,0,0:0:0:0:
42,192,117533,1,0,0:0:0:0:
298,192,117533,1,0,0:0:0:0:
213,192,117609,1,2,0:0:0:0:
469,192,117609,1,0,0:0:0:0:
128,192,117686,1,0,0:0:0:0:
384,192,117686,1,0,0:0:0:0:
42,192,117762,1,8,0:0:0:0:
213,192,117762,1,0,0:0:0:0:
298,192,117762,1,0,0:0:0:0:
469,192,117762,1,0,0:0:0:0:
128,192,117839,1,0,0:0:0:0:
384,192,117839,1,0,0:0:0:0:
42,192,117915,1,0,0:0:0:100:snare.wav
298,192,117915,1,0,0:0:0:0:
213,192,117992,1,0,0:0:0:0:
469,192,117992,1,0,0:0:0:0:
42,192,118069,1,4,0:0:0:0:
128,192,118069,1,2,0:0:0:0:
298,192,118069,1,0,0:0:0:0:
384,192,118069,1,0,0:0:0:0:
213,192,118145,1,0,0:0:0:0:
298,192,118222,1,2,0:0:0:0:
384,192,118298,1,0,0:0:0:0:
42,192,118375,1,4,0:0:0:0:
128,192,118375,1,0,0:0:0:0:
213,192,118375,1,0,0:0:0:0:
469,192,118375,1,0,0:0:0:0:
384,192,118451,1,0,0:0:0:0:
298,192,118528,1,0,0:0:0:0:
213,192,118604,1,0,0:0:0:0:
42,192,118681,1,0,0:0:0:0:
128,192,118681,1,0,0:0:0:0:
384,192,118681,1,0,0:0:0:0:
469,192,118681,1,0,0:0:0:0:
298,192,118757,1,0,0:0:0:0:
213,192,118834,1,2,0:0:0:0:
128,192,118910,1,2,0:0:0:0:
42,192,118987,1,8,0:0:0:0:
298,192,118987,1,0,0:0:0:0:
384,192,118987,1,0,0:0:0:0:
469,192,118987,1,0,0:0:0:0:
128,192,119063,1,0,0:0:0:0:
213,192,119140,1,2,0:0:0:0:
298,192,119216,1,2,0:0:0:0:
384,192,119293,1,4,0:0:0:0:
469,192,119293,1,0,0:0:0:0:
42,192,119370,1,0,0:0:0:50:snare.wav
128,192,119370,1,0,0:0:0:0:
213,192,119446,1,0,0:0:0:50:snare.wav
298,192,119446,1,0,0:0:0:0:
384,192,119523,1,0,0:0:0:50:snare.wav
469,192,119523,1,0,0:0:0:0:
42,192,119599,1,2,0:0:0:0:
128,192,119599,1,0,0:0:0:0:
213,192,119599,1,0,0:0:0:0:
384,192,119676,1,0,0:0:0:50:snare.wav
469,192,119676,1,0,0:0:0:0:
213,192,119752,1,0,0:0:0:50:snare.wav
298,192,119752,1,0,0:0:0:0:
42,192,119829,1,0,0:0:0:50:snare.wav
128,192,119829,1,0,0:0:0:0:
298,192,119905,1,8,0:0:0:0:
384,192,119905,1,0,0:0:0:0:
469,192,119905,1,0,0:0:0:0:
42,192,119982,1,0,0:0:0:50:snare.wav
213,192,119982,1,0,0:0:0:0:
128,192,120058,1,0,0:0:0:50:snare.wav
298,192,120058,1,0,0:0:0:0:
213,192,120135,1,0,0:0:0:50:snare.wav
384,192,120135,1,0,0:0:0:0:
42,192,120211,1,2,0:0:0:0:
298,192,120211,1,0,0:0:0:0:
469,192,120211,1,0,0:0:0:0:
128,192,120288,1,0,0:0:0:50:snare.wav
384,192,120288,1,0,0:0:0:0:
213,192,120364,1,0,0:0:0:50:snare.wav
469,192,120364,1,0,0:0:0:0:
128,192,120441,1,0,0:0:0:50:snare.wav
298,192,120441,1,0,0:0:0:0:
42,192,120518,1,0,0:0:0:70:cymbal.wav
213,192,120518,1,0,0:0:0:70:twinkling.wav
384,192,120518,1,0,0:0:0:0:
469,192,120518,1,0,0:0:0:0:
128,192,120620,1,0,0:0:0:0:
298,192,120722,1,0,0:0:0:0:
42,192,120824,1,0,0:0:0:0:
213,192,120824,1,0,0:0:0:0:
298,192,120926,1,0,0:0:0:0:
469,192,121028,1,0,0:0:0:0:
42,192,121130,1,0,0:0:0:70:tick.wav
213,192,121130,1,0,0:0:0:0:
384,192,121130,1,0,0:0:0:0:
128,192,121232,1,0,0:0:0:0:
213,192,121334,1,0,0:0:0:0:
128,192,121436,1,0,0:0:0:0:
384,192,121436,1,0,0:0:0:0:
298,192,121538,1,0,0:0:0:0:
469,192,121640,1,0,0:0:0:0:
42,192,121742,1,0,0:0:0:0:
213,192,121742,1,0,0:0:0:0:
298,192,121742,1,0,0:0:0:0:
384,192,121844,1,0,0:0:0:0:
128,192,121946,1,0,0:0:0:0:
42,192,122048,1,0,0:0:0:0:
298,192,122048,1,0,0:0:0:0:
213,192,122150,1,0,0:0:0:0:
469,192,122252,1,0,0:0:0:0:
42,192,122354,1,0,0:0:0:70:tick.wav
128,192,122354,1,0,0:0:0:0:
298,192,122354,1,0,0:0:0:0:
213,192,122456,1,0,0:0:0:0:
384,192,122558,1,0,0:0:0:0:
128,192,122660,1,0,0:0:0:0:
298,192,122660,1,0,0:0:0:0:
384,192,122762,1,0,0:0:0:0:
469,192,122864,1,0,0:0:0:0:
42,192,122966,1,0,0:0:0:0:
213,192,122966,1,0,0:0:0:0:
298,192,122966,1,0,0:0:0:0:
128,192,123069,1,0,0:0:0:0:
298,192,123171,1,0,0:0:0:0:
42,192,123273,1,0,0:0:0:0:
213,192,123273,1,0,0:0:0:0:
298,192,123375,1,0,0:0:0:0:
469,192,123477,1,0,0:0:0:0:
42,192,123579,1,0,0:0:0:70:tick.wav
213,192,123579,1,0,0:0:0:0:
384,192,123579,1,0,0:0:0:0:
128,192,123681,1,0,0:0:0:0:
213,192,123783,1,0,0:0:0:0:
128,192,123885,1,0,0:0:0:0:
384,192,123885,1,0,0:0:0:0:
298,192,123987,1,0,0:0:0:0:
469,192,124089,1,0,0:0:0:0:
42,192,124191,1,0,0:0:0:0:
213,192,124191,1,0,0:0:0:0:
298,192,124191,1,0,0:0:0:0:
384,192,124293,1,0,0:0:0:0:
128,192,124395,1,0,0:0:0:0:
42,192,124497,1,0,0:0:0:0:
298,192,124497,1,0,0:0:0:0:
213,192,124599,1,0,0:0:0:0:
469,192,124701,1,0,0:0:0:0:
42,192,124803,1,0,0:0:0:70:tick.wav
128,192,124803,1,0,0:0:0:0:
298,192,124803,1,0,0:0:0:0:
213,192,124905,1,0,0:0:0:0:
384,192,125007,1,0,0:0:0:0:
128,192,125109,1,2,0:0:0:0:
298,192,125109,1,0,0:0:0:0:
384,192,125211,1,0,0:0:0:0:
469,192,125313,1,0,0:0:0:0:
42,192,125415,1,2,0:0:0:0:
213,192,125415,1,0,0:0:0:70:cymbal.wav
298,192,125415,1,0,0:0:0:0:
128,192,125518,1,0,0:0:0:0:
298,192,125620,1,0,0:0:0:0:
42,192,125722,1,0,0:0:0:0:
213,192,125722,1,0,0:0:0:0:
298,192,125824,1,0,0:0:0:0:
469,192,125926,1,0,0:0:0:0:
42,192,126028,1,0,0:0:0:70:tick.wav
213,192,126028,1,0,0:0:0:0:
384,192,126028,1,0,0:0:0:0:
128,192,126130,1,0,0:0:0:0:
213,192,126232,1,0,0:0:0:0:
128,192,126334,1,0,0:0:0:0:
384,192,126334,1,0,0:0:0:0:
298,192,126436,1,0,0:0:0:0:
469,192,126538,1,0,0:0:0:0:
42,192,126640,1,0,0:0:0:0:
213,192,126640,1,0,0:0:0:0:
298,192,126640,1,0,0:0:0:0:
384,192,126742,1,0,0:0:0:0:
128,192,126844,1,0,0:0:0:0:
42,192,126946,1,0,0:0:0:0:
298,192,126946,1,0,0:0:0:0:
213,192,127048,1,0,0:0:0:0:
469,192,127150,1,0,0:0:0:0:
42,192,127252,1,0,0:0:0:70:tick.wav
128,192,127252,1,0,0:0:0:0:
298,192,127252,1,0,0:0:0:0:
213,192,127354,1,0,0:0:0:0:
384,192,127456,1,0,0:0:0:0:
128,192,127558,1,0,0:0:0:0:
298,192,127558,1,0,0:0:0:0:
384,192,127660,1,0,0:0:0:0:
469,192,127762,1,0,0:0:0:0:
42,192,127864,1,0,0:0:0:0:
213,192,127864,1,0,0:0:0:0:
298,192,127864,1,0,0:0:0:0:
128,192,127966,1,0,0:0:0:0:
298,192,128069,1,0,0:0:0:0:
42,192,128171,1,0,0:0:0:0:
213,192,128171,1,0,0:0:0:0:
298,192,128273,1,0,0:0:0:0:
469,192,128375,1,0,0:0:0:0:
42,192,128477,1,0,0:0:0:70:tick.wav
213,192,128477,1,0,0:0:0:0:
384,192,128477,1,0,0:0:0:0:
128,192,128579,1,0,0:0:0:0:
213,192,128681,1,0,0:0:0:0:
128,192,128783,1,0,0:0:0:0:
384,192,128783,1,0,0:0:0:0:
298,192,128885,1,0,0:0:0:0:
469,192,128987,1,0,0:0:0:0:
42,192,129089,1,0,0:0:0:0:
213,192,129089,1,0,0:0:0:0:
298,192,129089,1,0,0:0:0:0:
384,192,129191,1,0,0:0:0:0:
128,192,129293,1,0,0:0:0:0:
42,192,129395,1,0,0:0:0:0:
298,192,129395,1,0,0:0:0:0:
213,192,129497,1,0,0:0:0:0:
469,192,129599,1,0,0:0:0:0:
42,192,129701,1,0,0:0:0:70:tick.wav
128,192,129701,1,0,0:0:0:0:
298,192,129701,1,0,0:0:0:0:
213,192,129803,1,0,0:0:0:0:
384,192,129905,1,0,0:0:0:0:
128,192,130007,1,2,0:0:0:0:
298,192,130007,1,0,0:0:0:0:
384,192,130109,1,0,0:0:0:0:
469,192,130211,1,0,0:0:0:0:
42,192,130313,1,2,0:0:0:0:
128,192,130313,1,0,0:0:0:70:cymbal.wav
213,192,130313,1,0,0:0:0:0:
298,192,130313,1,0,0:0:0:0:
213,192,130466,1,0,0:0:0:0:
384,192,130466,1,0,0:0:0:0:
42,192,130620,1,2,0:0:0:0:
298,192,130620,1,0,0:0:0:0:
384,192,130620,1,0,0:0:0:0:
469,192,130620,1,0,0:0:0:0:
128,192,130773,1,0,0:0:0:0:
298,192,130773,1,0,0:0:0:0:
42,192,130926,1,2,0:0:0:0:
128,192,130926,1,0,0:0:0:70:tick.wav
384,192,130926,1,0,0:0:0:0:
469,192,130926,1,0,0:0:0:0:
213,192,131079,1,0,0:0:0:0:
384,192,131079,1,0,0:0:0:0:
42,192,131232,1,2,0:0:0:0:
213,192,131232,1,0,0:0:0:0:
298,192,131232,1,0,0:0:0:0:
469,192,131232,1,0,0:0:0:0:
128,192,131385,1,0,0:0:0:0:
298,192,131385,1,0,0:0:0:0:
42,192,131538,1,2,0:0:0:0:
128,192,131538,1,0,0:0:0:0:
384,192,131538,1,0,0:0:0:0:
469,192,131538,1,0,0:0:0:0:
213,192,131691,1,0,0:0:0:0:
384,192,131691,1,0,0:0:0:0:
42,192,131844,1,2,0:0:0:0:
128,192,131844,1,0,0:0:0:0:
298,192,131844,1,0,0:0:0:0:
213,192,131997,1,0,0:0:0:0:
384,192,131997,1,0,0:0:0:0:
42,192,132150,1,2,0:0:0:0:
128,192,132150,1,0,0:0:0:70:tick.wav
298,192,132150,1,0,0:0:0:0:
469,192,132150,1,0,0:0:0:0:
128,192,132303,1,0,0:0:0:0:
213,192,132303,1,0,0:0:0:0:
42,192,132456,1,2,0:0:0:0:
213,192,132456,1,0,0:0:0:0:
384,192,132456,1,0,0:0:0:0:
469,192,132456,1,0,0:0:0:0:
128,192,132609,1,0,0:0:0:0:
384,192,132609,1,0,0:0:0:0:
42,192,132762,1,2,0:0:0:0:
213,192,132762,1,0,0:0:0:0:
298,192,132762,1,0,0:0:0:0:
469,192,132762,1,0,0:0:0:0:
128,192,132915,1,0,0:0:0:0:
213,192,132915,1,0,0:0:0:0:
42,192,133069,1,2,0:0:0:0:
128,192,133069,1,0,0:0:0:0:
298,192,133069,1,0,0:0:0:0:
384,192,133069,1,0,0:0:0:0:
298,192,133222,1,0,0:0:0:0:
469,192,133222,1,0,0:0:0:0:
42,192,133375,1,2,0:0:0:0:
213,192,133375,1,0,0:0:0:70:tick.wav
384,192,133375,1,0,0:0:0:0:
469,192,133375,1,0,0:0:0:0:
128,192,133528,1,0,0:0:0:0:
213,192,133528,1,0,0:0:0:0:
42,192,133681,1,2,0:0:0:0:
128,192,133681,1,0,0:0:0:0:
298,192,133681,1,0,0:0:0:0:
384,192,133681,1,0,0:0:0:0:
298,192,133834,1,0,0:0:0:0:
469,192,133834,1,0,0:0:0:0:
128,192,133987,1,2,0:0:0:0:
213,192,133987,1,0,0:0:0:0:
384,192,133987,1,0,0:0:0:0:
469,192,133987,1,0,0:0:0:0:
42,192,134140,1,0,0:0:0:0:
213,192,134140,1,0,0:0:0:0:
42,192,134293,1,2,0:0:0:0:
128,192,134293,1,0,0:0:0:0:
298,192,134293,1,0,0:0:0:0:
384,192,134293,1,0,0:0:0:0:
298,192,134446,1,0,0:0:0:0:
469,192,134446,1,0,0:0:0:0:
42,192,134599,1,2,0:0:0:0:
213,192,134599,1,0,0:0:0:70:tick.wav
384,192,134599,1,0,0:0:0:0:
469,192,134599,1,0,0:0:0:0:
128,192,134752,1,0,0:0:0:0:
213,192,134752,1,0,0:0:0:0:
42,192,134905,1,8,0:0:0:0:
128,192,134905,1,0,0:0:0:0:
384,192,134905,1,0,0:0:0:0:
469,192,134905,1,0,0:0:0:0:
298,192,135058,1,0,0:0:0:0:
384,192,135058,1,0,0:0:0:0:
128,192,135135,1,0,0:0:0:0:
213,192,135135,1,0,0:0:0:0:
42,192,135211,1,2,0:0:0:0:
298,192,135211,1,0,0:0:0:70:cymbal.wav
384,192,135211,1,0,0:0:0:0:
469,192,135211,1,0,0:0:0:0:
128,192,135288,1,0,0:0:0:0:
213,192,135288,1,0,0:0:0:0:
298,192,135364,1,2,0:0:0:0:
384,192,135364,1,0,0:0:0:0:
42,192,135441,1,0,0:0:0:0:
128,192,135518,1,2,0:0:0:0:
213,192,135518,1,0,0:0:0:0:
298,192,135518,1,0,0:0:0:0:
384,192,135594,1,0,0:0:0:0:
469,192,135594,1,0,0:0:0:0:
42,192,135671,1,2,0:0:0:0:
128,192,135671,1,0,0:0:0:0:
213,192,135671,1,0,0:0:0:0:
298,192,135747,1,2,0:0:0:0:
384,192,135747,1,0,0:0:0:0:
42,192,135824,1,8,0:0:0:0:
128,192,135824,1,0,0:0:0:70:tick.wav
469,192,135824,1,0,0:0:0:0:
213,192,135900,1,0,0:0:0:0:
298,192,135977,1,2,0:0:0:0:
384,192,135977,1,0,0:0:0:0:
128,192,136053,1,2,0:0:0:0:
42,192,136130,1,2,0:0:0:0:
213,192,136130,1,0,0:0:0:0:
298,192,136130,1,0,0:0:0:0:
384,192,136206,1,0,0:0:0:0:
128,192,136283,1,2,0:0:0:0:
469,192,136283,1,0,0:0:0:0:
213,192,136359,1,2,0:0:0:0:
298,192,136359,1,0,0:0:0:0:
42,192,136436,1,2,0:0:0:0:
384,192,136436,1,0,0:0:0:70:ride.wav
469,192,136436,1,0,0:0:0:0:
128,192,136512,1,0,0:0:0:0:
298,192,136589,1,2,0:0:0:0:
469,192,136589,1,0,0:0:0:0:
42,192,136665,1,2,0:0:0:0:
213,192,136742,1,2,0:0:0:0:
384,192,136742,1,0,0:0:0:0:
469,192,136819,1,0,0:0:0:0:
128,192,136895,1,2,0:0:0:0:
298,192,136895,1,0,0:0:0:0:
384,192,136972,1,2,0:0:0:0:
42,192,137048,1,8,0:0:0:0:
213,192,137048,1,0,0:0:0:70:tick.wav
469,192,137048,1,0,0:0:0:0:
298,192,137125,1,0,0:0:0:0:
128,192,137201,1,2,0:0:0:0:
384,192,137201,1,0,0:0:0:0:
213,192,137278,1,0,0:0:0:0:
42,192,137354,1,2,0:0:0:0:
298,192,137354,1,0,0:0:0:0:
469,192,137354,1,0,0:0:0:0:
128,192,137431,1,0,0:0:0:0:
213,192,137507,1,8,0:0:0:0:
384,192,137507,1,0,0:0:0:0:
469,192,137507,1,0,0:0:0:0:
128,192,137584,1,8,0:0:0:0:
298,192,137584,1,0,0:0:0:0:
42,192,137660,1,2,0:0:0:0:
213,192,137660,1,0,0:0:0:70:ride.wav
384,192,137660,1,0,0:0:0:0:
469,192,137660,1,0,0:0:0:0:
128,192,137813,1,2,0:0:0:0:
298,192,137813,1,0,0:0:0:0:
384,192,137890,1,2,0:0:0:0:
42,192,137966,1,2,0:0:0:0:
128,192,137966,1,0,0:0:0:0:
213,192,137966,1,0,0:0:0:0:
469,192,137966,1,0,0:0:0:0:
298,192,138120,1,2,0:0:0:0:
469,192,138120,1,0,0:0:0:0:
42,192,138273,1,8,0:0:0:0:
128,192,138273,1,0,0:0:0:70:tick.wav
298,192,138273,1,0,0:0:0:0:
384,192,138273,1,0,0:0:0:0:
128,192,138426,1,2,0:0:0:0:
213,192,138426,1,0,0:0:0:0:
128,192,138579,1,2,0:0:0:0:
213,192,138579,1,0,0:0:0:0:
384,192,138579,1,0,0:0:0:0:
469,192,138579,1,0,0:0:0:0:
42,192,138655,1,8,0:0:0:0:
298,192,138655,1,0,0:0:0:0:
213,192,138732,1,8,0:0:0:0:
469,192,138732,1,0,0:0:0:0:
128,192,138808,1,8,0:0:0:0:
384,192,138808,1,0,0:0:0:0:
42,192,138885,1,2,0:0:0:0:
213,192,138885,1,0,0:0:0:70:ride.wav
298,192,138885,1,0,0:0:0:0:
469,192,138885,1,0,0:0:0:0:
384,192,138961,1,0,0:0:0:0:
128,192,139038,1,0,0:0:0:0:
298,192,139038,1,0,0:0:0:0:
42,192,139114,1,0,0:0:0:0:
213,192,139114,1,0,0:0:0:0:
128,192,139191,1,2,0:0:0:0:
298,192,139191,1,0,0:0:0:70:ride1.wav
384,192,139191,1,0,0:0:0:0:
469,192,139191,1,0,0:0:0:0:
213,192,139803,1,0,0:0:0:100:C#7S_Db7S_s.wav
298,192,139841,1,0,0:0:0:0:
42,192,140109,1,2,0:0:0:0:
128,192,140109,1,4,0:0:0:0:
213,192,140109,1,0,0:0:0:0:
384,192,140109,1,0,0:0:0:0:
469,192,140109,1,0,0:0:0:0:
384,192,140262,1,0,0:0:0:0:
469,192,140262,1,0,0:0:0:0:
42,192,140415,1,2,0:0:0:0:
128,192,140415,1,0,0:0:0:0:
213,192,140415,1,0,0:0:0:0:
42,192,140569,1,0,0:0:0:0:
128,192,140569,1,0,0:0:0:0:
298,192,140722,1,2,0:0:0:0:
384,192,140722,1,0,0:0:0:0:
469,192,140722,1,0,0:0:0:0:
298,192,140875,1,0,0:0:0:0:
384,192,140875,1,0,0:0:0:0:
42,192,141028,1,2,0:0:0:0:
128,192,141028,1,0,0:0:0:0:
213,192,141028,1,0,0:0:0:0:
128,192,141181,1,0,0:0:0:0:
213,192,141181,1,0,0:0:0:0:
42,192,141334,1,2,0:0:0:0:
298,192,141334,1,0,0:0:0:70:ride.wav
384,192,141334,1,0,0:0:0:0:
469,192,141334,1,0,0:0:0:0:
298,192,141487,1,0,0:0:0:0:
384,192,141487,1,0,0:0:0:0:
128,192,141563,1,0,0:0:0:0:
213,192,141563,1,0,0:0:0:0:
42,192,141640,1,2,0:0:0:0:
298,192,141640,1,0,0:0:0:0:
384,192,141640,1,0,0:0:0:0:
128,192,141716,1,0,0:0:0:0:
469,192,141716,1,0,0:0:0:0:
213,192,141793,1,0,0:0:0:0:
298,192,141793,1,0,0:0:0:0:
42,192,141870,1,0,0:0:0:0:
384,192,141870,1,0,0:0:0:0:
128,192,141946,1,2,0:0:0:0:
213,192,141946,1,0,0:0:0:0:
469,192,141946,1,0,0:0:0:0:
42,192,142023,1,0,0:0:0:0:
298,192,142023,1,0,0:0:0:0:
128,192,142099,1,0,0:0:0:0:
469,192,142099,1,0,0:0:0:0:
213,192,142176,1,0,0:0:0:0:
298,192,142176,1,0,0:0:0:0:
128,192,142252,1,2,0:0:0:0:
384,192,142252,1,0,0:0:0:0:
469,192,142252,1,0,0:0:0:0:
42,192,142329,1,0,0:0:0:0:
298,192,142329,1,0,0:0:0:0:
128,192,142405,1,0,0:0:0:0:
384,192,142405,1,0,0:0:0:0:
213,192,142482,1,0,0:0:0:0:
469,192,142482,1,0,0:0:0:0:
42,192,142558,1,2,0:0:0:0:
128,192,142558,1,0,0:0:0:70:ride.wav
298,192,142558,1,0,0:0:0:0:
384,192,142558,1,0,0:0:0:0:
42,192,142711,1,0,0:0:0:0:
298,192,142711,1,0,0:0:0:0:
213,192,142864,1,2,0:0:0:0:
469,192,142864,1,0,0:0:0:0:
42,192,143018,1,0,0:0:0:0:
213,192,143018,1,0,0:0:0:0:
384,192,143018,1,0,0:0:0:0:
469,192,143018,1,0,0:0:0:0:
42,192,143171,1,2,0:0:0:0:
384,192,143171,1,0,0:0:0:0:
128,192,143324,1,0,0:0:0:0:
469,192,143324,1,0,0:0:0:0:
42,192,143477,1,2,0:0:0:0:
128,192,143477,1,0,0:0:0:0:
384,192,143477,1,0,0:0:0:0:
469,192,143477,1,0,0:0:0:0:
42,192,143630,1,0,0:0:0:0:
384,192,143630,1,0,0:0:0:0:
128,192,143783,1,2,0:0:0:0:
213,192,143783,1,0,0:0:0:70:ride.wav
298,192,143783,1,0,0:0:0:0:
469,192,143783,1,0,0:0:0:0:
42,192,143936,1,0,0:0:0:70:tom03.wav
298,192,143936,1,0,0:0:0:0:
384,192,143936,1,0,0:0:0:0:
213,192,144012,1,0,0:0:0:70:tom02.wav
128,192,144089,1,2,0:0:0:0:
384,192,144089,1,0,0:0:0:0:
469,192,144089,1,0,0:0:0:0:
298,192,144165,1,0,0:0:0:70:tom03.wav
42,192,144242,1,0,0:0:0:70:tom04.wav
213,192,144242,1,0,0:0:0:0:
469,192,144242,1,0,0:0:0:0:
384,192,144319,1,0,0:0:0:0:
42,192,144395,1,8,0:0:0:0:
128,192,144395,1,0,0:0:0:0:
298,192,144395,1,0,0:0:0:0:
384,192,144472,1,0,0:0:0:50:snare.wav
128,192,144548,1,0,0:0:0:50:snare.wav
213,192,144548,1,0,0:0:0:0:
469,192,144548,1,0,0:0:0:0:
298,192,144625,1,0,0:0:0:50:snare.wav
42,192,144701,1,2,0:0:0:0:
128,192,144701,1,0,0:0:0:0:
384,192,144701,1,0,0:0:0:0:
213,192,144778,1,0,0:0:0:0:
469,192,144778,1,0,0:0:0:0:
42,192,144854,1,8,0:0:0:0:
298,192,144854,1,0,0:0:0:0:
384,192,144854,1,0,0:0:0:0:
128,192,144931,1,0,0:0:0:0:
213,192,144931,1,0,0:0:0:0:
42,192,145007,1,2,0:0:0:0:
384,192,145007,1,4,0:0:0:0:
469,192,145007,1,0,0:0:0:0:
298,192,145084,1,0,0:0:0:0:
42,192,145160,1,0,0:0:0:70:tom02.wav
213,192,145160,1,0,0:0:0:0:
298,192,145237,1,0,0:0:0:70:tom03.wav
469,192,145237,1,0,0:0:0:0:
128,192,145313,1,2,0:0:0:0:
213,192,145313,1,0,0:0:0:0:
298,192,145390,1,0,0:0:0:70:tom03.wav
384,192,145390,1,0,0:0:0:0:
128,192,145466,1,0,0:0:0:70:tom04.wav
213,192,145466,1,0,0:0:0:0:
298,192,145543,1,2,0:0:0:0:
384,192,145543,1,0,0:0:0:0:
213,192,145620,1,2,0:0:0:0:
469,192,145620,1,0,0:0:0:0:
128,192,145696,1,0,0:0:0:0:
384,192,145696,1,0,0:0:0:0:
42,192,145773,1,0,0:0:0:70:tom03.wav
298,192,145773,1,0,0:0:0:0:
213,192,145849,1,0,0:0:0:0:
128,192,145926,1,8,0:0:0:0:
384,192,145926,1,0,0:0:0:0:
469,192,145926,1,0,0:0:0:0:
298,192,146002,1,0,0:0:0:0:
42,192,146079,1,0,0:0:0:0:
213,192,146079,1,0,0:0:0:0:
384,192,146155,1,2,0:0:0:0:
42,192,146232,1,2,0:0:0:0:
128,192,146232,1,4,0:0:0:0:
298,192,146232,1,0,0:0:0:0:
469,192,146232,1,0,0:0:0:0:
213,192,146385,1,2,0:0:0:0:
42,192,146461,1,0,0:0:0:0:
128,192,146461,1,0,0:0:0:0:
384,192,146461,1,0,0:0:0:0:
469,192,146461,1,0,0:0:0:0:
298,192,146538,1,2,0:0:0:0:
42,192,146691,1,2,0:0:0:0:
213,192,146691,1,0,0:0:0:0:
298,192,146691,1,0,0:0:0:0:
469,192,146691,1,0,0:0:0:0:
128,192,146844,1,2,0:0:0:0:
213,192,146844,1,0,0:0:0:70:ride.wav
298,192,146844,1,0,0:0:0:0:
384,192,146844,1,0,0:0:0:0:
42,192,146997,1,2,0:0:0:0:
128,192,146997,1,0,0:0:0:0:
384,192,146997,1,0,0:0:0:0:
469,192,146997,1,0,0:0:0:0:
42,192,147150,1,8,0:0:0:0:
213,192,147150,1,0,0:0:0:70:ride.wav
298,192,147150,1,0,0:0:0:0:
469,192,147150,1,0,0:0:0:0:
128,192,147303,1,0,0:0:0:0:
213,192,147303,1,0,0:0:0:0:
298,192,147303,1,0,0:0:0:0:
384,192,147303,1,0,0:0:0:0:
42,192,147456,1,2,0:0:0:0:
128,192,147456,1,4,0:0:0:0:
384,192,147456,1,0,0:0:0:0:
213,192,147533,1,2,0:0:0:0:
298,192,147609,1,0,0:0:0:0:
469,192,147609,1,0,0:0:0:0:
128,192,147686,1,0,0:0:0:0:
213,192,147762,1,2,0:0:0:0:
384,192,147762,1,0,0:0:0:0:
42,192,147839,1,2,0:0:0:0:
128,192,147915,1,2,0:0:0:0:
298,192,147915,1,0,0:0:0:0:
384,192,147992,1,0,0:0:0:0:
213,192,148069,1,0,0:0:0:0:
469,192,148069,1,0,0:0:0:0:
298,192,148145,1,0,0:0:0:0:
128,192,148222,1,2,0:0:0:0:
384,192,148222,1,0,0:0:0:0:
213,192,148298,1,0,0:0:0:0:
42,192,148375,1,2,0:0:0:0:
298,192,148375,1,0,0:0:0:0:
469,192,148375,1,0,0:0:0:0:
128,192,148451,1,0,0:0:0:0:
384,192,148451,1,0,0:0:0:0:
213,192,148528,1,8,0:0:0:0:
298,192,148528,1,0,0:0:0:0:
128,192,148604,1,8,0:0:0:0:
384,192,148604,1,0,0:0:0:0:
42,192,148681,1,2,0:0:0:0:
213,192,148681,1,4,0:0:0:0:
298,192,148681,1,0,0:0:0:0:
469,192,148681,1,0,0:0:0:0:
42,192,148987,1,0,0:0:0:100:C#8S_Db8S.wav
213,192,148987,1,0,0:0:0:100:A#7S_Bb7S.wav
469,192,149025,1,0,0:0:0:0:
298,192,149025,1,0,0:0:0:0:
128,192,149140,1,0,0:0:0:50:snare.wav
384,192,149140,1,0,0:0:0:0:
213,192,149216,1,0,0:0:0:50:snare.wav
298,192,149216,1,0,0:0:0:0:
42,192,149293,1,8,0:0:0:0:
128,192,149293,1,0,0:0:0:0:
384,192,149293,1,0,0:0:0:0:
469,192,149293,1,0,0:0:0:0:
42,192,149446,1,0,0:0:0:70:tom02.wav
213,192,149446,1,0,0:0:0:0:
298,192,149446,1,0,0:0:0:0:
469,192,149446,1,0,0:0:0:0:
42,192,149599,1,0,0:0:0:70:tom03.wav
213,192,149599,1,0,0:0:0:0:
298,192,149599,1,0,0:0:0:0:
469,192,149599,1,0,0:0:0:0:
42,192,149752,1,0,0:0:0:70:tom04.wav
213,192,149752,1,0,0:0:0:0:
298,192,149752,1,0,0:0:0:0:
469,192,149752,1,0,0:0:0:0:
42,192,149905,1,0,0:0:0:70:cymbal.wav
128,192,149905,1,0,0:0:0:70:twinkling.wav
213,192,149905,1,0,0:0:0:100:Rain.wav
298,192,149905,1,0,0:0:0:0:
384,192,149905,1,0,0:0:0:0:
469,192,149905,1,0,0:0:0:0:
128,192,150824,1,0,0:0:0:0:
384,192,151053,1,0,0:0:0:0:
42,192,151742,1,0,0:0:0:0:
213,192,151742,1,0,0:0:0:0:
469,192,151742,1,0,0:0:0:0:
128,192,151895,1,0,0:0:0:0:
298,192,151895,1,0,0:0:0:0:
213,192,152048,1,0,0:0:0:0:
384,192,152048,1,0,0:0:0:0:
298,192,152201,1,0,0:0:0:0:
469,192,152201,1,0,0:0:0:0:
42,192,152354,1,0,0:0:0:0:
128,192,152354,1,0,0:0:0:0:
384,192,152354,1,0,0:0:0:0:
213,192,152507,1,0,0:0:0:0:
469,192,152507,1,0,0:0:0:0:
42,192,152660,1,0,0:0:0:0:
298,192,152660,1,0,0:0:0:0:
213,192,152813,1,0,0:0:0:0:
384,192,152813,1,0,0:0:0:0:
128,192,152966,1,0,0:0:0:0:
298,192,152966,1,0,0:0:0:0:
469,192,152966,1,0,0:0:0:0:
42,192,153120,1,0,0:0:0:0:
213,192,153120,1,0,0:0:0:0:
128,192,153273,1,0,0:0:0:0:
298,192,153273,1,0,0:0:0:0:
384,192,153273,1,0,0:0:0:0:
213,192,153426,1,0,0:0:0:0:
128,192,153502,1,0,0:0:0:0:
384,192,153502,1,0,0:0:0:0:
42,192,153579,1,0,0:0:0:0:
298,192,153579,1,0,0:0:0:0:
469,192,153579,1,0,0:0:0:0:
128,192,153732,1,0,0:0:0:0:
213,192,153732,1,0,0:0:0:0:
384,192,153732,1,0,0:0:0:0:
42,192,153885,1,0,0:0:0:0:
213,192,153885,1,0,0:0:0:0:
298,192,153885,1,0,0:0:0:0:
469,192,153885,1,0,0:0:0:0:
42,192,154038,1,0,0:0:0:0:
128,192,154038,1,0,0:0:0:0:
384,192,154038,1,0,0:0:0:0:
128,192,154191,1,0,0:0:0:0:
213,192,154191,1,0,0:0:0:0:
298,192,154191,1,0,0:0:0:0:
469,192,154191,1,0,0:0:0:0:
42,192,154344,1,0,0:0:0:0:
213,192,154344,1,0,0:0:0:0:
384,192,154344,1,0,0:0:0:0:
42,192,154497,1,0,0:0:0:0:
128,192,154497,1,0,0:0:0:0:
298,192,154497,1,0,0:0:0:0:
469,192,154497,1,0,0:0:0:0:
213,192,154650,1,0,0:0:0:0:
384,192,154650,1,0,0:0:0:0:
469,192,154650,1,0,0:0:0:0:
42,192,154803,128,0,155415:0:0:0:0:
213,192,154803,1,0,0:0:0:0:
298,192,154803,1,0,0:0:0:0:
469,192,154803,128,0,155415:0:0:0:0:
298,192,155262,1,0,0:0:0:0:
384,192,155262,1,0,0:0:0:0:
213,192,155339,1,0,0:0:0:0:
128,192,155415,1,0,0:0:0:0:
298,192,155415,1,0,0:0:0:0:
384,192,155415,1,0,0:0:0:0:
128,192,155569,1,0,0:0:0:0:
213,192,155569,1,0,0:0:0:0:
469,192,155569,1,0,0:0:0:0:
42,192,155722,1,0,0:0:0:0:
213,192,155722,1,0,0:0:0:0:
298,192,155722,1,0,0:0:0:0:
384,192,155722,1,0,0:0:0:0:
42,192,155875,1,0,0:0:0:0:
128,192,155875,1,0,0:0:0:0:
384,192,155875,1,0,0:0:0:0:
469,192,155875,1,0,0:0:0:0:
42,192,156028,1,0,0:0:0:0:
213,192,156028,1,0,0:0:0:0:
42,192,156181,1,0,0:0:0:0:
213,192,156181,1,0,0:0:0:0:
298,192,156334,1,0,0:0:0:0:
469,192,156334,1,0,0:0:0:0:
298,192,156487,1,0,0:0:0:0:
469,192,156487,1,0,0:0:0:0:
213,192,156640,1,0,0:0:0:0:
42,192,156640,1,0,0:0:0:0:
298,192,156665,1,0,0:0:0:0:
469,192,156665,1,0,0:0:0:0:
42,192,156793,1,0,0:0:0:0:
128,192,156793,1,0,0:0:0:0:
298,192,156793,1,0,0:0:0:0:
128,192,156946,1,0,0:0:0:0:
213,192,156946,1,0,0:0:0:0:
384,192,156946,1,0,0:0:0:0:
213,192,157099,1,0,0:0:0:0:
298,192,157099,1,0,0:0:0:0:
469,192,157099,1,0,0:0:0:0:
42,192,157252,1,0,0:0:0:0:
128,192,157252,1,0,0:0:0:0:
298,192,157252,1,0,0:0:0:0:
384,192,157252,1,0,0:0:0:0:
42,192,157405,1,0,0:0:0:0:
213,192,157405,1,0,0:0:0:0:
469,192,157405,1,0,0:0:0:0:
128,192,157558,1,0,0:0:0:0:
298,192,157558,1,0,0:0:0:0:
469,192,157558,1,0,0:0:0:0:
42,192,157711,1,0,0:0:0:0:
298,192,157711,1,0,0:0:0:0:
128,192,157788,1,0,0:0:0:0:
384,192,157788,1,0,0:0:0:0:
213,192,157864,1,0,0:0:0:0:
298,192,157864,1,0,0:0:0:0:
469,192,157864,1,0,0:0:0:0:
213,192,158171,1,0,0:0:0:0:
42,192,158171,1,0,0:0:0:0:
298,192,158196,1,0,0:0:0:0:
469,192,158196,1,0,0:0:0:0:
384,192,158324,1,0,0:0:0:0:
298,192,158400,1,0,0:0:0:0:
128,192,158477,1,0,0:0:0:0:
213,192,158477,1,0,0:0:0:0:
469,192,158477,1,0,0:0:0:0:
384,192,158553,1,0,0:0:0:0:
42,192,158630,1,0,0:0:0:0:
298,192,158630,1,0,0:0:0:0:
128,192,158706,1,0,0:0:0:0:
213,192,158706,1,0,0:0:0:0:
384,192,158706,1,0,0:0:0:0:
469,192,158783,1,0,0:0:0:0:
42,192,158859,1,0,0:0:0:0:
128,192,158936,1,0,0:0:0:0:
298,192,158936,1,0,0:0:0:0:
384,192,159012,1,0,0:0:0:0:
42,192,159089,1,0,0:0:0:0:
213,192,159089,1,0,0:0:0:0:
469,192,159089,1,0,0:0:0:0:
42,192,159395,1,0,0:0:0:0:
298,192,159395,1,0,0:0:0:0:
469,192,159395,1,0,0:0:0:0:
213,192,159625,1,0,0:0:0:0:
469,192,159625,1,0,0:0:0:0:
42,192,159701,1,0,0:0:0:0:
128,192,159701,1,0,0:0:0:0:
298,192,159701,1,0,0:0:0:0:
384,192,159701,1,0,0:0:0:0:
42,192,159931,1,0,0:0:0:0:
298,192,159931,1,0,0:0:0:0:
128,192,160007,1,0,0:0:0:0:
213,192,160007,1,0,0:0:0:0:
384,192,160007,1,0,0:0:0:0:
469,192,160007,1,0,0:0:0:0:
298,192,160160,1,0,0:0:0:0:
469,192,160160,1,0,0:0:0:0:
213,192,160237,1,0,0:0:0:0:
384,192,160237,1,0,0:0:0:0:
42,192,160313,1,0,0:0:0:0:
128,192,160313,1,0,0:0:0:0:
298,192,160313,1,0,0:0:0:0:
469,192,160313,1,0,0:0:0:0:
128,192,160466,1,0,0:0:0:0:
213,192,160466,1,0,0:0:0:0:
384,192,160466,1,0,0:0:0:0:
42,192,160620,1,0,0:0:0:0:
213,192,160620,1,0,0:0:0:0:
298,192,160620,1,0,0:0:0:0:
469,192,160620,1,0,0:0:0:0:
298,192,160773,1,0,0:0:0:0:
384,192,160773,1,0,0:0:0:0:
128,192,160849,1,0,0:0:0:0:
213,192,160849,1,0,0:0:0:0:
42,192,160926,1,0,0:0:0:0:
384,192,160926,1,0,0:0:0:0:
469,192,160926,1,0,0:0:0:0:
298,192,161002,1,0,0:0:0:0:
213,192,161079,1,0,0:0:0:0:
469,192,161079,1,0,0:0:0:0:
128,192,161155,1,0,0:0:0:0:
384,192,161155,1,0,0:0:0:0:
42,192,161232,1,0,0:0:0:0:
298,192,161232,1,0,0:0:0:0:
213,192,161308,1,0,0:0:0:0:
42,192,161359,1,0,0:0:0:0:
128,192,161359,1,0,0:0:0:0:
298,192,161385,1,0,0:0:0:0:
469,192,161385,1,0,0:0:0:0:
213,192,161461,1,0,0:0:0:0:
42,192,161538,1,0,0:0:0:0:
384,192,161538,1,0,0:0:0:0:
298,192,161614,1,0,0:0:0:0:
128,192,161691,1,0,0:0:0:0:
213,192,161691,1,0,0:0:0:0:
469,192,161691,1,0,0:0:0:0:
384,192,161768,1,0,0:0:0:0:
42,192,161844,1,0,0:0:0:0:
128,192,161844,1,0,0:0:0:0:
298,192,161844,1,0,0:0:0:0:
384,192,161921,1,0,0:0:0:0:
42,192,161997,1,0,0:0:0:0:
213,192,161997,1,0,0:0:0:0:
469,192,161997,1,0,0:0:0:0:
298,192,162074,1,0,0:0:0:0:
42,192,162150,1,2,0:0:0:0:
128,192,162150,1,0,0:0:0:0:
384,192,162150,1,0,0:0:0:0:
469,192,162150,1,0,0:0:0:0:
128,192,162303,1,0,0:0:0:0:
213,192,162456,1,2,0:0:0:0:
384,192,162456,1,0,0:0:0:0:
42,192,162609,1,0,0:0:0:0:
298,192,162609,1,0,0:0:0:0:
469,192,162609,1,0,0:0:0:0:
128,192,162762,1,2,0:0:0:0:
128,192,162915,1,0,0:0:0:0:
298,192,162915,1,0,0:0:0:0:
42,192,163069,1,2,0:0:0:0:
213,192,163069,1,0,0:0:0:0:
384,192,163069,1,0,0:0:0:0:
128,192,163260,1,0,0:0:0:0:
384,192,163260,1,0,0:0:0:0:
42,192,163375,1,2,0:0:0:0:
298,192,163375,1,0,0:0:0:0:
469,192,163375,1,0,0:0:0:0:
128,192,163528,1,0,0:0:0:0:
213,192,163528,1,0,0:0:0:0:
384,192,163528,1,0,0:0:0:0:
42,192,163681,1,2,0:0:0:0:
213,192,163681,1,0,0:0:0:0:
469,192,163681,1,0,0:0:0:0:
128,192,163834,1,0,0:0:0:0:
298,192,163834,1,0,0:0:0:0:
384,192,163834,1,0,0:0:0:0:
42,192,163987,1,2,0:0:0:0:
384,192,163987,1,0,0:0:0:0:
469,192,163987,1,0,0:0:0:0:
128,192,164140,1,0,0:0:0:0:
213,192,164140,1,0,0:0:0:0:
298,192,164140,1,0,0:0:0:0:
42,192,164293,1,2,0:0:0:0:
128,192,164293,1,0,0:0:0:0:
469,192,164293,1,0,0:0:0:0:
213,192,164446,1,0,0:0:0:0:
298,192,164446,1,0,0:0:0:0:
384,192,164446,1,0,0:0:0:0:
42,192,164599,1,2,0:0:0:0:
128,192,164599,1,0,0:0:0:0:
384,192,164599,1,0,0:0:0:0:
469,192,164599,1,0,0:0:0:0:
128,192,164752,1,0,0:0:0:0:
298,192,164752,1,0,0:0:0:0:
42,192,164829,1,0,0:0:0:0:
213,192,164829,1,0,0:0:0:0:
384,192,164829,1,0,0:0:0:0:
469,192,164829,1,0,0:0:0:0:
42,192,165058,1,0,0:0:0:0:
298,192,165058,1,0,0:0:0:0:
384,192,165058,1,0,0:0:0:0:
128,192,165135,1,0,0:0:0:0:
469,192,165135,1,0,0:0:0:0:
128,192,165288,1,0,0:0:0:0:
213,192,165288,1,0,0:0:0:0:
298,192,165288,1,0,0:0:0:0:
384,192,165288,1,0,0:0:0:0:
42,192,165518,1,2,0:0:0:0:
213,192,165518,1,0,0:0:0:0:
298,192,165518,1,0,0:0:0:0:
469,192,165518,1,0,0:0:0:0:
42,192,165747,1,0,0:0:0:0:
128,192,165747,1,0,0:0:0:0:
384,192,165747,1,0,0:0:0:0:
469,192,165747,1,0,0:0:0:0:
298,192,165824,1,2,0:0:0:0:
384,192,166053,1,0,0:0:0:0:
298,192,166130,1,2,0:0:0:0:
42,192,166206,1,0,0:0:0:0:
128,192,166206,1,0,0:0:0:0:
213,192,166283,1,0,0:0:0:0:
384,192,166359,1,0,0:0:0:0:
42,192,166410,1,0,0:0:0:0:
298,192,166436,1,2,0:0:0:0:
128,192,166512,1,0,0:0:0:0:
469,192,166589,1,0,0:0:0:0:
213,192,166614,1,0,0:0:0:0:
384,192,166665,1,0,0:0:0:0:
42,192,166716,1,0,0:0:0:0:
298,192,166742,1,2,0:0:0:0:
128,192,166819,1,0,0:0:0:0:
213,192,166895,1,0,0:0:0:0:
469,192,166895,1,0,0:0:0:0:
128,192,166972,1,0,0:0:0:0:
384,192,166972,1,0,0:0:0:0:
42,192,167048,1,2,0:0:0:0:
213,192,167048,1,0,0:0:0:0:
298,192,167048,1,0,0:0:0:0:
469,192,167048,1,0,0:0:0:0:
128,192,167125,1,0,0:0:0:0:
213,192,167201,1,2,0:0:0:0:
384,192,167201,1,0,0:0:0:0:
469,192,167201,1,0,0:0:0:0:
128,192,167278,1,0,0:0:0:0:
42,192,167354,1,2,0:0:0:0:
298,192,167354,1,0,0:0:0:0:
469,192,167354,1,0,0:0:0:0:
213,192,167431,1,0,0:0:0:0:
128,192,167507,1,2,0:0:0:0:
298,192,167507,1,0,0:0:0:0:
384,192,167546,1,0,0:0:0:0:
469,192,167584,1,0,0:0:0:0:
42,192,167660,1,2,0:0:0:0:
213,192,167660,1,0,0:0:0:0:
298,192,167660,1,0,0:0:0:0:
384,192,167737,1,0,0:0:0:0:
213,192,167813,1,2,0:0:0:0:
128,192,167813,1,0,0:0:0:0:
469,192,167813,1,0,0:0:0:0:
42,192,167890,1,0,0:0:0:0:
213,192,167966,1,2,0:0:0:0:
298,192,167966,1,0,0:0:0:0:
384,192,167966,1,0,0:0:0:0:
128,192,168043,1,0,0:0:0:0:
42,192,168120,1,2,0:0:0:0:
298,192,168120,1,0,0:0:0:0:
384,192,168120,1,0,0:0:0:0:
213,192,168196,1,0,0:0:0:0:
469,192,168196,1,0,0:0:0:0:
42,192,168273,1,2,0:0:0:0:
128,192,168273,1,0,0:0:0:0:
298,192,168273,1,0,0:0:0:0:
384,192,168273,1,0,0:0:0:0:
213,192,168349,1,0,0:0:0:0:
128,192,168426,1,2,0:0:0:0:
384,192,168426,1,0,0:0:0:0:
469,192,168426,1,0,0:0:0:0:
213,192,168502,1,0,0:0:0:0:
298,192,168502,1,0,0:0:0:0:
42,192,168579,1,2,0:0:0:0:
469,192,168579,1,0,0:0:0:0:
384,192,168579,1,0,0:0:0:0:
128,192,168655,1,0,0:0:0:0:
213,192,168732,1,2,0:0:0:0:
469,192,168732,1,0,0:0:0:0:
298,192,168732,1,0,0:0:0:0:
128,192,168808,1,0,0:0:0:0:
298,192,168885,1,2,0:0:0:0:
384,192,168885,1,0,0:0:0:0:
42,192,168885,1,0,0:0:0:0:
213,192,168961,1,0,0:0:0:0:
469,192,169038,1,2,0:0:0:0:
128,192,169038,1,0,0:0:0:0:
384,192,169038,1,0,0:0:0:0:
298,192,169114,1,0,0:0:0:0:
42,192,169191,1,8,0:0:0:0:
128,192,169191,1,0,0:0:0:0:
213,192,169191,1,0,0:0:0:0:
298,192,169268,1,0,0:0:0:0:
384,192,169268,1,0,0:0:0:0:
128,192,169344,1,2,0:0:0:0:
213,192,169344,1,0,0:0:0:0:
298,192,169421,1,0,0:0:0:0:
384,192,169421,1,0,0:0:0:0:
42,192,169497,1,2,0:0:0:0:
128,192,169497,1,4,0:0:0:0:
213,192,169497,1,0,0:0:0:0:
469,192,169497,1,0,0:0:0:0:
298,192,169574,1,0,0:0:0:0:
384,192,169574,1,0,0:0:0:0:
42,192,169650,1,0,0:0:0:50:snare.wav
128,192,169650,1,0,0:0:0:0:
298,192,169727,1,0,0:0:0:50:snare.wav
384,192,169727,1,0,0:0:0:0:
469,192,169727,1,0,0:0:0:0:
42,192,169803,1,2,0:0:0:0:
128,192,169803,1,0,0:0:0:0:
213,192,169803,1,0,0:0:0:0:
384,192,169880,1,0,0:0:0:50:snare.wav
469,192,169880,1,0,0:0:0:0:
42,192,169956,1,0,0:0:0:50:snare.wav
128,192,169956,1,0,0:0:0:0:
213,192,170033,1,8,0:0:0:0:
384,192,170033,1,0,0:0:0:0:
469,192,170033,1,0,0:0:0:0:
42,192,170109,1,2,0:0:0:0:
128,192,170109,1,0,0:0:0:0:
298,192,170109,1,0,0:0:0:0:
213,192,170186,1,0,0:0:0:50:snare.wav
384,192,170186,1,0,0:0:0:0:
298,192,170262,1,0,0:0:0:50:snare.wav
469,192,170262,1,0,0:0:0:0:
42,192,170339,1,8,0:0:0:0:
128,192,170339,1,0,0:0:0:0:
384,192,170339,1,0,0:0:0:0:
213,192,170415,1,2,0:0:0:0:
298,192,170415,1,0,0:0:0:0:
469,192,170415,1,0,0:0:0:0:
128,192,170492,1,0,0:0:0:50:snare.wav
384,192,170492,1,0,0:0:0:0:
42,192,170569,1,0,0:0:0:50:snare.wav
298,192,170569,1,0,0:0:0:0:
128,192,170645,1,8,0:0:0:0:
213,192,170645,1,0,0:0:0:0:
469,192,170645,1,0,0:0:0:0:
42,192,170722,1,2,0:0:0:0:
298,192,170722,1,0,0:0:0:0:
384,192,170722,1,0,0:0:0:0:
128,192,170798,1,0,0:0:0:50:snare.wav
469,192,170798,1,0,0:0:0:0:
213,192,170875,1,0,0:0:0:50:snare.wav
384,192,170875,1,0,0:0:0:0:
42,192,170951,1,8,0:0:0:0:
128,192,170951,1,0,0:0:0:0:
298,192,170951,1,0,0:0:0:0:
213,192,171028,1,2,0:0:0:0:
384,192,171028,1,0,0:0:0:0:
469,192,171028,1,0,0:0:0:0:
42,192,171104,1,0,0:0:0:50:snare.wav
128,192,171104,1,0,0:0:0:0:
384,192,171181,1,0,0:0:0:50:snare.wav
469,192,171181,1,0,0:0:0:0:
42,192,171257,1,8,0:0:0:0:
128,192,171257,1,0,0:0:0:0:
298,192,171257,1,0,0:0:0:0:
213,192,171334,1,2,0:0:0:0:
384,192,171334,1,0,0:0:0:0:
469,192,171334,1,0,0:0:0:0:
42,192,171410,1,0,0:0:0:50:snare.wav
128,192,171410,1,0,0:0:0:0:
298,192,171487,1,0,0:0:0:50:snare.wav
384,192,171487,1,0,0:0:0:0:
42,192,171563,1,8,0:0:0:0:
213,192,171563,1,0,0:0:0:0:
128,192,171640,1,2,0:0:0:0:
298,192,171640,1,0,0:0:0:50:snare.wav
384,192,171640,1,0,0:0:0:0:
469,192,171640,1,0,0:0:0:0:
42,192,171716,1,0,0:0:0:0:
213,192,171716,1,0,0:0:0:0:
298,192,171793,1,0,0:0:0:50:snare.wav
384,192,171793,1,0,0:0:0:0:
469,192,171793,1,0,0:0:0:0:
213,192,171870,1,0,0:0:0:50:snare.wav
42,192,171946,1,2,0:0:0:0:
128,192,171946,1,4,0:0:0:0:
298,192,171946,1,0,0:0:0:70:tsch.wav
384,192,171946,1,0,0:0:0:0:
469,192,171946,1,0,0:0:0:0:
213,192,172023,1,0,0:0:0:0:
128,192,172099,1,2,0:0:0:0:
42,192,172176,1,0,0:0:0:0:
213,192,172252,1,8,0:0:0:0:
298,192,172252,1,0,0:0:0:0:
384,192,172252,1,0,0:0:0:0:
469,192,172252,1,0,0:0:0:0:
128,192,172329,1,0,0:0:0:0:
42,192,172405,1,0,0:0:0:0:
384,192,172405,1,0,0:0:0:0:
298,192,172482,1,0,0:0:0:0:
213,192,172558,1,2,0:0:0:0:
469,192,172558,1,0,0:0:0:0:
384,192,172635,1,0,0:0:0:0:
42,192,172711,1,2,0:0:0:0:
298,192,172711,1,0,0:0:0:0:
213,192,172788,1,0,0:0:0:0:
42,192,172864,1,8,0:0:0:0:
128,192,172864,1,0,0:0:0:0:
384,192,172864,1,0,0:0:0:0:
469,192,172864,1,0,0:0:0:0:
213,192,172941,1,0,0:0:0:0:
384,192,173018,1,0,0:0:0:0:
42,192,173094,1,0,0:0:0:50:snare.wav
213,192,173094,1,0,0:0:0:0:
298,192,173171,1,2,0:0:0:0:
469,192,173171,1,0,0:0:0:0:
42,192,173247,1,0,0:0:0:0:
213,192,173247,1,0,0:0:0:0:
298,192,173324,1,2,0:0:0:0:
469,192,173324,1,0,0:0:0:0:
128,192,173400,1,0,0:0:0:0:
384,192,173400,1,0,0:0:0:0:
42,192,173477,1,8,0:0:0:0:
213,192,173477,1,0,0:0:0:0:
298,192,173477,1,0,0:0:0:0:
469,192,173477,1,0,0:0:0:0:
128,192,173553,1,0,0:0:0:0:
213,192,173630,1,2,0:0:0:0:
384,192,173630,1,0,0:0:0:0:
298,192,173706,1,0,0:0:0:0:
469,192,173706,1,0,0:0:0:0:
42,192,173783,1,0,0:0:0:0:
213,192,173783,1,0,0:0:0:0:
384,192,173783,1,0,0:0:0:0:
469,192,173859,1,0,0:0:0:0:
128,192,173936,1,2,0:0:0:0:
298,192,173936,1,0,0:0:0:0:
42,192,174012,1,0,0:0:0:0:
213,192,174012,1,0,0:0:0:0:
128,192,174089,1,8,0:0:0:0:
298,192,174089,1,0,0:0:0:0:
384,192,174089,1,0,0:0:0:0:
469,192,174089,1,0,0:0:0:0:
42,192,174165,1,0,0:0:0:0:
384,192,174242,1,0,0:0:0:50:snare.wav
469,192,174242,1,0,0:0:0:0:
128,192,174319,1,0,0:0:0:50:snare.wav
298,192,174319,1,0,0:0:0:0:
213,192,174395,1,2,0:0:0:0:
384,192,174395,1,0,0:0:0:0:
469,192,174395,1,0,0:0:0:0:
42,192,174472,1,0,0:0:0:0:
128,192,174548,1,2,0:0:0:0:
298,192,174548,1,0,0:0:0:0:
213,192,174625,1,0,0:0:0:50:snare.wav
384,192,174625,1,0,0:0:0:0:
469,192,174625,1,0,0:0:0:0:
42,192,174701,1,0,0:0:0:50:snare.wav
128,192,174701,1,0,0:0:0:0:
298,192,174701,1,0,0:0:0:0:
213,192,174778,1,0,0:0:0:50:snare.wav
384,192,174778,1,0,0:0:0:0:
42,192,174854,1,8,0:0:0:0:
128,192,174854,1,0,0:0:0:0:
298,192,174854,1,0,0:0:0:0:
469,192,174854,1,0,0:0:0:0:
213,192,174931,1,0,0:0:0:50:snare.wav
384,192,174931,1,0,0:0:0:0:
128,192,175007,1,2,0:0:0:0:
298,192,175007,1,0,0:0:0:0:
469,192,175007,1,0,0:0:0:0:
42,192,175084,1,0,0:0:0:0:
213,192,175160,1,2,0:0:0:0:
384,192,175160,1,0,0:0:0:0:
128,192,175237,1,0,0:0:0:50:snare.wav
298,192,175237,1,0,0:0:0:0:
42,192,175313,1,8,0:0:0:0:
213,192,175313,1,0,0:0:0:0:
384,192,175313,1,0,0:0:0:0:
469,192,175313,1,0,0:0:0:0:
128,192,175390,1,0,0:0:0:0:
213,192,175466,1,0,0:0:0:50:snare.wav
384,192,175466,1,0,0:0:0:0:
298,192,175543,1,0,0:0:0:50:snare.wav
469,192,175543,1,0,0:0:0:0:
42,192,175620,1,2,0:0:0:0:
213,192,175620,1,0,0:0:0:0:
384,192,175620,1,0,0:0:0:0:
213,192,175773,1,2,0:0:0:0:
469,192,175773,1,0,0:0:0:0:
128,192,175849,1,0,0:0:0:0:
384,192,175849,1,0,0:0:0:0:
42,192,175926,1,8,0:0:0:0:
213,192,175926,1,0,0:0:0:0:
298,192,175926,1,0,0:0:0:0:
384,192,176002,1,0,0:0:0:50:snare.wav
128,192,176079,1,0,0:0:0:50:snare.wav
469,192,176079,1,0,0:0:0:0:
213,192,176155,1,0,0:0:0:0:
298,192,176155,1,0,0:0:0:0:
42,192,176232,1,2,0:0:0:0:
384,192,176232,1,0,0:0:0:0:
128,192,176308,1,0,0:0:0:0:
469,192,176308,1,0,0:0:0:0:
213,192,176385,1,2,0:0:0:0:
298,192,176385,1,0,0:0:0:0:
384,192,176461,1,0,0:0:0:0:
469,192,176461,1,0,0:0:0:0:
42,192,176538,1,8,0:0:0:0:
128,192,176538,1,0,0:0:0:0:
213,192,176538,1,0,0:0:0:0:
298,192,176614,1,0,0:0:0:50:snare.wav
384,192,176614,1,0,0:0:0:0:
128,192,176691,1,0,0:0:0:50:snare.wav
213,192,176691,1,0,0:0:0:0:
298,192,176768,1,0,0:0:0:50:snare.wav
384,192,176768,1,0,0:0:0:0:
42,192,176844,1,4,0:0:0:0:
128,192,176844,1,2,0:0:0:0:
213,192,176844,1,0,0:0:0:0:
469,192,176844,1,0,0:0:0:0:
42,192,176997,1,2,0:0:0:0:
298,192,176997,1,0,0:0:0:0:
384,192,176997,1,0,0:0:0:0:
128,192,177074,1,0,0:0:0:0:
213,192,177150,1,8,0:0:0:0:
469,192,177150,1,0,0:0:0:0:
42,192,177227,1,0,0:0:0:0:
298,192,177227,1,0,0:0:0:0:
128,192,177303,1,0,0:0:0:0:
384,192,177303,1,0,0:0:0:0:
213,192,177380,1,0,0:0:0:0:
469,192,177380,1,0,0:0:0:0:
42,192,177456,1,2,0:0:0:0:
128,192,177456,1,0,0:0:0:0:
298,192,177456,1,0,0:0:0:0:
384,192,177456,1,0,0:0:0:0:
213,192,177533,1,0,0:0:0:0:
469,192,177533,1,0,0:0:0:0:
42,192,177609,1,2,0:0:0:0:
384,192,177609,1,0,0:0:0:0:
213,192,177686,1,0,0:0:0:0:
298,192,177686,1,0,0:0:0:0:
42,192,177762,1,8,0:0:0:0:
128,192,177762,1,0,0:0:0:0:
384,192,177762,1,0,0:0:0:0:
469,192,177762,1,0,0:0:0:0:
213,192,177839,1,0,0:0:0:0:
298,192,177839,1,0,0:0:0:0:
128,192,177915,1,0,0:0:0:0:
469,192,177915,1,0,0:0:0:0:
213,192,177992,1,0,0:0:0:50:snare.wav
298,192,177992,1,0,0:0:0:0:
42,192,178069,1,2,0:0:0:0:
128,192,178069,1,4,0:0:0:0:
384,192,178069,1,0,0:0:0:0:
469,192,178069,1,0,0:0:0:0:
213,192,178222,1,2,0:0:0:0:
469,192,178222,1,0,0:0:0:0:
128,192,178298,1,0,0:0:0:0:
298,192,178298,1,0,0:0:0:0:
42,192,178375,1,8,0:0:0:0:
213,192,178375,1,0,0:0:0:0:
384,192,178375,1,0,0:0:0:0:
469,192,178375,1,0,0:0:0:0:
42,192,178528,1,2,0:0:0:0:
128,192,178528,1,0,0:0:0:0:
298,192,178528,1,0,0:0:0:0:
469,192,178528,1,0,0:0:0:0:
42,192,178681,1,0,0:0:0:0:
128,192,178681,1,0,0:0:0:0:
298,192,178681,1,0,0:0:0:0:
384,192,178681,1,0,0:0:0:0:
213,192,178757,1,0,0:0:0:0:
469,192,178757,1,0,0:0:0:0:
42,192,178834,1,2,0:0:0:0:
298,192,178834,1,0,0:0:0:0:
128,192,178910,1,0,0:0:0:0:
384,192,178910,1,0,0:0:0:0:
213,192,178987,1,8,0:0:0:0:
298,192,178987,1,0,0:0:0:0:
469,192,178987,1,0,0:0:0:0:
42,192,179063,1,0,0:0:0:0:
128,192,179063,1,0,0:0:0:0:
298,192,179140,1,0,0:0:0:50:snare.wav
384,192,179140,1,0,0:0:0:0:
128,192,179216,1,0,0:0:0:50:snare.wav
213,192,179216,1,0,0:0:0:0:
298,192,179293,1,2,0:0:0:0:
384,192,179293,1,4,0:0:0:0:
469,192,179293,1,0,0:0:0:0:
42,192,179370,1,0,0:0:0:50:snare.wav
128,192,179370,1,0,0:0:0:0:
213,192,179446,1,8,0:0:0:0:
298,192,179446,1,0,0:0:0:0:
384,192,179523,1,0,0:0:0:50:snare.wav
469,192,179523,1,0,0:0:0:0:
42,192,179599,1,2,0:0:0:0:
128,192,179599,1,4,0:0:0:0:
213,192,179599,1,0,0:0:0:0:
384,192,179676,1,0,0:0:0:50:snare.wav
469,192,179676,1,0,0:0:0:0:
213,192,179752,1,2,0:0:0:0:
298,192,179752,1,0,0:0:0:0:
42,192,179829,1,2,0:0:0:0:
128,192,179829,1,0,0:0:0:0:
298,192,179905,1,2,0:0:0:0:
384,192,179905,1,4,0:0:0:0:
469,192,179905,1,0,0:0:0:0:
128,192,179982,1,0,0:0:0:50:snare.wav
213,192,179982,1,0,0:0:0:0:
42,192,180058,1,0,0:0:0:50:snare.wav
384,192,180058,1,0,0:0:0:0:
128,192,180135,1,0,0:0:0:50:snare.wav
298,192,180135,1,0,0:0:0:0:
213,192,180211,1,2,0:0:0:0:
384,192,180211,1,4,0:0:0:0:
469,192,180211,1,0,0:0:0:0:
42,192,180288,1,0,0:0:0:50:snare.wav
298,192,180288,1,0,0:0:0:0:
128,192,180364,1,0,0:0:0:50:snare.wav
384,192,180364,1,0,0:0:0:0:
469,192,180364,1,0,0:0:0:0:
213,192,180441,1,8,0:0:0:0:
298,192,180441,1,0,0:0:0:0:
42,192,180518,1,2,0:0:0:0:
128,192,180518,1,4,0:0:0:0:
384,192,180518,1,0,0:0:0:0:
469,192,180518,1,0,0:0:0:0:
128,192,180747,1,8,0:0:0:0:
213,192,180747,1,4,0:0:0:0:
384,192,180747,1,0,0:0:0:0:
469,192,180747,1,0,0:0:0:0:
42,192,180977,1,8,0:0:0:0:
213,192,180977,1,4,0:0:0:0:
298,192,180977,1,0,0:0:0:0:
469,192,180977,1,0,0:0:0:0:
298,192,181130,1,0,0:0:0:0:
384,192,181130,1,0,0:0:0:0:
469,192,181130,1,0,0:0:0:0:
298,192,181206,1,8,0:0:0:0:
384,192,181206,1,4,0:0:0:0:
469,192,181206,1,0,0:0:0:0:
42,192,181283,1,2,0:0:0:0:
128,192,181283,1,0,0:0:0:0:
213,192,181283,1,0,0:0:0:0:
42,192,181436,1,8,0:0:0:0:
213,192,181436,1,4,0:0:0:0:
298,192,181436,1,0,0:0:0:0:
469,192,181436,1,0,0:0:0:0:
42,192,181589,1,4,0:0:0:0:
128,192,181589,1,0,0:0:0:50:snare.wav
213,192,181589,1,0,0:0:0:0:
298,192,181665,1,4,0:0:0:0:
42,192,181742,1,2,0:0:0:0:
128,192,181742,1,4,0:0:0:0:
384,192,181742,1,0,0:0:0:0:
469,192,181742,1,0,0:0:0:0:
213,192,181819,1,0,0:0:0:0:
298,192,181895,1,2,0:0:0:0:
384,192,181895,1,0,0:0:0:0:
128,192,181972,1,0,0:0:0:0:
42,192,182048,1,8,0:0:0:0:
384,192,182048,1,0,0:0:0:0:
469,192,182048,1,0,0:0:0:0:
298,192,182125,1,0,0:0:0:0:
128,192,182201,1,0,0:0:0:0:
213,192,182201,1,0,0:0:0:0:
384,192,182278,1,0,0:0:0:0:
42,192,182354,1,2,0:0:0:0:
128,192,182354,1,0,0:0:0:0:
469,192,182354,1,0,0:0:0:0:
213,192,182431,1,0,0:0:0:0:
298,192,182507,1,2,0:0:0:0:
384,192,182507,1,0,0:0:0:0:
128,192,182584,1,0,0:0:0:0:
42,192,182660,1,8,0:0:0:0:
213,192,182660,1,0,0:0:0:0:
469,192,182660,1,0,0:0:0:0:
384,192,182737,1,0,0:0:0:0:
128,192,182813,1,0,0:0:0:0:
298,192,182813,1,0,0:0:0:0:
213,192,182890,1,0,0:0:0:50:snare.wav
469,192,182890,1,0,0:0:0:0:
42,192,182966,1,2,0:0:0:0:
298,192,182966,1,0,0:0:0:0:
384,192,182966,1,0,0:0:0:0:
128,192,183043,1,0,0:0:0:0:
469,192,183043,1,0,0:0:0:0:
213,192,183120,1,2,0:0:0:0:
298,192,183120,1,0,0:0:0:0:
42,192,183196,1,0,0:0:0:0:
384,192,183196,1,0,0:0:0:0:
128,192,183273,1,8,0:0:0:0:
213,192,183273,1,0,0:0:0:0:
469,192,183273,1,0,0:0:0:0:
298,192,183349,1,0,0:0:0:0:
384,192,183426,1,2,0:0:0:0:
469,192,183426,1,0,0:0:0:0:
128,192,183502,1,0,0:0:0:0:
42,192,183579,1,0,0:0:0:0:
298,192,183579,1,0,0:0:0:0:
469,192,183579,1,0,0:0:0:0:
384,192,183655,1,0,0:0:0:0:
42,192,183732,1,2,0:0:0:0:
298,192,183732,1,0,0:0:0:0:
128,192,183808,1,0,0:0:0:0:
213,192,183885,1,8,0:0:0:0:
384,192,183885,1,0,0:0:0:0:
469,192,183885,1,0,0:0:0:0:
42,192,183961,1,0,0:0:0:0:
128,192,184038,1,0,0:0:0:50:snare.wav
298,192,184038,1,0,0:0:0:0:
213,192,184114,1,0,0:0:0:50:snare.wav
384,192,184114,1,0,0:0:0:0:
469,192,184114,1,0,0:0:0:0:
42,192,184191,1,2,0:0:0:0:
128,192,184191,1,0,0:0:0:0:
298,192,184191,1,0,0:0:0:0:
213,192,184344,1,2,0:0:0:0:
384,192,184344,1,0,0:0:0:0:
42,192,184497,1,0,0:0:0:0:
298,192,184497,1,0,0:0:0:0:
469,192,184497,1,0,0:0:0:0:
128,192,184650,1,8,0:0:0:0:
213,192,184650,1,0,0:0:0:0:
384,192,184650,1,0,0:0:0:0:
469,192,184650,1,0,0:0:0:0:
128,192,184880,1,2,0:0:0:0:
213,192,184880,1,4,0:0:0:0:
298,192,184880,1,0,0:0:0:0:
384,192,184880,1,0,0:0:0:0:
42,192,185109,1,4,0:0:0:0:
213,192,185109,1,0,0:0:0:50:snare.wav
298,192,185109,1,0,0:0:0:0:
469,192,185109,1,0,0:0:0:0:
42,192,185339,1,8,0:0:0:0:
128,192,185339,1,4,0:0:0:0:
384,192,185339,1,0,0:0:0:0:
469,192,185339,1,0,0:0:0:0:
128,192,185645,1,0,0:0:0:0:
384,192,185645,1,0,0:0:0:0:
42,192,185722,1,0,0:0:0:50:snare.wav
298,192,185722,1,0,0:0:0:0:
213,192,185798,1,0,0:0:0:50:snare.wav
469,192,185798,1,0,0:0:0:0:
42,192,185875,1,4,0:0:0:0:
128,192,185875,1,8,0:0:0:0:
384,192,185875,1,0,0:0:0:0:
298,192,185951,1,0,0:0:0:0:
213,192,186028,1,2,0:0:0:0:
384,192,186028,1,0,0:0:0:0:
469,192,186028,1,0,0:0:0:0:
128,192,186104,1,0,0:0:0:0:
42,192,186181,1,0,0:0:0:50:snare.wav
298,192,186181,1,0,0:0:0:0:
469,192,186181,1,0,0:0:0:0:
213,192,186257,1,0,0:0:0:50:snare.wav
384,192,186257,1,0,0:0:0:0:
42,192,186334,1,8,0:0:0:0:
128,192,186334,1,0,0:0:0:0:
298,192,186334,1,0,0:0:0:0:
213,192,186410,1,0,0:0:0:50:snare.wav
384,192,186410,1,0,0:0:0:0:
469,192,186410,1,0,0:0:0:0:
42,192,186487,1,0,0:0:0:70:tom02.wav
128,192,186487,1,0,0:0:0:0:
298,192,186487,1,0,0:0:0:0:
213,192,186563,1,0,0:0:0:70:tom03.wav
384,192,186563,1,0,0:0:0:0:
469,192,186563,1,0,0:0:0:0:
42,192,186640,1,4,0:0:0:0:
128,192,186640,1,2,0:0:0:0:
298,192,186640,1,0,0:0:0:0:
213,192,186716,1,0,0:0:0:0:
128,192,186793,1,2,0:0:0:0:
384,192,186793,1,0,0:0:0:0:
213,192,186870,1,0,0:0:0:0:
469,192,186870,1,0,0:0:0:0:
42,192,186946,1,8,0:0:0:0:
128,192,186946,1,0,0:0:0:0:
298,192,186946,1,0,0:0:0:0:
384,192,186946,1,0,0:0:0:0:
213,192,187023,1,0,0:0:0:0:
469,192,187023,1,0,0:0:0:0:
42,192,187099,1,2,0:0:0:0:
298,192,187099,1,0,0:0:0:0:
128,192,187176,1,2,0:0:0:0:
384,192,187176,1,0,0:0:0:0:
42,192,187252,1,8,0:0:0:0:
213,192,187252,1,0,0:0:0:0:
298,192,187252,1,0,0:0:0:0:
469,192,187252,1,0,0:0:0:0:
128,192,187329,1,0,0:0:0:0:
384,192,187329,1,0,0:0:0:0:
213,192,187405,1,2,0:0:0:0:
469,192,187405,1,0,0:0:0:0:
42,192,187482,1,0,0:0:0:0:
298,192,187482,1,0,0:0:0:0:
128,192,187558,1,8,0:0:0:0:
213,192,187558,1,0,0:0:0:0:
384,192,187558,1,0,0:0:0:0:
469,192,187558,1,0,0:0:0:0:
42,192,187635,1,0,0:0:0:0:
298,192,187635,1,0,0:0:0:0:
128,192,187711,1,2,0:0:0:0:
384,192,187711,1,0,0:0:0:0:
213,192,187788,1,0,0:0:0:0:
469,192,187788,1,0,0:0:0:0:
42,192,187864,1,4,0:0:0:0:
128,192,187864,1,8,0:0:0:0:
298,192,187864,1,0,0:0:0:0:
384,192,187864,1,0,0:0:0:0:
213,192,187941,1,0,0:0:0:0:
42,192,188018,1,2,0:0:0:0:
298,192,188094,1,0,0:0:0:0:
384,192,188094,1,0,0:0:0:0:
42,192,188171,1,8,0:0:0:0:
128,192,188171,1,0,0:0:0:0:
213,192,188171,1,0,0:0:0:0:
469,192,188171,1,0,0:0:0:0:
384,192,188247,1,0,0:0:0:0:
213,192,188324,1,2,0:0:0:0:
298,192,188324,1,0,0:0:0:0:
128,192,188400,1,0,0:0:0:0:
42,192,188477,1,8,0:0:0:0:
298,192,188477,1,0,0:0:0:0:
384,192,188477,1,0,0:0:0:0:
469,192,188477,1,0,0:0:0:0:
213,192,188553,1,0,0:0:0:0:
298,192,188630,1,2,0:0:0:0:
213,192,188706,1,2,0:0:0:0:
42,192,188783,1,8,0:0:0:0:
128,192,188783,1,0,0:0:0:0:
384,192,188783,1,0,0:0:0:0:
469,192,188783,1,0,0:0:0:0:
298,192,188859,1,0,0:0:0:0:
213,192,188936,1,0,0:0:0:50:snare.wav
128,192,189012,1,0,0:0:0:0:
42,192,189089,1,2,0:0:0:0:
298,192,189089,1,4,0:0:0:0:
469,192,189089,1,0,0:0:0:0:
128,192,189165,1,0,0:0:0:50:snare.wav
213,192,189165,1,0,0:0:0:0:
42,192,189242,1,8,0:0:0:0:
298,192,189242,1,0,0:0:0:0:
469,192,189242,1,0,0:0:0:0:
128,192,189319,1,0,0:0:0:50:snare.wav
213,192,189319,1,0,0:0:0:0:
42,192,189395,1,2,0:0:0:0:
298,192,189395,1,4,0:0:0:0:
469,192,189395,1,0,0:0:0:0:
128,192,189472,1,0,0:0:0:50:snare.wav
213,192,189472,1,0,0:0:0:0:
42,192,189548,1,2,0:0:0:0:
298,192,189548,1,0,0:0:0:0:
469,192,189548,1,0,0:0:0:0:
213,192,189625,1,2,0:0:0:0:
42,192,189701,1,2,0:0:0:0:
128,192,189701,1,4,0:0:0:0:
298,192,189701,1,0,0:0:0:0:
469,192,189701,1,0,0:0:0:0:
384,192,189778,1,0,0:0:0:50:snare.wav
42,192,189854,1,0,0:0:0:50:snare.wav
128,192,189854,1,0,0:0:0:0:
213,192,189854,1,0,0:0:0:0:
298,192,189931,1,8,0:0:0:0:
42,192,190007,1,2,0:0:0:0:
128,192,190007,1,4,0:0:0:0:
384,192,190007,1,0,0:0:0:0:
469,192,190007,1,0,0:0:0:0:
213,192,190084,1,0,0:0:0:50:snare.wav
298,192,190160,1,0,0:0:0:50:snare.wav
384,192,190160,1,0,0:0:0:0:
469,192,190160,1,0,0:0:0:0:
128,192,190237,1,8,0:0:0:0:
42,192,190313,1,2,0:0:0:0:
213,192,190313,1,4,0:0:0:0:
384,192,190313,1,0,0:0:0:0:
469,192,190313,1,0,0:0:0:0:
298,192,190390,1,0,0:0:0:50:snare.wav
128,192,190466,1,0,0:0:0:50:snare.wav
384,192,190466,1,0,0:0:0:0:
469,192,190466,1,0,0:0:0:0:
213,192,190543,1,8,0:0:0:0:
42,192,190620,1,2,0:0:0:0:
298,192,190620,1,4,0:0:0:0:
384,192,190620,1,0,0:0:0:0:
128,192,190696,1,0,0:0:0:50:snare.wav
213,192,190773,1,0,0:0:0:50:snare.wav
298,192,190773,1,0,0:0:0:0:
469,192,190773,1,0,0:0:0:0:
128,192,190849,1,8,0:0:0:0:
42,192,190926,1,4,0:0:0:0:
384,192,190926,1,2,0:0:0:0:
469,192,190926,1,0,0:0:0:0:
128,192,191079,1,0,0:0:0:50:snare.wav
384,192,191079,1,0,0:0:0:0:
213,192,191232,1,4,0:0:0:0:
384,192,191232,1,2,0:0:0:0:
298,192,191385,1,0,0:0:0:50:snare.wav
384,192,191385,1,0,0:0:0:0:
42,192,191538,1,2,0:0:0:0:
128,192,191538,1,4,0:0:0:0:
213,192,191538,1,0,0:0:0:70:tsch.wav
298,192,191538,1,0,0:0:0:0:
469,192,191538,1,0,0:0:0:0:
213,192,191691,1,2,0:0:0:0:
384,192,191691,1,0,0:0:0:0:
128,192,191768,1,0,0:0:0:0:
298,192,191844,1,8,0:0:0:0:
469,192,191844,1,0,0:0:0:0:
42,192,191921,1,0,0:0:0:0:
213,192,191997,1,0,0:0:0:0:
384,192,191997,1,0,0:0:0:0:
128,192,192074,1,0,0:0:0:0:
42,192,192150,1,2,0:0:0:0:
298,192,192150,1,0,0:0:0:0:
213,192,192227,1,0,0:0:0:0:
128,192,192303,1,2,0:0:0:0:
384,192,192303,1,0,0:0:0:0:
298,192,192380,1,0,0:0:0:0:
213,192,192456,1,8,0:0:0:0:
469,192,192456,1,0,0:0:0:0:
384,192,192533,1,0,0:0:0:0:
128,192,192609,1,0,0:0:0:0:
298,192,192609,1,0,0:0:0:0:
42,192,192686,1,0,0:0:0:50:snare.wav
213,192,192762,1,2,0:0:0:0:
469,192,192762,1,0,0:0:0:0:
298,192,192839,1,0,0:0:0:0:
128,192,192915,1,2,0:0:0:0:
384,192,192915,1,0,0:0:0:0:
213,192,192992,1,0,0:0:0:0:
42,192,193069,1,8,0:0:0:0:
298,192,193069,1,0,0:0:0:0:
128,192,193145,1,0,0:0:0:0:
213,192,193222,1,2,0:0:0:0:
384,192,193222,1,0,0:0:0:0:
469,192,193298,1,0,0:0:0:0:
42,192,193375,1,0,0:0:0:0:
298,192,193375,1,0,0:0:0:0:
128,192,193451,1,0,0:0:0:0:
384,192,193451,1,0,0:0:0:0:
213,192,193528,1,2,0:0:0:0:
469,192,193528,1,0,0:0:0:0:
42,192,193604,1,0,0:0:0:0:
298,192,193604,1,0,0:0:0:0:
128,192,193681,1,8,0:0:0:0:
384,192,193681,1,0,0:0:0:0:
213,192,193757,1,0,0:0:0:0:
469,192,193757,1,0,0:0:0:0:
42,192,193834,1,0,0:0:0:50:snare.wav
298,192,193834,1,0,0:0:0:0:
128,192,193910,1,0,0:0:0:50:snare.wav
384,192,193910,1,0,0:0:0:0:
213,192,193987,1,2,0:0:0:0:
469,192,193987,1,0,0:0:0:0:
42,192,194140,1,2,0:0:0:0:
298,192,194140,1,0,0:0:0:0:
128,192,194293,1,0,0:0:0:50:snare.wav
384,192,194293,1,0,0:0:0:0:
469,192,194293,1,0,0:0:0:0:
213,192,194370,1,0,0:0:0:50:snare.wav
298,192,194370,1,0,0:0:0:0:
42,192,194446,1,8,0:0:0:0:
128,192,194446,1,0,0:0:0:0:
384,192,194446,1,0,0:0:0:0:
213,192,194599,1,2,0:0:0:0:
469,192,194599,1,0,0:0:0:0:
128,192,194752,1,2,0:0:0:0:
384,192,194752,1,0,0:0:0:0:
298,192,194829,1,0,0:0:0:50:snare.wav
42,192,194905,1,8,0:0:0:0:
213,192,194905,1,0,0:0:0:0:
384,192,194905,1,0,0:0:0:0:
469,192,194905,1,0,0:0:0:0:
128,192,195058,1,0,0:0:0:50:snare.wav
298,192,195058,1,0,0:0:0:0:
384,192,195135,1,0,0:0:0:50:snare.wav
469,192,195135,1,0,0:0:0:0:
42,192,195211,1,2,0:0:0:0:
128,192,195211,1,0,0:0:0:0:
213,192,195211,1,0,0:0:0:0:
298,192,195364,1,2,0:0:0:0:
469,192,195364,1,0,0:0:0:0:
213,192,195441,1,2,0:0:0:0:
42,192,195518,1,8,0:0:0:0:
128,192,195518,1,0,0:0:0:0:
384,192,195518,1,0,0:0:0:0:
213,192,195671,1,2,0:0:0:0:
298,192,195671,1,0,0:0:0:0:
384,192,195747,1,0,0:0:0:0:
42,192,195824,1,2,0:0:0:0:
213,192,195824,1,0,0:0:0:0:
469,192,195824,1,0,0:0:0:0:
128,192,195977,1,2,0:0:0:0:
298,192,195977,1,0,0:0:0:0:
42,192,196053,1,0,0:0:0:0:
213,192,196130,1,8,0:0:0:0:
384,192,196130,1,0,0:0:0:0:
469,192,196130,1,0,0:0:0:0:
42,192,196206,1,0,0:0:0:50:snare.wav
128,192,196206,1,0,0:0:0:0:
298,192,196206,1,0,0:0:0:0:
213,192,196283,1,0,0:0:0:50:snare.wav
384,192,196283,1,0,0:0:0:0:
469,192,196283,1,0,0:0:0:0:
42,192,196359,1,0,0:0:0:50:snare.wav
128,192,196359,1,0,0:0:0:0:
298,192,196359,1,0,0:0:0:0:
213,192,196436,1,2,0:0:0:0:
384,192,196436,1,4,0:0:0:0:
469,192,196436,1,0,0:0:0:0:
128,192,196589,1,2,0:0:0:0:
298,192,196589,1,0,0:0:0:0:
42,192,196742,1,8,0:0:0:0:
213,192,196742,1,0,0:0:0:0:
384,192,196742,1,0,0:0:0:0:
469,192,196742,1,0,0:0:0:0:
128,192,196895,1,0,0:0:0:0:
298,192,196895,1,0,0:0:0:0:
42,192,197048,1,2,0:0:0:0:
469,192,197048,1,0,0:0:0:0:
213,192,197201,1,2,0:0:0:0:
384,192,197201,1,0,0:0:0:0:
42,192,197354,1,8,0:0:0:0:
128,192,197354,1,0,0:0:0:0:
298,192,197354,1,0,0:0:0:0:
469,192,197354,1,0,0:0:0:0:
42,192,197584,1,0,0:0:0:50:snare.wav
298,192,197584,1,0,0:0:0:0:
213,192,197660,1,2,0:0:0:0:
384,192,197660,1,0,0:0:0:70:ride.wav
469,192,197660,1,0,0:0:0:0:
128,192,197813,1,2,0:0:0:0:
298,192,197813,1,0,0:0:0:0:
42,192,197966,1,8,0:0:0:0:
213,192,197966,1,0,0:0:0:0:
384,192,197966,1,0,0:0:0:0:
469,192,197966,1,0,0:0:0:0:
128,192,198120,1,2,0:0:0:0:
298,192,198120,1,0,0:0:0:0:
213,192,198273,1,0,0:0:0:0:
469,192,198273,1,0,0:0:0:0:
128,192,198426,1,2,0:0:0:0:
384,192,198426,1,0,0:0:0:0:
42,192,198579,1,8,0:0:0:0:
213,192,198579,1,0,0:0:0:0:
298,192,198579,1,0,0:0:0:0:
469,192,198579,1,0,0:0:0:0:
128,192,198732,1,0,0:0:0:50:snare.wav
384,192,198732,1,0,0:0:0:0:
213,192,198808,1,0,0:0:0:50:snare.wav
42,192,198885,1,2,0:0:0:0:
298,192,198885,1,0,0:0:0:70:ride.wav
469,192,198885,1,0,0:0:0:0:
128,192,198961,1,0,0:0:0:50:snare.wav
213,192,199038,1,0,0:0:0:50:snare.wav
384,192,199038,1,0,0:0:0:0:
469,192,199038,1,0,0:0:0:0:
128,192,199114,1,0,0:0:0:50:snare.wav
42,192,199191,1,2,0:0:0:0:
298,192,199191,1,0,0:0:0:0:
384,192,199191,1,0,0:0:0:0:
213,192,199268,1,0,0:0:0:50:snare.wav
128,192,199344,1,0,0:0:0:50:snare.wav
384,192,199344,1,0,0:0:0:0:
469,192,199344,1,0,0:0:0:0:
298,192,199421,1,0,0:0:0:50:snare.wav
42,192,199497,1,2,0:0:0:0:
213,192,199497,1,0,0:0:0:0:
469,192,199497,1,0,0:0:0:0:
384,192,199574,1,0,0:0:0:50:snare.wav
42,192,199650,1,0,0:0:0:50:snare.wav
128,192,199650,1,0,0:0:0:0:
298,192,199650,1,0,0:0:0:0:
384,192,199727,1,0,0:0:0:50:snare.wav
128,192,199803,1,2,0:0:0:0:
213,192,199803,1,4,0:0:0:0:
469,192,199803,1,0,0:0:0:0:
298,192,199880,1,0,0:0:0:50:snare.wav
42,192,199956,1,0,0:0:0:50:snare.wav
128,192,199956,1,0,0:0:0:0:
384,192,199956,1,0,0:0:0:0:
213,192,200033,1,0,0:0:0:50:snare.wav
42,192,200109,1,4,0:0:0:0:
298,192,200109,1,2,0:0:0:0:
469,192,200109,1,0,0:0:0:0:
42,192,200339,1,8,0:0:0:0:
128,192,200339,1,0,0:0:0:0:
384,192,200339,1,0,0:0:0:0:
469,192,200339,1,0,0:0:0:0:
42,192,200569,1,0,0:0:0:50:snare.wav
213,192,200569,1,0,0:0:0:0:
298,192,200569,1,0,0:0:0:0:
469,192,200569,1,0,0:0:0:0:
128,192,200798,1,8,0:0:0:0:
213,192,200798,1,0,0:0:0:0:
298,192,200798,1,0,0:0:0:0:
384,192,200798,1,0,0:0:0:0:
42,192,201028,1,8,0:0:0:0:
128,192,201028,1,0,0:0:0:0:
213,192,201028,1,0,0:0:0:0:
298,192,201028,1,0,0:0:0:0:
384,192,201028,1,0,0:0:0:0:
469,192,201028,1,0,0:0:0:0:
42,192,201334,1,2,0:0:0:0:
128,192,201334,1,4,0:0:0:0:
298,192,201334,1,0,0:0:0:0:
469,192,201334,1,0,0:0:0:0:
384,192,201487,1,2,0:0:0:0:
128,192,201563,1,0,0:0:0:0:
42,192,201640,1,8,0:0:0:0:
213,192,201640,1,0,0:0:0:0:
298,192,201640,1,0,0:0:0:0:
469,192,201640,1,0,0:0:0:0:
384,192,201716,1,0,0:0:0:0:
128,192,201793,1,2,0:0:0:0:
213,192,201870,1,0,0:0:0:0:
42,192,201946,1,8,0:0:0:0:
298,192,201946,1,0,0:0:0:0:
469,192,201946,1,0,0:0:0:0:
128,192,202023,1,0,0:0:0:0:
384,192,202023,1,0,0:0:0:0:
213,192,202099,1,2,0:0:0:0:
298,192,202099,1,0,0:0:0:0:
42,192,202176,1,0,0:0:0:0:
128,192,202176,1,0,0:0:0:0:
213,192,202252,1,8,0:0:0:0:
384,192,202252,1,0,0:0:0:0:
469,192,202252,1,0,0:0:0:0:
128,192,202329,1,0,0:0:0:0:
298,192,202329,1,0,0:0:0:0:
42,192,202405,1,2,0:0:0:0:
469,192,202405,1,0,0:0:0:0:
213,192,202482,1,0,0:0:0:0:
298,192,202482,1,0,0:0:0:0:
128,192,202558,1,8,0:0:0:0:
384,192,202558,1,0,0:0:0:0:
469,192,202558,1,0,0:0:0:0:
42,192,202635,1,0,0:0:0:0:
213,192,202711,1,2,0:0:0:0:
384,192,202711,1,0,0:0:0:0:
128,192,202788,1,0,0:0:0:0:
42,192,202864,1,8,0:0:0:0:
298,192,202864,1,0,0:0:0:0:
469,192,202864,1,0,0:0:0:0:
128,192,202941,1,0,0:0:0:0:
213,192,203018,1,2,0:0:0:0:
384,192,203018,1,0,0:0:0:0:
469,192,203094,1,0,0:0:0:0:
42,192,203171,1,8,0:0:0:0:
128,192,203171,1,0,0:0:0:0:
298,192,203171,1,0,0:0:0:0:
384,192,203247,1,0,0:0:0:0:
213,192,203324,1,2,0:0:0:0:
469,192,203324,1,0,0:0:0:0:
298,192,203400,1,0,0:0:0:0:
42,192,203477,1,8,0:0:0:0:
128,192,203477,1,0,0:0:0:0:
384,192,203477,1,0,0:0:0:0:
213,192,203553,1,0,0:0:0:0:
298,192,203630,1,2,0:0:0:0:
469,192,203630,1,0,0:0:0:0:
128,192,203706,1,0,0:0:0:0:
42,192,203783,1,8,0:0:0:0:
213,192,203783,1,4,0:0:0:0:
384,192,203783,1,0,0:0:0:0:
469,192,203859,1,0,0:0:0:0:
128,192,203936,1,2,0:0:0:0:
298,192,203936,1,0,0:0:0:0:
384,192,204012,1,0,0:0:0:0:
42,192,204089,1,8,0:0:0:0:
213,192,204089,1,0,0:0:0:0:
469,192,204089,1,0,0:0:0:0:
298,192,204165,1,0,0:0:0:0:
42,192,204242,1,2,0:0:0:0:
384,192,204242,1,0,0:0:0:0:
213,192,204319,1,0,0:0:0:0:
128,192,204395,1,8,0:0:0:0:
298,192,204395,1,0,0:0:0:0:
469,192,204395,1,0,0:0:0:0:
42,192,204472,1,0,0:0:0:0:
213,192,204472,1,0,0:0:0:0:
128,192,204548,1,2,0:0:0:0:
298,192,204548,1,0,0:0:0:0:
469,192,204548,1,0,0:0:0:0:
42,192,204625,1,0,0:0:0:0:
213,192,204625,1,0,0:0:0:0:
128,192,204701,1,8,0:0:0:0:
298,192,204701,1,0,0:0:0:0:
469,192,204701,1,0,0:0:0:0:
384,192,204778,1,0,0:0:0:0:
42,192,204854,1,2,0:0:0:0:
213,192,204854,1,0,0:0:0:0:
298,192,204931,1,0,0:0:0:0:
128,192,205007,1,8,0:0:0:0:
384,192,205007,1,0,0:0:0:0:
469,192,205007,1,0,0:0:0:0:
213,192,205084,1,0,0:0:0:0:
298,192,205160,1,2,0:0:0:0:
469,192,205160,1,0,0:0:0:0:
213,192,205237,1,0,0:0:0:0:
42,192,205313,1,8,0:0:0:0:
128,192,205313,1,4,0:0:0:0:
384,192,205313,1,0,0:0:0:0:
298,192,205390,1,0,0:0:0:0:
213,192,205466,1,2,0:0:0:0:
469,192,205466,1,0,0:0:0:0:
384,192,205543,1,0,0:0:0:0:
42,192,205620,1,8,0:0:0:0:
128,192,205620,1,0,0:0:0:0:
298,192,205620,1,0,0:0:0:0:
384,192,205696,1,0,0:0:0:0:
213,192,205773,1,2,0:0:0:0:
469,192,205773,1,0,0:0:0:0:
298,192,205849,1,0,0:0:0:0:
42,192,205926,1,8,0:0:0:0:
128,192,205926,1,0,0:0:0:0:
384,192,205926,1,0,0:0:0:0:
213,192,206002,1,0,0:0:0:0:
469,192,206002,1,0,0:0:0:0:
42,192,206079,1,2,0:0:0:0:
298,192,206079,1,0,0:0:0:0:
128,192,206155,1,2,0:0:0:0:
384,192,206155,1,0,0:0:0:0:
42,192,206232,1,2,0:0:0:0:
213,192,206232,1,4,0:0:0:0:
298,192,206232,1,0,0:0:0:0:
469,192,206232,1,0,0:0:0:0:
213,192,206385,1,2,0:0:0:0:
469,192,206385,1,0,0:0:0:0:
128,192,206461,1,0,0:0:0:0:
384,192,206461,1,0,0:0:0:0:
42,192,206538,1,8,0:0:0:0:
213,192,206538,1,0,0:0:0:0:
298,192,206538,1,0,0:0:0:0:
469,192,206538,1,0,0:0:0:0:
128,192,206614,1,0,0:0:0:0:
384,192,206614,1,0,0:0:0:0:
213,192,206691,1,2,0:0:0:0:
469,192,206691,1,0,0:0:0:0:
42,192,206768,1,0,0:0:0:0:
298,192,206768,1,0,0:0:0:0:
128,192,206844,1,8,0:0:0:0:
213,192,206844,1,0,0:0:0:0:
384,192,206844,1,0,0:0:0:0:
469,192,206844,1,0,0:0:0:0:
42,192,206921,1,0,0:0:0:0:
298,192,206921,1,0,0:0:0:0:
128,192,206997,1,2,0:0:0:0:
384,192,206997,1,0,0:0:0:0:
213,192,207074,1,0,0:0:0:0:
469,192,207074,1,0,0:0:0:0:
42,192,207150,1,8,0:0:0:0:
128,192,207150,1,0,0:0:0:0:
298,192,207150,1,0,0:0:0:0:
384,192,207150,1,0,0:0:0:0:
213,192,207227,1,0,0:0:0:0:
469,192,207227,1,0,0:0:0:0:
42,192,207303,1,2,0:0:0:0:
298,192,207303,1,0,0:0:0:0:
128,192,207380,1,0,0:0:0:0:
384,192,207380,1,0,0:0:0:0:
42,192,207456,1,8,0:0:0:0:
213,192,207456,1,4,0:0:0:0:
298,192,207456,1,0,0:0:0:0:
469,192,207456,1,0,0:0:0:0:
128,192,207533,1,0,0:0:0:0:
384,192,207533,1,0,0:0:0:0:
42,192,207609,1,2,0:0:0:0:
298,192,207609,1,0,0:0:0:0:
213,192,207686,1,0,0:0:0:0:
469,192,207686,1,0,0:0:0:0:
42,192,207762,1,8,0:0:0:0:
128,192,207762,1,0,0:0:0:0:
298,192,207762,1,0,0:0:0:0:
384,192,207762,1,0,0:0:0:0:
213,192,207839,1,0,0:0:0:0:
469,192,207839,1,0,0:0:0:0:
128,192,207915,1,2,0:0:0:0:
384,192,207915,1,0,0:0:0:0:
42,192,207992,1,0,0:0:0:0:
298,192,207992,1,0,0:0:0:0:
128,192,208069,1,8,0:0:0:0:
213,192,208069,1,0,0:0:0:0:
384,192,208069,1,0,0:0:0:0:
469,192,208069,1,0,0:0:0:0:
42,192,208145,1,0,0:0:0:0:
298,192,208145,1,0,0:0:0:0:
213,192,208222,1,2,0:0:0:0:
469,192,208222,1,0,0:0:0:0:
128,192,208298,1,0,0:0:0:0:
384,192,208298,1,0,0:0:0:0:
42,192,208375,1,8,0:0:0:0:
213,192,208375,1,0,0:0:0:0:
298,192,208375,1,0,0:0:0:0:
469,192,208375,1,0,0:0:0:0:
128,192,208451,1,0,0:0:0:0:
384,192,208451,1,0,0:0:0:0:
42,192,208528,1,0,0:0:0:100:snare.wav
298,192,208528,1,0,0:0:0:0:
213,192,208604,1,0,0:0:0:0:
469,192,208604,1,0,0:0:0:0:
42,192,208681,1,4,0:0:0:0:
128,192,208681,1,2,0:0:0:0:
298,192,208681,1,0,0:0:0:0:
384,192,208681,1,0,0:0:0:0:
213,192,208757,1,0,0:0:0:50:snare.wav
469,192,208757,1,0,0:0:0:0:
128,192,208834,1,2,0:0:0:0:
384,192,208834,1,0,0:0:0:0:
42,192,208910,1,0,0:0:0:50:snare.wav
298,192,208910,1,0,0:0:0:0:
213,192,208987,1,4,0:0:0:0:
384,192,208987,1,0,0:0:0:0:
469,192,208987,1,0,0:0:0:0:
42,192,209063,1,0,0:0:0:0:
128,192,209063,1,0,0:0:0:0:
213,192,209140,1,0,0:0:0:0:
384,192,209140,1,0,0:0:0:0:
298,192,209216,1,0,0:0:0:0:
469,192,209216,1,0,0:0:0:0:
42,192,209293,1,0,0:0:0:0:
128,192,209293,1,0,0:0:0:0:
384,192,209293,1,0,0:0:0:0:
213,192,209370,1,0,0:0:0:50:snare.wav
298,192,209370,1,0,0:0:0:0:
384,192,209446,1,2,0:0:0:0:
469,192,209446,1,0,0:0:0:0:
128,192,209523,1,2,0:0:0:0:
213,192,209523,1,0,0:0:0:50:snare.wav
42,192,209599,1,8,0:0:0:0:
298,192,209599,1,0,0:0:0:0:
469,192,209599,1,0,0:0:0:0:
128,192,209676,1,0,0:0:0:50:snare.wav
384,192,209676,1,0,0:0:0:0:
213,192,209752,1,2,0:0:0:0:
469,192,209752,1,0,0:0:0:50:snare.wav
128,192,209829,1,2,0:0:0:0:
384,192,209829,1,0,0:0:0:50:snare.wav
42,192,209905,128,2,210518:0:0:0:0:
298,192,209905,1,0,0:0:0:70:cymbal.wav
384,192,210007,1,0,0:0:0:0:
213,192,210109,1,0,0:0:0:0:
298,192,210211,1,0,0:0:0:0:
128,192,210313,1,0,0:0:0:0:
213,192,210415,1,0,0:0:0:0:
298,192,210518,1,0,0:0:0:70:cymbal.wav
384,192,210518,1,0,0:0:0:0:
469,192,210518,1,0,0:0:0:0:
298,192,210620,1,0,0:0:0:50:snare.wav
384,192,210620,1,0,0:0:0:0:
469,192,210620,1,0,0:0:0:0:
298,192,210722,1,0,0:0:0:50:snare.wav
384,192,210722,1,0,0:0:0:0:
469,192,210722,1,0,0:0:0:0:
42,192,210824,1,0,0:0:0:70:tom01.wav
128,192,210824,1,0,0:0:0:0:
213,192,210824,1,0,0:0:0:0:
42,192,210926,1,0,0:0:0:70:tom02.wav
128,192,210926,1,0,0:0:0:0:
213,192,210926,1,0,0:0:0:0:
42,192,211028,1,0,0:0:0:70:tom03.wav
128,192,211028,1,0,0:0:0:0:
213,192,211028,1,0,0:0:0:0:
42,192,211130,1,2,0:0:0:0:
128,192,211130,1,4,0:0:0:0:
213,192,211130,1,0,0:0:0:0:
384,192,211130,1,0,0:0:0:0:
469,192,211130,1,0,0:0:0:0:
298,192,211206,1,0,0:0:0:0:
128,192,211283,1,0,0:0:0:0:
213,192,211359,1,0,0:0:0:0:
42,192,211436,1,2,0:0:0:0:
298,192,211436,1,0,0:0:0:0:
469,192,211436,1,0,0:0:0:0:
128,192,211512,1,0,0:0:0:0:
213,192,211589,1,0,0:0:0:0:
384,192,211589,1,0,0:0:0:0:
42,192,211665,1,0,0:0:0:0:
128,192,211742,1,2,0:0:0:0:
298,192,211742,1,0,0:0:0:0:
469,192,211742,1,0,0:0:0:0:
213,192,211819,1,0,0:0:0:0:
128,192,211895,1,0,0:0:0:0:
384,192,211895,1,0,0:0:0:0:
298,192,211972,1,0,0:0:0:0:
42,192,212048,1,2,0:0:0:0:
213,192,212048,1,0,0:0:0:0:
469,192,212048,1,0,0:0:0:0:
384,192,212125,1,0,0:0:0:0:
128,192,212201,1,0,0:0:0:0:
298,192,212201,1,0,0:0:0:0:
384,192,212278,1,0,0:0:0:0:
42,192,212354,1,2,0:0:0:0:
213,192,212354,1,0,0:0:0:0:
469,192,212354,1,0,0:0:0:0:
298,192,212431,1,0,0:0:0:0:
128,192,212507,1,0,0:0:0:0:
384,192,212507,1,0,0:0:0:0:
213,192,212584,1,0,0:0:0:0:
42,192,212660,1,2,0:0:0:0:
298,192,212660,1,0,0:0:0:0:
469,192,212660,1,0,0:0:0:0:
128,192,212737,1,0,0:0:0:0:
213,192,212813,1,0,0:0:0:0:
384,192,212813,1,0,0:0:0:0:
42,192,212890,1,0,0:0:0:0:
128,192,212966,1,2,0:0:0:0:
298,192,212966,1,0,0:0:0:0:
384,192,212966,1,0,0:0:0:0:
469,192,213043,1,0,0:0:0:0:
42,192,213120,1,0,0:0:0:0:
213,192,213120,1,0,0:0:0:0:
298,192,213196,1,0,0:0:0:0:
128,192,213273,1,2,0:0:0:0:
384,192,213273,1,0,0:0:0:0:
469,192,213273,1,0,0:0:0:0:
213,192,213349,1,0,0:0:0:0:
42,192,213426,1,0,0:0:0:0:
298,192,213426,1,0,0:0:0:0:
128,192,213502,1,0,0:0:0:0:
213,192,213579,1,2,0:0:0:0:
384,192,213579,1,0,0:0:0:0:
469,192,213579,1,0,0:0:0:0:
128,192,213655,1,0,0:0:0:0:
42,192,213732,1,0,0:0:0:0:
298,192,213732,1,0,0:0:0:0:
213,192,213808,1,0,0:0:0:0:
128,192,213885,1,2,0:0:0:0:
384,192,213885,1,0,0:0:0:0:
469,192,213885,1,0,0:0:0:0:
298,192,213961,1,0,0:0:0:0:
42,192,214038,1,0,0:0:0:0:
213,192,214038,1,0,0:0:0:0:
384,192,214114,1,0,0:0:0:0:
128,192,214191,1,2,0:0:0:0:
298,192,214191,1,0,0:0:0:0:
469,192,214191,1,0,0:0:0:0:
42,192,214268,1,0,0:0:0:0:
213,192,214344,1,0,0:0:0:0:
384,192,214344,1,0,0:0:0:0:
469,192,214421,1,0,0:0:0:0:
42,192,214497,1,2,0:0:0:0:
128,192,214497,1,0,0:0:0:0:
298,192,214497,1,0,0:0:0:0:
384,192,214574,1,0,0:0:0:0:
213,192,214650,1,0,0:0:0:0:
469,192,214650,1,0,0:0:0:0:
298,192,214727,1,0,0:0:0:0:
42,192,214803,1,2,0:0:0:0:
128,192,214803,1,0,0:0:0:0:
384,192,214803,1,0,0:0:0:0:
213,192,214880,1,0,0:0:0:0:
298,192,214956,1,0,0:0:0:0:
469,192,214956,1,0,0:0:0:0:
213,192,215033,1,0,0:0:0:0:
128,192,215109,1,2,0:0:0:0:
384,192,215109,1,0,0:0:0:0:
469,192,215109,1,0,0:0:0:0:
298,192,215186,1,0,0:0:0:0:
42,192,215262,1,0,0:0:0:0:
128,192,215262,1,0,0:0:0:0:
384,192,215339,1,0,0:0:0:0:
42,192,215415,1,2,0:0:0:0:
213,192,215415,1,0,0:0:0:0:
298,192,215415,1,0,0:0:0:0:
469,192,215492,1,0,0:0:0:0:
128,192,215569,1,0,0:0:0:0:
384,192,215569,1,0,0:0:0:0:
42,192,215645,1,0,0:0:0:0:
213,192,215722,1,2,0:0:0:0:
469,192,215722,1,0,0:0:0:0:
128,192,215798,1,0,0:0:0:0:
298,192,215824,1,0,0:0:0:0:
42,192,215875,1,0,0:0:0:0:
384,192,215926,1,0,0:0:0:0:
213,192,215951,1,0,0:0:0:0:
128,192,216028,1,2,0:0:0:0:
298,192,216028,1,4,0:0:0:0:
469,192,216028,1,0,0:0:0:0:
42,192,216104,1,0,0:0:0:0:
213,192,216181,1,0,0:0:0:0:
384,192,216181,1,0,0:0:0:0:
128,192,216257,1,0,0:0:0:0:
42,192,216334,1,2,0:0:0:0:
298,192,216334,1,0,0:0:0:0:
469,192,216334,1,0,0:0:0:0:
213,192,216410,1,0,0:0:0:0:
128,192,216487,1,0,0:0:0:0:
384,192,216487,1,0,0:0:0:0:
298,192,216563,1,0,0:0:0:0:
42,192,216640,1,2,0:0:0:0:
213,192,216640,1,0,0:0:0:0:
469,192,216640,1,0,0:0:0:0:
298,192,216716,1,0,0:0:0:0:
128,192,216793,1,0,0:0:0:0:
384,192,216793,1,0,0:0:0:0:
213,192,216870,1,0,0:0:0:0:
42,192,216946,1,2,0:0:0:0:
298,192,216946,1,0,0:0:0:0:
469,192,216946,1,0,0:0:0:0:
128,192,217023,1,0,0:0:0:0:
213,192,217099,1,0,0:0:0:0:
384,192,217099,1,0,0:0:0:0:
469,192,217176,1,0,0:0:0:0:
42,192,217252,1,2,0:0:0:0:
128,192,217252,1,0,0:0:0:0:
298,192,217252,1,0,0:0:0:0:
384,192,217329,1,0,0:0:0:0:
213,192,217405,1,0,0:0:0:0:
469,192,217405,1,0,0:0:0:0:
128,192,217482,1,0,0:0:0:0:
42,192,217558,1,2,0:0:0:0:
298,192,217558,1,0,0:0:0:0:
384,192,217558,1,0,0:0:0:0:
213,192,217635,1,0,0:0:0:0:
128,192,217711,1,0,0:0:0:0:
469,192,217711,1,0,0:0:0:0:
384,192,217788,1,0,0:0:0:0:
42,192,217864,1,2,0:0:0:0:
213,192,217864,1,0,0:0:0:0:
298,192,217864,1,0,0:0:0:0:
384,192,217941,1,0,0:0:0:0:
128,192,218018,1,0,0:0:0:0:
469,192,218018,1,0,0:0:0:0:
213,192,218094,1,0,0:0:0:0:
42,192,218171,1,2,0:0:0:0:
298,192,218171,1,0,0:0:0:0:
384,192,218171,1,0,0:0:0:0:
128,192,218247,1,0,0:0:0:0:
213,192,218324,1,0,0:0:0:0:
469,192,218324,1,0,0:0:0:0:
298,192,218400,1,0,0:0:0:0:
42,192,218477,1,2,0:0:0:0:
128,192,218477,1,4,0:0:0:0:
384,192,218477,1,0,0:0:0:0:
469,192,218477,1,0,0:0:0:0:
213,192,218553,1,0,0:0:0:0:
298,192,218630,1,0,0:0:0:50:snare.wav
384,192,218630,1,0,0:0:0:0:
42,192,218706,1,0,0:0:0:0:
128,192,218783,1,2,0:0:0:0:
213,192,218783,1,0,0:0:0:0:
469,192,218783,1,0,0:0:0:0:
384,192,218859,1,0,0:0:0:0:
42,192,218936,1,0,0:0:0:50:snare.wav
298,192,218936,1,0,0:0:0:0:
128,192,219012,1,0,0:0:0:0:
213,192,219089,1,2,0:0:0:0:
384,192,219089,1,0,0:0:0:0:
469,192,219089,1,0,0:0:0:0:
128,192,219165,1,0,0:0:0:0:
42,192,219242,1,0,0:0:0:50:snare.wav
298,192,219242,1,0,0:0:0:0:
469,192,219242,1,0,0:0:0:0:
213,192,219319,1,0,0:0:0:0:
128,192,219395,1,2,0:0:0:0:
384,192,219395,1,0,0:0:0:0:
469,192,219395,1,0,0:0:0:0:
298,192,219472,1,0,0:0:0:0:
42,192,219548,1,0,0:0:0:50:snare.wav
213,192,219548,1,0,0:0:0:0:
128,192,219625,1,8,0:0:0:0:
298,192,219625,1,0,0:0:0:0:
213,192,219701,1,2,0:0:0:0:
384,192,219701,1,0,0:0:0:0:
469,192,219701,1,0,0:0:0:0:
42,192,219778,1,0,0:0:0:0:
128,192,219778,1,0,0:0:0:0:
384,192,219854,1,0,0:0:0:50:snare.wav
469,192,219854,1,0,0:0:0:0:
42,192,219931,1,8,0:0:0:0:
128,192,219931,1,0,0:0:0:0:
298,192,219931,1,0,0:0:0:0:
213,192,220007,1,2,0:0:0:0:
384,192,220007,1,0,0:0:0:0:
469,192,220007,1,0,0:0:0:0:
42,192,220084,1,0,0:0:0:0:
128,192,220084,1,0,0:0:0:0:
384,192,220160,1,0,0:0:0:50:snare.wav
469,192,220160,1,0,0:0:0:0:
42,192,220237,1,8,0:0:0:0:
128,192,220237,1,0,0:0:0:0:
298,192,220237,1,0,0:0:0:0:
213,192,220313,1,2,0:0:0:0:
384,192,220313,1,0,0:0:0:0:
469,192,220313,1,0,0:0:0:0:
42,192,220390,1,0,0:0:0:0:
128,192,220390,1,0,0:0:0:0:
384,192,220466,1,0,0:0:0:50:snare.wav
469,192,220466,1,0,0:0:0:0:
42,192,220543,1,8,0:0:0:0:
128,192,220543,1,0,0:0:0:0:
298,192,220543,1,0,0:0:0:0:
213,192,220620,1,2,0:0:0:0:
384,192,220620,1,0,0:0:0:0:
469,192,220620,1,0,0:0:0:0:
42,192,220696,1,0,0:0:0:0:
128,192,220696,1,0,0:0:0:0:
298,192,220773,1,0,0:0:0:50:snare.wav
42,192,220849,1,8,0:0:0:0:
128,192,220849,1,0,0:0:0:0:
384,192,220849,1,0,0:0:0:0:
469,192,220849,1,0,0:0:0:0:
213,192,220926,1,0,0:0:0:100:Rain.wav
