osu file format v14

[General]
AudioFilename: Oceanus.mp3
AudioLeadIn: 0
PreviewTime: 62104
Countdown: 0
SampleSet: Normal
StackLeniency: 0.7
Mode: 1
LetterboxInBreaks: 0
WidescreenStoryboard: 0

[Editor]
DistanceSpacing: 2
BeatDivisor: 4
GridSize: 32
TimelineZoom: 1

[Metadata]
Title:Oceanus
TitleUnicode:Ωκεανος
Artist:cosMo@BousouP
ArtistUnicode:cosMo@暴走P
Creator:Canner
Version:Inner Oni
Source:Deemo
Tags:AD:PIANO3 AD:PIANOⅢ Diverse System mintong mintong89 mint Firce Firce777
BeatmapID:922532
BeatmapSetID:427352

[Difficulty]
HPDrainRate:5
CircleSize:5
OverallDifficulty:5
ApproachRate:5
SliderMultiplier:1.4
SliderTickRate:1

[Events]
//Background and Video events
0,0,"Oceanus.png",0,0
//Break Periods
//Storyboard Layer 0 (Background)
//Storyboard Layer 1 (Fail)
//Storyboard Layer 2 (Pass)
//Storyboard Layer 3 (Foreground)
//Storyboard Sound Samples

[TimingPoints]
1212,306.122448979592,4,1,0,30,1,0
13456,-100,4,1,0,70,0,0
62436,-100,4,1,0,70,0,1
111416,-100,4,1,0,60,0,0
116314,-100,4,1,0,40,0,0
118774,315.789473684211,4,1,0,40,1,0
121300,319.148936170213,4,1,0,40,1,0
126406,322.58064516129,4,1,0,40,1,0
129954,329.67032967033,4,1,0,40,1,8
131272,342.857142857143,4,1,0,40,1,8
131957,329.67032967033,4,1,0,40,1,0
134594,348.837209302326,4,1,0,40,1,0
135989,352.941176470588,4,1,0,40,1,0

[HitObjects]
256,192,1212,5,2,0:0:0:0:
256,192,3967,1,2,0:0:0:0:
256,192,4273,1,2,0:0:0:0:
256,192,4579,1,2,0:0:0:0:
256,192,4885,1,2,0:0:0:0:
256,192,5191,1,2,0:0:0:0:
256,192,5497,1,2,0:0:0:0:
256,192,5803,1,2,0:0:0:0:
256,192,6416,1,2,0:0:0:0:
256,192,6722,1,2,0:0:0:0:
256,192,7028,1,2,0:0:0:0:
256,192,7334,1,2,0:0:0:0:
256,192,7640,1,2,0:0:0:0:
256,192,7946,1,2,0:0:0:0:
256,192,8252,1,2,0:0:0:0:
256,192,8865,1,2,0:0:0:0:
256,192,9171,1,2,0:0:0:0:
256,192,9477,1,2,0:0:0:0:
256,192,9783,1,2,0:0:0:0:
256,192,10089,1,2,0:0:0:0:
256,192,10395,1,2,0:0:0:0:
256,192,10701,1,2,0:0:0:0:
256,192,11007,1,0,0:0:0:0:
256,192,11620,1,0,0:0:0:0:
256,192,12232,1,2,0:0:0:0:
256,192,12538,1,2,0:0:0:0:
256,192,12844,1,2,0:0:0:0:
256,192,13150,1,2,0:0:0:0:
256,192,13456,1,0,0:0:0:0:
256,192,13609,1,0,0:0:0:0:
256,192,13763,1,0,0:0:0:0:
256,192,13916,1,2,0:0:0:0:
256,192,14069,1,0,0:0:0:0:
256,192,14222,1,2,0:0:0:0:
256,192,14528,1,2,0:0:0:0:
256,192,14834,1,2,0:0:0:0:
256,192,14987,1,0,0:0:0:0:
256,192,15140,1,0,0:0:0:0:
256,192,15293,1,2,0:0:0:0:
256,192,15446,1,0,0:0:0:0:
256,192,15599,1,2,0:0:0:0:
256,192,15905,1,0,0:0:0:0:
256,192,16058,1,0,0:0:0:0:
256,192,16212,1,0,0:0:0:0:
256,192,16365,1,2,0:0:0:0:
256,192,16671,1,2,0:0:0:0:
256,192,16824,1,0,0:0:0:0:
256,192,16977,1,0,0:0:0:0:
256,192,17130,1,2,0:0:0:0:
256,192,17283,1,2,0:0:0:0:
256,192,17436,1,0,0:0:0:0:
256,192,17589,1,2,0:0:0:0:
256,192,17742,1,0,0:0:0:0:
256,192,17895,1,0,0:0:0:0:
256,192,18048,1,2,0:0:0:0:
256,192,18201,1,0,0:0:0:0:
256,192,18507,1,2,0:0:0:0:
256,192,18660,1,2,0:0:0:0:
256,192,18814,1,2,0:0:0:0:
256,192,18967,1,0,0:0:0:0:
256,192,19120,1,2,0:0:0:0:
256,192,19273,1,0,0:0:0:0:
256,192,19426,1,0,0:0:0:0:
256,192,19579,1,2,0:0:0:0:
256,192,19732,1,0,0:0:0:0:
256,192,19885,1,2,0:0:0:0:
256,192,20191,1,0,0:0:0:0:
256,192,20497,1,0,0:0:0:0:
256,192,20650,1,0,0:0:0:0:
256,192,20803,1,2,0:0:0:0:
256,192,21109,1,2,0:0:0:0:
256,192,21263,1,0,0:0:0:0:
256,192,21569,1,2,0:0:0:0:
256,192,21722,1,0,0:0:0:0:
256,192,22028,1,0,0:0:0:0:
256,192,22181,1,0,0:0:0:0:
256,192,22487,1,2,0:0:0:0:
256,192,22640,1,0,0:0:0:0:
256,192,22717,1,0,0:0:0:0:
256,192,22793,1,0,0:0:0:0:
256,192,22870,1,2,0:0:0:0:
256,192,22946,1,0,0:0:0:0:
256,192,23023,1,0,0:0:0:0:
256,192,23099,1,2,0:0:0:0:
256,192,23176,1,2,0:0:0:0:
256,192,23405,1,2,0:0:0:0:
256,192,23482,1,0,0:0:0:0:
256,192,23558,1,2,0:0:0:0:
256,192,23635,1,0,0:0:0:0:
256,192,23712,1,0,0:0:0:0:
256,192,23865,1,2,0:0:0:0:
256,192,24018,1,0,0:0:0:0:
256,192,24094,1,0,0:0:0:0:
256,192,24171,1,2,0:0:0:0:
256,192,24324,1,0,0:0:0:0:
256,192,24630,1,2,0:0:0:0:
256,192,24783,1,0,0:0:0:0:
256,192,24859,1,0,0:0:0:0:
256,192,24936,1,0,0:0:0:0:
256,192,25013,1,2,0:0:0:0:
256,192,25089,1,2,0:0:0:0:
256,192,25242,1,0,0:0:0:0:
256,192,25395,1,0,0:0:0:0:
256,192,25472,1,0,0:0:0:0:
256,192,25548,1,2,0:0:0:0:
256,192,25625,1,2,0:0:0:0:
256,192,25701,1,0,0:0:0:0:
256,192,25931,1,0,0:0:0:0:
256,192,26007,1,2,0:0:0:0:
256,192,26160,1,2,0:0:0:0:
256,192,26314,1,0,0:0:0:0:
256,192,26467,1,0,0:0:0:0:
256,192,26543,1,0,0:0:0:0:
256,192,26620,1,2,0:0:0:0:
256,192,26773,1,0,0:0:0:0:
256,192,26849,1,2,0:0:0:0:
256,192,26926,1,0,0:0:0:0:
256,192,27079,1,0,0:0:0:0:
256,192,27232,1,2,0:0:0:0:
256,192,27385,1,0,0:0:0:0:
256,192,27844,1,2,0:0:0:0:
256,192,27997,1,0,0:0:0:0:
256,192,28150,1,2,0:0:0:0:
256,192,28303,1,0,0:0:0:0:
256,192,28380,1,0,0:0:0:0:
256,192,28456,1,2,0:0:0:0:
256,192,28609,1,0,0:0:0:0:
256,192,28763,1,2,0:0:0:0:
256,192,28916,1,0,0:0:0:0:
256,192,28992,1,2,0:0:0:0:
256,192,29069,1,2,0:0:0:0:
256,192,29222,1,0,0:0:0:0:
256,192,29375,1,2,0:0:0:0:
256,192,29528,1,0,0:0:0:0:
256,192,29604,1,2,0:0:0:0:
256,192,29757,1,0,0:0:0:0:
256,192,29834,1,2,0:0:0:0:
256,192,29910,1,2,0:0:0:0:
256,192,29987,1,0,0:0:0:0:
256,192,30140,1,0,0:0:0:0:
256,192,30217,1,2,0:0:0:0:
256,192,30293,1,0,0:0:0:0:
256,192,30446,1,0,0:0:0:0:
256,192,30599,1,2,0:0:0:0:
256,192,30829,1,0,0:0:0:0:
256,192,30905,1,0,0:0:0:0:
256,192,31058,1,2,0:0:0:0:
256,192,31365,1,2,0:0:0:0:
256,192,31518,1,0,0:0:0:0:
256,192,31671,1,2,0:0:0:0:
256,192,31824,1,0,0:0:0:0:
256,192,31977,1,0,0:0:0:0:
256,192,32053,1,0,0:0:0:0:
256,192,32130,1,2,0:0:0:0:
256,192,32206,1,2,0:0:0:0:
256,192,32283,1,0,0:0:0:0:
256,192,32436,1,2,0:0:0:0:
256,192,32538,1,0,0:0:0:0:
256,192,32640,1,2,0:0:0:0:
256,192,32742,1,0,0:0:0:0:
256,192,32895,1,0,0:0:0:0:
256,192,33048,1,2,0:0:0:0:
256,192,33660,1,0,0:0:0:0:
256,192,33967,1,2,0:0:0:0:
256,192,34273,1,2,0:0:0:0:
256,192,34885,1,0,0:0:0:0:
256,192,35497,1,2,0:0:0:0:
256,192,36109,1,2,0:0:0:0:
256,192,36416,1,2,0:0:0:0:
256,192,36722,1,0,0:0:0:0:
256,192,37334,1,0,0:0:0:0:
256,192,37946,1,2,0:0:0:0:
256,192,38558,1,0,0:0:0:0:
256,192,38865,1,0,0:0:0:0:
256,192,39171,1,2,0:0:0:0:
256,192,39783,1,2,0:0:0:0:
256,192,40089,1,0,0:0:0:0:
256,192,40395,1,0,0:0:0:0:
256,192,41007,1,0,0:0:0:0:
256,192,41314,1,0,0:0:0:0:
256,192,41620,1,2,0:0:0:0:
256,192,42232,1,0,0:0:0:0:
256,192,42538,1,2,0:0:0:0:
256,192,42844,1,2,0:0:0:0:
256,192,43456,1,0,0:0:0:0:
256,192,43763,1,0,0:0:0:0:
256,192,44069,1,2,0:0:0:0:
256,192,44681,1,0,0:0:0:0:
256,192,45293,1,2,0:0:0:0:
256,192,45905,1,2,0:0:0:0:
256,192,46212,1,0,0:0:0:0:
256,192,46518,1,0,0:0:0:0:
256,192,47130,1,0,0:0:0:0:
256,192,47742,1,2,0:0:0:0:
256,192,48354,1,0,0:0:0:0:
256,192,48660,1,0,0:0:0:0:
256,192,48967,1,2,0:0:0:0:
256,192,49579,1,2,0:0:0:0:
256,192,49732,1,0,0:0:0:0:
256,192,49808,1,2,0:0:0:0:
256,192,49885,1,2,0:0:0:0:
256,192,50191,1,2,0:0:0:0:
256,192,50497,1,0,0:0:0:0:
256,192,50650,1,2,0:0:0:0:
256,192,50803,1,0,0:0:0:0:
256,192,50956,1,0,0:0:0:0:
256,192,51109,1,2,0:0:0:0:
256,192,51263,1,0,0:0:0:0:
256,192,51416,1,2,0:0:0:0:
256,192,51492,1,2,0:0:0:0:
256,192,51569,1,0,0:0:0:0:
256,192,51722,1,0,0:0:0:0:
256,192,51875,1,2,0:0:0:0:
256,192,52028,1,0,0:0:0:0:
256,192,52181,1,0,0:0:0:0:
256,192,52334,1,2,0:0:0:0:
256,192,52640,1,2,0:0:0:0:
256,192,52793,1,0,0:0:0:0:
256,192,52870,1,0,0:0:0:0:
256,192,52946,1,2,0:0:0:0:
256,192,53099,1,2,0:0:0:0:
256,192,53252,1,0,0:0:0:0:
256,192,53405,1,0,0:0:0:0:
256,192,53482,1,0,0:0:0:0:
256,192,53558,1,2,0:0:0:0:
256,192,53712,1,0,0:0:0:0:
256,192,53865,1,2,0:0:0:0:
256,192,54018,1,0,0:0:0:0:
256,192,54094,1,0,0:0:0:0:
256,192,54171,1,2,0:0:0:0:
256,192,54247,1,2,0:0:0:0:
256,192,54324,1,0,0:0:0:0:
256,192,54477,1,2,0:0:0:0:
256,192,54630,1,0,0:0:0:0:
256,192,54706,1,0,0:0:0:0:
256,192,54783,1,2,0:0:0:0:
256,192,54859,1,0,0:0:0:0:
256,192,54936,1,2,0:0:0:0:
256,192,55089,1,2,0:0:0:0:
256,192,55319,1,0,0:0:0:0:
256,192,55395,1,0,0:0:0:0:
256,192,55548,1,2,0:0:0:0:
256,192,55854,1,0,0:0:0:0:
256,192,56007,1,2,0:0:0:0:
256,192,56160,1,2,0:0:0:0:
256,192,56314,1,0,0:0:0:0:
256,192,56467,1,2,0:0:0:0:
256,192,56543,1,2,0:0:0:0:
256,192,56620,1,0,0:0:0:0:
256,192,56773,1,2,0:0:0:0:
256,192,56849,1,0,0:0:0:0:
256,192,56926,1,2,0:0:0:0:
256,192,57002,1,2,0:0:0:0:
256,192,57155,1,2,0:0:0:0:
256,192,57232,1,0,0:0:0:0:
256,192,57385,1,2,0:0:0:0:
256,192,57538,1,0,0:0:0:0:
256,192,57691,1,0,0:0:0:0:
256,192,57768,1,0,0:0:0:0:
256,192,57844,1,2,0:0:0:0:
256,192,57997,1,0,0:0:0:0:
256,192,58074,1,0,0:0:0:0:
256,192,58150,1,2,0:0:0:0:
256,192,58227,1,0,0:0:0:0:
256,192,58380,1,0,0:0:0:0:
256,192,58456,1,2,0:0:0:0:
256,192,58609,1,0,0:0:0:0:
256,192,58686,1,2,0:0:0:0:
256,192,58763,1,2,0:0:0:0:
256,192,58992,1,2,0:0:0:0:
256,192,59069,1,2,0:0:0:0:
256,192,59222,1,2,0:0:0:0:
256,192,59375,1,0,0:0:0:0:
256,192,59528,1,2,0:0:0:0:
256,192,59604,1,2,0:0:0:0:
256,192,59681,1,0,0:0:0:0:
256,192,59757,1,0,0:0:0:0:
256,192,59834,1,2,0:0:0:0:
256,192,59987,1,0,0:0:0:0:
256,192,60064,1,0,0:0:0:0:
256,192,60140,1,0,0:0:0:0:
256,192,60217,1,0,0:0:0:0:
256,192,60293,1,2,0:0:0:0:
256,192,60446,1,0,0:0:0:0:
256,192,60523,1,0,0:0:0:0:
256,192,60599,1,2,0:0:0:0:
256,192,60676,1,0,0:0:0:0:
256,192,60752,1,2,0:0:0:0:
256,192,60905,1,2,0:0:0:0:
256,192,60982,1,2,0:0:0:0:
256,192,61058,1,2,0:0:0:0:
256,192,61135,1,2,0:0:0:0:
256,192,61212,1,0,0:0:0:0:
256,192,61518,1,2,0:0:0:0:
256,192,62130,1,0,0:0:0:0:
256,192,62206,1,0,0:0:0:0:
256,192,62283,1,0,0:0:0:0:
256,192,62359,1,2,0:0:0:0:
256,192,62436,1,2,0:0:0:0:
256,192,62742,1,0,0:0:0:0:
256,192,62972,1,0,0:0:0:0:
256,192,63048,1,2,0:0:0:0:
256,192,63201,1,0,0:0:0:0:
256,192,63354,1,0,0:0:0:0:
256,192,63584,1,0,0:0:0:0:
256,192,63660,1,2,0:0:0:0:
256,192,63814,1,0,0:0:0:0:
256,192,63890,1,0,0:0:0:0:
256,192,63967,1,2,0:0:0:0:
256,192,64120,1,0,0:0:0:0:
256,192,64196,1,0,0:0:0:0:
256,192,64273,1,2,0:0:0:0:
256,192,64349,1,0,0:0:0:0:
256,192,64426,1,2,0:0:0:0:
256,192,64502,1,0,0:0:0:0:
256,192,64579,1,0,0:0:0:0:
256,192,64732,1,0,0:0:0:0:
256,192,64808,1,0,0:0:0:0:
256,192,64885,1,2,0:0:0:0:
256,192,65038,1,0,0:0:0:0:
256,192,65191,1,2,0:0:0:0:
256,192,65268,1,2,0:0:0:0:
256,192,65421,1,2,0:0:0:0:
256,192,65497,1,2,0:0:0:0:
256,192,65650,1,0,0:0:0:0:
256,192,65727,1,0,0:0:0:0:
256,192,65803,1,2,0:0:0:0:
256,192,65956,1,2,0:0:0:0:
256,192,66109,1,0,0:0:0:0:
256,192,66263,1,2,0:0:0:0:
256,192,66339,1,0,0:0:0:0:
256,192,66416,1,2,0:0:0:0:
256,192,66492,1,2,0:0:0:0:
256,192,66569,1,0,0:0:0:0:
256,192,66645,1,0,0:0:0:0:
256,192,66722,1,2,0:0:0:0:
256,192,66875,1,0,0:0:0:0:
256,192,66951,1,2,0:0:0:0:
256,192,67028,1,0,0:0:0:0:
256,192,67181,1,0,0:0:0:0:
256,192,67334,1,2,0:0:0:0:
256,192,67640,1,2,0:0:0:0:
256,192,67793,1,0,0:0:0:0:
256,192,67870,1,0,0:0:0:0:
256,192,67946,1,2,0:0:0:0:
256,192,68023,1,0,0:0:0:0:
256,192,68099,1,2,0:0:0:0:
256,192,68252,1,2,0:0:0:0:
256,192,68405,1,0,0:0:0:0:
256,192,68482,1,2,0:0:0:0:
256,192,68558,1,2,0:0:0:0:
256,192,68788,1,2,0:0:0:0:
256,192,68865,1,2,0:0:0:0:
256,192,69018,1,2,0:0:0:0:
256,192,69171,1,0,0:0:0:0:
256,192,69247,1,0,0:0:0:0:
256,192,69324,1,0,0:0:0:0:
256,192,69400,1,0,0:0:0:0:
256,192,69477,1,2,0:0:0:0:
256,192,69630,1,0,0:0:0:0:
256,192,69706,1,2,0:0:0:0:
256,192,69783,1,0,0:0:0:0:
256,192,69859,1,0,0:0:0:0:
256,192,69936,1,2,0:0:0:0:
256,192,70013,1,2,0:0:0:0:
256,192,70089,1,0,0:0:0:0:
256,192,70242,1,2,0:0:0:0:
256,192,70319,1,2,0:0:0:0:
256,192,70395,1,0,0:0:0:0:
256,192,70548,1,2,0:0:0:0:
256,192,70625,1,2,0:0:0:0:
256,192,70701,1,0,0:0:0:0:
256,192,70778,1,2,0:0:0:0:
256,192,70854,1,0,0:0:0:0:
256,192,71007,1,0,0:0:0:0:
256,192,71160,1,2,0:0:0:0:
256,192,71237,1,0,0:0:0:0:
256,192,71390,1,0,0:0:0:0:
256,192,71467,1,2,0:0:0:0:
256,192,71620,1,2,0:0:0:0:
256,192,71696,1,0,0:0:0:0:
256,192,71773,1,2,0:0:0:0:
256,192,71926,1,2,0:0:0:0:
256,192,72079,1,0,0:0:0:0:
256,192,72155,1,0,0:0:0:0:
256,192,72232,1,2,0:0:0:0:
256,192,72538,1,2,0:0:0:0:
256,192,72768,1,0,0:0:0:0:
256,192,72844,1,2,0:0:0:0:
256,192,72997,1,0,0:0:0:0:
256,192,73150,1,2,0:0:0:0:
256,192,73303,1,0,0:0:0:0:
256,192,73456,1,2,0:0:0:0:
256,192,73533,1,0,0:0:0:0:
256,192,73609,1,2,0:0:0:0:
256,192,73686,1,2,0:0:0:0:
256,192,73763,1,0,0:0:0:0:
256,192,73839,1,0,0:0:0:0:
256,192,73916,1,2,0:0:0:0:
256,192,73992,1,2,0:0:0:0:
256,192,74069,1,0,0:0:0:0:
256,192,74222,1,2,0:0:0:0:
256,192,74298,1,0,0:0:0:0:
256,192,74375,1,0,0:0:0:0:
256,192,74451,1,2,0:0:0:0:
256,192,74528,1,0,0:0:0:0:
256,192,74604,1,0,0:0:0:0:
256,192,74681,1,2,0:0:0:0:
256,192,74834,1,0,0:0:0:0:
256,192,74910,1,0,0:0:0:0:
256,192,74987,1,0,0:0:0:0:
256,192,75140,1,2,0:0:0:0:
256,192,75370,1,2,0:0:0:0:
256,192,75523,1,0,0:0:0:0:
256,192,75599,1,2,0:0:0:0:
256,192,75752,1,0,0:0:0:0:
256,192,75829,1,2,0:0:0:0:
256,192,76058,1,2,0:0:0:0:
256,192,76135,1,2,0:0:0:0:
256,192,76212,1,2,0:0:0:0:
256,192,76288,1,0,0:0:0:0:
256,192,76365,1,0,0:0:0:0:
256,192,76441,1,0,0:0:0:0:
256,192,76518,1,2,0:0:0:0:
256,192,76671,1,0,0:0:0:0:
256,192,76747,1,0,0:0:0:0:
256,192,76824,1,2,0:0:0:0:
256,192,76900,1,0,0:0:0:0:
256,192,76977,1,2,0:0:0:0:
256,192,77130,1,0,0:0:0:0:
256,192,77283,1,0,0:0:0:0:
256,192,77436,1,2,0:0:0:0:
256,192,77589,1,0,0:0:0:0:
256,192,77666,1,0,0:0:0:0:
256,192,77742,1,2,0:0:0:0:
256,192,77895,1,0,0:0:0:0:
256,192,78048,1,2,0:0:0:0:
256,192,78201,1,0,0:0:0:0:
256,192,78354,1,2,0:0:0:0:
256,192,78584,1,2,0:0:0:0:
256,192,78660,1,2,0:0:0:0:
256,192,78814,1,2,0:0:0:0:
256,192,78967,1,0,0:0:0:0:
256,192,79120,1,2,0:0:0:0:
256,192,79196,1,2,0:0:0:0:
256,192,79273,1,0,0:0:0:0:
256,192,79426,1,0,0:0:0:0:
256,192,79579,1,2,0:0:0:0:
256,192,79655,1,2,0:0:0:0:
256,192,79808,1,2,0:0:0:0:
256,192,79885,1,2,0:0:0:0:
256,192,80038,1,0,0:0:0:0:
256,192,80115,1,2,0:0:0:0:
256,192,80191,1,0,0:0:0:0:
256,192,80268,1,0,0:0:0:0:
256,192,80344,1,2,0:0:0:0:
256,192,80421,1,2,0:0:0:0:
256,192,80497,1,0,0:0:0:0:
256,192,80650,1,0,0:0:0:0:
256,192,80727,1,2,0:0:0:0:
256,192,80803,1,0,0:0:0:0:
256,192,80956,1,0,0:0:0:0:
256,192,81109,1,2,0:0:0:0:
256,192,81263,1,2,0:0:0:0:
256,192,81569,1,2,0:0:0:0:
256,192,81722,1,0,0:0:0:0:
256,192,81798,1,0,0:0:0:0:
256,192,81875,1,0,0:0:0:0:
256,192,81951,1,2,0:0:0:0:
256,192,82028,1,2,0:0:0:0:
256,192,82334,1,0,0:0:0:0:
256,192,82564,1,0,0:0:0:0:
256,192,82640,1,2,0:0:0:0:
256,192,82793,1,0,0:0:0:0:
256,192,82946,1,0,0:0:0:0:
256,192,83176,1,0,0:0:0:0:
256,192,83252,1,2,0:0:0:0:
256,192,83329,1,2,0:0:0:0:
256,192,83405,1,0,0:0:0:0:
256,192,83558,1,2,0:0:0:0:
256,192,83635,1,0,0:0:0:0:
256,192,83712,1,0,0:0:0:0:
256,192,83788,1,0,0:0:0:0:
256,192,83865,1,2,0:0:0:0:
256,192,84018,1,0,0:0:0:0:
256,192,84094,1,0,0:0:0:0:
256,192,84171,1,2,0:0:0:0:
256,192,84247,1,2,0:0:0:0:
256,192,84324,1,0,0:0:0:0:
256,192,84400,1,0,0:0:0:0:
256,192,84477,1,2,0:0:0:0:
256,192,84630,1,0,0:0:0:0:
256,192,84783,1,2,0:0:0:0:
256,192,84859,1,2,0:0:0:0:
256,192,85013,1,2,0:0:0:0:
256,192,85089,1,2,0:0:0:0:
256,192,85242,1,0,0:0:0:0:
256,192,85319,1,0,0:0:0:0:
256,192,85395,1,2,0:0:0:0:
256,192,85548,1,2,0:0:0:0:
256,192,85854,1,2,0:0:0:0:
256,192,85931,1,0,0:0:0:0:
256,192,86007,1,2,0:0:0:0:
256,192,86084,1,2,0:0:0:0:
256,192,86160,1,0,0:0:0:0:
256,192,86237,1,0,0:0:0:0:
256,192,86314,1,2,0:0:0:0:
256,192,86467,1,0,0:0:0:0:
256,192,86543,1,2,0:0:0:0:
256,192,86620,1,0,0:0:0:0:
256,192,86773,1,0,0:0:0:0:
256,192,86926,1,2,0:0:0:0:
256,192,87079,1,0,0:0:0:0:
256,192,87155,1,0,0:0:0:0:
256,192,87232,1,2,0:0:0:0:
256,192,87385,1,0,0:0:0:0:
256,192,87538,1,2,0:0:0:0:
256,192,87615,1,2,0:0:0:0:
256,192,87691,1,0,0:0:0:0:
256,192,87768,1,0,0:0:0:0:
256,192,87844,1,2,0:0:0:0:
256,192,87997,1,0,0:0:0:0:
256,192,88150,1,2,0:0:0:0:
256,192,88380,1,2,0:0:0:0:
256,192,88456,1,2,0:0:0:0:
256,192,88609,1,2,0:0:0:0:
256,192,88686,1,2,0:0:0:0:
256,192,88763,1,0,0:0:0:0:
256,192,88839,1,0,0:0:0:0:
256,192,88992,1,0,0:0:0:0:
256,192,89069,1,2,0:0:0:0:
256,192,89222,1,2,0:0:0:0:
256,192,89298,1,2,0:0:0:0:
256,192,89375,1,0,0:0:0:0:
256,192,89451,1,2,0:0:0:0:
256,192,89604,1,2,0:0:0:0:
256,192,89681,1,0,0:0:0:0:
256,192,89834,1,2,0:0:0:0:
256,192,89910,1,2,0:0:0:0:
256,192,89987,1,0,0:0:0:0:
256,192,90064,1,2,0:0:0:0:
256,192,90140,1,0,0:0:0:0:
256,192,90293,1,2,0:0:0:0:
256,192,90370,1,0,0:0:0:0:
256,192,90446,1,0,0:0:0:0:
256,192,90523,1,2,0:0:0:0:
256,192,90599,1,0,0:0:0:0:
256,192,90752,1,2,0:0:0:0:
256,192,90829,1,0,0:0:0:0:
256,192,90982,1,0,0:0:0:0:
256,192,91058,1,2,0:0:0:0:
256,192,91212,1,2,0:0:0:0:
256,192,91288,1,0,0:0:0:0:
256,192,91365,1,2,0:0:0:0:
256,192,91518,1,0,0:0:0:0:
256,192,91671,1,0,0:0:0:0:
256,192,91747,1,0,0:0:0:0:
256,192,91824,1,2,0:0:0:0:
256,192,92130,1,2,0:0:0:0:
256,192,92283,1,0,0:0:0:0:
256,192,92359,1,2,0:0:0:0:
256,192,92436,1,0,0:0:0:0:
256,192,92513,1,0,0:0:0:0:
256,192,92589,1,2,0:0:0:0:
256,192,92666,1,0,0:0:0:0:
256,192,92742,1,2,0:0:0:0:
256,192,92895,1,0,0:0:0:0:
256,192,93048,1,2,0:0:0:0:
256,192,93201,1,0,0:0:0:0:
256,192,93278,1,0,0:0:0:0:
256,192,93354,1,2,0:0:0:0:
256,192,93507,1,0,0:0:0:0:
256,192,93660,1,2,0:0:0:0:
256,192,93737,1,2,0:0:0:0:
256,192,93814,1,0,0:0:0:0:
256,192,93890,1,0,0:0:0:0:
256,192,93967,1,2,0:0:0:0:
256,192,94120,1,0,0:0:0:0:
256,192,94196,1,2,0:0:0:0:
256,192,94273,1,2,0:0:0:0:
256,192,94426,1,0,0:0:0:0:
256,192,94502,1,0,0:0:0:0:
256,192,94579,1,0,0:0:0:0:
256,192,94732,1,2,0:0:0:0:
256,192,94962,1,2,0:0:0:0:
256,192,95115,1,2,0:0:0:0:
256,192,95191,1,2,0:0:0:0:
256,192,95344,1,0,0:0:0:0:
256,192,95421,1,2,0:0:0:0:
256,192,95650,1,2,0:0:0:0:
256,192,95727,1,0,0:0:0:0:
256,192,95803,1,2,0:0:0:0:
256,192,95880,1,2,0:0:0:0:
256,192,95956,1,0,0:0:0:0:
256,192,96109,1,2,0:0:0:0:
256,192,96263,1,0,0:0:0:0:
256,192,96339,1,0,0:0:0:0:
256,192,96416,1,2,0:0:0:0:
256,192,96492,1,2,0:0:0:0:
256,192,96569,1,2,0:0:0:0:
256,192,96645,1,2,0:0:0:0:
256,192,96722,1,0,0:0:0:0:
256,192,96875,1,0,0:0:0:0:
256,192,96951,1,0,0:0:0:0:
256,192,97028,1,2,0:0:0:0:
256,192,97181,1,0,0:0:0:0:
256,192,97334,1,2,0:0:0:0:
256,192,97410,1,0,0:0:0:0:
256,192,97564,1,0,0:0:0:0:
256,192,97640,1,2,0:0:0:0:
256,192,97793,1,0,0:0:0:0:
256,192,97946,1,2,0:0:0:0:
256,192,98176,1,2,0:0:0:0:
256,192,98252,1,2,0:0:0:0:
256,192,98405,1,2,0:0:0:0:
256,192,98558,1,0,0:0:0:0:
256,192,98865,1,2,0:0:0:0:
256,192,99094,1,0,0:0:0:0:
256,192,99171,1,2,0:0:0:0:
256,192,99247,1,2,0:0:0:0:
256,192,99324,1,2,0:0:0:0:
256,192,99477,1,2,0:0:0:0:
256,192,99553,1,2,0:0:0:0:
256,192,99630,1,0,0:0:0:0:
256,192,99706,1,2,0:0:0:0:
256,192,99783,1,0,0:0:0:0:
256,192,99859,1,0,0:0:0:0:
256,192,99936,1,2,0:0:0:0:
256,192,100013,1,0,0:0:0:0:
256,192,100089,1,2,0:0:0:0:
256,192,100242,1,0,0:0:0:0:
256,192,100319,1,2,0:0:0:0:
256,192,100395,1,0,0:0:0:0:
256,192,100548,1,2,0:0:0:0:
256,192,100625,1,2,0:0:0:0:
256,192,100701,1,0,0:0:0:0:
256,192,100778,1,0,0:0:0:0:
256,192,100854,1,2,0:0:0:0:
256,192,101007,1,0,0:0:0:0:
256,192,101084,1,0,0:0:0:0:
256,192,101160,1,2,0:0:0:0:
256,192,101237,1,0,0:0:0:0:
256,192,101314,1,2,0:0:0:0:
256,192,101390,1,2,0:0:0:0:
256,192,101467,1,0,0:0:0:0:
256,192,101620,1,0,0:0:0:0:
256,192,101696,1,2,0:0:0:0:
256,192,101849,1,0,0:0:0:0:
256,192,101926,1,2,0:0:0:0:
256,192,102079,1,0,0:0:0:0:
256,192,102155,1,0,0:0:0:0:
256,192,102232,1,2,0:0:0:0:
256,192,102308,1,0,0:0:0:0:
256,192,102385,1,2,0:0:0:0:
256,192,102538,1,2,0:0:0:0:
256,192,102615,1,2,0:0:0:0:
256,192,102691,1,0,0:0:0:0:
256,192,102768,1,2,0:0:0:0:
256,192,102844,1,0,0:0:0:0:
256,192,102921,1,0,0:0:0:0:
256,192,102997,1,2,0:0:0:0:
256,192,103074,1,0,0:0:0:0:
256,192,103150,1,2,0:0:0:0:
256,192,103227,1,0,0:0:0:0:
256,192,103303,1,2,0:0:0:0:
256,192,103380,1,2,0:0:0:0:
256,192,103456,1,0,0:0:0:0:
256,192,103533,1,0,0:0:0:0:
256,192,103609,1,2,0:0:0:0:
256,192,103686,1,0,0:0:0:0:
256,192,103763,1,2,0:0:0:0:
256,192,103839,1,2,0:0:0:0:
256,192,103916,1,0,0:0:0:0:
256,192,104069,1,0,0:0:0:0:
256,192,104145,1,2,0:0:0:0:
256,192,104222,1,0,0:0:0:0:
256,192,104298,1,0,0:0:0:0:
256,192,104375,1,2,0:0:0:0:
256,192,104451,1,0,0:0:0:0:
256,192,104528,1,0,0:0:0:0:
256,192,104604,1,0,0:0:0:0:
256,192,104681,1,2,0:0:0:0:
256,192,104757,1,0,0:0:0:0:
256,192,104834,1,2,0:0:0:0:
256,192,104910,1,0,0:0:0:0:
256,192,104987,1,2,0:0:0:0:
256,192,105064,1,2,0:0:0:0:
256,192,105140,1,0,0:0:0:0:
256,192,105293,1,0,0:0:0:0:
256,192,105446,1,0,0:0:0:0:
256,192,105523,1,2,0:0:0:0:
256,192,105599,1,2,0:0:0:0:
256,192,105676,1,0,0:0:0:0:
256,192,105752,1,0,0:0:0:0:
256,192,105829,1,0,0:0:0:0:
256,192,105905,1,2,0:0:0:0:
256,192,106058,1,0,0:0:0:0:
256,192,106135,1,2,0:0:0:0:
256,192,106212,1,0,0:0:0:0:
256,192,106288,1,0,0:0:0:0:
256,192,106365,1,0,0:0:0:0:
256,192,106441,1,2,0:0:0:0:
256,192,106518,1,0,0:0:0:0:
256,192,106671,1,0,0:0:0:0:
256,192,106747,1,0,0:0:0:0:
256,192,106824,1,2,0:0:0:0:
256,192,106977,1,0,0:0:0:0:
256,192,107130,1,2,0:0:0:0:
256,192,107206,1,0,0:0:0:0:
256,192,107359,1,0,0:0:0:0:
256,192,107436,1,2,0:0:0:0:
256,192,107589,1,0,0:0:0:0:
256,192,107742,1,2,0:0:0:0:
256,192,107895,1,0,0:0:0:0:
256,192,107972,1,2,0:0:0:0:
256,192,108048,1,2,0:0:0:0:
256,192,108201,1,0,0:0:0:0:
256,192,108354,1,2,0:0:0:0:
256,192,108431,1,2,0:0:0:0:
256,192,108584,1,0,0:0:0:0:
256,192,108660,1,2,0:0:0:0:
256,192,108814,1,0,0:0:0:0:
256,192,108967,1,2,0:0:0:0:
256,192,109043,1,2,0:0:0:0:
256,192,109120,1,0,0:0:0:0:
256,192,109196,1,2,0:0:0:0:
256,192,109273,1,0,0:0:0:0:
256,192,109349,1,0,0:0:0:0:
256,192,109426,1,2,0:0:0:0:
256,192,109502,1,0,0:0:0:0:
256,192,109579,1,2,0:0:0:0:
256,192,109655,1,0,0:0:0:0:
256,192,109732,1,0,0:0:0:0:
256,192,109808,1,0,0:0:0:0:
256,192,109885,1,2,0:0:0:0:
256,192,110038,1,0,0:0:0:0:
256,192,110115,1,2,0:0:0:0:
256,192,110191,1,0,0:0:0:0:
256,192,110293,1,0,0:0:0:0:
256,192,110395,1,2,0:0:0:0:
256,192,110497,1,0,0:0:0:0:
256,192,110599,1,0,0:0:0:0:
256,192,110701,1,2,0:0:0:0:
256,192,110803,1,2,0:0:0:0:
256,192,110905,1,0,0:0:0:0:
256,192,111007,1,0,0:0:0:0:
256,192,111109,1,2,0:0:0:0:
256,192,111212,1,2,0:0:0:0:
256,192,111314,1,0,0:0:0:0:
256,192,111416,1,0,0:0:0:0:
256,192,111722,1,0,0:0:0:0:
256,192,112028,1,2,0:0:0:0:
256,192,112334,1,0,0:0:0:0:
256,192,112640,1,2,0:0:0:0:
256,192,112946,1,0,0:0:0:0:
256,192,113252,1,2,0:0:0:0:
256,192,113558,1,0,0:0:0:0:
256,192,113865,1,2,0:0:0:0:
256,192,114171,1,2,0:0:0:0:
256,192,114477,1,0,0:0:0:0:
256,192,114783,1,0,0:0:0:0:
256,192,115089,1,2,0:0:0:0:
256,192,115319,1,2,0:0:0:0:
256,192,115395,1,2,0:0:0:0:
256,192,115548,1,2,0:0:0:0:
256,192,115625,1,2,0:0:0:0:
256,192,115701,1,2,0:0:0:0:
256,192,115854,1,2,0:0:0:0:
256,192,115931,1,2,0:0:0:0:
256,192,116007,1,2,0:0:0:0:
256,192,116084,1,2,0:0:0:0:
256,192,116160,1,2,0:0:0:0:
256,192,116467,1,0,0:0:0:0:
256,192,116620,1,0,0:0:0:0:
256,192,116773,1,2,0:0:0:0:
256,192,116926,1,0,0:0:0:0:
256,192,117079,1,2,0:0:0:0:
256,192,117385,1,2,0:0:0:0:
256,192,117691,1,2,0:0:0:0:
256,192,117844,1,0,0:0:0:0:
256,192,117997,1,0,0:0:0:0:
256,192,118150,1,2,0:0:0:0:
256,192,118303,1,0,0:0:0:0:
256,192,118456,1,2,0:0:0:0:
256,192,118774,1,0,0:0:0:0:
256,192,118931,1,0,0:0:0:0:
256,192,119089,1,0,0:0:0:0:
256,192,119247,1,2,0:0:0:0:
256,192,119563,1,2,0:0:0:0:
256,192,119721,1,0,0:0:0:0:
256,192,119879,1,0,0:0:0:0:
256,192,120037,1,2,0:0:0:0:
256,192,120195,1,2,0:0:0:0:
256,192,120352,1,0,0:0:0:0:
256,192,120510,1,2,0:0:0:0:
256,192,120668,1,0,0:0:0:0:
256,192,120826,1,0,0:0:0:0:
256,192,120984,1,2,0:0:0:0:
256,192,121142,1,0,0:0:0:0:
256,192,121459,1,2,0:0:0:0:
256,192,121619,1,2,0:0:0:0:
256,192,121778,1,2,0:0:0:0:
256,192,121938,1,0,0:0:0:0:
256,192,122097,1,2,0:0:0:0:
256,192,122257,1,0,0:0:0:0:
256,192,122417,1,0,0:0:0:0:
256,192,122576,1,2,0:0:0:0:
256,192,122736,1,0,0:0:0:0:
256,192,122895,1,2,0:0:0:0:
256,192,123214,1,0,0:0:0:0:
256,192,123534,1,0,0:0:0:0:
256,192,123693,1,0,0:0:0:0:
256,192,123853,1,2,0:0:0:0:
256,192,124172,1,2,0:0:0:0:
256,192,124331,1,0,0:0:0:0:
256,192,124651,1,2,0:0:0:0:
256,192,124810,1,0,0:0:0:0:
256,192,125129,1,0,0:0:0:0:
256,192,125289,1,0,0:0:0:0:
256,192,125448,1,2,0:0:0:0:
256,192,125608,1,0,0:0:0:0:
256,192,125927,1,2,0:0:0:0:
256,192,126087,1,2,0:0:0:0:
256,192,126246,1,0,0:0:0:0:
256,192,126728,1,2,0:0:0:0:
256,192,126809,1,2,0:0:0:0:
256,192,126889,1,2,0:0:0:0:
256,192,126970,1,0,0:0:0:0:
256,192,127051,1,0,0:0:0:0:
256,192,127131,1,0,0:0:0:0:
256,192,127212,1,2,0:0:0:0:
256,192,127373,1,0,0:0:0:0:
256,192,127535,1,2,0:0:0:0:
256,192,127696,1,0,0:0:0:0:
256,192,128341,1,0,0:0:0:0:
256,192,128502,1,2,0:0:0:0:
256,192,128664,1,0,0:0:0:0:
256,192,128825,1,2,0:0:0:0:
256,192,128986,1,0,0:0:0:0:
256,192,129147,1,0,0:0:0:0:
256,192,129631,1,0,0:0:0:0:
256,192,129954,1,0,0:0:0:0:
256,192,130118,1,2,0:0:0:0:
256,192,130283,1,2,0:0:0:0:
256,192,130448,1,0,0:0:0:0:
256,192,130613,1,0,0:0:0:0:
256,192,130778,1,2,0:0:0:0:
256,192,130943,1,0,0:0:0:0:
256,192,131529,1,2,0:0:0:0:
256,192,131729,1,0,0:0:0:0:
256,192,131957,1,2,0:0:0:0:
256,192,132121,1,0,0:0:0:0:
256,192,132286,1,2,0:0:0:0:
256,192,132451,1,0,0:0:0:0:
256,192,132781,1,0,0:0:0:0:
256,192,132946,1,0,0:0:0:0:
256,192,133110,1,0,0:0:0:0:
256,192,133275,1,2,0:0:0:0:
256,192,134099,1,2,0:0:0:0:
256,192,134264,1,2,0:0:0:0:
256,192,134429,1,0,0:0:0:0:
256,192,134594,1,0,0:0:0:0:
256,192,135073,1,0,0:0:0:0:
256,192,135640,1,0,0:0:0:0:
256,192,135814,1,2,0:0:0:0:
256,192,135989,1,0,0:0:0:0:
256,192,136165,1,0,0:0:0:0:
256,192,136341,1,0,0:0:0:0:
256,192,136518,1,2,0:0:0:0:
256,192,136930,1,0,0:0:0:0:
256,192,137165,1,0,0:0:0:0:
256,192,137400,1,2,0:0:0:0:
256,192,137930,1,0,0:0:0:0:
256,192,137989,1,0,0:0:0:0:
256,192,138047,1,0,0:0:0:0:
256,192,138106,1,2,0:0:0:0:
