osu file format v14

[General]
AudioFilename: 03. .mp3
AudioLeadIn: 0
PreviewTime: 60584
Countdown: 0
SampleSet: Soft
StackLeniency: 0.7
Mode: 0
LetterboxInBreaks: 0
WidescreenStoryboard: 0

[Editor]
Bookmarks: 12752,49487,100916,110722,120518,220926
DistanceSpacing: 1
BeatDivisor: 4
GridSize: 8
TimelineZoom: 1.6

[Metadata]
Title:Oceanus
TitleUnicode:Ωκεανος
Artist:cosMo@BousouP
ArtistUnicode:cosMo@暴走P
Creator:Alsty-
Version:sea
Source:
Tags:
BeatmapID:1765632
BeatmapSetID:843978

[Difficulty]
HPDrainRate:6
CircleSize:3.7
OverallDifficulty:9
ApproachRate:9
SliderMultiplier:1.4
SliderTickRate:1

[Events]
//Background and Video events
0,0,"ocen.jpg",0,0
//Break Periods
2,120718,129713
//Storyboard Layer 0 (Background)
//Storyboard Layer 1 (Fail)
//Storyboard Layer 2 (Pass)
//Storyboard Layer 3 (Foreground)
//Storyboard Sound Samples

[TimingPoints]
518,306.122448979592,4,2,0,100,1,0
32354,-500,4,2,0,100,0,0
41538,-125,4,2,0,100,0,0
49497,-100,4,2,0,100,0,0
81334,-133.333333333333,4,2,0,100,0,0
99701,-100,4,2,0,100,0,0

[HitObjects]
152,128,518,6,0,L|176:160,1,35
328,88,2966,2,0,L|440:184,1,140
240,280,3579,2,0,L|360:168,1,140
152,72,4191,2,0,L|272:192,1,140
64,272,4803,2,0,L|176:184,1,140
312,336,5415,2,0,L|184:240,1,140
256,192,6028,5,0,0:0:0:0:
336,120,6334,1,0,0:0:0:0:
408,48,6640,2,0,L|408:208,1,140
216,120,7252,2,0,L|368:128,1,140
296,336,7864,2,0,L|296:192,1,140
296,184,8324,1,0,0:0:0:0:
296,184,8477,2,0,L|152:184,1,140
168,32,9089,2,0,L|168:184,1,140
168,176,9548,5,0,0:0:0:0:
168,176,9701,1,0,0:0:0:0:
336,264,10007,1,0,0:0:0:0:
336,264,10160,5,0,0:0:0:0:
328,256,10313,2,0,L|384:96,1,140
176,96,10926,2,0,L|328:160,1,140
368,104,11538,6,0,L|424:48,1,70
368,264,11844,2,0,L|432:312,1,70
144,104,12150,2,0,L|88:48,1,70
144,264,12456,2,0,L|80:312,1,70
64,224,12762,5,0,0:0:0:0:
88,120,12915,1,0,0:0:0:0:
192,128,13069,1,0,0:0:0:0:
304,136,13222,1,0,0:0:0:0:
320,32,13375,1,0,0:0:0:0:
408,32,13528,2,0,L|408:128,1,70
312,224,13834,6,0,L|376:176,1,70
440,264,14140,1,0,0:0:0:0:
360,320,14293,1,0,0:0:0:0:
256,288,14446,1,0,0:0:0:0:
168,240,14599,1,0,0:0:0:0:
240,184,14752,1,0,0:0:0:0:
168,128,14905,2,0,L|104:168,1,70
96,320,15211,6,0,L|96:248,1,70
176,216,15518,2,0,L|240:168,1,70
432,192,15977,1,0,0:0:0:0:
368,128,16130,1,0,0:0:0:0:
312,192,16283,1,0,0:0:0:0:
256,128,16436,2,0,L|200:184,1,70
80,136,16742,2,0,L|160:136,1,70
200,240,17048,1,0,0:0:0:0:
112,240,17201,5,0,0:0:0:0:
56,160,17354,1,0,0:0:0:0:
56,56,17507,2,0,L|128:88,1,70
184,104,17762,1,0,0:0:0:0:
184,104,17813,6,0,L|256:104,1,70
296,192,18120,2,0,L|352:144,1,70
392,288,18426,2,0,L|296:288,1,70
216,200,18732,2,0,L|168:288,1,70
64,192,19038,2,0,L|136:192,2,70
128,72,19497,2,0,L|192:136,1,70
280,120,19803,2,0,L|360:56,1,70
400,192,20109,5,0,0:0:0:0:
248,72,20415,1,0,0:0:0:0:
400,192,20569,2,0,P|328:168|256:192,1,140
144,88,21028,2,0,P|176:152|256:192,1,140
144,304,21487,2,0,P|232:256|256:192,1,140
320,192,21946,5,0,0:0:0:0:
304,224,22023,1,0,0:0:0:0:
280,256,22099,1,0,0:0:0:0:
248,272,22176,1,0,0:0:0:0:
208,264,22252,1,0,0:0:0:0:
184,240,22329,1,0,0:0:0:0:
144,232,22405,1,0,0:0:0:0:
128,208,22482,1,0,0:0:0:0:
112,168,22558,1,0,0:0:0:0:
56,80,22711,5,0,0:0:0:0:
96,72,22788,1,0,0:0:0:0:
128,72,22864,1,0,0:0:0:0:
168,88,22941,1,0,0:0:0:0:
192,104,23018,1,0,0:0:0:0:
224,128,23094,1,0,0:0:0:0:
240,152,23171,2,0,P|296:152|328:128,1,70
392,136,23477,2,0,P|392:184|360:216,1,70
320,256,23783,6,0,P|264:248|224:256,1,70
224,256,24012,1,0,0:0:0:0:
184,272,24089,1,0,0:0:0:0:
152,264,24165,1,0,0:0:0:0:
120,240,24242,1,0,0:0:0:0:
104,208,24319,1,0,0:0:0:0:
96,176,24395,1,0,0:0:0:0:
104,136,24472,1,0,0:0:0:0:
120,112,24548,1,0,0:0:0:0:
144,80,24625,1,0,0:0:0:0:
168,64,24701,6,0,P|200:40|240:48,1,70
248,160,25007,2,0,L|320:136,1,70
272,296,25313,1,0,0:0:0:0:
392,112,25466,2,0,L|256:160,1,140
184,240,25926,5,0,0:0:0:0:
128,112,26079,1,0,0:0:0:0:
64,232,26232,1,0,0:0:0:0:
248,112,26385,1,0,0:0:0:0:
224,320,26538,1,0,0:0:0:0:
128,112,26691,2,0,P|200:48|312:64,1,210
304,192,27303,2,0,L|384:152,1,70
416,248,27609,5,0,0:0:0:0:
416,248,27686,1,0,0:0:0:0:
416,248,27762,2,0,L|352:280,1,70
288,192,28069,1,0,0:0:0:0:
208,280,28222,2,0,L|176:208,1,70
64,88,28528,2,0,L|136:144,1,70
280,80,28834,1,0,0:0:0:0:
280,80,28910,5,0,0:0:0:0:
280,80,28987,1,0,0:0:0:0:
280,80,29063,1,0,0:0:0:0:
280,80,29140,1,0,0:0:0:0:
280,80,29216,1,0,0:0:0:0:
280,80,29293,6,0,L|352:144,1,70
208,232,29599,2,0,L|272:184,1,70
416,272,29905,2,0,L|344:208,1,70
272,128,30211,1,0,0:0:0:0:
272,128,30364,6,0,L|160:216,1,140
144,304,30824,2,0,L|240:304,1,70
264,224,31130,2,0,L|328:296,1,70
408,280,31436,1,0,0:0:0:0:
336,152,31589,1,0,0:0:0:0:
336,328,31742,2,0,L|272:288,1,70
256,192,32048,2,0,L|176:232,1,70
88,192,32354,6,0,P|120:184|128:136,1,84
208,72,33579,2,0,L|240:80,1,28
192,240,34191,2,0,P|208:224|216:224,1,28
392,112,34803,2,0,B|352:120|344:104|312:128,1,84
200,128,36028,6,0,P|208:144|216:144,1,28
208,256,36640,2,0,P|200:240|192:240,1,28
96,192,37252,2,0,B|120:184|128:160|176:200,1,84
320,144,38477,2,0,P|328:160|320:168,1,28
352,280,39089,6,0,P|336:264|328:256,1,28
176,272,39701,2,0,B|184:264|184:248|192:248,1,28
192,120,40313,2,0,L|192:152,1,28
376,80,40926,2,0,P|384:112|376:136,1,56
256,192,41844,1,0,0:0:0:0:
128,104,42150,1,0,0:0:0:0:
128,104,42456,5,0,0:0:0:0:
128,104,42762,1,0,0:0:0:0:
128,104,43069,1,0,0:0:0:0:
144,296,43375,1,0,0:0:0:0:
144,296,43681,5,0,0:0:0:0:
144,296,43987,1,0,0:0:0:0:
144,296,44293,1,0,0:0:0:0:
320,144,44599,1,0,0:0:0:0:
320,144,44905,5,0,0:0:0:0:
320,144,45211,1,0,0:0:0:0:
320,144,45518,1,0,0:0:0:0:
408,272,45824,1,0,0:0:0:0:
408,272,46130,5,0,0:0:0:0:
408,272,46436,1,0,0:0:0:0:
408,272,46742,1,0,0:0:0:0:
256,192,47048,2,0,B|224:224|168:176|224:288|240:336|128:136,1,224
152,72,47966,5,0,0:0:0:0:
264,40,48273,2,0,B|320:88|328:40|352:112|200:176,2,224
168,56,49650,2,0,L|96:96,1,70
64,184,49956,2,0,L|128:232,1,70
168,328,50262,5,0,0:0:0:0:
224,272,50415,1,0,0:0:0:0:
288,224,50569,1,0,0:0:0:0:
352,184,50722,2,0,L|384:160,2,35
296,80,51028,6,0,L|200:80,1,70
96,120,51334,1,0,0:0:0:0:
152,168,51487,1,0,0:0:0:0:
208,216,51640,2,0,L|104:320,1,140
72,192,52099,5,0,0:0:0:0:
104,72,52252,2,0,L|184:104,1,70
344,96,52558,2,0,L|272:144,1,70
264,232,52864,2,0,L|328:296,1,70
456,192,53171,2,0,L|376:192,1,70
352,192,53400,5,0,0:0:0:0:
344,184,53477,1,0,0:0:0:0:
336,176,53553,1,0,0:0:0:0:
328,168,53630,1,0,0:0:0:0:
320,160,53706,1,0,0:0:0:0:
312,152,53783,2,0,P|256:112|240:120,1,70
112,192,54089,6,0,L|176:128,1,70
168,288,54395,2,0,L|240:288,2,70
256,184,54854,2,0,L|312:232,1,70
392,136,55160,1,0,0:0:0:0:
320,40,55313,2,0,L|264:96,1,70
96,152,55620,2,0,L|184:136,1,70
176,144,55849,1,0,0:0:0:0:
184,152,55926,5,0,0:0:0:0:
192,160,56002,1,0,0:0:0:0:
200,168,56079,1,0,0:0:0:0:
296,184,56232,1,0,0:0:0:0:
288,192,56308,1,0,0:0:0:0:
280,200,56385,1,0,0:0:0:0:
272,208,56461,1,0,0:0:0:0:
264,216,56538,2,0,L|208:280,1,70
104,248,56844,5,0,0:0:0:0:
216,120,56997,1,0,0:0:0:0:
104,112,57150,1,0,0:0:0:0:
216,248,57303,1,0,0:0:0:0:
216,248,57380,5,0,0:0:0:0:
216,248,57456,2,0,L|312:280,1,70
384,192,57762,1,0,0:0:0:0:
296,72,57915,1,0,0:0:0:0:
296,72,57992,5,0,0:0:0:0:
296,72,58069,2,0,L|208:144,1,105
144,240,58528,2,0,L|240:240,1,70
344,248,58834,1,0,0:0:0:0:
256,88,58987,1,0,0:0:0:0:
392,112,59140,1,0,0:0:0:0:
184,248,59293,1,0,0:0:0:0:
168,232,59370,5,0,0:0:0:0:
160,208,59446,1,0,0:0:0:0:
168,184,59523,1,0,0:0:0:0:
184,168,59599,1,0,0:0:0:0:
208,160,59676,1,0,0:0:0:0:
224,144,59752,1,0,0:0:0:0:
232,120,59829,1,0,0:0:0:0:
232,104,59905,6,0,L|288:48,1,70
400,144,60211,1,0,0:0:0:0:
392,160,60288,5,0,0:0:0:0:
384,176,60364,1,0,0:0:0:0:
376,192,60441,1,0,0:0:0:0:
368,208,60518,2,0,L|296:248,1,70
88,56,60824,2,0,L|88:80,1,23.3333333333333
320,96,61436,5,0,0:0:0:0:
304,128,61512,1,0,0:0:0:0:
288,168,61589,1,0,0:0:0:0:
272,200,61665,1,0,0:0:0:0:
256,240,61742,2,0,L|128:144,1,140
128,144,62125,5,0,0:0:0:0:
136,120,62201,1,0,0:0:0:0:
152,104,62278,1,0,0:0:0:0:
176,96,62354,2,0,P|216:64|296:104,1,140
264,288,62813,1,0,0:0:0:0:
264,288,62890,1,0,0:0:0:0:
272,280,62966,6,0,L|312:248,1,35
368,232,63120,2,0,L|336:208,1,35
296,152,63273,2,0,L|328:128,1,35
240,56,63426,2,0,L|272:88,1,35
216,144,63579,2,0,B|160:184|112:160|112:224,1,140
136,320,64038,1,0,0:0:0:0:
136,320,64114,5,0,0:0:0:0:
128,312,64191,6,0,L|208:256,1,70
376,208,64497,1,0,0:0:0:0:
376,208,64574,1,0,0:0:0:0:
368,200,64650,1,0,0:0:0:0:
368,200,64727,1,0,0:0:0:0:
360,192,64803,6,0,P|320:120|320:112,1,70
128,136,65109,1,0,0:0:0:0:
128,136,65186,1,0,0:0:0:0:
128,136,65262,1,0,0:0:0:0:
128,136,65339,1,0,0:0:0:0:
128,136,65415,6,0,P|192:128|208:128,1,70
216,128,65645,1,0,0:0:0:0:
232,112,65722,1,0,0:0:0:0:
256,96,65798,1,0,0:0:0:0:
280,88,65875,1,0,0:0:0:0:
304,88,65951,1,0,0:0:0:0:
328,96,66028,6,0,L|384:144,1,70
200,304,66334,2,0,L|136:248,1,70
192,48,66640,2,0,L|144:120,1,70
320,256,66946,1,0,0:0:0:0:
392,136,67099,5,0,0:0:0:0:
120,144,67252,2,0,L|184:80,1,70
376,248,67558,2,0,L|320:304,1,70
312,304,67788,1,0,0:0:0:0:
304,304,67864,2,0,L|256:240,1,70
248,232,68094,6,0,P|192:216|136:248,1,105
96,136,68477,1,0,0:0:0:0:
312,72,68630,1,0,0:0:0:0:
312,72,68706,5,0,0:0:0:0:
312,72,68783,1,0,0:0:0:0:
232,208,68936,1,0,0:0:0:0:
104,264,69089,2,0,L|72:296,1,35
176,288,69242,6,0,L|176:336,1,35
248,280,69395,2,0,L|280:336,1,35
312,240,69548,2,0,L|360:256,1,35
416,208,69701,5,0,0:0:0:0:
416,176,69778,1,0,0:0:0:0:
408,152,69854,1,0,0:0:0:0:
392,128,69931,1,0,0:0:0:0:
368,104,70007,1,0,0:0:0:0:
344,96,70084,1,0,0:0:0:0:
312,88,70160,1,0,0:0:0:0:
288,96,70237,1,0,0:0:0:0:
272,112,70313,6,0,L|176:128,1,70
88,200,70543,2,0,L|152:272,1,70
288,288,70773,2,0,L|224:224,1,70
176,112,71079,1,0,0:0:0:0:
336,152,71232,1,0,0:0:0:0:
200,272,71385,1,0,0:0:0:0:
280,48,71538,2,0,B|432:112|416:104,1,140
440,240,71997,5,0,0:0:0:0:
304,280,72150,2,0,L|256:216,1,70
96,200,72456,2,0,L|168:128,1,70
160,136,72686,1,0,0:0:0:0:
176,112,72762,5,0,0:0:0:0:
208,88,72839,1,0,0:0:0:0:
240,72,72915,1,0,0:0:0:0:
272,64,72992,1,0,0:0:0:0:
304,64,73069,1,0,0:0:0:0:
336,72,73145,1,0,0:0:0:0:
368,96,73222,1,0,0:0:0:0:
392,120,73298,1,0,0:0:0:0:
408,152,73375,5,0,0:0:0:0:
408,184,73451,1,0,0:0:0:0:
400,216,73528,1,0,0:0:0:0:
384,248,73604,1,0,0:0:0:0:
360,264,73681,1,0,0:0:0:0:
328,248,73757,1,0,0:0:0:0:
320,208,73834,1,0,0:0:0:0:
336,176,73910,1,0,0:0:0:0:
360,152,73987,5,0,0:0:0:0:
272,72,74140,2,0,B|288:32|192:208,1,140
96,232,74676,1,0,0:0:0:0:
416,280,74905,1,0,0:0:0:0:
312,96,75135,1,0,0:0:0:0:
176,64,75364,5,0,0:0:0:0:
176,80,75441,1,0,0:0:0:0:
176,96,75518,1,0,0:0:0:0:
176,112,75594,1,0,0:0:0:0:
176,128,75671,1,0,0:0:0:0:
176,144,75747,1,0,0:0:0:0:
184,160,75824,6,0,L|232:216,1,70
336,120,76130,2,0,L|400:64,1,70
336,240,76436,2,0,L|392:304,1,70
232,248,76742,2,0,L|176:304,1,70
280,176,77048,6,0,L|280:104,1,70
112,112,77354,2,0,L|192:72,1,70
96,200,77660,2,0,L|176:200,1,70
96,288,77966,2,0,L|176:328,1,70
256,184,78273,2,0,L|256:256,1,70
360,184,78579,2,0,L|376:112,1,70
304,96,78808,1,0,0:0:0:0:
232,80,78885,6,0,L|200:104,8,35
88,96,79650,1,0,0:0:0:0:
104,128,79727,1,0,0:0:0:0:
120,168,79803,1,0,0:0:0:0:
136,208,79880,1,0,0:0:0:0:
152,240,79956,1,0,0:0:0:0:
168,280,80033,1,0,0:0:0:0:
184,312,80109,5,0,0:0:0:0:
304,96,80262,1,0,0:0:0:0:
352,288,80415,1,0,0:0:0:0:
176,120,80569,2,0,P|96:112|64:168,1,140
120,280,81028,1,0,0:0:0:0:
256,184,81181,1,0,0:0:0:0:
368,96,81334,2,0,L|384:224,1,105.000004005432
112,216,81946,6,0,L|152:112,1,105.000004005432
368,112,82558,2,0,L|328:224,1,105.000004005432
152,88,83171,2,0,L|128:200,1,105.000004005432
320,64,83783,2,0,L|200:64,1,105.000004005432
208,288,84395,2,0,L|312:296,1,105.000004005432
456,152,85007,2,0,L|368:64,1,105.000004005432
80,192,85620,2,0,L|168:272,1,105.000004005432
256,192,86079,5,0,0:0:0:0:
424,248,86232,2,0,L|392:128,1,105.000004005432
168,56,86844,2,0,L|280:56,1,105.000004005432
104,272,87456,2,0,L|136:160,1,105.000004005432
360,320,88069,2,0,L|240:280,1,105.000004005432
440,232,88681,6,0,L|400:128,1,105.000004005432
96,248,89293,2,0,L|160:160,1,105.000004005432
256,72,89905,2,0,L|360:96,1,105.000004005432
320,208,90518,1,0,0:0:0:0:
256,304,90671,1,0,0:0:0:0:
256,304,90747,1,0,0:0:0:0:
256,304,90824,5,0,0:0:0:0:
136,176,90977,1,0,0:0:0:0:
192,72,91130,2,0,B|248:64|240:136|344:48|360:16|296:152,1,210.000008010865
208,224,91895,1,0,0:0:0:0:
144,296,92048,1,0,0:0:0:0:
80,168,92201,2,0,L|56:112,1,52.5000020027161
160,136,92507,6,0,L|144:80,1,52.5000020027161
224,64,92813,2,0,L|240:128,1,52.5000020027161
256,224,93120,1,0,0:0:0:0:
320,168,93273,1,0,0:0:0:0:
384,112,93426,1,0,0:0:0:0:
432,192,93579,6,0,L|472:240,1,52.5000020027161
368,240,93885,2,0,L|408:288,1,52.5000020027161
336,328,94191,2,0,L|296:272,1,52.5000020027161
224,152,94497,1,0,0:0:0:0:
264,224,94650,2,0,L|152:224,1,105.000004005432
80,144,95109,6,0,L|120:88,1,52.5000020027161
192,136,95415,2,0,L|224:80,1,52.5000020027161
272,192,95722,2,0,L|248:240,1,52.5000020027161
328,272,96028,2,0,L|304:320,2,52.5000020027161
376,176,96487,1,0,0:0:0:0:
336,72,96640,6,0,L|224:72,1,105.000004005432
112,168,97099,1,0,0:0:0:0:
176,264,97252,2,0,L|224:304,2,52.5000020027161
256,184,97711,1,0,0:0:0:0:
384,184,97864,6,0,L|384:72,1,105.000004005432
264,176,98324,1,0,0:0:0:0:
144,280,98477,2,0,L|144:160,1,105.000004005432
184,80,99089,2,0,L|304:80,1,105.000004005432
424,96,99701,2,0,L|392:144,7,35
312,56,100313,6,0,L|344:80,7,35
368,96,100926,1,0,0:0:0:0:
392,128,101002,1,0,0:0:0:0:
400,160,101079,1,0,0:0:0:0:
408,200,101155,1,0,0:0:0:0:
408,232,101232,1,0,0:0:0:0:
392,272,101308,1,0,0:0:0:0:
368,296,101385,1,0,0:0:0:0:
328,312,101461,1,0,0:0:0:0:
296,320,101538,1,0,0:0:0:0:
248,320,101614,5,0,0:0:0:0:
216,304,101691,1,0,0:0:0:0:
176,288,101768,1,0,0:0:0:0:
160,264,101844,1,0,0:0:0:0:
136,232,101921,1,0,0:0:0:0:
144,200,101997,1,0,0:0:0:0:
168,168,102074,1,0,0:0:0:0:
200,152,102150,5,0,0:0:0:0:
232,168,102227,1,0,0:0:0:0:
232,208,102303,1,0,0:0:0:0:
192,224,102380,1,0,0:0:0:0:
160,216,102456,1,0,0:0:0:0:
128,200,102533,1,0,0:0:0:0:
104,168,102609,1,0,0:0:0:0:
176,56,102762,1,0,0:0:0:0:
216,64,102839,5,0,0:0:0:0:
248,80,102915,1,0,0:0:0:0:
264,120,102992,1,0,0:0:0:0:
264,160,103069,1,0,0:0:0:0:
248,192,103145,1,0,0:0:0:0:
200,200,103222,1,0,0:0:0:0:
184,168,103298,1,0,0:0:0:0:
208,136,103375,5,0,0:0:0:0:
248,144,103451,1,0,0:0:0:0:
272,160,103528,1,0,0:0:0:0:
304,192,103604,1,0,0:0:0:0:
336,200,103681,1,0,0:0:0:0:
440,128,103834,1,0,0:0:0:0:
344,56,103987,5,0,0:0:0:0:
336,96,104063,1,0,0:0:0:0:
344,136,104140,1,0,0:0:0:0:
368,160,104216,1,0,0:0:0:0:
400,184,104293,1,0,0:0:0:0:
416,216,104370,1,0,0:0:0:0:
408,256,104446,1,0,0:0:0:0:
376,272,104523,1,0,0:0:0:0:
336,256,104599,1,0,0:0:0:0:
304,248,104676,6,0,L|256:264,1,35
224,256,104829,1,0,0:0:0:0:
144,224,104905,2,0,L|192:168,1,70
144,120,105135,1,0,0:0:0:0:
176,96,105211,1,0,0:0:0:0:
216,96,105288,1,0,0:0:0:0:
248,104,105364,1,0,0:0:0:0:
280,128,105441,5,0,0:0:0:0:
304,160,105518,1,0,0:0:0:0:
312,200,105594,1,0,0:1:0:0:
296,240,105671,1,0,0:1:0:0:
270,259,105747,1,0,0:0:0:0:
224,256,105824,1,0,0:0:0:0:
216,224,105900,1,0,0:0:0:0:
240,192,105977,1,0,0:0:0:0:
272,200,106053,1,0,0:0:0:0:
296,232,106130,5,0,0:0:0:0:
312,264,106206,1,0,0:0:0:0:
344,288,106283,1,0,0:0:0:0:
384,272,106359,1,0,0:0:0:0:
392,232,106436,1,0,0:0:0:0:
376,200,106512,1,0,0:0:0:0:
368,160,106589,1,0,0:0:0:0:
376,128,106665,1,0,0:0:0:0:
400,96,106742,1,0,0:0:0:0:
392,56,106819,1,0,0:0:0:0:
352,40,106895,6,0,L|272:40,1,70
160,88,107201,2,0,L|128:64,1,35
136,168,107354,2,0,L|96:184,1,35
184,240,107507,2,0,L|152:304,1,70
272,200,107813,5,0,0:0:0:0:
304,216,107890,1,0,0:0:0:0:
328,248,107966,1,0,0:0:0:0:
344,280,108043,1,0,0:0:0:0:
376,304,108120,1,0,0:0:0:0:
408,288,108196,1,0,0:0:0:0:
432,256,108273,1,0,0:0:0:0:
424,216,108349,1,0,0:0:0:0:
432,184,108426,1,0,0:0:0:0:
400,152,108502,1,0,0:0:0:0:
368,152,108579,5,0,0:0:0:0:
336,176,108655,1,0,0:0:0:0:
320,208,108732,1,0,0:0:0:0:
328,248,108808,1,0,0:0:0:0:
320,280,108885,1,0,0:0:0:0:
288,304,108961,1,0,0:0:0:0:
256,320,109038,1,0,0:0:0:0:
216,328,109114,1,0,0:0:0:0:
184,328,109191,1,0,0:0:0:0:
144,312,109268,1,0,0:0:0:0:
112,296,109345,5,0,0:0:0:0:
88,264,109421,1,0,0:0:0:0:
112,216,109497,2,0,L|80:192,1,35
152,144,109650,2,0,L|120:112,1,35
216,96,109803,2,0,L|192:48,1,35
296,88,109956,2,0,L|288:40,1,35
376,96,110109,2,0,L|392:64,1,35
424,160,110262,2,0,L|456:144,1,35
424,240,110415,2,0,L|464:256,1,35
384,312,110569,2,0,L|400:352,1,35
312,288,110722,5,0,0:0:0:0:
88,152,110926,2,0,L|152:120,1,70
280,104,111257,2,0,L|312:136,1,35
440,128,111487,2,0,L|416:160,1,35
464,256,111716,2,0,L|424:256,1,35
344,336,111946,2,0,L|312:304,1,35
152,304,112176,2,0,L|192:272,1,35
264,192,112405,6,0,L|184:136,1,70
184,136,112635,1,0,0:0:0:0:
152,144,112711,1,0,0:0:0:0:
144,176,112788,1,0,0:0:0:0:
160,200,112864,1,0,0:0:0:0:
192,192,112941,1,0,0:0:0:0:
216,208,113018,1,0,0:0:0:0:
232,232,113094,1,0,0:0:0:0:
232,256,113171,6,0,L|232:304,3,35
336,224,113477,2,0,L|376:248,1,35
328,128,113630,2,0,L|376:104,1,35
248,88,113783,2,0,L|272:40,1,35
144,112,113936,1,0,0:0:0:0:
224,304,114089,1,0,0:0:0:0:
424,96,114319,1,0,0:0:0:0:
272,88,114548,5,0,0:0:0:0:
264,104,114625,1,0,0:0:0:0:
256,112,114701,1,0,0:0:0:0:
248,128,114778,1,0,0:0:0:0:
240,144,114854,1,0,0:0:0:0:
224,168,114931,1,0,0:0:0:0:
208,192,115007,1,0,0:0:0:0:
192,216,115084,1,0,0:0:0:0:
168,248,115160,1,0,0:0:0:0:
240,296,115313,5,0,0:0:0:0:
272,248,115390,1,0,0:0:0:0:
304,200,115466,1,0,0:0:0:0:
336,152,115543,1,0,0:0:0:0:
368,104,115620,2,0,L|288:72,1,70
96,256,115926,2,0,L|96:184,1,70
168,112,116232,5,0,0:0:0:0:
272,296,116385,1,0,0:0:0:0:
320,120,116538,1,0,0:0:0:0:
448,256,116691,1,0,0:0:0:0:
176,168,116844,1,0,0:0:0:0:
440,256,116997,1,0,0:0:0:0:
176,168,117150,5,0,0:0:0:0:
440,256,117303,1,0,0:0:0:0:
352,96,117456,1,0,0:0:0:0:
280,288,117609,1,0,0:0:0:0:
352,96,117762,1,0,0:0:0:0:
272,288,117915,1,0,0:0:0:0:
272,288,117992,1,0,0:0:0:0:
272,288,118069,2,0,L|200:224,1,70
192,72,118375,2,0,L|192:160,1,70
368,128,118681,6,0,L|296:168,1,70
104,272,118987,2,0,L|168:224,1,70
248,160,119293,1,0,0:0:0:0:
248,160,119370,1,0,0:0:0:0:
248,160,119446,1,0,0:0:0:0:
264,176,119523,1,0,0:0:0:0:
288,200,119599,1,0,0:0:0:0:
312,232,119676,1,0,0:0:0:0:
304,272,119752,1,0,0:0:0:0:
264,264,119829,1,0,0:0:0:0:
248,232,119905,5,0,0:0:0:0:
264,208,119982,1,0,0:0:0:0:
304,192,120058,1,0,0:0:0:0:
336,200,120135,1,0,0:0:0:0:
376,176,120211,1,0,0:0:0:0:
384,144,120288,1,0,0:0:0:0:
352,104,120364,1,0,0:0:0:0:
320,96,120441,1,0,0:0:0:0:
272,112,120518,1,0,0:0:0:0:
360,192,130313,6,0,L|312:112,1,70
160,168,130620,2,0,L|248:168,1,70
264,24,130926,2,0,L|264:96,1,70
408,48,131232,2,0,L|360:120,1,70
304,272,131538,2,0,L|304:176,1,70
208,40,131844,2,0,L|280:112,2,70
112,136,132303,5,0,0:0:0:0:
72,240,132456,2,0,L|152:296,1,70
216,152,132762,2,0,L|168:224,1,70
248,272,133069,6,0,L|312:312,1,70
392,176,133375,2,0,L|344:240,2,70
304,104,133834,1,0,0:0:0:0:
160,176,133987,2,0,L|248:176,1,70
328,232,134293,5,0,0:0:0:0:
240,64,134446,1,0,0:0:0:0:
136,216,134599,1,0,0:0:0:0:
304,128,134752,1,0,0:0:0:0:
304,304,134905,2,0,L|232:240,1,70
136,216,135211,5,0,0:0:0:0:
336,152,135364,1,0,0:0:0:0:
200,88,135518,1,0,0:0:0:0:
240,288,135671,1,0,0:0:0:0:
240,288,135747,5,0,0:0:0:0:
232,280,135824,2,0,L|304:304,1,70
400,208,136130,2,0,L|328:152,1,70
264,152,136436,5,0,0:0:0:0:
120,280,136589,1,0,0:0:0:0:
120,280,136665,1,0,0:0:0:0:
120,280,136742,1,0,0:0:0:0:
288,320,136895,1,0,0:0:0:0:
112,104,137048,2,0,L|192:72,1,70
272,80,137354,6,0,L|320:144,1,70
440,304,137660,2,0,L|344:304,1,70
160,304,137966,1,0,0:0:0:0:
232,224,138120,1,0,0:0:0:0:
304,152,138273,1,0,0:0:0:0:
64,288,138426,5,0,0:0:0:0:
136,208,138580,1,0,0:0:0:0:
208,136,138733,1,0,0:0:0:0:
280,64,138885,5,0,0:0:0:0:
280,64,138961,1,0,0:0:0:0:
280,64,139038,1,0,0:0:0:0:
280,64,139114,1,0,0:0:0:0:
280,64,139191,1,0,0:0:0:0:
448,256,140109,6,0,L|400:184,1,70
408,72,140415,2,0,L|328:104,1,70
168,96,140721,2,0,L|240:144,1,70
248,232,141027,2,0,L|184:296,1,70
56,192,141334,2,0,L|136:192,1,70
160,192,141563,5,0,0:0:0:0:
168,184,141640,1,0,0:0:0:0:
176,176,141716,1,0,0:0:0:0:
184,168,141793,1,0,0:0:0:0:
192,160,141869,1,0,0:0:0:0:
200,152,141946,2,0,P|256:112|272:120,1,70
400,192,142252,6,0,L|336:128,1,70
344,288,142558,2,0,L|272:288,2,70
256,184,143017,2,0,L|200:232,1,70
120,136,143323,1,0,0:0:0:0:
192,40,143476,2,0,L|248:96,1,70
416,152,143783,2,0,L|328:136,1,70
336,144,144012,1,0,0:0:0:0:
328,152,144089,5,0,0:0:0:0:
320,160,144165,1,0,0:0:0:0:
312,168,144242,1,0,0:0:0:0:
216,184,144395,1,0,0:0:0:0:
224,192,144471,1,0,0:0:0:0:
232,200,144548,1,0,0:0:0:0:
240,208,144624,1,0,0:0:0:0:
248,216,144701,2,0,L|304:280,1,70
408,248,145007,5,0,0:0:0:0:
296,120,145160,1,0,0:0:0:0:
408,112,145313,1,0,0:0:0:0:
296,248,145466,1,0,0:0:0:0:
296,248,145543,5,0,0:0:0:0:
296,248,145619,2,0,L|200:280,1,70
128,192,145925,1,0,0:0:0:0:
216,72,146078,1,0,0:0:0:0:
216,72,146155,5,0,0:0:0:0:
216,72,146232,2,0,L|304:144,1,105
368,240,146691,2,0,L|272:240,1,70
168,248,146997,1,0,0:0:0:0:
256,88,147150,1,0,0:0:0:0:
120,112,147303,1,0,0:0:0:0:
328,248,147456,1,0,0:0:0:0:
344,232,147533,5,0,0:0:0:0:
352,208,147609,1,0,0:0:0:0:
344,184,147686,1,0,0:0:0:0:
328,168,147762,1,0,0:0:0:0:
304,160,147839,1,0,0:0:0:0:
288,144,147915,1,0,0:0:0:0:
280,120,147992,1,0,0:0:0:0:
280,104,148068,6,0,L|224:48,1,70
112,144,148374,1,0,0:0:0:0:
120,160,148451,5,0,0:0:0:0:
128,176,148527,1,0,0:0:0:0:
136,192,148604,1,0,0:0:0:0:
144,208,148681,2,0,L|216:248,1,70
424,56,148987,2,0,L|424:80,1,23.3333333333333
384,176,149140,5,0,0:0:0:0:
384,176,149216,1,0,0:0:0:0:
384,176,149293,1,0,0:0:0:0:
200,240,149446,1,0,0:0:0:0:
256,120,149599,1,0,0:0:0:0:
312,288,149752,1,0,0:0:0:0:
120,264,149905,1,0,0:0:0:0:
128,280,151742,5,0,0:0:0:0:
144,160,151895,1,0,0:0:0:0:
232,224,152048,1,0,0:0:0:0:
240,104,152201,1,0,0:0:0:0:
336,184,152354,2,0,P|392:136|352:80,1,140
280,56,152813,6,0,L|192:72,1,70
136,224,153120,2,0,L|192:160,1,70
272,264,153426,1,0,0:0:0:0:
272,264,153502,1,0,0:0:0:0:
272,264,153579,1,0,0:0:0:0:
392,144,153732,6,0,L|336:200,1,70
240,152,154038,1,0,0:0:0:0:
112,80,154191,2,0,L|152:152,1,70
176,312,154497,2,0,L|208:248,1,70
384,224,154803,2,0,B|344:168|288:168|288:128,1,140
144,192,155262,1,0,0:0:0:0:
144,192,155339,5,0,0:0:0:0:
144,192,155415,1,0,0:0:0:0:
336,208,155569,1,0,0:0:0:0:
224,288,155722,1,0,0:0:0:0:
288,80,155875,2,0,L|224:112,1,70
152,160,156487,5,0,0:0:0:0:
224,256,156640,2,0,L|288:192,1,70
416,208,156946,2,0,L|360:160,1,70
272,96,157252,2,0,B|192:72|160:96|176:136|136:144,1,140
240,240,157711,5,0,0:0:0:0:
240,240,157788,1,0,0:0:0:0:
240,240,157864,1,0,0:0:0:0:
368,120,158171,1,0,0:0:0:0:
248,128,158324,2,0,L|288:160,1,35
368,240,158477,1,0,0:0:0:0:
272,312,158630,6,0,L|216:312,1,35
136,256,158783,1,0,0:0:0:0:
120,144,158936,2,0,L|192:176,1,70
328,80,159395,2,0,L|248:104,1,70
232,112,159625,5,0,0:0:0:0:
224,112,159701,1,0,0:0:0:0:
136,168,159854,2,0,L|152:200,1,35
184,264,160007,1,0,0:0:0:0:
240,192,160160,6,0,L|256:224,1,35
288,288,160313,1,0,0:0:0:0:
336,208,160466,2,0,L|352:240,1,35
384,304,160619,1,0,0:0:0:0:
432,216,160773,2,0,L|448:248,1,35
480,312,160926,5,0,0:0:0:0:
400,128,161079,2,0,L|360:96,1,35
288,40,161232,2,0,L|256:112,1,70
120,56,161538,1,0,0:0:0:0:
152,152,161691,1,0,0:0:0:0:
184,248,161844,1,0,0:0:0:0:
216,336,161997,1,0,0:0:0:0:
256,176,162150,2,0,B|272:120|312:80|352:176,1,140
328,280,162609,6,0,P|400:296|416:224,1,140
368,152,163069,1,0,0:0:0:0:
304,80,163222,2,0,L|232:136,1,70
120,104,163528,1,0,0:0:0:0:
88,240,163681,2,0,L|168:192,1,70
240,208,163987,6,0,L|288:272,1,70
416,152,164293,2,0,L|352:208,1,70
296,104,164599,2,0,B|216:64|256:48|192:144|128:112|248:160|120:96|96:88|96:144,1,210
120,264,165288,6,0,L|152:232,1,35
272,288,165518,2,0,L|240:256,1,35
192,192,165747,2,0,L|192:152,1,35
280,72,166053,2,0,L|312:160,2,70
184,80,166436,6,0,L|112:120,1,70
240,160,166742,2,0,L|224:240,1,70
336,160,167048,2,0,L|384:232,7,70
272,224,168273,2,0,L|192:256,5,70
136,72,169191,1,0,0:0:0:0:
136,72,169268,5,0,0:0:0:0:
136,72,169344,1,0,0:0:0:0:
136,72,169421,1,0,0:0:0:0:
136,72,169497,1,0,0:0:0:0:
320,128,169650,1,0,0:0:0:0:
320,128,169727,5,0,0:0:0:0:
320,128,169803,1,0,0:0:0:0:
136,184,169956,1,0,0:0:0:0:
136,184,170033,1,0,0:0:0:0:
136,184,170109,1,0,0:0:0:0:
312,248,170262,1,0,0:0:0:0:
312,248,170339,5,0,0:0:0:0:
312,248,170415,1,0,0:0:0:0:
144,312,170569,1,0,0:0:0:0:
144,312,170645,1,0,0:0:0:0:
144,312,170722,1,0,0:0:0:0:
304,240,170875,1,0,0:0:0:0:
304,240,170951,5,0,0:0:0:0:
304,240,171028,1,0,0:0:0:0:
128,160,171181,1,0,0:0:0:0:
128,160,171257,1,0,0:0:0:0:
128,160,171334,1,0,0:0:0:0:
272,96,171487,1,0,0:0:0:0:
272,96,171563,5,0,0:0:0:0:
288,104,171640,1,0,0:0:0:0:
304,120,171716,1,0,0:0:0:0:
328,152,171793,1,0,0:0:0:0:
344,184,171870,1,0,0:0:0:0:
344,232,171946,1,0,0:0:0:0:
384,144,172329,5,0,0:0:0:0:
376,120,172405,1,0,0:0:0:0:
360,104,172482,1,0,0:0:0:0:
336,96,172558,2,0,P|296:64|216:104,1,140
248,288,173017,1,0,0:0:0:0:
248,288,173094,1,0,0:0:0:0:
240,280,173170,6,0,L|200:248,1,35
144,232,173324,2,0,L|176:208,1,35
216,152,173477,2,0,L|184:128,1,35
272,56,173630,2,0,L|240:88,1,35
296,144,173783,2,0,B|352:184|400:160|400:224,1,140
376,320,174242,1,0,0:0:0:0:
376,320,174318,5,0,0:0:0:0:
376,320,174395,6,0,L|296:264,1,70
152,208,174701,1,0,0:0:0:0:
144,200,174778,1,0,0:0:0:0:
144,200,174854,1,0,0:0:0:0:
152,208,174931,1,0,0:0:0:0:
152,208,175007,6,0,P|192:136|192:128,1,70
384,136,175313,1,0,0:0:0:0:
384,136,175390,1,0,0:0:0:0:
384,136,175466,1,0,0:0:0:0:
384,136,175543,1,0,0:0:0:0:
384,136,175619,6,0,P|320:128|304:128,1,70
296,128,175849,1,0,0:0:0:0:
280,112,175926,1,0,0:0:0:0:
256,96,176002,1,0,0:0:0:0:
232,88,176079,1,0,0:0:0:0:
208,88,176155,1,0,0:0:0:0:
184,96,176232,6,0,L|128:144,1,70
312,304,176538,2,0,L|376:248,1,70
320,48,176844,2,0,L|368:120,1,70
192,256,177150,1,0,0:0:0:0:
120,136,177303,5,0,0:0:0:0:
392,144,177456,2,0,L|328:80,1,70
136,248,177762,2,0,L|192:304,1,70
200,304,177992,1,0,0:0:0:0:
208,304,178068,2,0,L|256:240,1,70
264,232,178298,6,0,P|320:216|376:248,1,105
416,136,178681,1,0,0:0:0:0:
200,72,178834,1,0,0:0:0:0:
200,72,178910,5,0,0:0:0:0:
200,72,178987,1,0,0:0:0:0:
280,208,179140,1,0,0:0:0:0:
408,264,179293,2,0,L|440:296,1,35
336,288,179446,6,0,L|336:336,1,35
264,280,179599,2,0,L|232:336,1,35
200,240,179752,2,0,L|152:256,1,35
96,208,179905,5,0,0:0:0:0:
96,176,179982,1,0,0:0:0:0:
104,152,180058,1,0,0:0:0:0:
120,128,180135,1,0,0:0:0:0:
144,104,180211,1,0,0:0:0:0:
168,96,180288,1,0,0:0:0:0:
200,88,180364,1,0,0:0:0:0:
224,96,180441,1,0,0:0:0:0:
240,112,180517,6,0,L|336:128,1,70
424,200,180747,2,0,L|360:272,1,70
224,288,180977,2,0,L|288:224,1,70
336,112,181283,1,0,0:0:0:0:
176,152,181436,1,0,0:0:0:0:
312,272,181589,1,0,0:0:0:0:
232,48,181742,2,0,B|80:112|96:104,1,140
72,240,182201,5,0,0:0:0:0:
208,280,182354,2,0,L|256:216,1,70
416,200,182660,2,0,L|344:128,1,70
352,136,182890,1,0,0:0:0:0:
336,112,182966,5,0,0:0:0:0:
304,88,183043,1,0,0:0:0:0:
272,72,183119,1,0,0:0:0:0:
240,64,183196,1,0,0:0:0:0:
208,64,183273,1,0,0:0:0:0:
176,72,183349,1,0,0:0:0:0:
144,96,183426,1,0,0:0:0:0:
120,120,183502,1,0,0:0:0:0:
104,152,183579,5,0,0:0:0:0:
104,184,183655,1,0,0:0:0:0:
112,216,183732,1,0,0:0:0:0:
128,248,183808,1,0,0:0:0:0:
152,264,183885,1,0,0:0:0:0:
184,248,183961,1,0,0:0:0:0:
192,208,184038,1,0,0:0:0:0:
176,176,184114,1,0,0:0:0:0:
152,152,184191,5,0,0:0:0:0:
240,72,184344,2,0,B|224:32|320:208,1,140
416,232,184880,1,0,0:0:0:0:
96,280,185109,1,0,0:0:0:0:
200,96,185339,1,0,0:0:0:0:
336,64,185568,5,0,0:0:0:0:
336,80,185645,1,0,0:0:0:0:
336,96,185722,1,0,0:0:0:0:
336,112,185798,1,0,0:0:0:0:
336,128,185875,1,0,0:0:0:0:
336,144,185951,1,0,0:0:0:0:
328,160,186028,6,0,L|280:216,1,70
176,120,186334,2,0,L|112:64,1,70
176,240,186640,2,0,L|120:304,1,70
280,248,186946,2,0,L|336:304,1,70
232,176,187252,6,0,L|232:104,1,70
400,112,187558,2,0,L|320:72,1,70
416,200,187864,2,0,L|336:200,1,70
416,288,188170,2,0,L|336:328,1,70
256,184,188477,2,0,L|256:256,1,70
152,184,188783,2,0,L|136:112,1,70
208,96,189012,1,0,0:0:0:0:
280,80,189089,6,0,L|312:104,8,35
424,96,189854,1,0,0:0:0:0:
408,128,189931,1,0,0:0:0:0:
392,168,190007,1,0,0:0:0:0:
376,208,190084,1,0,0:0:0:0:
360,240,190160,1,0,0:0:0:0:
344,280,190237,1,0,0:0:0:0:
328,312,190313,5,0,0:0:0:0:
208,96,190466,1,0,0:0:0:0:
160,288,190619,1,0,0:0:0:0:
336,120,190773,2,0,P|416:112|448:168,1,140
392,280,191232,1,0,0:0:0:0:
256,184,191385,1,0,0:0:0:0:
392,136,191538,1,0,0:0:0:0:
