osu file format v14

[General]
AudioFilename: audio.mp3
AudioLeadIn: 0
PreviewTime: 87958
Countdown: 0
SampleSet: Normal
StackLeniency: 0.7
Mode: 1
LetterboxInBreaks: 0
WidescreenStoryboard: 0

[Editor]
Bookmarks: 674,8333,12163,13759,21417,25247,29077,36736,40566,46311,55885,59715,63545,67375,69289,71204,76949,78864,80779,82694,83651,84609,85247,88438,93544,96098,98650,103757,108863,113969,119076,129289,134395,135672
DistanceSpacing: 1.3
BeatDivisor: 12
GridSize: 32
TimelineZoom: 0.6999997

[Metadata]
Title:Nee, Kowareta Ningyou ha Doko e Suterareruno?
TitleUnicode:ねぇ、壊れタ人形ハ何処へ棄テらレるノ?
Artist:cosMo@BousouP
ArtistUnicode:cosMo@暴走P
Creator:Mrriichi
Version:Kantan
Source:maimai MURASAKI
Tags:
BeatmapID:1354174
BeatmapSetID:607819

[Difficulty]
HPDrainRate:7
CircleSize:5
OverallDifficulty:3
ApproachRate:5
SliderMultiplier:1.4
SliderTickRate:1

[Events]
//Background and Video events
0,0,"0321a.jpg",0,0
//Break Periods
2,7576,12558
2,79064,87236
//Storyboard Layer 0 (Background)
//Storyboard Layer 1 (Fail)
//Storyboard Layer 2 (Pass)
//Storyboard Layer 3 (Foreground)
//Storyboard Sound Samples

[TimingPoints]
674,319.148936170213,3,1,0,74,1,0
12163,319.148936170213,5,1,0,74,1,0
13759,319.148936170213,3,1,0,74,1,0
29078,-100,3,1,0,74,0,1
46312,-100,3,1,0,74,0,0
46950,319.148936170213,3,1,0,74,1,0
46950,-200,3,1,0,74,0,0
47269,319.148936170213,3,1,0,74,1,8
47588,-100,3,1,0,74,0,0
55566,-133.333333333333,3,1,0,74,0,0
55886,-100,3,1,0,74,0,1
63545,-100,3,1,0,74,0,0
71205,-100,3,1,0,74,0,1
78864,-100,3,1,0,74,0,0
79822,-66.6666666666667,3,1,0,74,0,0
81737,-100,3,1,0,74,0,0
82694,319.148936170213,3,1,0,74,1,8
82694,-111.111111111111,3,1,0,74,0,0
83333,-125,3,1,0,74,0,0
83651,319.148936170213,3,1,0,74,1,8
84290,-142.857142857143,3,1,0,74,0,0
84608,319.148936170213,3,1,0,74,1,8
85193,-166.666666666667,3,1,0,74,0,0
85565,319.148936170213,3,1,0,74,1,8
86522,319.148936170213,3,1,0,74,1,8
86522,-200,3,1,0,74,0,8
87479,319.148936170213,3,1,0,74,1,8
88117,-100,3,1,0,74,0,0
88436,319.148936170213,4,1,0,74,1,0
88436,-100,4,1,0,74,0,1
119074,-100,4,1,0,74,0,0
120350,-111.111111111111,4,1,0,74,0,0
121627,-125,4,1,0,74,0,0
122904,-142.857142857143,4,1,0,74,0,0
124180,-166.666666666667,4,1,0,74,0,0
126733,-200,4,1,0,74,0,0
134393,-133.333333333333,4,1,0,74,0,0

[HitObjects]
152,274,674,5,0,0:0:0:0:
155,265,1631,1,2,0:0:0:0:
155,265,2588,1,0,0:0:0:0:
155,265,3546,1,2,0:0:0:0:
155,265,4503,1,0,0:0:0:0:
155,265,5461,1,0,0:0:0:0:
155,265,6418,1,2,0:0:0:0:
183,218,7376,1,2,0:0:0:0:
205,237,13758,5,0,0:0:0:0:
205,237,14716,1,2,0:0:0:0:
162,142,15673,1,0,0:0:0:0:
162,142,16312,1,0,0:0:0:0:
155,145,16631,1,0,0:0:0:0:
155,145,17588,1,2,0:0:0:0:
155,145,18546,1,0,0:0:0:0:
155,145,19503,1,2,0:0:0:0:
155,145,20141,1,2,0:0:0:0:
155,145,20461,1,2,0:0:0:0:
147,147,21418,1,0,0:0:0:0:
242,163,22376,1,0,0:0:0:0:
242,163,23333,1,2,0:0:0:0:
242,163,23971,1,2,0:0:0:0:
245,166,24610,1,0,0:0:0:0:
245,166,25248,1,0,0:0:0:0:
240,163,25886,1,0,0:0:0:0:
245,166,26205,1,2,0:0:0:0:
240,163,26844,1,2,0:0:0:0:
245,166,27163,1,0,0:0:0:0:
240,163,27801,1,0,0:0:0:0:
240,163,28120,1,2,0:0:0:0:
240,163,28759,1,6,0:0:0:0:
205,237,29078,5,0,0:0:0:0:
205,237,30035,1,2,0:0:0:0:
162,142,30993,1,0,0:0:0:0:
162,142,31631,1,2,0:0:0:0:
155,145,31950,1,0,0:0:0:0:
155,145,32907,1,2,0:0:0:0:
155,145,33865,1,0,0:0:0:0:
155,145,34822,1,2,0:0:0:0:
155,145,35461,1,0,0:0:0:0:
155,145,35780,1,2,0:0:0:0:
147,147,36737,1,0,0:0:0:0:
242,163,37695,1,0,0:0:0:0:
242,163,38652,1,2,0:0:0:0:
242,163,39290,1,2,0:0:0:0:
245,166,39929,1,0,0:0:0:0:
245,166,40567,1,0,0:0:0:0:
240,163,41205,1,0,0:0:0:0:
245,166,41524,1,2,0:0:0:0:
240,163,42163,1,2,0:0:0:0:
245,166,42482,1,0,0:0:0:0:
240,163,43120,1,0,0:0:0:0:
240,163,43439,1,2,0:0:0:0:
145,171,44078,1,2,0:0:0:0:
145,171,44397,1,0,0:0:0:0:
145,171,45354,1,2,0:0:0:0:
145,171,46312,1,0,0:0:0:0:
203,215,48226,1,0,0:0:0:0:
224,224,49183,1,2,0:0:0:0:
196,217,50141,1,0,0:0:0:0:
160,160,51098,1,0,0:0:0:0:
196,217,52056,1,2,0:0:0:0:
224,224,53013,1,2,0:0:0:0:
224,224,53971,1,0,0:0:0:0:
160,160,54928,1,2,0:0:0:0:
281,237,55886,1,0,0:0:0:0:
281,237,56843,1,2,0:0:0:0:
198,218,57800,1,0,0:0:0:0:
210,200,58439,1,0,0:0:0:0:
244,293,58758,1,2,0:0:0:0:
198,218,59715,1,2,0:0:0:0:
198,218,60673,1,0,0:0:0:0:
209,210,61630,1,2,0:0:0:0:
205,193,62269,1,2,0:0:0:0:
241,262,62588,1,0,0:0:0:0:
256,192,63545,12,0,66417,0:0:0:0:
169,197,67375,5,0,0:0:0:0:
197,195,68332,1,2,0:0:0:0:
96,224,69290,1,0,0:0:0:0:
197,195,70247,1,2,0:0:0:0:
197,195,71205,1,0,0:0:0:0:
197,195,71843,1,0,0:0:0:0:
197,195,72162,1,2,0:0:0:0:
197,195,73120,1,2,0:0:0:0:
197,195,73758,1,2,0:0:0:0:
197,195,74077,1,0,0:0:0:0:
197,195,75034,1,0,0:0:0:0:
197,195,75673,1,0,0:0:0:0:
197,195,75992,1,2,0:0:0:0:
197,195,76949,1,2,0:0:0:0:
197,195,77588,1,2,0:0:0:0:
236,260,77907,1,0,0:0:0:0:
225,232,78545,1,0,0:0:0:0:
225,232,78864,1,2,0:0:0:0:
184,182,88436,5,0,0:0:0:0:
166,179,89074,1,2,0:0:0:0:
166,179,89712,1,2,0:0:0:0:
166,179,90031,1,2,0:0:0:0:
166,179,90350,1,0,0:0:0:0:
166,179,90989,1,2,0:0:0:0:
166,179,91627,1,0,0:0:0:0:
166,179,92265,1,0,0:0:0:0:
166,179,92584,1,0,0:0:0:0:
166,179,92904,1,2,0:0:0:0:
166,179,93542,1,0,0:0:0:0:
87,211,94499,1,0,0:0:0:0:
87,211,94818,1,2,0:0:0:0:
159,193,95776,1,2,0:0:0:0:
143,124,96095,1,0,0:0:0:0:
143,124,97372,1,2,0:0:0:0:
139,128,98648,1,0,0:0:0:0:
139,128,98967,1,0,0:0:0:0:
139,128,99287,1,0,0:0:0:0:
139,128,99925,1,2,0:0:0:0:
139,128,100244,1,2,0:0:0:0:
139,128,100563,1,2,0:0:0:0:
139,128,101201,1,0,0:0:0:0:
139,128,101840,1,2,0:0:0:0:
135,131,102478,1,0,0:0:0:0:
135,131,103755,1,2,0:0:0:0:
291,146,104393,1,2,0:0:0:0:
291,146,105031,1,0,0:0:0:0:
291,146,106308,1,0,0:0:0:0:
291,146,106946,1,0,0:0:0:0:
291,146,107584,1,2,0:0:0:0:
291,146,108861,1,0,0:0:0:0:
291,146,109499,1,2,0:0:0:0:
291,146,110138,1,0,0:0:0:0:
291,146,110457,1,2,0:0:0:0:
291,146,110776,1,0,0:0:0:0:
291,146,111414,1,2,0:0:0:0:
291,146,112053,1,0,0:0:0:0:
291,146,112691,1,2,0:0:0:0:
291,146,113010,1,0,0:0:0:0:
291,146,113329,1,2,0:0:0:0:
291,146,113967,1,0,0:0:0:0:
291,146,114606,1,2,0:0:0:0:
291,146,115244,1,0,0:0:0:0:
291,146,115563,1,0,0:0:0:0:
291,146,115882,1,2,0:0:0:0:
291,146,116521,1,2,0:0:0:0:
291,146,117159,1,0,0:0:0:0:
291,146,117797,1,2,0:0:0:0:
291,146,118116,1,2,0:0:0:0:
291,146,118436,1,0,0:0:0:0:
291,146,119074,1,2,0:0:0:0:
281,169,120350,1,0,0:0:0:0:
281,169,121627,1,0,0:0:0:0:
280,169,124180,1,0,0:0:0:0:
280,169,126733,1,0,0:0:0:0:
280,169,129287,1,0,0:0:0:0:
256,192,132478,12,0,135031,0:0:0:0:
